osu file format v14

[General]
AudioFilename: audio.mp3
AudioLeadIn: 0
PreviewTime:9708
Countdown: 0
SampleSet: Soft
StackLeniency: 0.4
Mode: 0
LetterboxInBreaks: 0
EpilepsyWarning: 1
WidescreenStoryboard: 1

[Editor]
DistanceSpacing: 1.4
BeatDivisor: 4
GridSize: 4
TimelineZoom: 2.5

[Metadata]
Title:Evening Calm, A Certain Day, Illusion of Flowers
TitleUnicode:夕凪、某、花惑い
Artist:Yorushika
ArtistUnicode:ヨルシカ
Creator:Ryuusei Aika
Version:Sandrew's Hard
Source:
Tags:Japanese Rock J-Rock JRock Female Vocal Yuunagi Bou Hanamadoi Yuunagi, Bou, Hana Madoi ナブナ nbuna n-buna スイ suis エルマ elma Yugu Sandrew kanor Agatsu Flask Darky1
BeatmapID:2274995
BeatmapSetID:1087943

[Difficulty]
HPDrainRate:5
CircleSize:3.7
OverallDifficulty:7
ApproachRate:8
SliderMultiplier:1.4
SliderTickRate:1

[Events]
//Background and Video events
0,0,"BG.jpg",0,0
//Break Periods
2,21315,27593
2,88543,95366
2,160677,161888
//Storyboard Layer 0 (Background)
//Storyboard Layer 1 (Fail)
//Storyboard Layer 2 (Pass)
//Storyboard Layer 3 (Foreground)
Sprite,Foreground,Centre,"sb\highlight.png",308,373 C,0,38297,,127,127,127 F,1,38297,38633,0.4,0 S,2,38297,38633,2,0.4 P,0,38297,38633,A
Sprite,Foreground,Centre,"sb\highlight.png",405,86 C,0,40206,,191,191,191 F,1,40206,40542,0.4,0 S,2,40206,40542,2,0.4 P,0,40206,40542,A
Sprite,Foreground,Centre,"sb\highlight.png",332,123 C,0,40479,,191,191,191 F,1,40479,40815,0.4,0 S,2,40479,40815,2,0.4 P,0,40479,40815,A
Sprite,Foreground,Centre,"sb\highlight.png",102,403 C,0,42116,,127,127,127 F,1,42116,42452,0.4,0 S,2,42116,42452,2,0.4 P,0,42116,42452,A
Sprite,Foreground,Centre,"sb\highlight.png",251,401 C,0,42388,,127,127,127 F,1,42388,42724,0.4,0 S,2,42388,42724,2,0.4 P,0,42388,42724,A
Sprite,Foreground,Centre,"sb\highlight.png",166,333 C,0,42661,,127,127,127 F,1,42661,42997,0.4,0 S,2,42661,42997,2,0.4 P,0,42661,42997,A
Sprite,Foreground,Centre,"sb\highlight.png",474,333 C,0,43752,,191,191,191 F,1,43752,44088,0.4,0 S,2,43752,44088,2,0.4 P,0,43752,44088,A
Sprite,Foreground,Centre,"sb\highlight.png",166,333 C,0,44843,,127,127,127 F,1,44843,45179,0.4,0 S,2,44843,45179,2,0.4 P,0,44843,45179,A
Sprite,Foreground,Centre,"sb\highlight.png",340,324 C,0,195250,,127,127,127 F,1,195250,195922,0.6,0 S,2,195250,195922,2,0.4 P,0,195250,195922,A
Sprite,Foreground,Centre,"sb\highlight.png",450,350 C,0,195659,,127,127,127 F,1,195659,196059,0.6,0 S,2,195659,196059,2,0.4 P,0,195659,196059,A
Sprite,Foreground,Centre,"sb\highlight.png",450,350 C,0,195932,,191,191,191 F,1,195932,197150,0.6,0 S,2,195932,197150,2,0.4 P,0,195932,197150,A
Sprite,Foreground,Centre,"sb\highlight.png",475,266 C,0,197022,,191,191,191 F,1,197022,197694,0.6,0 S,2,197022,197694,2,0.4 P,0,197022,197694,A
Sprite,Foreground,Centre,"sb\highlight.png",524,205 C,0,197432,,191,191,191 F,1,197432,197832,0.6,0 S,2,197432,197832,2,0.4 P,0,197432,197832,A
Sprite,Foreground,Centre,"sb\ring.png",89,112 C,0,1070,,127,127,127 F,16,1070,2070,1,0 S,16,1070,2270,0.2,1.5
Sprite,Foreground,Centre,"sb\ring.png",243,173 C,0,3252,,191,191,191 F,16,3252,4252,1,0 S,16,3252,4452,0.2,1.5
Sprite,Foreground,Centre,"sb\ring.png",327,168 C,0,4343,,127,127,127 F,16,4343,5343,1,0 S,16,4343,5543,0.2,1.5
Sprite,Foreground,Centre,"sb\ring.png",457,165 C,0,5434,,191,191,191 F,16,5434,6434,1,0 S,16,5434,6634,0.2,1.5
Sprite,Foreground,Centre,"sb\ring.png",518,319 C,0,7616,,127,127,127 F,16,7616,8616,1,0 S,16,7616,8816,0.2,1.5
Sprite,Foreground,Centre,"sb\ring.png",308,373 C,0,38297,,127,127,127 F,16,38297,39297,1,0 S,16,38297,39497,0.2,1.5
Sprite,Foreground,Centre,"sb\ring.png",332,123 C,0,40479,,191,191,191 F,16,40479,41479,1,0 S,16,40479,41679,0.2,1.5
Sprite,Foreground,Centre,"sb\ring.png",166,333 C,0,42661,,127,127,127 F,16,42661,43661,1,0 S,16,42661,43861,0.2,1.5
Sprite,Foreground,Centre,"sb\ring.png",474,333 C,0,43752,,191,191,191 F,16,43752,44752,1,0 S,16,43752,44952,0.2,1.5
Sprite,Foreground,Centre,"sb\ring.png",166,333 C,0,44843,,127,127,127 F,16,44843,45843,1,0 S,16,44843,46043,0.2,1.5
Sprite,Foreground,Centre,"sb\ring.png",113,405 C,0,64479,,255,151,252 F,16,64479,65479,1,0 S,16,64479,65679,0.2,1.5
Sprite,Foreground,Centre,"sb\ring.png",548,212 C,0,105932,,191,191,191 F,16,105932,106932,1,0 S,16,105932,107132,0.2,1.5
Sprite,Foreground,Centre,"sb\ring.png",105,292 C,0,108113,,191,191,191 F,16,108113,109113,1,0 S,16,108113,109313,0.2,1.5
Sprite,Foreground,Centre,"sb\ring.png",468,302 C,0,110295,,127,127,127 F,16,110295,111295,1,0 S,16,110295,111495,0.2,1.5
Sprite,Foreground,Centre,"sb\ring.png",190,397 C,0,111386,,191,191,191 F,16,111386,112386,1,0 S,16,111386,112586,0.2,1.5
Sprite,Foreground,Centre,"sb\ring.png",123,151 C,0,112477,,127,127,127 F,16,112477,113477,1,0 S,16,112477,113677,0.2,1.5
Sprite,Foreground,Centre,"sb\ring.png",123,89 C,0,132113,,255,151,252 F,16,132113,133113,1,0 S,16,132113,133313,0.2,1.5
Sprite,Foreground,Centre,"sb\ring.png",526,391 C,0,151613,,255,151,252 F,16,151613,152613,1,0 S,16,151613,152813,0.2,1.5
Sprite,Foreground,Centre,"sb\ring.png",258,270 C,0,153795,,227,97,154 F,16,153795,154795,1,0 S,16,153795,154995,0.2,1.5
Sprite,Foreground,Centre,"sb\ring.png",168,346 C,0,155977,,227,97,154 F,16,155977,156977,1,0 S,16,155977,157177,0.2,1.5
Sprite,Foreground,Centre,"sb\ring.png",372,244 C,0,165386,,255,128,64 F,16,165386,166386,1,0 S,16,165386,166586,0.2,1.5
Sprite,Foreground,Centre,"sb\ring.png",524,205 C,0,197432,,191,191,191 F,16,197432,198432,1,0 S,16,197432,198632,0.2,1.5
Sprite,Foreground,Centre,"sb\streamBorder.png",0,0 M,0,71025,,297.4,243.2 M,17,71025,71706,297.4,243.2,281.8,249.4 F,16,71025,73525,0,0.8 S,0,71025,75192,0.9,0.6 M,17,71706,71843,281.8,249.4 M,0,71843,71911,281.8,249.4,281.1898,256.3734 M,0,71911,71979,281.1898,256.3734,280.5797,263.3467 M,17,71979,72116,280.5797,263.3467,298.4,271 M,0,72116,72184,298.4,271,305.1941,269.4585 M,0,72184,72252,305.1941,269.4585,312.1274,270.0777 M,17,72252,72388,312.1274,270.0777,321.6,256.2 M,0,72388,72456,321.6,256.2,320.0704,249.4097 M,0,72456,72524,320.0704,249.4097,320.5858,242.4686 M,17,72524,72661,320.5858,242.4686,329.2,227.8 M,17,72661,72797,329.2,227.8 M,17,72797,72934,329.2,227.8 M,0,72934,73002,329.2,227.8,335.9941,226.2585 M,0,73002,73070,335.9941,226.2585,342.9274,226.8777 M,17,73070,73206,342.9274,226.8777,315.2,212.2 M,0,73206,73274,315.2,212.2,308.2014,212.0591 M,0,73274,73342,308.2014,212.0591,301.2029,211.9182 M,0,73342,73410,301.2029,211.9182,294.2043,211.7773 M,0,73410,73478,294.2043,211.7773,287.2057,211.6364 M,17,73478,73616,287.2057,211.6364,277,225.2 M,0,73616,73684,277,225.2,279.9265,231.5497 M,0,73684,73752,279.9265,231.5497,281.8325,238.275 M,0,73752,73820,281.8325,238.275,282.6723,245.2135 M,0,73820,73888,282.6723,245.2135,282.4259,252.1977 M,17,73888,74025,282.4259,252.1977,277.2,268.2 M,0,74025,74093,277.2,268.2,284.1139,268.9091 M,0,74093,74161,284.1139,268.9091,290.734,266.7955 M,17,74161,74297,290.734,266.7955,303.8,257.8 M,17,74297,74434,303.8,257.8 M,17,74434,74570,303.8,257.8,305.4,274.6 M,17,74570,74843,305.4,274.6,336.2,225.4 M,0,74843,74911,336.2,225.4,336.541,218.4083 M,0,74911,74979,336.541,218.4083,336.8821,211.4166 M,0,74979,75047,336.8821,211.4166,336.541,218.4083 M,0,75047,75115,336.541,218.4083,336.2,225.4 M,17,75115,75252,336.2,225.4,364,225.2 F,16,75192,76025,0.8,0 S,0,75192,76025,0.6,0.9 M,0,75252,75320,364,225.2,357.0002,225.246 M,0,75320,75388,357.0002,225.246,350.0003,225.2921 M,0,75388,75456,350.0003,225.2921,343.0005,225.3382 M,0,75456,75524,343.0005,225.3382,336.0006,225.3842 M,17,75524,75661,336.0006,225.3842,320,231 M,17,75661,75934,320,231,276,225.2 M,0,75934,76002,276,225.2,282.9998,225.246 M,0,76002,76070,282.9998,225.246,289.9997,225.2921 M,0,76070,76138,289.9997,225.2921,296.9995,225.3382 M,0,76138,76206,296.9995,225.3382,303.9994,225.3842 M,0,76206,76274,303.9994,225.3842,296.9995,225.3382 M,0,76274,76343,296.9995,225.3382,289.9997,225.2921 M,0,76343,76411,289.9997,225.2921,282.9998,225.246 M,0,76411,76479,282.9998,225.246,276,225.2 M,0,76479,76547,276,225.2,282.9998,225.246 M,0,76547,76615,282.9998,225.246,289.9997,225.2921 M,0,76615,76684,289.9997,225.2921,296.9995,225.3382 M,0,76684,76752,296.9995,225.3382,303.9994,225.3842
Sprite,Foreground,Centre,"sb\streamBorder.png",0,0 M,0,138659,,335.4,209.8 M,17,138659,139341,335.4,209.8,351,216 F,16,138659,141159,0,0.8 S,0,138659,142826,0.9,0.6 M,17,139341,139477,351,216 M,0,139477,139545,351,216,349.2288,222.722 M,0,139545,139613,349.2288,222.722,350.2166,229.6001 M,17,139613,139750,350.2166,229.6001,335.2,236.8 M,0,139750,139818,335.2,236.8,328.478,235.0288 M,0,139818,139886,328.478,235.0288,321.5999,236.0166 M,17,139886,140022,321.5999,236.0166,307.4,245 M,0,140022,140090,307.4,245,305.6288,251.722 M,0,140090,140158,305.6288,251.722,306.6165,258.6001 M,17,140158,140295,306.6165,258.6001,294.8,270.6 M,17,140295,140432,294.8,270.6 M,17,140432,140568,294.8,270.6 M,0,140568,140636,294.8,270.6,288.078,268.8288 M,0,140636,140704,288.078,268.8288,281.2,269.8166 M,17,140704,140841,281.2,269.8166,318.8,271 M,0,140841,140909,318.8,271,325.7899,270.6233 M,0,140909,140977,325.7899,270.6233,332.7797,270.2466 M,0,140977,141045,332.7797,270.2466,339.7696,269.8699 M,0,141045,141113,339.7696,269.8699,346.7594,269.4932 M,17,141113,141250,346.7594,269.4932,361.4,261 M,0,141250,141318,361.4,261,359.4714,254.2833 M,0,141318,141386,359.4714,254.2833,358.8254,247.3273 M,0,141386,141454,358.8254,247.3273,359.4836,240.374 M,0,141454,141522,359.4836,240.374,361.4229,233.6652 M,17,141522,141659,361.4229,233.6652,368,218 M,0,141659,141727,368,218,361.1942,216.644 M,0,141727,141795,361.1942,216.644,354.3834,217.8817 M,17,141795,141932,354.3834,217.8817,341.6,229 M,17,141932,142068,341.6,229 M,17,142068,142204,341.6,229,338.6,212.4 M,17,142204,142477,338.6,212.4,308.2,269.4 M,0,142477,142545,308.2,269.4,308.4385,262.4041 M,0,142545,142613,308.4385,262.4041,308.677,255.4081 M,0,142613,142681,308.677,255.4081,308.4385,262.4041 M,0,142681,142749,308.4385,262.4041,308.2,269.4 M,17,142749,142886,308.2,269.4,283.4,255.8 F,16,142826,143659,0.8,0 S,0,142826,143659,0.6,0.9 M,0,142886,142954,283.4,255.8,289.6985,255.6611 M,0,142954,143022,289.6985,255.6611,295.9969,255.5221 M,0,143022,143090,295.9969,255.5221,302.2954,255.3832 M,0,143090,143158,302.2954,255.3832,308.5939,255.2442 M,17,143158,143295,308.5939,255.2442,320,243.4 M,17,143295,143568,320,243.4,356.6,255.8 M,0,143568,143636,356.6,255.8,350.3015,255.6611 M,0,143636,143704,350.3015,255.6611,344.0031,255.5221 M,0,143704,143772,344.0031,255.5221,337.7046,255.3832 M,0,143772,143840,337.7046,255.3832,331.4061,255.2442 M,0,143840,143908,331.4061,255.2442,337.7046,255.3832 M,0,143908,143977,337.7046,255.3832,344.0031,255.5221 M,0,143977,144045,344.0031,255.5221,350.3015,255.6611 M,0,144045,144113,350.3015,255.6611,356.6,255.8 M,0,144113,144181,356.6,255.8,350.3015,255.6611 M,0,144181,144249,350.3015,255.6611,344.0031,255.5221 M,0,144249,144318,344.0031,255.5221,337.7046,255.3832 M,0,144318,144386,337.7046,255.3832,331.4061,255.2442
Sprite,Foreground,Centre,"sb\streamBorder.png",0,0 M,17,177931,177932,320,240,275.6,244.4 F,16,177931,180431,0,0.8 S,0,177931,182098,0.9,0.6 M,0,177932,178000,275.6,244.4,275.3772,251.3965 M,0,178000,178068,275.3772,251.3965,275.1544,258.3929 M,0,178068,178136,275.1544,258.3929,274.9315,265.3893 M,0,178136,178204,274.9315,265.3893,274.7087,272.3858 M,0,178204,178272,274.7087,272.3858,274.9315,265.3893 M,0,178272,178341,274.9315,265.3893,275.1544,258.3929 M,0,178341,178409,275.1544,258.3929,275.3772,251.3965 M,0,178409,178477,275.3772,251.3965,275.6,244.4 M,17,178477,178613,275.6,244.4,283.4,229.4 M,17,178613,178750,283.4,229.4 M,0,178750,178818,283.4,229.4,290.1656,227.8017 M,0,178818,178886,290.1656,227.8017,297,229 M,17,178886,179022,297,229,309.8,240.2 M,0,179022,179090,309.8,240.2,309.3344,247.1845 M,0,179090,179158,309.3344,247.1845,308.8687,254.169 M,17,179158,179295,308.8687,254.169,317,268.6 M,0,179295,179363,317,268.6,323.9845,269.0656 M,0,179363,179431,323.9845,269.0656,330.969,269.5313 M,17,179431,179568,330.969,269.5313,345,260.2 M,17,179568,179704,345,260.2 M,17,179704,179841,345,260.2 M,0,179841,179909,345,260.2,347.031,266.8656 M,0,179909,179977,347.031,266.8656,346.8419,273.8292 M,17,179977,180113,346.8419,273.8292,361.2,252 M,0,180113,180181,361.2,252,359.6307,245.1902 M,0,180181,180249,359.6307,245.1902,359.333,238.2104 M,0,180249,180317,359.333,238.2104,360.3162,231.2953 M,0,180317,180385,360.3162,231.2953,362.5148,224.6631 M,17,180385,180522,362.5148,224.6631,349.4,213.8 M,0,180522,180590,349.4,213.8,342.4011,213.6772 M,0,180590,180658,342.4011,213.6772,335.4022,213.5544 M,0,180658,180726,335.4022,213.5544,328.4032,213.4316 M,0,180726,180794,328.4032,213.4316,321.4043,213.3089 M,17,180794,180932,321.4043,213.3089,299,229.4 M,0,180932,181000,299,229.4,305.9993,229.3 M,0,181000,181068,305.9993,229.3,312.9986,229.2 M,17,181068,181204,312.9986,229.2,329.6,231.2 M,17,181204,181341,329.6,231.2,311.6,246.4 M,17,181341,181477,311.6,246.4,328.4,248 M,17,181477,181750,328.4,248,276.8,214.2 M,17,181750,181886,276.8,214.2,274,232.2 M,17,181886,182159,274,232.2 F,16,182098,182931,0.8,0 S,0,182098,182931,0.6,0.9 M,0,182159,182227,274,232.2,280.264,231.5274 M,0,182227,182295,280.264,231.5274,286.528,230.8547 M,0,182295,182363,286.528,230.8547,292.792,230.1821 M,0,182363,182431,292.792,230.1821,299.056,229.5094 M,17,182431,182568,299.056,229.5094,295.6,245.6 M,17,182568,182841,295.6,245.6,336.4,269.6 M,0,182841,182909,336.4,269.6,342.6662,270.2517 M,0,182909,182977,342.6662,270.2517,348.9324,270.9034 M,0,182977,183045,348.9324,270.9034,355.1986,271.5551 M,0,183045,183113,355.1986,271.5551,361.4,272.2 M,0,183113,183181,361.4,272.2,355.1986,271.5551 M,0,183181,183250,355.1986,271.5551,348.9324,270.9034 M,0,183250,183318,348.9324,270.9034,342.6662,270.2517 M,0,183318,183386,342.6662,270.2517,336.4,269.6
//Storyboard Layer 4 (Overlay)
//Storyboard Sound Samples

[TimingPoints]
116,272.727272727273,4,3,1,40,1,0
116,-200,4,3,1,40,0,0
7616,-200,4,3,1,50,0,0
8024,-200,4,1,1,50,0,0
8025,-133.333333333333,4,1,1,50,0,0
9797,-100,4,1,1,60,0,0
17297,-100,4,1,1,60,0,0
20706,-200,4,1,1,60,0,0
20707,-200,4,3,1,60,0,0
21115,-200,4,3,1,50,0,0
21116,-200,4,3,1,50,0,0
29434,-133.333333333333,4,3,1,50,0,0
38297,-111.111111111111,4,3,1,50,0,0
45116,-111.111111111111,4,3,1,40,0,0
46206,-111.111111111111,4,3,1,50,0,0
47025,-111.111111111111,4,2,1,60,0,0
51388,-111.111111111111,4,2,1,40,0,0
52479,-111.111111111111,4,2,1,45,0,0
53025,-111.111111111111,4,2,1,50,0,0
53570,-111.111111111111,4,2,1,55,0,0
54116,-111.111111111111,4,2,1,60,0,0
55206,-111.111111111111,4,2,1,40,0,0
55752,-100,4,2,1,70,0,1
75252,-100,4,3,1,60,0,1
75388,-100,4,3,1,60,0,0
79616,-100,4,1,1,60,0,0
83979,-100,4,2,1,60,0,0
85206,-100,4,1,1,60,0,0
87115,-100,4,2,1,60,0,0
87252,-100,4,2,1,5,0,0
88206,-200,4,2,1,60,0,0
88343,-200,4,3,1,50,0,0
96116,-133.333333333333,4,3,1,50,0,0
97070,-133.333333333333,4,2,1,50,0,0
104297,240,4,2,1,50,1,0
104297,-133.333333333333,4,2,1,50,0,0
104417,315.789473684211,4,2,1,50,1,0
104574,255.31914893617,4,2,1,50,1,0
104574,-133.333333333333,4,2,1,50,0,0
104829,272.727272727273,4,2,1,50,1,0
104829,-133.333333333333,4,2,1,50,0,0
105101,300,4,2,1,50,1,0
105251,272.727272727273,4,2,1,50,1,0
105251,-133.333333333333,4,2,1,50,0,0
105387,272.727272727273,4,2,1,50,1,0
105387,-133.333333333333,4,2,1,50,0,0
105932,272.727272727273,4,2,1,50,1,0
105932,-111.111111111111,4,2,1,50,0,0
114659,-111.111111111111,4,2,1,60,0,0
119022,-111.111111111111,4,2,1,40,0,0
120113,-111.111111111111,4,2,1,45,0,0
120659,-111.111111111111,4,2,1,50,0,0
121204,-111.111111111111,4,2,1,55,0,0
121750,-111.111111111111,4,2,1,60,0,0
122841,-111.111111111111,4,2,1,50,0,0
123386,-100,4,2,1,70,0,1
142886,-111.111111111111,4,3,1,60,0,0
151612,-111.111111111111,4,2,1,70,0,0
158159,-111.111111111111,4,3,1,50,0,0
158229,-111.111111111111,4,3,1,5,0,0
160477,-111.111111111111,4,2,1,60,0,0
162659,-133.333333333333,4,2,1,60,0,0
164841,-111.111111111111,4,2,1,60,0,0
167295,-100,4,2,1,70,0,1
182159,-111.111111111111,4,2,1,60,0,0
184341,-100,4,2,1,60,0,0
194841,-100,4,2,1,70,0,0
195250,-133.333333333333,4,3,1,50,0,0
195932,-200,4,3,1,50,0,0
197432,-200,4,3,1,40,0,0

[Colours]
Combo1 : 255,192,0
Combo2 : 127,127,127
Combo3 : 191,191,191
Combo4 : 255,128,64
Combo5 : 38,93,220
Combo6 : 255,151,252
Combo7 : 227,97,154
Combo8 : 207,113,242

[HitObjects]
25,56,1070,6,2,L|107:52,1,70
189,84,1479,1,2,0:0:0:0:
189,84,1752,1,2,0:0:0:0:
189,84,2025,1,2,0:0:0:0:
189,84,2297,1,2,0:0:0:0:
189,84,2570,1,2,0:0:0:0:
189,84,2843,2,0,L|177:129,1,35,2|2,0:0|0:0,0:0:0:0:
179,117,3252,6,0,L|198:43,1,70,4|0,0:2|0:0,0:0:0:0:
273,79,3661,1,2,0:0:0:0:
273,79,3934,2,0,L|261:124,1,35,2|2,0:0|0:0,0:0:0:0:
263,112,4343,102,0,L|282:38,1,70,4|0,0:2|0:0,0:0:0:0:
357,33,4752,2,0,L|397:30,1,35,2|2,0:0|0:0,0:0:0:0:
459,68,5025,2,0,L|493:70,2,35,2|2|0,0:0|0:0|0:0,0:0:0:0:
393,109,5434,6,0,L|389:191,1,70,4|0,0:2|0:0,0:0:0:0:
421,273,5843,1,2,0:0:0:0:
421,273,6116,1,2,0:0:0:0:
421,273,6388,1,2,0:0:0:0:
421,273,6661,1,2,0:0:0:0:
421,273,6934,1,2,0:0:0:0:
421,273,7206,2,0,L|466:261,1,35,2|2,0:0|0:0,0:0:0:0:
454,263,7616,102,0,L|383:285,1,70,4|2,1:2|0:2,0:0:0:0:
338,354,8025,6,0,P|339:304|306:251,1,105.000004005432,2|2,0:0|0:0,0:0:0:0:
259,198,8434,1,10,0:0:0:0:
259,198,8706,102,2,L|249:310,1,105.000004005432,0|2,0:0|0:0,0:0:0:0:
193,359,9116,2,0,L|127:369,1,52.5000020027161,2|2,0:0|0:0,0:0:0:0:
125,289,9388,1,2,0:0:0:0:
125,289,9525,2,0,L|176:281,1,52.5000020027161,8|8,0:0|0:0,0:0:0:0:
58,345,9797,102,0,B|75:315|75:315|54:193,1,140,4|0,0:0|0:0,0:0:0:0:
101,139,10206,2,0,L|178:128,1,70,8|0,0:0|0:0,0:0:0:0:
238,179,10479,2,0,L|315:190,1,70,2|0,0:0|0:0,0:0:0:0:
390,176,10752,1,10,0:0:0:0:
362,254,10888,1,4,0:2:0:0:
466,43,11161,37,2,0:2:0:0:
466,43,11297,2,0,P|462:77|449:110,1,70,10|2,0:0|0:2,0:0:0:0:
453,195,11570,2,0,P|418:193|389:175,2,70,2|2|8,0:0|0:2|0:0,0:0:0:0:
366,95,11979,70,2,L|203:99,1,140,2|2,0:1|0:0,0:0:0:0:
157,49,12388,2,0,P|140:87|151:137,1,70,8|0,0:0|0:0,0:0:0:0:
199,175,12661,2,0,P|216:213|205:263,1,70,0|2,0:0|0:0,0:0:0:0:
158,304,12934,2,0,P|141:342|152:392,1,70,8|2,0:0|0:0,0:0:0:0:
224,354,13206,38,0,L|302:349,2,70,2|0|0,0:0|0:0|0:0,0:0:0:0:
62,267,13752,1,2,1:3:0:0:
62,267,13888,2,0,P|63:302|47:334,1,70,2|8,0:0|0:0,0:0:0:0:
25,199,14161,70,2,B|53:218|53:218|176:208,1,140,6|2,0:1|0:0,0:0:0:0:
149,125,14570,2,0,L|57:134,1,70,8|2,0:0|0:0,0:0:0:0:
69,47,14843,2,0,L|138:40,1,70,2|2,0:0|1:0,0:0:0:0:
217,70,15116,1,2,0:0:0:0:
217,70,15252,38,2,B|275:66|275:66|299:56|299:56|379:48,1,140,2|10,0:0|0:1,0:0:0:0:
434,23,15661,2,2,P|437:57|416:110,1,70,10|0,0:1|0:0,0:1:0:0:
473,161,15934,2,0,P|463:194|466:229,2,70,2|2|8,0:1|0:2|0:0,0:0:0:0:
500,297,16343,70,0,B|472:278|472:278|349:288,1,140,4|8,0:2|0:2,0:0:0:0:
328,361,16752,2,2,P|340:299|294:229,1,140,2|0,0:1|0:0,0:1:0:0:
489,366,17297,2,0,L|502:283,1,70,2|2,0:0|0:2,0:0:0:0:
475,215,17570,38,0,P|441:214|388:184,1,70,2|0,0:0|0:0,0:0:0:0:
326,183,17843,2,0,P|292:184|239:214,1,70,10|8,0:0|0:0,0:0:0:0:
177,214,18116,2,0,P|143:213|90:183,1,70,2|2,0:0|0:2,0:0:0:0:
32,170,18388,1,8,0:0:0:0:
45,254,18525,1,4,0:0:0:0:
31,51,18797,70,0,L|120:41,1,70,0|0,1:0|3:0,0:0:0:0:
31,333,19206,2,0,L|120:343,1,70,6|6,3:0|3:0,0:0:0:0:
180,367,19479,1,8,0:0:0:0:
164,284,19616,1,4,0:2:0:0:
348,100,19888,38,0,L|362:177,1,70,0|2,0:0|3:0,0:0:0:0:
164,284,20297,2,0,L|150:207,2,70,8|0|8,0:0|0:0|0:0,0:0:0:0:
243,310,20706,86,0,L|361:303,1,105,4|0,0:2|0:0,0:0:0:0:
125,359,28343,6,0,L|207:351,1,70,8|8,0:2|0:0,0:0:0:0:
258,309,28752,1,2,0:0:0:0:
258,309,29025,2,0,L|297:313,1,35,8|8,0:1|0:2,0:0:0:0:
357,347,29297,1,4,0:0:0:0:
194,352,29434,102,0,P|217:305|199:239,1,105.000004005432,4|0,0:2|1:0,0:0:0:0:
154,196,29843,1,8,0:2:0:0:
154,196,30116,2,0,P|205:205|261:184,1,105.000004005432,2|8,0:0|0:1,0:0:0:0:
313,135,30525,6,0,L|312:259,1,105.000004005432,0|0,1:0|1:0,0:0:0:0:
267,305,30934,1,8,0:2:0:0:
267,305,31206,2,0,P|316:288|367:297,1,105.000004005432,0|8,0:0|0:1,0:0:0:0:
425,352,31616,102,0,L|424:228,1,105.000004005432,0|0,1:0|1:0,0:0:0:0:
470,182,32025,1,8,0:2:0:0:
470,182,32297,2,0,P|420:198|369:189,1,105.000004005432,2|8,0:0|0:1,0:0:0:0:
311,243,32706,6,0,L|312:119,1,105.000004005432,0|0,1:0|1:0,0:0:0:0:
346,66,33116,1,8,0:2:0:0:
346,66,33388,2,0,P|315:58|284:61,2,52.5000020027161,2|2|8,1:0|1:0|0:1,0:0:0:0:
462,35,33797,102,2,P|447:84|466:132,1,105.000004005432,4|0,1:2|1:0,0:0:0:0:
474,215,34206,1,8,0:2:0:0:
474,215,34479,2,0,P|492:255|470:322,1,105.000004005432,2|8,0:0|0:1,0:0:0:0:
418,363,34888,6,0,P|400:323|422:256,1,105.000004005432,0|0,1:0|1:0,0:0:0:0:
397,188,35297,1,8,0:2:0:0:
397,188,35570,2,0,P|434:186|460:194,2,52.5000020027161,2|2|8,0:0|0:0|0:1,0:0:0:0:
284,226,35979,102,0,B|297:199|297:199|289:104,1,105.000004005432,4|8,1:2|0:0,0:0:0:0:
278,46,36388,1,4,0:0:0:0:
278,46,36661,2,0,L|210:45,1,52.5000020027161,2|8,0:0|0:0,0:0:0:0:
147,29,36934,2,0,L|79:28,1,52.5000020027161,0|0,1:0|1:0,0:0:0:0:
38,117,37206,6,0,L|59:164,1,52.5000020027161,4|0,1:2|0:0,0:0:0:0:
43,244,37479,2,0,L|3:299,1,52.5000020027161,2|0,1:1|0:1,0:0:0:0:
125,217,37752,2,0,L|192:223,1,52.5000020027161,8|8,0:1|0:1,0:0:0:0:
241,176,38025,1,8,0:0:0:0:
241,176,38161,1,8,0:0:0:0:
244,317,38297,102,0,L|249:225,1,62.9999980773926,4|0,1:2|0:0,0:0:0:0:
341,30,40206,6,0,P|351:54|385:26,1,62.9999980773926,2|0,0:2|1:0,0:0:0:0:
268,67,40479,2,0,L|263:159,1,62.9999980773926,4|0,1:2|0:0,0:0:0:0:
38,347,42116,102,0,P|76:338|116:345,1,62.9999980773926,8|4,0:0|0:0,0:0:0:0:
187,345,42388,2,0,P|218:346|248:338,1,62.9999980773926,2|2,0:2|0:2,0:0:0:0:
102,277,42661,2,0,L|98:365,1,62.9999980773926,4|0,1:2|0:0,0:0:0:0:
410,277,43752,6,0,L|414:365,1,62.9999980773926,4|0,1:2|0:0,0:0:0:0:
102,277,44843,102,0,L|98:365,1,62.9999980773926,4|0,1:2|0:0,0:0:0:0:
70,164,46206,5,8,0:0:0:0:
70,164,46343,1,4,0:0:0:0:
70,164,46479,2,0,P|75:123|66:97,2,62.9999980773926,8|8|8,0:0|0:0|0:0,0:0:0:0:
35,36,46888,1,0,0:0:0:0:
35,36,47025,86,0,B|52:58|52:58|165:58,1,125.999996154785,4|8,1:0|0:0,0:0:0:0:
348,44,47570,2,0,L|426:40,1,62.9999980773926,2|0,0:0|0:0,0:0:0:0:
486,87,47843,2,0,L|480:176,1,62.9999980773926,10|2,0:0|0:0,0:0:0:0:
478,238,48116,38,0,P|463:303|483:372,2,125.999996154785,2|10|4,0:0|0:0|3:0,0:0:0:0:
264,194,48934,2,0,P|218:195|188:176,1,62.9999980773926,10|2,0:0|0:0,0:0:0:0:
313,137,49206,70,0,L|307:278,1,125.999996154785,0|8,1:2|0:0,0:0:0:0:
154,352,49752,2,0,L|72:359,1,62.9999980773926,0|2,0:0|0:0,0:0:0:0:
38,285,50025,2,0,L|28:201,1,62.9999980773926,10|0,0:0|0:0,0:0:0:0:
45,135,50297,38,0,P|52:84|32:5,2,125.999996154785,2|8|2,3:0|0:2|3:0,0:0:0:0:
260,212,51116,2,0,P|303:212|343:230,1,62.9999980773926,8|0,0:0|0:0,0:0:0:0:
381,343,51388,70,0,L|384:262,1,62.9999980773926,4|0,1:2|1:0,0:0:0:0:
399,192,51661,2,0,L|402:111,1,62.9999980773926,8|0,1:0|1:0,0:0:0:0:
489,136,51934,2,0,L|486:217,1,62.9999980773926,8|0,1:0|1:0,0:0:0:0:
471,287,52206,2,0,L|468:368,1,62.9999980773926,8|0,1:0|1:0,0:0:0:0:
383,280,52479,38,0,L|240:276,1,125.999996154785,12|8,1:2|1:0,0:0:0:0:
173,305,52888,1,0,1:0:0:0:
173,305,53025,2,0,P|166:344|174:376,1,62.9999980773926,8|0,1:0|1:0,0:0:0:0:
257,276,53297,2,0,P|264:237|256:205,1,62.9999980773926,8|0,1:0|1:0,0:0:0:0:
266,88,53570,70,0,L|259:227,1,125.999996154785,12|8,1:2|1:0,0:0:0:0:
178,115,53979,1,0,1:0:0:0:
179,115,54116,2,0,L|182:177,1,62.9999980773926,12|0,1:2|1:0,0:0:0:0:
266,88,54388,2,0,L|338:86,1,62.9999980773926,8|0,1:0|1:0,0:0:0:0:
198,31,54661,37,12,0:0:0:0:
314,353,54934,1,12,0:0:0:0:
58,37,55752,22,2,L|220:30,1,140,6|10,1:0|1:0,0:1:0:0:
253,93,56161,1,0,0:0:0:0:
253,93,56297,2,2,P|234:164|251:235,1,140,2|10,1:0|0:1,0:1:0:0:
267,309,56706,1,2,1:0:0:0:
135,330,56843,6,0,P|164:310|187:285,1,70,2|0,1:0|0:0,0:0:0:0:
247,227,57116,2,0,P|234:185|235:138,1,70,10|0,1:0|0:0,0:0:0:0:
267,309,57388,2,0,P|309:319|349:342,1,70,2|0,1:0|1:0,0:0:0:0:
415,347,57661,2,0,P|443:326|467:301,1,70,10|2,1:0|3:0,0:0:0:0:
500,194,57934,102,0,L|350:190,2,140,2|10|0,1:0|1:0|1:3,0:0:0:0:
152,190,58752,2,0,L|52:194,1,70,8|0,0:0|1:0,0:0:0:0:
29,126,59025,6,0,P|41:194|32:263,1,140,2|8,1:0|1:1,0:0:0:0:
74,336,59434,1,2,1:0:0:0:
74,336,59570,2,0,P|112:342|166:336,1,70,0|2,1:0|1:0,0:0:0:0:
223,314,59843,2,0,P|257:312|292:318,1,70,10|2,1:0|1:0,0:0:0:0:
432,322,60116,102,0,L|273:318,1,140,6|10,1:0|1:0,0:0:0:0:
268,237,60525,2,0,P|276:171|258:94,1,140,2|0,1:0|0:0,0:0:0:0:
181,130,60934,2,0,P|190:167|183:211,1,70,10|0,1:0|0:0,0:0:0:0:
260,99,61206,6,0,P|287:72|329:56,1,70,2|0,1:0|0:0,0:0:0:0:
398,42,61479,2,0,P|426:61|460:71,1,70,10|0,1:0|0:0,0:0:0:0:
374,131,61752,1,2,1:0:0:0:
374,131,61888,1,0,0:0:0:0:
374,131,62025,2,0,P|383:168|376:212,1,70,10|0,1:0|0:0,0:0:0:0:
469,316,62297,102,0,P|467:281|477:247,1,70,4|0,1:2|0:0,0:0:0:0:
379,199,62570,2,0,P|388:236|381:280,1,70,10|2,1:0|0:0,0:0:0:0:
343,340,62843,1,4,1:2:0:0:
343,340,62979,1,0,0:0:0:0:
343,340,63116,2,0,P|302:329|252:340,1,70,10|2,1:0|1:0,0:0:0:0:
120,333,63388,6,0,P|161:344|211:333,1,70,4|0,1:2|0:0,0:0:0:0:
220,263,63661,2,0,P|218:228|228:194,1,70,12|0,0:2|0:0,0:0:0:0:
278,123,63934,1,4,1:2:0:0:
278,123,64070,1,0,1:0:0:0:
194,117,64206,1,8,1:0:0:0:
49,349,64479,102,2,L|210:341,1,140,6|10,1:0|1:0,0:1:0:0:
249,283,64888,1,0,0:0:0:0:
249,283,65025,2,0,P|232:211|251:141,1,140,2|8,1:0|0:0,0:0:0:0:
271,66,65434,1,0,0:0:0:0:
141,41,65570,6,0,P|168:62|191:88,1,70,2|0,1:0|0:0,0:0:0:0:
248,149,65843,2,0,P|234:190|232:236,1,70,10|0,1:0|0:0,0:0:0:0:
271,66,66116,2,0,P|313:56|354:35,1,70,2|0,1:0|1:0,0:0:0:0:
420,35,66388,2,0,P|447:56|470:82,1,70,10|0,1:0|0:0,0:0:0:0:
500,190,66661,102,0,L|349:188,2,140,4|10|4,1:2|1:0|1:2,0:0:0:0:
152,188,67479,2,0,L|72:195,1,70,8|2,0:0|1:0,0:0:0:0:
32,262,67752,6,0,P|51:189|29:114,1,140,0|8,0:0|0:0,0:0:0:0:
80,55,68161,1,2,1:0:0:0:
80,55,68297,2,0,L|149:61,1,70,4|0,2:0|1:0,0:0:0:0:
232,46,68570,2,0,L|301:39,1,70,8|0,1:0|1:0,0:0:0:0:
467,33,68843,102,2,P|479:98|461:191,2,140,6|10|2,1:0|1:1|1:0,0:1:0:0:
387,62,69525,1,0,0:0:0:0:
387,62,69661,2,0,P|393:98|387:146,1,70,10|0,1:0|0:0,0:0:0:0:
393,215,69934,6,0,L|385:302,1,70,2|0,0:0|0:0,0:0:0:0:
479,340,70206,2,0,L|472:270,1,70,10|0,0:0|0:0,0:0:0:0:
393,215,70479,1,2,1:0:0:0:
393,215,70616,1,2,0:0:0:0:
393,215,70752,2,0,P|342:207|307:216,1,70,10|2,1:0|0:0,0:0:0:0:
143,200,71025,102,0,L|149:358,2,140,6|10|0,1:1|1:0|1:0,0:0:0:0:
65,231,71706,1,0,1:0:0:0:
65,231,71843,2,0,L|58:311,1,70,10|0,1:0|1:0,0:0:0:0:
148,339,72116,6,0,P|185:331|229:338,1,70,0|0,1:0|1:0,0:0:0:0:
264,265,72388,2,0,P|256:231|259:196,1,70,10|2,1:0|1:0,0:0:0:0:
302,123,72661,1,0,1:0:0:0:
302,123,72797,1,2,1:0:0:0:
302,123,72934,2,0,P|339:115|383:122,1,70,10|2,1:0|1:0,0:0:0:0:
232,45,73206,102,2,L|83:42,1,140,2|10,1:0|1:0,0:1:0:0:
41,110,73616,2,0,P|67:185|64:270,1,140,0|2,1:0|1:0,0:0:0:0:
42,325,74025,2,0,P|69:329|130:302,1,70,8|0,1:0|1:0,0:0:0:0:
175,273,74297,5,4,1:2:0:0:
175,273,74434,1,8,1:0:0:0:
183,357,74570,1,10,0:0:0:0:
337,111,74843,2,0,L|341:29,2,70,0|8|8,1:0|1:0|1:0,0:0:0:0:
476,110,75252,102,0,L|324:111,1,140,4|0,1:2|0:0,0:0:0:0:
256,139,75661,1,2,1:0:0:0:
36,110,75934,2,0,L|188:111,3,140,2|2|2|2,1:0|1:0|1:0|1:0,0:0:0:0:
408,196,77025,2,0,L|338:196,1,70,2|2,1:0|1:0,0:0:0:0:
34,195,77434,54,2,L|174:196,1,140,6|2,1:0|0:1,0:0:0:0:
256,214,77843,1,2,1:0:0:0:
477,195,78116,2,0,L|338:196,3,140,2|2|8|8,1:0|1:0|1:0|1:0,0:0:0:0:
102,284,79206,1,10,1:0:0:0:
102,284,79343,2,0,L|172:284,1,70,10|10,1:0|1:0,0:0:0:0:
31,345,79616,102,2,P|64:286|39:215,1,140,6|2,1:0|0:0,0:0:0:0:
25,138,80025,1,10,0:0:0:0:
216,44,80297,2,0,L|213:124,1,70,2|0,0:0|0:0,0:0:0:0:
278,167,80570,2,0,L|281:247,1,70,10|0,0:0|0:0,0:0:0:0:
241,311,80843,38,0,P|273:320|324:306,1,70,2|2,0:0|0:0,0:0:0:0:
385,349,81116,2,0,P|419:343|452:352,1,70,2|0,0:0|0:0,0:0:0:0:
482,274,81388,2,0,P|476:239|485:206,2,70,2|2|2,3:0|3:0|3:0,0:0:0:0:
494,128,81797,70,2,B|468:161|468:161|367:164,1,140
306,219,82206,1,10,0:0:0:0:
276,24,82479,2,0,P|232:32|196:19,1,70,2|2,0:0|0:0,0:0:0:0:
125,40,82752,2,0,P|90:33|57:41,1,70,10|2,0:0|0:0,0:0:0:0:
20,117,83025,38,0,L|12:203,1,70,2|2,0:0|0:2,0:0:0:0:
14,270,83297,2,0,L|22:356,1,70,2|2,0:0|0:2,0:0:0:0:
104,334,83570,1,8,0:0:0:0:
104,334,83706,2,0,L|97:264,1,70,8|8,0:0|0:0,0:0:0:0:
93,180,83979,86,0,B|164:151|165:205|247:172,1,140,4|0,1:2|1:0,0:0:0:0:
313,169,84388,1,8,0:0:0:0:
202,35,84661,1,0,1:0:0:0:
202,35,84797,1,0,1:0:0:0:
203,35,84934,2,0,L|202:104,1,70,8|0,0:0|1:0,0:0:0:0:
313,169,85206,102,0,P|276:219|229:172,1,140,4|0,1:0|0:0,0:0:0:0:
395,184,85616,2,0,P|457:191|440:255,1,140
369,104,86025,2,0,P|405:91|461:93,1,70
313,169,86297,38,0,B|307:247|307:247|323:285|323:285|309:383,2,210,4|4|4,0:2|0:2|2:0,0:0:0:0:
256,192,87252,12,4,88343,1:2:0:0:
451,121,96116,85,4,0:0:0:0:
401,281,96388,1,2,0:0:0:0:
401,281,96525,2,0,P|396:317|406:343,1,52.5000020027161,8|8,0:2|0:1,0:0:0:0:
326,258,96797,2,0,P|331:222|321:196,1,52.5000020027161,8|4,0:0|0:0,0:0:0:0:
401,281,97070,6,0,P|413:224|394:173,1,105.000004005432,4|0,0:2|1:0,0:0:0:0:
451,121,97479,1,8,0:2:0:0:
451,121,97752,2,0,L|328:115,1,105.000004005432,0|8,0:0|0:0,0:0:0:0:
282,69,98161,102,0,P|296:118|283:169,1,105.000004005432,0|0,1:0|1:0,0:0:0:0:
229,226,98570,1,8,0:0:0:0:
229,226,98843,2,0,L|352:232,1,105.000004005432,0|8,0:0|0:0,0:0:0:0:
396,182,99252,6,0,P|383:232|397:282,1,105.000004005432,0|0,1:0|1:0,0:0:0:0:
448,343,99661,1,8,0:0:0:0:
448,343,99934,2,0,L|325:337,1,105.000004005432,0|8,0:0|0:0,0:0:0:0:
264,339,100343,102,0,L|159:344,1,105.000004005432,0|0,1:0|1:0,0:0:0:0:
91,299,100752,1,8,0:0:0:0:
91,299,101025,2,0,P|81:322|80:349,2,52.5000020027161,0|0|0,1:0|1:0|1:0,0:0:0:0:
1,354,101434,6,0,P|9:293|38:243,1,105.000004005432,4|0,0:2|1:0,0:0:0:0:
37,176,101843,1,8,0:0:0:0:
37,176,102116,2,0,P|59:128|64:76,1,105.000004005432,0|8,0:0|0:0,0:0:0:0:
134,40,102525,102,0,L|251:37,1,105.000004005432,0|0,1:0|1:0,0:0:0:0:
304,81,102934,1,8,0:0:0:0:
304,81,103206,2,0,P|314:48|317:15,2,52.5000020027161,0|0|8,1:0|1:0|0:0,0:0:0:0:
336,190,103616,6,0,B|313:175|313:175|221:173,1,105.000004005432,4|0,1:2|1:0,0:0:0:0:
159,194,104025,1,8,0:0:0:0:
159,194,104297,2,0,L|152:256,1,52.5000020027161,0|8,1:0|0:0,0:0:0:0:
215,294,104574,2,0,L|222:356,1,52.5000020027161,0|0,1:0|1:0,0:0:0:0:
318,346,104829,102,0,L|336:182,1,163,12|0,0:0|1:0,0:0:0:0:
407,220,105387,2,0,L|410:287,1,52.5000020027161,8|8,0:0|3:0,0:0:0:0:
483,350,105659,2,0,L|486:283,1,52.5000020027161,8|4,3:0|3:0,0:0:0:0:
484,156,105932,6,0,L|486:220,1,62.9999980773926,6|0,1:0|0:0,0:0:0:0:
256,178,106341,2,0,B|251:35|251:35|190:74,1,188.999994232178,0|0,1:0|1:0,0:0:0:0:
310,250,107022,102,0,B|215:298|216:228|118:262,2,188.999994232178,10|8|0,0:2|0:0|1:0,0:0:0:0:
41,236,108113,6,0,P|38:267|47:298,1,62.9999980773926,2|0,1:0|0:0,0:0:0:0:
310,250,108522,2,0,P|294:156|315:53,1,188.999994232178,4|4,3:0|3:0,0:0:0:0:
217,313,109204,102,0,B|310:288|310:288|401:309,2,188.999994232178,10|8|0,0:0|0:0|1:0,0:0:0:0:
404,246,110295,2,0,L|400:327,1,62.9999980773926,2|0,1:0|0:0,0:0:0:0:
217,313,110704,1,0,1:0:0:0:
480,342,111113,1,0,1:0:0:0:
126,341,111386,6,2,L|47:346,1,62.9999980773926,2|0,1:0|0:0,0:0:0:0:
25,179,111795,2,0,L|158:181,1,125.999996154785,8|2,3:0|0:0,0:0:0:0:
233,182,112204,1,4,3:0:0:0:
59,95,112477,102,2,L|141:95,1,62.9999980773926,2|0,1:0|0:0,0:0:0:0:
311,67,112886,1,0,1:0:0:0:
201,317,113295,1,0,1:0:0:0:
381,247,113568,6,0,L|378:309,1,62.9999980773926,2|2,1:2|0:0,0:0:0:0:
472,110,113977,1,8,0:0:0:0:
472,110,114113,1,8,0:0:0:0:
472,110,114250,2,0,L|469:47,1,62.9999980773926,8|8,0:0|3:0,0:0:0:0:
469,47,114659,86,0,L|321:50,2,125.999996154785,4|10|2,1:0|0:0|0:0,0:0:0:0:
269,24,115477,2,0,P|265:54|278:95,1,62.9999980773926,8|2,0:0|0:0,0:0:0:0:
282,207,115750,38,0,P|291:271|273:354,1,125.999996154785,2|8,0:0|0:0,0:0:0:0:
193,316,116159,1,0,0:0:0:0:
193,316,116295,2,0,P|156:304|112:314,1,62.9999980773926,0|2,1:0|0:0,0:0:0:0:
98,225,116568,2,0,P|135:213|179:223,1,62.9999980773926,8|2,0:0|0:0,0:0:0:0:
49,290,116841,70,0,L|46:155,2,125.999996154785,2|8|2,1:0|0:0|0:0,0:0:0:0:
16,91,117659,2,0,P|53:85|81:92,1,62.9999980773926,10|2,0:0|0:0,0:0:0:0:
178,44,117932,38,0,P|240:53|315:36,1,125.999996154785,2|8,1:2|0:0,0:0:0:0:
380,202,118477,2,0,P|349:196|318:202,1,62.9999980773926,2|0,1:1|1:1,0:0:0:0:
264,272,118750,2,0,P|258:302|264:333,1,62.9999980773926,10|2,1:0|1:1,0:0:0:0:
192,223,119022,70,0,P|173:288|185:369,1,125.999996154785,4|8,1:0|1:2,0:0:0:0:
464,233,119568,1,2,1:0:0:0:
464,233,119704,1,2,1:0:0:0:
464,233,119841,2,0,P|469:202|463:171,1,62.9999980773926,8|2,1:2|1:2,0:0:0:0:
478,49,120113,38,0,P|459:114|471:195,1,125.999996154785,4|10,1:2|1:0,0:0:0:0:
317,302,120659,1,2,1:0:0:0:
317,302,120795,1,2,1:0:0:0:
317,302,120932,2,0,P|287:312|263:333,1,62.9999980773926,8|2,1:2|1:0,0:0:0:0:
138,338,121204,70,0,L|263:333,1,125.999996154785,4|10,1:0|1:2,0:0:0:0:
50,343,121750,1,2,1:2:0:0:
298,184,122022,2,0,L|377:187,1,62.9999980773926,10|2,1:2|1:2,0:0:0:0:
447,173,122295,37,4,0:0:0:0:
65,211,122568,1,2,1:0:0:0:
453,33,123386,22,2,L|446:188,1,140,6|10,1:0|1:0,0:0:0:0:
369,207,123795,1,0,0:0:0:0:
369,207,123932,2,2,P|301:221|234:203,1,140,2|10,1:0|0:1,0:1:0:0:
150,191,124341,1,2,1:0:0:0:
249,75,124477,6,0,P|221:96|199:123,1,70,2|0,1:0|0:0,0:0:0:0:
234,203,124750,2,0,P|266:215|300:221,1,70,10|0,1:0|0:0,0:0:0:0:
150,191,125022,2,0,P|137:223|132:258,1,70,2|0,1:0|1:0,0:0:0:0:
83,326,125295,2,0,P|50:338|16:344,1,70,10|2,1:0|3:0,0:0:0:0:
167,333,125568,102,0,P|237:327|315:344,2,140,2|8|2,1:0|1:0|1:0,0:0:0:0:
236,56,126386,2,0,P|201:56|167:51,1,70,8|0,0:0|1:0,0:0:0:0:
83,61,126659,6,0,P|64:127|74:207,1,140,2|8,1:0|1:1,0:0:0:0:
133,253,127068,1,2,1:0:0:0:
133,253,127204,2,0,P|172:244|210:254,1,70,2|2,1:0|1:0,0:0:0:0:
252,316,127477,2,0,P|286:321|319:312,1,70,8|0,1:0|0:0,0:0:0:0:
459,320,127750,102,0,L|310:310,1,140,6|10,1:0|1:0,0:0:0:0:
284,235,128159,2,0,P|270:170|292:85,1,140,2|0,1:0|0:0,0:0:0:0:
358,139,128568,2,0,P|352:176|369:219,1,70,10|0,1:0|0:0,0:0:0:0:
284,99,128841,6,0,P|259:71|214:57,1,70,2|0,1:0|0:0,0:0:0:0:
146,46,129113,2,0,P|117:66|83:72,1,70,10|2,1:0|0:2,0:0:0:0:
183,132,129386,1,2,1:0:0:0:
183,132,129522,1,2,0:0:0:0:
183,132,129659,2,0,L|178:209,1,70,10|2,1:0|0:0,0:0:0:0:
90,298,129932,102,0,L|85:221,1,70,4|0,1:2|0:0,0:0:0:0:
178,201,130204,2,0,L|173:278,1,70,10|2,1:0|0:0,0:0:0:0:
231,340,130477,1,4,1:2:0:0:
231,340,130613,1,0,0:0:0:0:
231,340,130750,2,0,L|304:334,1,70,10|0,1:0|0:0,0:0:0:0:
456,343,131022,6,0,L|383:337,1,70,4|2,1:2|3:0,0:0:0:0:
347,263,131295,2,0,L|349:193,1,70,12|2,0:2|3:0,0:0:0:0:
318,114,131568,1,4,1:2:0:0:
318,114,131704,1,0,1:0:0:0:
402,114,131841,1,8,1:0:0:0:
59,33,132113,102,2,L|66:188,1,140,6|10,1:0|1:0,0:1:0:0:
143,207,132522,1,0,0:0:0:0:
143,207,132659,2,2,P|211:221|278:203,1,140,2|10,1:0|1:0,0:1:0:0:
362,191,133068,1,0,0:0:0:0:
263,75,133204,6,0,P|291:96|313:123,1,70,2|0,1:0|0:0,0:0:0:0:
277,203,133477,2,0,P|245:215|211:221,1,70,10|0,1:0|0:0,0:0:0:0:
362,191,133750,2,0,P|375:223|380:258,1,70,2|0,1:0|1:0,0:0:0:0:
429,326,134022,2,0,P|462:338|496:344,1,70,10|0,1:0|0:0,0:0:0:0:
345,333,134295,102,0,P|275:327|197:344,2,140,4|10|0,1:2|1:0|0:0,0:0:0:0:
275,56,135113,2,0,P|310:56|345:51,1,70,8|2,0:0|1:0,0:0:0:0:
429,61,135386,6,0,P|448:127|438:207,1,140,4|8,1:2|0:0,0:0:0:0:
379,253,135795,1,2,1:0:0:0:
379,253,135932,2,0,P|337:244|293:266,1,70,4|0,0:0|1:0,0:0:0:0:
263,319,136204,2,0,P|229:326|195:317,1,70,8|0,1:0|0:0,0:0:0:0:
29,345,136477,102,2,L|22:203,2,140,6|10|2,1:0|1:1|1:0,0:0:0:0:
112,330,137159,1,0,0:0:0:0:
112,330,137295,2,0,L|110:245,1,70,10|0,1:0|0:0,0:0:0:0:
107,175,137568,6,0,L|109:90,1,70,2|2,0:0|0:0,0:0:0:0:
19,41,137841,2,0,L|21:126,1,70,10|2,0:0|0:0,0:0:0:0:
108,105,138113,1,2,1:0:0:0:
108,105,138250,1,2,0:0:0:0:
108,105,138386,2,0,P|149:93|190:99,1,70,10|2,1:0|0:0,0:0:0:0:
333,33,138659,102,0,P|317:102|340:183,2,140,6|10|0,1:1|1:0|1:0,0:0:0:0:
411,64,139341,1,2,1:0:0:0:
411,64,139477,2,0,P|402:100|414:147,1,70,10|2,1:0|1:0,0:0:0:0:
332,168,139750,6,0,P|296:159|249:171,1,70,2|2,1:0|1:0,0:0:0:0:
193,209,140022,2,0,P|184:245|196:292,1,70,10|2,1:0|1:0,0:0:0:0:
130,337,140295,1,0,1:0:0:0:
130,337,140432,1,2,1:0:0:0:
130,337,140568,2,0,P|94:328|47:340,1,70,10|2,1:0|1:0,0:0:0:0:
250,339,140841,102,2,L|417:330,1,140,2|10,1:0|1:0,0:0:0:0:
463,289,141250,2,0,P|450:221|474:129,1,140,2|2,1:0|1:0,0:0:0:0:
496,74,141659,2,0,P|467:67|419:77,1,70,8|0,1:0|0:0,0:0:0:0:
364,129,141932,5,4,1:2:0:0:
364,129,142068,1,8,1:0:0:0:
349,46,142204,1,10,0:0:0:0:
197,331,142477,2,0,L|200:243,2,70,0|8|8,1:0|1:0|1:0,0:0:0:0:
73,263,142886,102,2,L|209:260,1,125.999996154785,6|2,1:1|0:1,0:1:0:0:
256,201,143295,1,2,1:0:0:0:
439,263,143568,2,0,L|303:260,3,125.999996154785,8|8|8|8,1:3|1:3|1:3|1:3,0:0:0:0:
198,174,144659,2,0,L|197:112,2,62.9999980773926,8|8|8,1:3|1:3|1:0,0:0:0:0:
73,178,145068,54,2,L|209:175,1,125.999996154785,6|2,1:0|0:1,0:1:0:0:
256,234,145477,1,2,1:0:0:0:
439,178,145750,2,0,L|303:175,3,125.999996154785,8|8|8|2,1:3|1:3|1:0|3:0,0:0:0:0:
69,249,146841,1,8,1:0:0:0:
69,249,146977,2,0,L|131:247,1,62.9999980773926,8|4,0:0|0:0,0:0:0:0:
135,373,147250,6,2,L|132:237,1,125.999996154785,6|2,1:0|0:1,0:1:0:0:
191,190,147659,1,2,1:0:0:0:
135,7,147932,2,0,L|132:143,3,125.999996154785,0|0|8|0,1:0|1:0|1:0|1:0,0:0:0:0:
251,247,149022,2,0,L|313:249,2,62.9999980773926,0|0|8,1:0|1:0|0:0,0:0:0:0:
247,373,149432,102,2,L|250:237,1,125.999996154785,6|2,1:0|0:1,0:1:0:0:
191,190,149841,1,2,1:0:0:0:
247,7,150113,2,0,L|250:143,3,125.999996154785,0|0|4|4,1:0|1:0|1:2|0:0,0:0:0:0:
378,343,151204,1,0,1:0:0:0:
414,269,151341,1,0,1:0:0:0:
332,271,151477,1,0,1:0:0:0:
462,335,151613,54,2,L|464:190,1,125.999996154785,6|2,1:1|1:0,1:0:0:0:
465,126,152022,1,2,1:0:0:0:
180,126,152295,6,0,L|102:127,1,62.9999980773926,2|0,1:0|0:0,0:0:0:0:
111,44,152568,2,0,L|173:42,1,62.9999980773926,2|0,1:0|0:0,0:0:0:0:
116,126,152841,102,0,L|38:127,1,62.9999980773926,2|0,1:0|0:0,0:0:0:0:
48,45,153113,2,0,L|110:43,1,62.9999980773926,2|0,1:0|0:0,0:0:0:0:
256,99,153386,2,0,P|263:130|240:183,2,62.9999980773926,2|0|2,1:0|1:0|3:1,0:0:0:0:
194,214,153795,6,2,P|254:242|324:212,1,125.999996154785,6|2,1:0|1:0,0:1:0:0:
385,197,154204,1,2,1:0:0:0:
106,168,154477,2,0,P|111:202|97:249,1,62.9999980773926,2|0,1:0|1:0,0:0:0:0:
29,259,154750,2,0,P|24:225|38:178,1,62.9999980773926,2|0,1:0|0:0,0:0:0:0:
105,229,155022,102,0,P|110:263|96:310,1,62.9999980773926,2|0,1:0|1:0,0:0:0:0:
28,320,155295,2,0,P|23:286|37:239,1,62.9999980773926,2|0,1:0|0:0,0:0:0:0:
173,338,155568,1,2,1:0:0:0:
173,338,155704,2,0,P|211:337|261:357,1,62.9999980773926,8|8,0:1|3:0,0:0:0:0:
104,290,155977,6,0,P|108:221|87:139,1,125.999996154785,4|8,1:0|0:0,0:0:0:0:
63,90,156386,1,2,1:2:0:0:
284,88,156659,2,0,L|367:84,1,62.9999980773926,8|2,0:0|0:0,0:0:0:0:
410,33,156932,2,0,L|493:37,1,62.9999980773926,8|2,0:0|1:2,0:0:0:0:
408,147,157204,102,0,L|412:230,1,62.9999980773926
463,273,157477,2,0,L|459:356,1,62.9999980773926,2|0,0:0|0:0,0:0:0:0:
375,286,157750,1,0,1:0:0:0:
375,286,157886,2,0,L|296:293,1,62.9999980773926,8|8,0:0|0:0,0:0:0:0:
411,209,158159,1,4,1:0:0:0:
256,192,158227,12,0,160477,0:0:0:0:
53,46,162659,54,0,L|47:166,1,105.000004005432,4|8,3:2|0:0,0:0:0:0:
195,221,163204,2,0,L|189:101,1,105.000004005432,0|8,0:0|0:0,0:0:0:0:
47,150,163750,6,0,L|44:216,2,52.5000020027161,0|0|8,1:0|1:0|0:0,0:0:0:0:
144,264,164295,2,0,L|261:258,1,105.000004005432,2|8,0:0|0:0,0:0:0:0:
404,329,164841,6,2,P|480:326|416:263,1,188.999994232178,6|0,1:0|0:0,0:1:0:0:
308,188,165386,2,2,P|272:255|359:231,1,188.999994232178,4|0,1:2|0:0,0:1:0:0:
396,184,165932,69,2,1:0:0:0:
396,184,166068,1,10,0:0:0:0:
439,255,166204,1,10,1:0:0:0:
439,255,166341,1,8,0:0:0:0:
477,182,166477,2,0,L|474:108,1,62.9999980773926,10|10,1:0|1:0,0:0:0:0:
401,24,166750,2,0,L|398:98,1,62.9999980773926,4|4,3:0|3:0,0:0:0:0:
398,86,167022,1,0,1:0:0:0:
226,341,167295,102,0,L|65:348,1,140,4|0,1:0|0:0,0:0:0:0:
115,260,167704,1,0,0:0:0:0:
115,260,167841,2,0,L|196:253,1,70,10|0,1:0|0:0,0:0:0:0:
29,283,168113,102,0,P|29:242|48:197,1,70,2|0,1:0|0:0,0:0:0:0:
43,124,168386,2,0,P|33:90|34:55,1,70,10|0,1:0|0:0,0:0:0:0:
122,77,168659,1,2,1:0:0:0:
122,77,168795,1,0,0:0:0:0:
122,77,168932,2,0,L|203:84,1,70,10|0,1:0|0:0,0:0:0:0:
339,41,169204,6,0,L|258:48,1,70,2|2,1:0|1:0,0:0:0:0:
280,130,169477,2,0,L|349:123,1,70,10|2,1:0|1:0,0:0:0:0:
422,81,169750,1,2,1:0:0:0:
422,81,169886,1,0,0:0:0:0:
422,81,170022,2,0,P|432:130|421:171,1,70,10|0,1:0|0:0,0:0:0:0:
482,295,170295,102,0,P|472:261|474:226,1,70,2|2,1:0|1:0,0:0:0:0:
390,225,170568,2,0,P|383:259|365:289,1,70,10|2,1:0|1:0,0:0:0:0:
282,275,170841,1,2,1:0:0:0:
282,275,170977,1,2,1:2:0:0:
309,354,171113,1,2,1:0:0:0:
215,36,171386,6,2,L|69:34,1,140,6|10,1:0|1:1,0:1:0:0:
32,108,171795,1,2,3:0:0:0:
32,108,171932,2,2,P|40:179|25:259,1,140,2|10,1:0|0:1,0:1:0:0:
58,325,172341,1,2,1:0:0:0:
58,325,172477,102,0,P|92:327|126:336,1,70,2|0,1:0|0:0,0:0:0:0:
203,215,172750,2,0,P|194:249|192:284,1,70,10|2,1:0|1:0,0:0:0:0:
28,246,173022,2,0,P|37:212|40:177,1,70,2|0,1:0|0:0,0:0:0:0:
106,123,173295,2,0,P|140:132|175:135,1,70,10|2,1:0|1:0,0:0:0:0:
256,52,173568,6,0,L|401:49,2,140,2|10|2,1:0|1:0|3:0,0:0:0:0:
256,332,174386,2,0,L|174:336,1,70,8|2,0:0|1:0,0:0:0:0:
326,365,174659,102,0,P|303:299|316:220,1,140,4|12,1:2|0:0,0:0:0:0:
393,253,175068,1,0,0:0:0:0:
393,253,175204,2,0,P|389:280|410:343,1,70,2|2,1:0|3:0,0:0:0:0:
472,282,175477,2,0,P|476:255|455:192,1,70,10|4,1:0|3:0,0:0:0:0:
473,58,175750,6,0,P|406:46|309:67,2,140,6|12|0,1:0|0:0|1:0,0:0:0:0:
440,135,176432,1,0,1:0:0:0:
440,135,176568,2,0,P|405:128|347:141,1,70,8|2,0:0|0:0,0:0:0:0:
314,272,176841,102,0,L|328:204,1,70,0|0,1:0|0:0,0:0:0:0:
287,133,177113,2,0,L|234:87,1,70,10|2,0:0|0:0,0:0:0:0:
161,46,177386,1,0,1:0:0:0:
161,46,177522,1,2,1:0:0:0:
161,46,177659,2,0,P|124:53|69:34,1,70,8|2,1:0|1:0,0:0:0:0:
34,206,177932,6,0,L|29:363,2,140,4|12|0,1:0|1:2|1:0,0:0:0:0:
73,131,178613,1,2,1:0:0:0:
73,131,178750,2,0,P|107:123|141:129,1,70,10|2,1:2|1:0,0:0:0:0:
205,185,179022,102,0,L|199:275,1,70,2|2,1:0|1:2,0:0:0:0:
241,327,179295,2,0,L|331:333,1,70,10|2,1:0|1:0,0:0:0:0:
381,285,179568,1,2,1:0:0:0:
381,285,179704,1,0,1:0:0:0:
381,285,179841,2,0,P|391:317|386:369,1,70,10|2,1:0|1:0,0:0:0:0:
462,244,180113,6,0,P|453:168|472:100,1,140,2|2,1:0|1:0,0:0:0:0:
403,53,180522,2,0,L|232:50,1,140,2|2,1:0|1:0,0:0:0:0:
151,131,180932,2,0,L|221:130,1,70,2|2,1:0|1:0,0:0:0:0:
304,140,181204,101,8,0:0:0:0:
214,216,181341,1,8,0:0:0:0:
298,224,181477,1,8,0:0:0:0:
40,55,181750,1,2,1:0:0:0:
26,145,181886,1,2,1:0:0:0:
26,145,182159,22,2,L|175:129,1,125.999996154785,6|2,1:0|1:1,0:1:0:0:
134,212,182568,1,2,1:0:0:0:
338,332,182841,2,0,L|463:345,2,125.999996154785,2|2|2,1:0|1:0|1:0,0:0:0:0:
55,34,184341,6,2,B|38:75|38:75|57:193,1,140,6|2,1:1|1:1,0:1:0:0:
126,211,184750,2,0,L|202:205,1,70,12|0,0:0|0:0,0:0:0:0:
260,151,185022,2,0,L|336:157,1,70,2|2,0:0|1:0,0:0:0:0:
400,201,185295,1,8,0:0:0:0:
406,116,185432,1,2,1:0:0:0:
435,346,185704,21,2,0:0:0:0:
435,346,185841,2,0,P|427:312|433:278,1,70,10|0,1:0|0:0,0:0:0:0:
467,202,186113,2,0,P|433:193|399:201,2,70,0|2|8,1:0|1:0|0:0,0:0:0:0:
346,290,186522,70,2,P|276:311|192:290,1,140,6|2,1:0|1:1,0:1:0:0:
139,343,186932,2,0,P|128:299|142:253,1,70,8|2,0:0|1:0,0:0:0:0:
194,219,187204,2,0,P|205:175|191:129,1,70,2|2,3:0|1:0,0:0:0:0:
270,102,187477,2,0,P|259:58|273:12,1,70,10|2,1:0|1:0,0:0:0:0:
342,60,187750,38,0,L|419:57,2,70,2|2|8,3:0|1:0|0:0,0:0:0:0:
263,221,188295,1,2,1:0:0:0:
263,221,188432,2,0,L|193:218,1,70,2|2,1:0|1:0,0:0:0:0:
328,168,188704,70,2,B|345:208|345:208|338:318,1,140,2|2,1:0|1:0,1:0:0:0:
261,338,189113,2,0,L|191:335,1,70,10|0,1:0|0:0,0:0:0:0:
107,344,189386,2,2,P|85:305|70:371,1,140,2|10,1:0|1:0,0:1:0:0:
191,335,189795,38,2,P|166:259|99:216,1,140,2|2,1:0|1:0,0:1:0:0:
36,225,190204,2,2,P|47:189|34:141,1,70,10|0,1:0|0:0,1:0:0:0:
38,73,190477,2,0,P|42:38|31:5,2,70,10|2|10,1:0|0:2|0:2,0:0:0:0:
114,109,190886,70,0,L|269:98,1,140,4|2,1:2|1:0,0:0:0:0:
315,42,191295,2,2,B|278:110|329:108|306:205,1,140,10|2,1:1|1:2,0:1:0:0:
39,142,191841,2,0,P|42:103|35:65,1,70,8|0,0:0|0:0,0:0:0:0:
7,207,192113,38,0,L|100:202,1,70,2|0,1:0|0:0,0:0:0:0:
160,198,192386,2,0,L|253:203,1,70,10|2,0:1|0:0,0:0:0:0:
310,178,192659,2,0,L|403:173,1,70,2|2,1:0|0:1,0:0:0:0:
456,209,192932,1,10,1:0:0:0:
449,125,193068,1,4,1:2:0:0:
154,128,193341,70,0,L|162:223,1,70,0|0,1:0|1:0,0:0:0:0:
358,256,193750,2,0,L|350:161,1,70,6|6,3:0|3:0,0:0:0:0:
56,175,194159,38,0,L|66:338,1,140,4|4,1:2|0:0,0:0:0:0:
143,344,194568,1,4,3:0:0:0:
256,191,194841,1,2,1:0:0:0:
256,191,194977,2,0,P|215:196|177:187,1,70,2|10,1:0|1:0,0:0:0:0:
276,268,195250,86,0,P|278:225|334:243,1,105.000004005432,4|0,1:2|0:0,0:0:0:0:
386,294,195659,1,2,0:0:0:0:
386,294,195932,6,0,P|403:323|404:358,3,70,2|2|2|2,0:0|0:0|0:0|0:0,0:0:0:0:
411,210,197022,2,0,P|440:226|482:224,1,70,2|0,0:0|0:0,0:0:0:0:
460,149,197432,1,2,0:1:0:0:
