osu file format v14

[General]
AudioFilename: audio.mp3
AudioLeadIn: 0
PreviewTime:9708
Countdown: 0
SampleSet: Soft
StackLeniency: 0.2
Mode: 0
LetterboxInBreaks: 0
EpilepsyWarning: 1
WidescreenStoryboard: 1

[Editor]
Bookmarks: 20695,38286,55741,88332,123375
DistanceSpacing: 0.6
BeatDivisor: 4
GridSize: 4
TimelineZoom: 2.2

[Metadata]
Title:Evening Calm, A Certain Day, Illusion of Flowers
TitleUnicode:夕凪、某、花惑い
Artist:Yorushika
ArtistUnicode:ヨルシカ
Creator:Ryuusei Aika
Version:Flask's Extra
Source:
Tags:Japanese Rock J-Rock JRock Female Vocal Yuunagi Bou Hanamadoi Yuunagi, Bou, Hana Madoi ナブナ nbuna n-buna スイ suis エルマ elma Yugu Sandrew kanor Agatsu Flask Darky1
BeatmapID:2274993
BeatmapSetID:1087943

[Difficulty]
HPDrainRate:6
CircleSize:4
OverallDifficulty:8.5
ApproachRate:9.4
SliderMultiplier:1.8
SliderTickRate:1

[Events]
//Background and Video events
0,0,"BG.jpg",0,0
//Break Periods
2,88543,95848
2,160677,162105
//Storyboard Layer 0 (Background)
//Storyboard Layer 1 (Fail)
//Storyboard Layer 2 (Pass)
//Storyboard Layer 3 (Foreground)
Sprite,Foreground,Centre,"sb\highlight.png",117,166 C,0,38297,,191,191,191 F,1,38297,38769,0.4,0 S,2,38297,38769,2,0.4 P,0,38297,38769,A
Sprite,Foreground,Centre,"sb\highlight.png",194,240 C,0,38706,,191,191,191 F,1,38706,39042,0.4,0 S,2,38706,39042,2,0.4 P,0,38706,39042,A
Sprite,Foreground,Centre,"sb\highlight.png",88,300 C,0,38979,,191,191,191 F,1,38979,39179,0.4,0 S,2,38979,39179,2,0.4 P,0,38979,39179,A
Sprite,Foreground,Centre,"sb\highlight.png",88,300 C,0,39116,,191,191,191 F,1,39116,39452,0.4,0 S,2,39116,39452,2,0.4 P,0,39116,39452,A
Sprite,Foreground,Centre,"sb\highlight.png",348,369 C,0,39388,,127,127,127 F,1,39388,40133,0.4,0 S,2,39388,40133,2,0.4 P,0,39388,40133,A
Sprite,Foreground,Centre,"sb\highlight.png",358,383 C,0,40206,,127,127,127 F,1,40206,40406,0.4,0 S,2,40206,40406,2,0.4 P,0,40206,40406,A
Sprite,Foreground,Centre,"sb\highlight.png",446,363 C,0,40343,,127,127,127 F,1,40343,40543,0.4,0 S,2,40343,40543,2,0.4 P,0,40343,40543,A
Sprite,Foreground,Centre,"sb\highlight.png",547,185 C,0,40479,,191,191,191 F,1,40479,40815,0.4,0 S,2,40479,40815,2,0.4 P,0,40479,40815,A
Sprite,Foreground,Centre,"sb\highlight.png",411,232 C,0,40752,,191,191,191 F,1,40752,41497,0.4,0 S,2,40752,41497,2,0.4 P,0,40752,41497,A
Sprite,Foreground,Centre,"sb\highlight.png",395,242 C,0,41570,,191,191,191 F,1,41570,41906,0.4,0 S,2,41570,41906,2,0.4 P,0,41570,41906,A
Sprite,Foreground,Centre,"sb\highlight.png",500,416 C,0,41843,,191,191,191 F,1,41843,42179,0.4,0 S,2,41843,42179,2,0.4 P,0,41843,42179,A
Sprite,Foreground,Centre,"sb\highlight.png",294,379 C,0,42116,,127,127,127 F,1,42116,42316,0.4,0 S,2,42116,42316,2,0.4 P,0,42116,42316,A
Sprite,Foreground,Centre,"sb\highlight.png",225,414 C,0,42252,,127,127,127 F,1,42252,42452,0.4,0 S,2,42252,42452,2,0.4 P,0,42252,42452,A
Sprite,Foreground,Centre,"sb\highlight.png",171,357 C,0,42388,,127,127,127 F,1,42388,42588,0.4,0 S,2,42388,42588,2,0.4 P,0,42388,42588,A
Sprite,Foreground,Centre,"sb\highlight.png",100,389 C,0,42525,,127,127,127 F,1,42525,42725,0.4,0 S,2,42525,42725,2,0.4 P,0,42525,42725,A
Sprite,Foreground,Centre,"sb\highlight.png",78,191 C,0,42661,,191,191,191 F,1,42661,42997,0.4,0 S,2,42661,42997,2,0.4 P,0,42661,42997,A
Sprite,Foreground,Centre,"sb\highlight.png",161,263 C,0,42934,,191,191,191 F,1,42934,43270,0.4,0 S,2,42934,43270,2,0.4 P,0,42934,43270,A
Sprite,Foreground,Centre,"sb\highlight.png",220,99 C,0,43206,,191,191,191 F,1,43206,43678,0.4,0 S,2,43206,43678,2,0.4 P,0,43206,43678,A
Sprite,Foreground,Centre,"sb\highlight.png",443,107 C,0,43616,,191,191,191 F,1,43616,43816,0.4,0 S,2,43616,43816,2,0.4 P,0,43616,43816,A
Sprite,Foreground,Centre,"sb\highlight.png",406,321 C,0,43752,,127,127,127 F,1,43752,44156,0.4,0 S,2,43752,44156,2,0.4 P,0,43752,44156,A
Sprite,Foreground,Centre,"sb\highlight.png",327,234 C,0,44025,,127,127,127 F,1,44025,44361,0.4,0 S,2,44025,44361,2,0.4 P,0,44025,44361,A
Sprite,Foreground,Centre,"sb\highlight.png",540,224 C,0,44297,,191,191,191 F,1,44297,44497,0.4,0 S,2,44297,44497,2,0.4 P,0,44297,44497,A
Sprite,Foreground,Centre,"sb\highlight.png",517,233 C,0,44434,,191,191,191 F,1,44434,44634,0.4,0 S,2,44434,44634,2,0.4 P,0,44434,44634,A
Sprite,Foreground,Centre,"sb\highlight.png",474,403 C,0,44570,,127,127,127 F,1,44570,44770,0.4,0 S,2,44570,44770,2,0.4 P,0,44570,44770,A
Sprite,Foreground,Centre,"sb\highlight.png",374,390 C,0,44706,,127,127,127 F,1,44706,44906,0.4,0 S,2,44706,44906,2,0.4 P,0,44706,44906,A
Sprite,Foreground,Centre,"sb\highlight.png",255,192 C,0,44843,,191,191,191 F,1,44843,45043,0.4,0 S,2,44843,45043,2,0.4 P,0,44843,45043,A
Sprite,Foreground,Centre,"sb\highlight.png",304,177 C,0,195250,,127,127,127 F,1,195250,195922,0.6,0 S,2,195250,195922,2,0.4 P,0,195250,195922,A
Sprite,Foreground,Centre,"sb\highlight.png",110,204 C,0,195659,,127,127,127 F,1,195659,196059,0.6,0 S,2,195659,196059,2,0.4 P,0,195659,196059,A
Sprite,Foreground,Centre,"sb\highlight.png",77,278 C,0,195932,,127,127,127 F,1,195932,196332,0.6,0 S,2,195932,196332,2,0.4 P,0,195932,196332,A
Sprite,Foreground,Centre,"sb\highlight.png",130,338 C,0,196204,,127,127,127 F,1,196204,196604,0.6,0 S,2,196204,196604,2,0.4 P,0,196204,196604,A
Sprite,Foreground,Centre,"sb\highlight.png",209,323 C,0,196477,,191,191,191 F,1,196477,196877,0.6,0 S,2,196477,196877,2,0.4 P,0,196477,196877,A
Sprite,Foreground,Centre,"sb\highlight.png",108,409 C,0,196750,,191,191,191 F,1,196750,197150,0.6,0 S,2,196750,197150,2,0.4 P,0,196750,197150,A
Sprite,Foreground,Centre,"sb\highlight.png",77,278 C,0,197022,,191,191,191 F,1,197022,197422,0.6,0 S,2,197022,197422,2,0.4 P,0,197022,197422,A
Sprite,Foreground,Centre,"sb\highlight.png",77,278 C,0,197295,,127,127,127 F,1,197295,197695,0.6,0 S,2,197295,197695,2,0.4 P,0,197295,197695,A
Sprite,Foreground,Centre,"sb\highlight.png",293,191 C,0,197432,,127,127,127 F,1,197432,197832,0.6,0 S,2,197432,197832,2,0.4 P,0,197432,197832,A
Sprite,Foreground,Centre,"sb\ring.png",225,326 C,0,1070,,191,191,191 F,16,1070,2070,1,0 S,16,1070,2270,0.2,1.5
Sprite,Foreground,Centre,"sb\ring.png",335,314 C,0,3252,,191,191,191 F,16,3252,4252,1,0 S,16,3252,4452,0.2,1.5
Sprite,Foreground,Centre,"sb\ring.png",146,393 C,0,4343,,191,191,191 F,16,4343,5343,1,0 S,16,4343,5543,0.2,1.5
Sprite,Foreground,Centre,"sb\ring.png",93,351 C,0,5434,,127,127,127 F,16,5434,6434,1,0 S,16,5434,6634,0.2,1.5
Sprite,Foreground,Centre,"sb\ring.png",565,358 C,0,7616,,127,127,127 F,16,7616,8616,1,0 S,16,7616,8816,0.2,1.5
Sprite,Foreground,Centre,"sb\ring.png",117,166 C,0,38297,,191,191,191 F,16,38297,39297,1,0 S,16,38297,39497,0.2,1.5
Sprite,Foreground,Centre,"sb\ring.png",547,185 C,0,40479,,191,191,191 F,16,40479,41479,1,0 S,16,40479,41679,0.2,1.5
Sprite,Foreground,Centre,"sb\ring.png",78,191 C,0,42661,,191,191,191 F,16,42661,43661,1,0 S,16,42661,43861,0.2,1.5
Sprite,Foreground,Centre,"sb\ring.png",406,321 C,0,43752,,127,127,127 F,16,43752,44752,1,0 S,16,43752,44952,0.2,1.5
Sprite,Foreground,Centre,"sb\ring.png",255,192 C,0,44843,,191,191,191 F,16,44843,45843,1,0 S,16,44843,46043,0.2,1.5
Sprite,Foreground,Centre,"sb\ring.png",203,200 C,0,64479,,255,151,252 F,16,64479,65479,1,0 S,16,64479,65679,0.2,1.5
Sprite,Foreground,Centre,"sb\ring.png",209,151 C,0,105932,,191,191,191 F,16,105932,106932,1,0 S,16,105932,107132,0.2,1.5
Sprite,Foreground,Centre,"sb\ring.png",514,185 C,0,108113,,191,191,191 F,16,108113,109113,1,0 S,16,108113,109313,0.2,1.5
Sprite,Foreground,Centre,"sb\ring.png",97,382 C,0,110295,,191,191,191 F,16,110295,111295,1,0 S,16,110295,111495,0.2,1.5
Sprite,Foreground,Centre,"sb\ring.png",448,414 C,0,111386,,127,127,127 F,16,111386,112386,1,0 S,16,111386,112586,0.2,1.5
Sprite,Foreground,Centre,"sb\ring.png",379,305 C,0,112477,,127,127,127 F,16,112477,113477,1,0 S,16,112477,113677,0.2,1.5
Sprite,Foreground,Centre,"sb\ring.png",184,311 C,0,132113,,227,97,154 F,16,132113,133113,1,0 S,16,132113,133313,0.2,1.5
Sprite,Foreground,Centre,"sb\ring.png",184,127 C,0,151613,,255,151,252 F,16,151613,152613,1,0 S,16,151613,152813,0.2,1.5
Sprite,Foreground,Centre,"sb\ring.png",559,230 C,0,153795,,255,151,252 F,16,153795,154795,1,0 S,16,153795,154995,0.2,1.5
Sprite,Foreground,Centre,"sb\ring.png",246,289 C,0,155977,,255,151,252 F,16,155977,156977,1,0 S,16,155977,157177,0.2,1.5
Sprite,Foreground,Centre,"sb\ring.png",223,337 C,0,165386,,255,192,0 F,16,165386,166386,1,0 S,16,165386,166586,0.2,1.5
Sprite,Foreground,Centre,"sb\ring.png",293,191 C,0,197432,,127,127,127 F,16,197432,198432,1,0 S,16,197432,198632,0.2,1.5
Sprite,Foreground,Centre,"sb\streamBorder.png",0,0 M,0,71025,,366.8,208.2 M,17,71025,71297,366.8,208.2,338.2,228.2 F,16,71025,73525,0,0.8 S,0,71025,75192,0.9,0.6 M,0,71297,71365,338.2,228.2,336.4178,219.3782 M,0,71365,71433,336.4178,219.3782,334.6357,210.5564 M,17,71433,71570,334.6357,210.5564,288,227.2 M,0,71570,71638,288,227.2,287.2203,236.1662 M,0,71638,71706,287.2203,236.1662,292.0237,243.7186 M,17,71706,71843,292.0237,243.7186,299.4,215.4 M,17,71843,71979,299.4,215.4,319,239.2 M,17,71979,72116,319,239.2,286.6,275.6 M,17,72116,72184,286.6,275.6,283,274.4 M,17,72184,72252,283,274.4,280.2,272 M,17,72252,72320,280.2,272,278.4,268.8 M,17,72320,72388,278.4,268.8,278,265.2 M,17,72388,72456,278,265.2,278.6,261.6 M,17,72456,72525,278.6,261.6,280.2,258.2 M,0,72525,72593,280.2,258.2,289.1184,256.9907 M,17,72593,72661,289.1184,256.9907,315,267.2 M,17,72661,72729,315,267.2,321,268.6 M,17,72729,72797,321,268.6,327,266.8 M,17,72797,72866,327,266.8,332.6,269.8 M,17,72866,72934,332.6,269.8,338.2,267.2 M,17,72934,73002,338.2,267.2,343.6,270 M,17,73002,73070,343.6,270,349.4,267.6 M,17,73070,73138,349.4,267.6,354.8,270.4 M,17,73138,73206,354.8,270.4,360.6,268.2 M,0,73206,73274,360.6,268.2,362.3439,259.3749 M,0,73274,73342,362.3439,259.3749,363.2067,250.4214 M,0,73342,73410,363.2067,250.4214,363.1865,241.4263 M,17,73410,73479,363.1865,241.4263,362.2,237.4 M,17,73479,73616,362.2,237.4,320.8,248.4 M,0,73616,73684,320.8,248.4,329.7537,247.4881 M,0,73684,73752,329.7537,247.4881,338.7074,246.5761 M,17,73752,73888,338.7074,246.5761,346.2,225.2 M,17,73888,74025,346.2,225.2,309.6,212.4 M,0,74025,74093,309.6,212.4,306.8636,220.9739 M,0,74093,74161,306.8636,220.9739,309.4193,229.4286 M,17,74161,74297,309.4193,229.4286,279.4,272 M,17,74297,74434,279.4,272,273.4,256 M,17,74434,74570,273.4,256,312,266.6 M,17,74570,74706,312,266.6,301,279.6 M,17,74706,74843,301,279.6,281.8,229 M,17,74843,74979,281.8,229,293.2,259.2 M,17,74979,75116,293.2,259.2,325.8,247.8 M,17,75116,75252,325.8,247.8,308.8,209 F,16,75192,76025,0.8,0 S,0,75192,76025,0.6,0.9 M,0,75252,75320,308.8,209,309.4888,217.9733 M,0,75320,75388,309.4888,217.9733,310.4187,226.9248 M,0,75388,75456,310.4187,226.9248,311.6006,235.8465 M,17,75456,75525,311.6006,235.8465,311.6,235.8 M,17,75525,75661,311.6,235.8,348,224.2 M,17,75661,75797,348,224.2,351.8,218.8 M,17,75797,75934,351.8,218.8,362.6,250.8
Sprite,Foreground,Centre,"sb\streamBorder.png",0,0 M,0,138659,,282.4,216.8 M,17,138659,138932,282.4,216.8,335.6,219.6 F,16,138659,141159,0,0.8 S,0,138659,142826,0.9,0.6 M,0,138932,139000,335.6,219.6,326.7697,217.8607 M,0,139000,139068,326.7697,217.8607,320.5872,212.8307 M,0,139068,139136,320.5872,212.8307,312.0927,210.4616 M,0,139136,139204,312.0927,210.4616,303.3282,208.4166 M,17,139204,139341,303.3282,208.4166,325.6,238.6 M,17,139341,139477,325.6,238.6,287.8,248.4 M,0,139477,139545,287.8,248.4,296.6724,249.9102 M,0,139545,139613,296.6724,249.9102,304.8047,246.2822 M,17,139613,139750,304.8047,246.2822,351.6,275.6 M,17,139750,139818,351.6,275.6,352.6,273 M,17,139818,139886,352.6,273,353.6,270.4 M,17,139886,139954,353.6,270.4,354.6,267.8 M,17,139954,140022,354.6,267.8,355.4,265.2 M,17,140022,140091,355.4,265.2,356.4,262.6 M,17,140091,140159,356.4,262.6,357.4,260 M,0,140159,140227,357.4,260,354.4128,251.5102 M,17,140227,140295,354.4128,251.5102,364,227.4 M,17,140295,140363,364,227.4,359,231.2 M,17,140363,140432,359,231.2,352.6,232.2 M,17,140432,140500,352.6,232.2,346.4,230.8 M,17,140500,140568,346.4,230.8,341.8,226.4 M,17,140568,140636,341.8,226.4,336.6,222.6 M,17,140636,140704,336.6,222.6,330.2,222.8 M,17,140704,140772,330.2,222.8,324.8,226.2 M,17,140772,140841,324.8,226.2,321.8,231.8 M,0,140841,140909,321.8,231.8,313.3536,229.2747 M,0,140909,140977,313.3536,229.2747,305.1906,231.952 M,0,140977,141045,305.1906,231.952,296.2143,231.2992 M,0,141045,141113,296.2143,231.2992,287.238,230.6464 M,17,141113,141250,287.238,230.6464,268.8,206.6 M,0,141250,141318,268.8,206.6,267.0086,215.4156 M,0,141318,141386,267.0086,215.4156,271.3794,223.283 M,17,141386,141522,271.3794,223.283,292.8,244.2 M,17,141522,141659,292.8,244.2,270.8,275.8 M,0,141659,141727,270.8,275.8,272.6297,267.013 M,0,141727,141795,272.6297,267.013,272.3741,258.033 M,0,141795,141863,272.3741,258.033,279.2324,253.6618 M,17,141863,141932,279.2324,253.6618,292.8,244.2 M,17,141932,142068,292.8,244.2,329.6,269.4 M,17,142068,142204,329.6,269.4,305.6,261.2 M,0,142204,142272,305.6,261.2,313.9619,257.9137 M,0,142272,142340,313.9619,257.9137,321.5509,253.1049 M,17,142340,142477,321.5509,253.1049,305,233 M,17,142477,142613,305,233,314.2,277.2 M,17,142613,142750,314.2,277.2,356.6,261.4 M,17,142750,142886,356.6,261.4,363.2,277 F,16,142826,143659,0.8,0 S,0,142826,143659,0.6,0.9 M,0,142886,142954,363.2,277,365.4489,268.2888 M,0,142954,143022,365.4489,268.2888,366.941,259.4172 M,0,143022,143090,366.941,259.4172,367.671,250.4505 M,0,143090,143158,367.671,250.4505,367.6208,241.4538 M,17,143158,143295,367.6208,241.4538,334.8,234.4 M,0,143295,143363,334.8,234.4,343.7769,234.985 M,0,143363,143431,343.7769,234.985,352.6558,236.4275 M,17,143431,143568,352.6558,236.4275,319.6,231.6 M,0,143568,143636,319.6,231.6,314.3911,238.9371 M,0,143636,143704,314.3911,238.9371,308.7145,245.9183
Sprite,Foreground,Centre,"sb\streamBorder.png",0,0 M,17,177931,177932,320,240,356,239 F,16,177931,180431,0,0.8 S,0,177931,182098,0.9,0.6 M,0,177932,178000,356,239,349.5056,232.8358 M,0,178000,178068,349.5056,232.8358,346.0888,224.5974 M,0,178068,178136,346.0888,224.5974,339.7074,229.4171 M,0,178136,178204,339.7074,229.4171,330.9015,230.4772 M,17,178204,178341,330.9015,230.4772,364.4,223.6 M,17,178341,178477,364.4,223.6,323.2,264.8 M,0,178477,178545,323.2,264.8,323.6821,256.0385 M,0,178545,178613,323.6821,256.0385,329.8049,249.7988 M,0,178613,178681,329.8049,249.7988,338.5242,249.1024 M,17,178681,178750,338.5242,249.1024,349.8,259 M,0,178750,178818,349.8,259,358.71,257.7419 M,0,178818,178886,358.71,257.7419,367.5271,255.9453 M,17,178886,179022,367.5271,255.9453,326.2,278.4 M,17,179022,179091,326.2,278.4,323.4,277.6 M,17,179091,179159,323.4,277.6,320.6,277 M,17,179159,179227,320.6,277,317.8,276.2 M,17,179227,179295,317.8,276.2,315.2,275.4 M,17,179295,179363,315.2,275.4,312.4,274.6 M,17,179363,179432,312.4,274.6,309.4,274 M,0,179432,179500,309.4,274,306.5058,265.4781 M,17,179500,179568,306.5058,265.4781,276,226.6 M,17,179568,179636,276,226.6,271,232 M,17,179636,179704,271,232,269.4,239.4 M,17,179704,179772,269.4,239.4,271.4,246.4 M,17,179772,179841,271.4,246.4,276.6,251.8 M,17,179841,179909,276.6,251.8,283.8,253.8 M,17,179909,179977,283.8,253.8,291,252.4 M,17,179977,180045,291,252.4,296.8,248.2 M,17,180045,180113,296.8,248.2,300.2,241.8 M,0,180113,180181,300.2,241.8,309.1228,241.0011 M,0,180181,180249,309.1228,241.0011,317.4845,244.1547 M,0,180249,180317,317.4845,244.1547,326.1536,246.2603 M,0,180317,180385,326.1536,246.2603,335.0918,245.363 M,17,180385,180522,335.0918,245.363,360.4,230.8 M,0,180522,180590,360.4,230.8,366.6522,224.6406 M,0,180590,180658,366.6522,224.6406,367.3326,215.8915 M,17,180658,180795,367.3326,215.8915,359.4,233.4 M,17,180795,180932,359.4,233.4,334.6,206.4 M,0,180932,181000,334.6,206.4,336.7162,214.896 M,0,181000,181068,336.7162,214.896,344.0296,219.711 M,17,181068,181204,344.0296,219.711,359.6,272.2 M,17,181204,181341,359.6,272.2,347,246.6 M,17,181341,181477,347,246.6,342,264.2 M,17,181477,181613,342,264.2,363.4,254.4 M,17,181613,181750,363.4,254.4,330.6,250 M,17,181750,181886,330.6,250,306.2,277.4 M,17,181886,182022,306.2,277.4,272.8,261.8 M,17,182022,182159,272.8,261.8,281.8,273.8 F,16,182098,182931,0.8,0 S,0,182098,182931,0.6,0.9 M,0,182159,182227,281.8,273.8,281.9691,264.8024 M,0,182227,182295,281.9691,264.8024,281.76,255.8057 M,0,182295,182363,281.76,255.8057,281.1736,246.8257 M,0,182363,182431,281.1736,246.8257,280.2099,237.8783 M,17,182431,182568,280.2099,237.8783,309.8,221 M,0,182568,182636,309.8,221,308.3854,229.8078 M,0,182636,182704,308.3854,229.8078,303.4158,237.2144 M,17,182704,182841,303.4158,237.2144,274.8,206.6 M,0,182841,182909,274.8,206.6,283.1039,203.3506 M,0,182909,182977,283.1039,203.3506,291.9987,203.959
//Storyboard Layer 4 (Overlay)
//Storyboard Sound Samples

[TimingPoints]
116,272.727272727273,4,3,1,25,1,0
1070,-100,4,1,1,40,0,0
3252,-80,4,1,1,40,0,0
3661,-100,4,1,1,40,0,0
7616,-80,4,3,1,50,0,0
7888,-133.333333333333,4,3,1,50,0,0
8024,-80,4,1,1,50,0,0
8706,-100,4,1,1,50,0,0
9797,-100,4,1,1,60,0,0
18934,-80,4,1,1,60,0,0
19206,-100,4,1,1,60,0,0
19616,-80,4,1,1,60,0,0
19888,-100,4,1,1,60,0,0
20025,-80,4,1,1,60,0,0
20434,-100,4,1,1,60,0,0
20706,-166.666666666667,4,3,1,60,0,0
28343,-100,4,3,1,60,0,0
28752,-125,4,3,1,60,0,0
37206,-100,4,3,1,60,0,0
38297,-125,4,3,1,60,0,0
45116,-100,4,3,1,40,0,0
46206,-100,4,3,1,50,0,0
46956,-100,4,3,1,5,0,0
47025,-125,4,2,1,60,0,0
50025,-100,4,2,1,60,0,0
51116,-83.3333333333333,4,2,1,60,0,0
51388,-100,4,2,1,40,0,0
52479,-100,4,2,1,45,0,0
53570,-100,4,2,1,55,0,0
54116,-100,4,2,1,60,0,0
54661,-66.6666666666667,4,2,1,60,0,0
55206,-250,4,2,1,40,0,0
55683,-100,4,2,1,14,0,0
55684,-100,4,2,1,14,0,0
55752,-100,4,2,1,70,0,0
56843,-83.3333333333333,4,2,1,70,0,0
57388,-100,4,2,1,70,0,0
58206,-83.3333333333333,4,2,1,70,0,0
58479,-100,4,2,1,70,0,0
61206,-83.3333333333333,4,2,1,70,0,0
62297,-100,4,2,1,70,0,0
65570,-83.3333333333333,4,2,1,70,0,0
66116,-100,4,2,1,70,0,0
66661,-83.3333333333333,4,2,1,70,0,0
66934,-100,4,2,1,70,0,0
75252,-100,4,3,1,60,0,0
79616,-100,4,1,1,60,0,0
83979,-100,4,2,1,60,0,0
85206,-83.3333333333333,4,1,1,60,0,0
86297,-83.3333333333333,4,1,1,60,0,0
87115,-100,4,2,1,60,0,0
88343,-100,4,3,1,50,0,0
97070,-125,4,2,1,50,0,0
104025,-100,4,2,1,50,0,0
104297,240,4,2,1,50,1,0
104417,315.789473684211,4,2,1,50,1,0
104574,255.31914893617,4,2,1,50,1,0
104829,272.727272727273,4,2,1,50,1,0
105101,300,4,2,1,50,1,0
105251,272.727272727273,4,2,1,50,1,0
105387,272.727272727273,4,2,1,50,1,0
105455,-100,4,2,1,5,0,0
105523,-100,4,2,1,50,0,0
105591,-100,4,2,1,5,0,0
105659,-100,4,2,1,50,0,0
105727,-100,4,2,1,5,0,0
105796,-100,4,2,1,50,0,0
105864,-100,4,2,1,5,0,0
105932,272.727272727273,4,2,1,50,1,0
105932,-125,4,2,1,50,0,0
107022,-100,4,2,1,50,0,0
108113,-125,4,2,1,50,0,0
109068,-100,4,2,1,50,0,0
110295,-125,4,2,1,50,0,0
114386,-100,4,2,1,50,0,0
114659,-100,4,2,1,60,0,0
122841,-166.666666666667,4,2,1,50,0,0
123386,-100,4,2,1,70,0,0
124477,-83.3333333333333,4,2,1,70,0,0
125022,-100,4,2,1,70,0,0
125841,-83.3333333333333,4,2,1,70,0,0
126113,-100,4,2,1,70,0,0
133204,-83.3333333333333,4,2,1,70,0,0
133750,-100,4,2,1,70,0,0
136476,-133.333333333333,4,2,1,60,0,0
136750,-83.3333333333333,4,2,1,70,0,0
137159,-100,4,2,1,70,0,0
142886,-100,4,3,1,70,0,0
145545,-100,4,3,1,5,0,0
145613,-100,4,3,1,60,0,0
145818,-100,4,3,1,5,0,0
145886,-100,4,3,1,60,0,0
146091,-100,4,3,1,5,0,0
146159,-100,4,3,1,60,0,0
151204,-100,4,3,1,60,0,0
151612,-100,4,2,1,70,0,0
158159,-200,4,3,1,50,0,0
160477,-100,4,2,1,60,0,0
162659,-100,4,2,1,60,0,0
164841,-100,4,2,1,60,0,0
166068,-100,4,2,1,60,0,0
167295,-83.3333333333333,4,2,1,70,0,0
167704,-100,4,2,1,70,0,0
175750,-133.333333333333,4,2,1,70,0,0
176022,-83.3333333333333,4,2,1,70,0,0
176568,-100,4,2,1,70,0,0
182159,-100,4,2,1,60,0,0
183591,-100,4,2,1,5,0,0
183659,-133.333333333333,4,2,1,60,0,0
183727,-100,4,2,1,5,0,0
183795,-133.333333333333,4,2,1,60,0,0
183863,-100,4,2,1,5,0,0
183932,-133.333333333333,4,2,1,60,0,0
184000,-100,4,2,1,5,0,0
184068,-133.333333333333,4,2,1,60,0,0
184136,-100,4,2,1,5,0,0
184204,-133.333333333333,4,2,1,60,0,0
184341,-100,4,2,1,60,0,0
193477,-83.3333333333333,4,2,1,60,0,0
193750,-100,4,2,1,60,0,0
194159,-83.3333333333333,4,2,1,60,0,0
194432,-100,4,2,1,60,0,0
194568,-83.3333333333333,4,2,1,60,0,0
195249,-133.333333333333,4,3,1,50,0,0
197363,-100,4,3,1,5,0,0
197432,-100,4,3,1,40,0,0

[Colours]
Combo1 : 255,192,0
Combo2 : 127,127,127
Combo3 : 191,191,191
Combo4 : 255,128,64
Combo5 : 38,93,220
Combo6 : 255,151,252
Combo7 : 227,97,154
Combo8 : 207,113,242

[HitObjects]
63,49,116,5,0,0:0:0:0:
58,67,388,1,0,0:0:0:0:
54,84,661,1,0,0:0:0:0:
50,101,934,2,0,L|65:152,1,45
161,270,1070,6,0,P|132:215|14:216,1,180,4|0,0:2|0:0,0:0:0:0:
178,72,1479,101,2,0:0:0:0:
260,35,1752,1,2,0:0:0:0:
313,107,2025,1,2,0:0:0:0:
260,35,2297,5,2,0:0:0:0:
231,152,2570,1,2,0:0:0:0:
260,35,2843,101,2,0:0:0:0:
275,247,2979,1,2,0:0:0:0:
271,258,3252,6,0,B|356:243|341:307|440:279,1,168.75,4|0,0:2|0:0,0:0:0:0:
458,269,3525,101,0,0:0:0:0:
392,345,3661,2,0,P|365:308|365:257,1,90,2|0,0:0|0:0,0:0:0:0:
464,119,3934,1,2,0:0:0:0:
368,234,4070,2,0,L|257:216,1,90,2|0,0:0|0:0,0:0:0:0:
82,337,4343,6,0,B|131:357|131:357|178:301|136:230,1,180,4|0,0:2|0:0,0:0:0:0:
126,45,4752,1,2,0:0:0:0:
59,201,4888,1,2,0:0:0:0:
137,143,5025,2,0,L|236:127,1,90,2|2,0:0|0:0,0:0:0:0:
44,107,5297,1,0,0:0:0:0:
29,295,5434,102,0,B|101:288|101:288|131:313|131:313|221:306,1,180,4|0,0:2|0:0,0:0:0:0:
387,278,5843,5,2,0:0:0:0:
427,359,6116,1,2,0:0:0:0:
501,302,6388,1,2,0:0:0:0:
332,347,6661,101,2,0:0:0:0:
501,302,6934,1,2,0:0:0:0:
288,209,7206,5,2,0:0:0:0:
500,302,7343,1,2,0:0:0:0:
501,302,7616,102,0,P|492:242|496:177,1,112.5,4|0,1:2|0:0,0:0:0:0:
494,210,7888,2,0,L|447:197,1,33.7500012874604,2|0,0:2|0:0,0:0:0:0:
384,169,8025,6,0,B|344:181|312:165|312:165|277:191|277:191|254:172|211:181,1,168.75,2|0,0:0|0:0,0:0:0:0:
228,178,8297,1,2,0:0:0:0:
59,351,8434,1,10,0:0:0:0:
59,351,8706,102,0,P|71:284|73:208,1,135
158,224,8979,2,0,P|154:198|144:165,1,45,2|0,0:0|0:0,0:0:0:0:
48,42,9116,5,2,0:0:0:0:
263,91,9252,1,2,0:0:0:0:
179,109,9388,101,2,0:0:0:0:
350,29,9525,1,8,0:0:0:0:
262,201,9661,1,8,0:0:0:0:
264,0,9797,102,0,P|285:68|287:150,1,135,4|0,0:0|0:0,0:0:0:0:
269,208,10070,1,0,0:0:0:0:
269,208,10138,1,2,0:1:0:0:
269,208,10206,1,8,0:0:0:0:
180,76,10343,1,0,0:0:0:0:
336,118,10479,37,2,0:0:0:0:
174,186,10616,1,0,0:0:0:0:
394,280,10752,1,10,0:0:0:0:
319,339,10888,70,0,L|227:327,1,90,4|0,0:2|0:0,0:0:0:0:
58,369,11161,1,2,0:2:0:0:
87,223,11297,1,10,0:0:0:0:
134,308,11434,1,2,0:2:0:0:
12,286,11570,1,2,0:0:0:0:
189,130,11706,2,0,P|205:173|200:228,1,90,2|8,0:2|0:0,0:0:0:0:
11,83,11979,38,0,P|83:87|144:28,1,135,2|0,0:1|0:0,0:0:0:0:
145,23,12252,1,2,0:0:0:0:
354,95,12388,2,0,L|256:81,1,90,8|0,0:0|0:0,0:0:0:0:
177,245,12661,2,0,B|166:195|166:195|183:135,1,90,0|2,0:0|0:0,0:0:0:0:
170,262,12934,1,8,0:0:0:0:
347,357,13070,69,2,0:0:0:0:
440,313,13206,1,2,0:0:0:0:
341,368,13343,1,0,0:0:0:0:
360,248,13479,2,0,P|363:206|369:152,1,90
384,79,13752,37,2,1:3:0:0:
283,150,13888,1,2,0:0:0:0:
440,313,14025,1,8,0:0:0:0:
198,356,14161,70,0,L|179:204,1,135,6|0,0:1|0:0,0:0:0:0:
178,196,14434,1,2,0:0:0:0:
96,258,14570,1,8,0:0:0:0:
133,35,14706,1,2,0:0:0:0:
314,100,14843,37,2,0:0:0:0:
212,132,14979,1,2,1:0:0:0:
239,22,15116,1,2,0:0:0:0:
442,252,15252,70,0,L|465:158,1,90,2|0,0:0|0:0,0:0:0:0:
393,331,15525,1,10,0:1:0:0:
476,376,15661,2,0,P|409:361|320:356,1,135,10|0,0:1|0:0,0:0:0:0:
316,358,15934,1,2,0:1:0:0:
260,213,16070,1,2,0:2:0:0:
114,279,16206,1,8,0:0:0:0:
138,372,16343,38,0,L|236:359,1,90,4|0,0:2|0:0,0:0:0:0:
28,263,16616,1,8,0:2:0:0:
260,213,16752,2,0,P|193:227|127:180,1,135,2|0,0:1|0:0,0:0:0:0:
128,175,17025,69,0,0:0:0:0:
226,103,17161,1,2,0:1:0:0:
51,20,17297,2,0,B|29:58|29:58|40:110,1,90,2|2,0:0|0:2,0:0:0:0:
218,169,17570,37,2,0:0:0:0:
136,81,17706,1,0,0:0:0:0:
39,135,17843,1,10,0:0:0:0:
140,68,17979,1,8,0:0:0:0:
264,87,18116,69,2,0:0:0:0:
122,173,18252,1,2,0:2:0:0:
256,271,18388,1,8,0:0:0:0:
395,77,18525,38,0,B|425:116|425:116|412:219,1,135,4|0,0:0|0:0,0:0:0:0:
414,201,18797,2,0,L|356:188,1,45,0|0,1:0|0:0,0:0:0:0:
242,337,18934,70,0,B|302:327|302:327|325:342|325:342|423:328,1,168.75,0|0,1:0|0:0,0:0:0:0:
506,361,19206,2,0,P|498:338|490:309,1,45,6|4,3:0|3:0,0:0:0:0:
370,191,19343,2,0,P|366:218|354:250,1,45,6|0,3:0|0:0,0:0:0:0:
510,126,19479,1,8,0:0:0:0:
313,65,19616,38,0,B|294:50|260:53|260:53|223:108|255:168,1,168.75,4|0,0:2|0:0,0:0:0:0:
325,197,19888,2,0,L|383:188,1,45
504,295,20025,70,0,B|487:255|441:257|441:257|405:299|363:290,1,168.75,2|0,3:0|0:0,0:0:0:0:
226,373,20297,38,0,P|200:352|193:308,1,56.25,8|0,0:0|0:0,0:0:0:0:
105,326,20434,70,0,P|109:303|124:274,1,45
63,227,20570,37,8,0:0:0:0:
96,152,20706,86,0,L|214:169,1,107.999996704102,4|0,0:2|0:0,0:0:0:0:
269,125,21116,1,0,0:0:0:0:
243,47,21388,1,2,0:0:0:0:
269,125,21661,1,0,0:0:0:0:
470,164,21797,6,0,L|451:278,1,107.999996704102,2|0,0:2|0:0,0:0:0:0:
485,339,22206,1,2,0:2:0:0:
369,264,22479,1,2,0:0:0:0:
267,363,22752,1,0,0:0:0:0:
352,346,22888,102,0,P|355:267|334:230,1,107.999996704102,2|0,0:2|0:0,0:0:0:0:
377,175,23297,1,0,0:0:0:0:
227,139,23570,1,2,0:0:0:0:
77,103,23843,1,0,0:0:0:0:
78,204,23979,6,0,B|96:149|96:149|70:87,1,107.999996704102,2|0,0:2|0:0,0:0:0:0:
13,151,24388,1,2,0:2:0:0:
27,312,24661,2,0,L|91:304,1,53.9999983520508,2|0,0:2|0:0,0:0:0:0:
136,369,24934,1,2,0:2:0:0:
136,369,25070,102,0,P|165:322|157:263,1,107.999996704102,4|0,1:2|0:0,0:0:0:0:
241,272,25479,2,0,L|257:162,2,107.999996704102,0|2|0,0:0|0:0|0:0,0:0:0:0:
450,363,26161,6,0,P|407:338|343:344,1,107.999996704102,2|0,0:2|0:0,0:0:0:0:
269,371,26570,1,2,0:2:0:0:
469,266,26843,2,0,L|460:206,1,53.9999983520508,2|0,0:2|0:0,0:0:0:0:
503,95,27116,1,2,0:2:0:0:
433,137,27252,102,0,P|369:139|329:110,1,107.999996704102,2|0,0:2|0:0,0:0:0:0:
318,37,27661,1,2,0:2:0:0:
318,37,27934,1,2,0:0:0:0:
241,74,28070,1,0,0:0:0:0:
164,111,28206,1,2,0:2:0:0:
7,87,28343,6,0,B|59:72|88:126|88:126|120:171|174:158,1,180,8|8,0:2|0:0,0:0:0:0:
16,283,28752,2,0,P|15:242|3:190,1,72,2|2,0:0|0:0,0:0:0:0:
212,348,29025,1,8,0:1:0:0:
118,301,29161,1,8,0:2:0:0:
42,375,29297,1,4,0:0:0:0:
206,249,29434,102,0,P|274:200|345:223,1,144,4|0,0:2|1:0,0:0:0:0:
393,340,29843,2,0,L|316:326,1,72,8|0,0:2|0:0,0:0:0:0:
488,274,30116,2,0,B|501:231|501:231|492:191,1,72,2|0,0:0|0:0,0:0:0:0:
374,13,30388,1,8,0:1:0:0:
444,40,30525,6,0,P|410:112|340:128,1,144,0|0,1:0|1:0,0:0:0:0:
247,202,30934,2,0,L|172:194,1,72,8|0,0:2|0:0,0:0:0:0:
156,75,31206,2,0,L|231:67,1,72
12,274,31479,1,8,0:1:0:0:
71,334,31616,102,0,L|55:181,1,144,0|0,1:0|1:0,0:0:0:0:
206,214,32025,2,0,P|198:247|166:280,1,72,8|0,0:2|0:0,0:0:0:0:
38,73,32297,2,0,B|100:92|100:92|115:109|115:109|186:126,1,144,2|8,0:0|0:1,0:0:0:0:
410,225,32706,2,0,L|326:236,1,72,0|0,1:0|0:0,0:0:0:0:
428,214,32979,1,0,1:0:0:0:
267,368,33116,2,0,P|257:324|266:290,1,72,8|2,0:2|0:0,0:0:0:0:
383,135,33388,5,0,1:0:0:0:
385,319,33525,1,0,1:0:0:0:
475,250,33661,1,8,0:1:0:0:
301,210,33797,102,0,B|259:190|259:190|227:147|260:96,1,144,4|0,1:2|1:0,0:0:0:0:
436,27,34206,2,0,B|430:85|430:85|442:109|442:109|428:172,1,144,8|2,0:2|0:0,0:0:0:0:
400,271,34616,1,0,0:0:0:0:
424,182,34752,5,8,0:1:0:0:
320,325,34888,2,0,P|286:319|241:307,1,72,0|0,1:0|0:0,0:0:0:0:
410,369,35161,1,0,1:0:0:0:
212,214,35297,102,0,P|161:237|143:329,1,144,8|2,0:2|0:0,0:0:0:0:
102,178,35706,1,2,0:0:0:0:
221,298,35843,1,8,0:1:0:0:
42,360,35979,2,0,L|29:270,1,72,4|0,1:2|0:0,0:0:0:0:
23,60,36252,5,8,0:0:0:0:
204,154,36388,1,4,0:0:0:0:
122,192,36525,1,0,0:0:0:0:
136,102,36661,101,2,0:0:0:0:
226,131,36797,1,8,0:0:0:0:
257,237,36934,5,0,1:0:0:0:
460,173,37070,1,0,1:0:0:0:
245,350,37206,102,0,P|322:337|356:280,1,135,4|0,1:2|0:0,0:0:0:0:
367,177,37479,2,0,P|345:184|323:186,1,45,0|0,1:1|0:0,0:0:0:0:
469,294,37616,2,0,P|455:275|447:255,1,45,0|0,0:1|0:0,0:0:0:0:
437,46,37752,5,8,0:1:0:0:
460,173,37888,1,8,0:1:0:0:
256,103,38025,101,8,0:0:0:0:
252,136,38161,1,8,0:0:0:0:
53,110,38297,6,0,L|33:14,2,72,4|0|2,1:2|0:0|0:0,0:0:0:0:
130,184,38706,2,0,L|160:113,1,72,2|0,0:0|0:0,0:0:0:0:
24,244,38979,1,0,0:0:0:0:
24,244,39116,2,0,P|57:263|110:267,1,72,2|2,0:0|0:0,0:0:0:0:
284,313,39388,102,0,B|195:317|233:351|144:358,2,144,2|2|0,0:2|0:0|0:0,0:0:0:0:
294,327,40206,1,2,0:2:0:0:
382,307,40343,1,0,1:0:0:0:
483,129,40479,6,0,L|407:117,1,72,4|0,1:2|0:0,0:0:0:0:
347,176,40752,2,0,P|385:118|365:44,2,144,2|2|2,0:0|0:0|0:0,0:0:0:0:
331,186,41570,2,0,L|315:267,1,72,2|0,0:2|0:0,0:0:0:0:
436,360,41843,2,0,B|444:319|444:319|427:279,1,72,2|2,0:0|0:2,0:0:0:0:
230,323,42116,101,8,0:0:0:0:
161,358,42252,1,4,0:0:0:0:
107,301,42388,1,2,0:2:0:0:
36,333,42525,1,2,0:2:0:0:
14,135,42661,6,0,L|101:125,1,72,4|0,1:2|0:0,0:0:0:0:
97,207,42934,2,0,L|10:217,1,72,0|2,0:0|0:0,0:0:0:0:
156,43,43206,2,0,B|222:52|222:52|248:72|248:72|310:78,1,144,2|0,0:0|0:0,0:0:0:0:
379,51,43616,1,2,0:0:0:0:
342,265,43752,102,0,P|303:231|297:176,1,108,4|0,1:2|0:0,0:0:0:0:
263,178,44025,2,0,L|351:192,1,72,2|2,0:0|0:0,0:0:0:0:
476,168,44297,5,0,0:0:0:0:
453,177,44434,1,2,0:0:0:0:
410,347,44570,101,0,0:0:0:0:
310,334,44706,1,2,0:0:0:0:
191,136,44843,5,4,1:2:0:0:
191,136,46206,1,8,0:0:0:0:
203,157,46343,1,4,0:0:0:0:
265,73,46479,101,8,0:0:0:0:
104,105,46616,1,8,0:0:0:0:
51,48,46752,2,0,P|92:35|84:113,1,135,8|0,0:0|0:0,0:0:0:0:
86,180,47025,102,0,L|5:164,1,72,4|0,1:0|0:0,0:0:0:0:
165,260,47297,1,8,0:0:0:0:
230,67,47434,1,2,0:0:0:0:
147,42,47570,2,0,P|154:84|166:120,1,72,2|0,0:0|0:0,0:0:0:0:
277,293,47843,1,10,0:0:0:0:
118,189,47979,1,2,0:0:0:0:
34,347,48116,38,0,P|91:338|150:325,1,108,2|0,0:0|0:0,0:0:0:0:
212,359,48388,2,0,P|214:315|219:282,1,72,10|0,0:0|0:0,0:0:0:0:
359,97,48661,2,0,P|356:140|352:174,1,72,4|0,3:0|0:0,0:0:0:0:
290,231,48934,1,10,0:0:0:0:
479,147,49070,1,2,0:0:0:0:
477,253,49206,70,0,L|407:234,1,72,0|0,1:2|0:0,0:0:0:0:
178,89,49479,1,8,0:0:0:0:
252,36,49616,2,0,L|269:164,1,108,2|0,0:0|0:0,0:0:0:0:
268,157,49888,1,2,0:0:0:0:
311,349,50025,38,0,P|311:291|247:242,1,135,10|0,0:0|0:0,0:0:0:0:
89,371,50297,2,0,P|144:353|170:277,1,135,2|0,3:0|0:0,0:0:0:0:
21,190,50570,2,0,P|52:221|116:213,1,90,8|0,0:2|0:0,0:0:0:0:
173,202,50775,1,0,0:0:0:0:
183,199,50843,1,2,3:0:0:0:
14,302,50979,1,0,0:0:0:0:
10,50,51116,70,0,B|98:40|67:98|180:86,1,161.999995056153,8|0,0:0|0:0,0:0:0:0:
246,53,51388,38,0,L|295:23,3,45,4|0|0|0,1:2|1:0|1:0|1:0,0:0:0:0:
386,111,51661,2,0,L|384:53,3,45,8|0|0|0,1:0|1:0|1:0|1:0,0:0:0:0:
275,181,51934,70,0,L|297:221,3,45,8|0|0|0,1:0|1:0|1:0|1:0,0:0:0:0:
153,237,52206,2,0,L|129:275,3,45,8|0|0|0,1:0|1:0|1:0|1:0,0:0:0:0:
220,364,52479,37,12,1:2:0:0:
242,366,52547,1,0,1:0:0:0:
264,362,52616,1,0,1:0:0:0:
282,349,52684,1,0,1:0:0:0:
292,329,52752,1,8,1:0:0:0:
295,306,52820,1,0,1:0:0:0:
306,286,52888,1,0,1:0:0:0:
326,277,52956,1,0,1:0:0:0:
348,278,53025,70,0,P|368:286|391:310,3,45,8|0|0|0,1:0|1:0|1:0|1:0,0:0:0:0:
468,174,53297,2,0,P|454:190|445:212,3,45,8|0|0|0,1:0|1:0|1:0|1:0,0:0:0:0:
361,65,53570,38,0,L|367:121,1,45,12|0,1:2|1:0,0:0:0:0:
270,209,53706,1,0,1:0:0:0:
248,214,53775,1,0,1:0:0:0:
225,209,53843,1,8,1:0:0:0:
207,194,53911,1,0,1:0:0:0:
194,175,53979,1,0,1:0:0:0:
193,152,54047,1,0,1:0:0:0:
201,131,54116,2,0,L|133:120,1,45,12|0,1:2|1:0,0:0:0:0:
33,268,54252,69,0,1:0:0:0:
27,232,54320,1,0,1:0:0:0:
21,196,54388,1,8,1:0:0:0:
16,160,54456,1,0,1:0:0:0:
32,127,54525,1,0,1:0:0:0:
26,91,54593,1,0,1:0:0:0:
16,56,54661,38,0,B|71:42|100:95|100:95|149:55|212:82,1,202.500007724762,12|0,0:0|0:0,0:0:0:0:
284,168,54934,70,0,P|231:94|219:167,1,202.500007724762,12|0,0:0|0:0,0:0:0:0:
233,230,55206,6,0,B|222:279|222:279|208:295|208:295|200:334,1,108,2|0,0:0|0:0,0:0:0:0:
210,367,55752,54,0,P|149:320|84:334,1,135,6|0,1:0|0:0,0:0:0:0:
47,384,56025,2,0,L|29:277,1,90,10|0,1:0|0:0,0:0:0:0:
126,63,56297,2,0,B|158:107|158:107|136:209,1,135,2|0,1:0|0:0,0:0:0:0:
133,211,56570,1,10,0:1:0:0:
5,151,56706,2,0,L|54:141,1,45,2|0,1:0|0:0,0:0:0:0:
365,268,56843,6,0,B|359:231|316:218|316:218|268:213|252:147,1,161.999995056153,2|0,1:0|0:0,0:0:0:0:
239,261,57116,102,0,P|314:243|336:156,1,161.999995056153,10|0,1:0|0:0,0:0:0:0:
303,105,57388,5,2,1:0:0:0:
431,215,57525,1,0,1:0:0:0:
313,343,57661,2,0,B|301:298|301:298|313:248,1,90,10|2,1:0|3:0,0:0:0:0:
499,123,57934,102,0,B|444:110|444:110|427:88|427:88|372:73,1,135,2|0,1:0|0:0,0:0:0:0:
440,8,58206,6,0,P|374:65|303:51,1,161.999995056153,10|2,1:0|0:0,0:0:0:0:
216,155,58479,2,0,L|315:148,1,90,0|0,1:3|0:0,0:0:0:0:
68,189,58752,101,8,0:0:0:0:
100,72,58888,1,0,1:0:0:0:
285,214,59025,5,2,1:0:0:0:
187,150,59161,1,2,1:0:0:0:
187,150,59229,1,2,1:0:0:0:
187,150,59297,1,8,1:1:0:0:
106,348,59434,1,2,1:0:0:0:
217,365,59570,102,0,P|236:320|222:262,1,90,0|2,1:0|1:0,0:0:0:0:
20,162,59843,2,0,P|43:199|90:220,1,90,10|2,1:0|1:0,0:0:0:0:
280,87,60116,6,0,P|223:99|179:169,1,135,6|0,1:0|0:0,0:0:0:0:
178,181,60388,1,10,1:0:0:0:
398,134,60525,2,0,L|495:124,1,90,2|0,1:0|0:0,0:0:0:0:
357,54,60797,1,0,0:0:0:0:
488,289,60934,2,0,B|435:243|435:243|370:246,1,135,10|0,1:0|0:0,0:0:0:0:
319,312,61206,102,0,P|289:265|295:213,1,107.999996704102,2|0,1:0|0:0,0:0:0:0:
39,128,61479,2,0,P|94:130|136:99,1,107.999996704102,10|0,1:0|0:0,0:0:0:0:
226,373,61752,6,0,B|242:336|242:336|239:324|239:324|248:318|248:318|275:263,1,107.999996704102,2|0,1:0|0:0,0:0:0:0:
75,20,62025,2,0,B|111:45|111:45|122:45|122:45|126:57|126:57|158:80,1,107.999996704102,10|0,1:0|0:0,0:0:0:0:
44,304,62297,102,0,L|157:214,1,135,4|0,1:2|0:0,0:0:0:0:
224,224,62570,2,0,B|250:182|250:182|234:136,1,90,10|2,1:0|0:0,0:0:0:0:
33,65,62843,1,4,1:2:0:0:
124,169,62979,1,0,0:0:0:0:
44,304,63116,2,0,P|8:247|54:190,1,135,10|0,1:0|0:0,0:0:0:0:
124,169,63388,5,4,1:2:0:0:
214,202,63525,1,0,0:0:0:0:
309,65,63661,101,12,0:2:0:0:
219,98,63797,1,0,0:0:0:0:
215,301,63934,5,4,1:2:0:0:
304,165,64070,1,0,1:0:0:0:
105,28,64206,1,8,1:0:0:0:
81,61,64275,1,8,1:0:0:0:
79,101,64343,1,8,1:0:0:0:
100,135,64411,1,8,1:0:0:0:
139,144,64479,102,0,P|210:139|282:123,1,135,6|0,1:0|0:0,0:0:0:0:
339,160,64752,2,0,L|309:65,1,90,10|0,1:0|0:0,0:0:0:0:
495,235,65025,2,0,P|492:288|463:316,1,90,2|0,1:0|0:0,0:0:0:0:
289,248,65297,1,8,0:0:0:0:
440,154,65434,2,0,L|427:209,1,45
396,358,65570,6,0,B|379:297|379:297|389:263|389:263|368:197,1,161.999995056153,2|0,1:0|0:0,0:0:0:0:
316,47,65843,102,0,P|290:92|347:179,1,161.999995056153,10|0,1:0|0:0,0:0:0:0:
451,232,66116,5,2,1:0:0:0:
372,103,66252,1,0,1:0:0:0:
215,181,66388,2,0,L|108:158,1,90,10|0,1:0|0:0,0:0:0:0:
76,23,66661,102,0,B|95:55|86:91|86:91|38:120|44:189,1,161.999995056153,4|0,1:2|0:0,0:0:0:0:
73,234,66934,2,0,P|44:201|0:197,1,90,10|0,1:0|0:0,0:0:0:0:
161,273,67206,1,4,1:2:0:0:
148,175,67343,1,2,1:0:0:0:
105,346,67479,1,8,0:0:0:0:
250,287,67616,1,2,1:0:0:0:
418,360,67752,6,0,L|314:345,1,90,0|0,1:0|0:0,0:0:0:0:
378,139,68025,2,0,P|364:181|374:224,1,90,8|2,0:0|1:0,0:0:0:0:
433,270,68229,1,0,0:0:0:0:
450,273,68297,1,4,2:0:0:0:
286,168,68434,1,0,1:0:0:0:
493,71,68570,2,0,L|404:43,1,90,8|0,1:0|1:0,0:0:0:0:
166,235,68843,102,0,P|216:223|244:145,1,135,6|0,1:0|0:0,0:0:0:0:
165,74,69116,2,0,P|151:113|172:162,1,90,10|2,1:1|1:0,0:0:0:0:
306,245,69388,2,0,P|349:230|378:180,1,90,2|0,1:0|0:0,0:0:0:0:
185,369,69661,2,0,L|165:226,1,135,10|0,1:0|0:0,0:0:0:0:
86,164,69934,6,0,P|80:189|66:220,3,45,2|2|2|2,0:0|0:0|0:0|0:0,0:0:0:0:
281,294,70206,2,0,P|269:266|266:243,3,45,10|2|2|2,0:0|0:0|0:0|0:0,0:0:0:0:
225,62,70479,101,2,1:0:0:0:
213,75,70547,1,2,0:0:0:0:
204,90,70616,1,2,0:0:0:0:
200,107,70684,1,2,0:0:0:0:
198,124,70752,2,0,P|221:137|252:144,1,45,10|0,1:0|0:0,0:0:0:0:
366,216,70888,2,0,P|389:203|420:196,1,45,2|0,1:2|0:0,0:0:0:0:
490,25,71025,6,0,P|418:19|368:64,1,135,6|0,1:1|1:0,0:0:0:0:
347,125,71297,2,0,L|327:26,1,90,10|2,1:0|1:0,0:0:0:0:
96,120,71570,2,0,B|92:166|92:166|121:210,1,90,0|0,1:0|1:0,0:0:0:0:
153,61,71843,1,10,1:0:0:0:
251,180,71979,1,0,1:0:0:0:
89,362,72116,101,2,1:0:0:0:
71,356,72184,1,0,1:0:0:0:
57,344,72252,1,2,1:0:0:0:
48,328,72320,1,2,1:0:0:0:
46,310,72388,1,10,1:0:0:0:
49,292,72456,1,0,1:0:0:0:
57,275,72525,2,0,L|116:267,1,45,2|0,1:0|1:0,0:0:0:0:
231,320,72661,5,0,1:0:0:0:
261,327,72729,1,2,1:0:0:0:
291,318,72797,1,2,1:0:0:0:
319,333,72866,1,0,1:0:0:0:
347,320,72934,1,10,1:0:0:0:
374,334,73002,1,0,1:0:0:0:
403,322,73070,1,2,1:0:0:0:
430,336,73138,1,0,1:0:0:0:
459,325,73206,102,0,P|471:253|471:177,1,135,2|0,1:0|0:0,0:0:0:0:
467,171,73479,1,10,1:0:0:0:
260,226,73616,2,0,L|368:215,1,90,0|0,1:0|1:0,0:0:0:0:
387,110,73888,1,2,1:0:0:0:
204,46,74025,2,0,B|189:93|189:93|206:139,1,90,8|0,1:0|1:0,0:0:0:0:
53,344,74297,5,4,1:2:0:0:
23,264,74434,1,8,1:0:0:0:
216,317,74570,101,10,0:0:0:0:
161,382,74706,1,0,0:0:0:0:
65,129,74843,5,0,1:0:0:0:
122,280,74979,1,8,1:0:0:0:
285,223,75116,1,8,1:0:0:0:
200,29,75252,102,0,P|206:100|217:183,1,135,4|0,1:2|0:0,0:0:0:0:
214,163,75525,1,0,0:0:0:0:
396,105,75661,53,2,1:0:0:0:
415,78,75797,1,0,0:0:0:0:
469,238,75934,5,2,1:0:0:0:
462,155,76070,1,0,0:0:0:0:
388,204,76206,101,2,1:0:0:0:
501,322,76343,1,0,0:0:0:0:
333,361,76479,6,0,B|284:368|284:368|241:346,1,90,2|0,1:0|0:0,0:0:0:0:
165,62,76752,2,0,B|214:55|214:55|257:77,1,90,2|0,1:0|0:0,0:0:0:0:
493,170,77025,102,0,L|434:164,1,45,2|0,1:0|0:0,0:0:0:0:
282,244,77161,2,0,P|284:272|294:293,1,45,2|0,1:0|0:0,0:0:0:0:
290,287,77434,6,0,P|337:227|314:171,1,135,6|0,1:0|0:0,0:0:0:0:
279,113,77706,2,0,L|224:104,1,45,2|0,0:1|0:0,0:0:0:0:
27,61,77843,101,2,1:0:0:0:
41,50,77979,1,0,3:0:0:0:
67,190,78116,5,2,1:0:0:0:
83,138,78252,1,2,3:2:0:0:
168,281,78388,101,2,1:0:0:0:
155,197,78525,1,2,3:0:0:0:
303,333,78661,5,8,1:0:0:0:
240,226,78797,1,0,0:0:0:0:
88,249,78934,101,8,1:0:0:0:
245,211,79070,1,8,1:0:0:0:
168,359,79206,6,0,P|146:359|125:366,1,45,10|0,1:0|0:0,0:0:0:0:
173,146,79343,2,0,P|190:162|201:181,1,45,10|0,1:0|0:0,0:0:0:0:
374,200,79479,2,0,P|385:180|391:159,1,45,10|0,1:0|0:0,0:0:0:0:
146,56,79616,86,0,P|132:118|115:218,1,135,6|0,1:0|0:0,0:0:0:0:
112,211,79888,1,2,0:0:0:0:
308,344,80025,2,0,B|302:296|302:296|266:264,1,90,10|2,0:0|0:0,0:0:0:0:
25,188,80297,37,2,0:0:0:0:
27,359,80434,1,0,0:0:0:0:
120,329,80570,69,10,0:0:0:0:
51,271,80706,1,0,0:0:0:0:
169,92,80843,37,2,0:0:0:0:
182,193,80979,1,2,0:0:0:0:
386,184,81116,69,2,0:0:0:0:
287,250,81252,1,0,0:0:0:0:
247,13,81388,37,2,1:0:0:0:
307,169,81525,1,2,1:0:0:0:
465,77,81661,1,2,1:0:0:0:
234,126,81797,70,0,P|304:92|370:121,1,135,2|0,1:0|0:0,0:0:0:0:
414,168,82070,2,0,L|397:225,1,45
511,316,82206,37,10,0:0:0:0:
401,211,82343,1,2,0:0:0:0:
392,360,82479,69,2,0:0:0:0:
500,206,82616,1,2,0:0:0:0:
286,109,82752,37,10,0:0:0:0:
329,273,82888,1,2,0:0:0:0:
501,86,83025,70,0,B|456:64|456:64|407:74,1,90,2|2,0:0|0:2,0:0:0:0:
220,217,83297,2,0,L|58:188,1,135,2|0,0:0|0:0,0:0:0:0:
44,263,83570,38,0,L|56:324,1,45,8|0,0:0|0:0,0:0:0:0:
66,183,83706,2,0,L|78:244,1,45,8|0,0:0|0:0,0:0:0:0:
88,103,83843,2,0,L|100:164,1,45,8|0,0:0|0:0,0:0:0:0:
28,39,83979,86,0,P|109:58|202:36,1,180,4|0,1:2|1:0,0:0:0:0:
330,248,84388,2,0,P|331:202|214:168,1,180,8|0,0:0|1:0,0:0:0:0:
155,304,84797,1,0,1:0:0:0:
33,169,84934,2,0,B|35:197|55:211|55:211|34:230|30:259,1,90,8|0,0:0|1:0,0:0:0:0:
191,309,85206,102,0,P|154:248|118:304,1,161.999995056153,4|0,1:0|0:0,0:0:0:0:
117,301,85479,1,0,0:0:0:0:
276,319,85616,38,0,P|272:259|211:176,1,161.999995056153
135,171,85888,1,0,0:0:0:0:
271,102,86025,70,0,P|315:79|350:30,1,107.999996704102
348,291,86297,38,0,P|306:264|246:258,1,107.999996704102,4|8,0:2|0:0,0:0:0:0:
249,258,86570,1,8,0:0:0:0:
482,153,86706,70,0,P|479:202|504:257,1,107.999996704102,4|0,0:2|0:0,0:0:0:0:
503,255,86979,1,8,0:0:0:0:
363,184,87116,37,4,2:0:0:0:
256,192,87184,12,4,88343,1:2:0:0:
163,101,96388,85,2,0:0:0:0:
100,45,96525,1,8,0:2:0:0:
100,45,96661,1,8,0:1:0:0:
234,50,96797,5,8,0:0:0:0:
171,209,96934,1,4,0:0:0:0:
7,283,97070,102,0,P|56:290|90:381,1,144,4|0,0:2|1:0,0:0:0:0:
242,205,97479,2,0,L|162:209,1,72,8|0,0:2|0:0,0:0:0:0:
282,305,97752,2,0,P|291:236|315:158,1,144,0|8,0:0|0:0,0:0:0:0:
192,38,98161,6,0,P|202:83|230:120,1,72,0|0,1:0|0:0,0:0:0:0:
447,105,98434,1,0,1:0:0:0:
409,207,98570,2,0,L|491:195,1,72,8|0,0:0|0:0,0:0:0:0:
347,45,98843,102,0,P|300:79|312:156,1,144,0|8,0:0|0:0,0:0:0:0:
393,314,99252,2,0,L|409:236,1,72,0|0,1:0|0:0,0:0:0:0:
320,364,99525,1,0,1:0:0:0:
172,334,99661,2,0,P|209:324|258:330,1,72,8|0,0:0|0:0,0:0:0:0:
489,272,99934,6,0,P|425:236|425:147,1,144,0|8,0:0|0:0,0:0:0:0:
301,52,100343,2,0,L|323:129,1,72,0|0,1:0|0:0,0:0:0:0:
200,133,100616,1,0,1:0:0:0:
251,290,100752,2,0,P|260:256|263:201,1,72,8|0,0:0|0:0,0:0:0:0:
28,234,101025,101,0,1:0:0:0:
102,124,101161,1,0,1:0:0:0:
118,216,101297,1,0,1:0:0:0:
27,24,101434,6,0,P|46:100|62:183,1,144,4|0,0:2|1:0,0:0:0:0:
30,331,101843,2,0,P|69:316|114:310,1,72,8|0,0:0|0:0,0:0:0:0:
302,319,102116,2,0,P|267:243|202:229,1,144,0|8,0:0|0:0,0:0:0:0:
271,63,102525,102,0,L|286:154,1,72,0|0,1:0|0:0,0:0:0:0:
355,27,102797,1,0,1:0:0:0:
432,253,102934,2,0,L|447:175,1,72,8|0,0:0|0:0,0:0:0:0:
473,328,103206,5,0,1:0:0:0:
355,215,103343,1,0,1:0:0:0:
474,104,103479,1,8,0:0:0:0:
512,169,103616,102,0,L|355:145,1,144,4|0,1:2|1:0,0:0:0:0:
241,362,104025,2,0,P|295:356|321:325,1,90,8|0,0:0|0:0,0:0:0:0:
404,301,104297,5,0,1:0:0:0:
250,224,104417,1,8,0:0:0:0:
358,90,104574,2,0,P|356:140|348:189,1,90,0|0,1:0|1:0,0:0:0:0:
235,129,104829,101,12,0:0:0:0:
442,211,104965,1,8,0:0:0:0:
442,211,105251,5,0,1:0:0:0:
235,129,105387,1,8,0:0:0:0:
313,276,105523,101,8,3:0:0:0:
345,173,105659,1,8,3:0:0:0:
379,70,105796,1,4,3:0:0:0:
145,95,105932,5,6,1:0:0:0:
65,47,106068,2,0,P|73:124|82:212,1,144,0|0,1:2|1:0,0:0:0:0:
79,190,106477,2,0,P|112:188|169:200,1,72,0|0,1:0|0:0,0:0:0:0:
33,267,106750,1,0,1:0:0:0:
193,360,106886,1,2,0:0:0:0:
193,360,106954,1,2,0:0:0:0:
193,360,107022,102,0,L|176:271,1,90,10|2,0:2|0:2,0:0:0:0:
193,360,107295,1,0,0:0:0:0:
222,198,107432,2,0,P|269:221|318:222,1,90,8|0,0:0|0:0,0:0:0:0:
464,346,107704,2,0,B|362:307|415:267|323:227,1,180,2|0,0:0|0:0,0:0:0:0:
450,129,108113,6,0,P|461:165|443:203,1,72,2|0,1:0|0:0,0:0:0:0:
378,69,108386,1,0,0:0:0:0:
458,44,108522,1,4,3:0:0:0:
378,69,108659,2,0,L|295:53,1,72
244,128,108932,2,0,P|296:98|304:39,1,108,4|0,3:0|0:0,0:0:0:0:
153,24,109204,102,0,P|199:25|237:62,1,90,10|2,0:0|0:0,0:0:0:0:
153,24,109477,1,0,0:0:0:0:
75,150,109613,2,0,P|66:108|64:59,1,90,8|0,0:0|0:0,0:0:0:0:
305,199,109886,2,0,B|233:220|233:220|197:205|197:205|126:226,1,180,2|0,0:0|0:0,0:0:0:0:
33,326,110295,5,2,1:0:0:0:
17,238,110432,1,0,0:0:0:0:
29,337,110568,2,0,P|61:344|115:352,1,72,0|0,0:0|1:0,0:0:0:0:
292,320,110841,1,2,0:0:0:0:
292,320,110977,2,0,P|257:311|185:387,1,144,0|0,1:0|0:0,0:0:0:0:
384,358,111386,102,0,P|388:321|400:280,1,72,2|0,1:0|0:0,0:0:0:0:
420,185,111659,1,0,0:0:0:0:
398,288,111795,1,8,3:0:0:0:
350,108,111932,5,2,0:0:0:0:
350,108,112068,1,2,0:0:0:0:
508,230,112204,1,4,3:0:0:0:
508,230,112341,1,2,0:0:0:0:
315,249,112477,102,0,B|235:225|279:278|163:246,1,144,2|0,1:0|0:0,0:0:0:0:
101,315,112886,1,0,1:0:0:0:
79,163,113022,2,0,P|146:175|169:241,1,144,4|0,0:0|1:0,0:0:0:0:
24,362,113432,1,2,0:0:0:0:
17,344,113500,1,2,0:0:0:0:
17,322,113568,5,2,1:2:0:0:
239,360,113704,1,2,0:0:0:0:
110,366,113841,1,0,1:0:0:0:
143,355,113977,1,8,0:0:0:0:
77,146,114113,101,8,0:0:0:0:
127,274,114250,1,8,3:0:0:0:
340,194,114386,2,0,P|306:168|219:199,1,135,4|0,3:0|0:0,0:0:0:0:
374,265,114659,101,4,1:0:0:0:
433,120,114795,1,0,0:0:0:0:
510,228,114932,2,0,P|470:218|419:199,1,90,10|2,0:0|0:0,0:0:0:0:
415,26,115204,2,0,P|454:35|506:55,1,90,2|0,0:0|0:0,0:0:0:0:
347,93,115477,37,8,0:0:0:0:
374,265,115613,1,2,0:0:0:0:
374,265,115682,1,2,0:0:0:0:
374,265,115750,69,2,0:0:0:0:
469,233,115886,1,2,0:0:0:0:
346,360,116022,1,8,0:0:0:0:
190,284,116159,2,0,L|175:174,1,90,2|0,0:0|1:0,0:0:0:0:
302,104,116432,2,0,B|315:154|315:154|294:204,1,90,2|8,0:0|0:0,0:0:0:0:
224,37,116704,1,2,0:0:0:0:
36,160,116841,37,2,1:0:0:0:
139,135,116977,1,0,0:0:0:0:
27,166,117113,1,8,0:0:0:0:
67,54,117250,1,2,0:0:0:0:
136,315,117386,70,0,P|115:253|45:257,1,135,2|0,0:0|0:0,0:0:0:0:
126,348,117659,2,0,P|176:344|227:326,1,90,10|2,0:0|0:0,0:0:0:0:
280,295,117863,1,2,0:0:0:0:
290,287,117932,37,2,1:2:0:0:
182,142,118068,1,2,0:0:0:0:
203,59,118204,2,0,L|212:148,1,90,8|2,0:0|0:0,0:0:0:0:
305,200,118477,69,0,1:1:0:0:
118,70,118613,1,0,1:1:0:0:
291,28,118750,1,8,1:0:0:0:
207,245,118886,1,0,1:1:0:0:
212,148,119022,38,0,B|165:155|165:155|119:196,1,90,4|2,1:0|1:2,0:0:0:0:
312,285,119295,2,0,B|327:241|327:241|306:188,1,90,8|2,1:2|1:2,0:0:0:0:
136,330,119568,1,0,1:0:0:0:
212,368,119704,2,0,P|261:362|318:359,1,90,0|8,1:0|1:2,0:0:0:0:
512,297,119977,1,2,1:2:0:0:
462,362,120113,70,0,B|479:318|479:318|440:280|461:223,1,135,4|0,1:2|1:2,0:0:0:0:
503,148,120386,2,0,P|489:192|440:195,1,90,8|0,1:0|1:0,0:0:0:0:
318,53,120659,37,0,1:0:0:0:
410,81,120795,1,0,1:0:0:0:
167,168,120932,69,8,1:2:0:0:
260,140,121068,1,0,1:0:0:0:
46,26,121204,38,0,B|41:71|41:71|94:91|86:166,1,135,4|0,1:0|1:0,0:0:0:0:
31,224,121477,2,0,P|2:177|17:131,1,90,10|2,1:2|1:2,0:0:0:0:
281,300,121750,70,0,B|160:291|160:291|181:282,1,135,2|0,1:2|1:0,0:0:0:0:
226,133,122022,2,0,B|247:179|247:179|223:229,1,90,10|2,1:2|1:2,0:0:0:0:
155,179,122227,1,0,1:0:0:0:
155,179,122295,1,4,0:0:0:0:
444,57,122568,1,2,1:0:0:0:
155,179,122841,6,0,B|207:229|170:288|136:297|101:274|118:233,1,161.999995056153,2|0,0:0|0:0,0:0:0:0:
155,179,123386,54,0,B|246:161|216:211|314:185,1,135,6|0,1:0|0:0,0:0:0:0:
350,147,123659,2,0,P|365:92|336:62,1,90,10|0,1:0|0:0,0:0:0:0:
136,6,123932,2,0,L|148:157,1,135,2|0,1:0|0:0,0:0:0:0:
148,159,124204,1,10,0:1:0:0:
251,299,124341,2,0,L|198:293,1,45,2|0,1:0|0:0,0:0:0:0:
4,317,124477,6,0,B|66:374|66:374|124:317,1,161.999995056153,2|0,1:0|0:0,0:0:0:0:
128,243,124750,102,0,B|85:229|67:195|67:195|44:236|-1:240,1,161.999995056153,10|0,1:0|0:0,0:0:0:0:
1,239,125022,5,2,1:0:0:0:
148,159,125159,1,0,1:0:0:0:
201,340,125295,2,0,L|296:328,1,90,10|2,1:0|3:0,0:0:0:0:
108,355,125568,102,0,B|88:314|88:314|103:260,1,90,2|0,1:0|0:0,0:0:0:0:
11,72,125841,2,0,B|98:95|98:95|110:119|110:119|180:139,1,161.999995056153,8|0,1:0|0:0,0:0:0:0:
195,196,126113,2,0,B|242:176|242:176|301:185,1,90,2|2,1:0|0:2,0:0:0:0:
417,357,126386,2,0,L|315:333,1,90,8|0,0:0|1:0,0:0:0:0:
441,163,126659,5,2,1:0:0:0:
474,266,126795,1,2,1:0:0:0:
474,266,126863,1,2,1:0:0:0:
474,266,126932,1,8,1:1:0:0:
245,298,127068,1,2,1:0:0:0:
326,355,127204,102,0,L|341:257,1,90,2|2,1:0|1:0,0:0:0:0:
122,213,127477,2,0,L|107:125,1,90,8|0,1:0|0:0,0:0:0:0:
424,39,127750,6,0,P|381:83|265:71,1,180,6|10,1:0|1:0,0:0:0:0:
220,215,128159,2,0,P|269:209|320:197,1,90,2|2,1:0|3:0,0:0:0:0:
134,325,128432,1,0,0:0:0:0:
394,362,128568,2,0,P|350:363|298:348,1,90,10|0,1:0|0:0,0:0:0:0:
463,154,128841,101,2,1:0:0:0:
494,248,128977,1,0,0:0:0:0:
358,201,129113,5,10,1:0:0:0:
382,104,129250,1,2,0:2:0:0:
472,58,129386,101,2,1:0:0:0:
289,130,129522,1,2,0:0:0:0:
391,340,129659,2,0,P|406:280|415:187,1,135,10|0,1:0|0:0,0:0:0:0:
360,170,129932,6,0,P|408:169|469:164,1,90,4|0,1:2|0:0,0:0:0:0:
194,303,130204,2,0,P|244:310|292:316,1,90,10|2,1:0|0:0,0:0:0:0:
127,368,130477,1,4,1:2:0:0:
198,222,130613,1,0,0:0:0:0:
11,112,130750,2,0,P|15:194|25:255,1,135,10|0,1:0|0:0,0:0:0:0:
23,246,131022,101,4,1:2:0:0:
129,124,131159,1,2,3:0:0:0:
225,155,131295,5,12,0:2:0:0:
92,31,131432,1,2,3:0:0:0:
35,107,131568,101,4,1:2:0:0:
209,68,131704,1,0,1:0:0:0:
236,281,131841,1,8,1:0:0:0:
208,310,131909,1,8,1:0:0:0:
167,313,131977,1,8,1:0:0:0:
130,295,132045,1,8,1:0:0:0:
120,255,132113,6,0,B|144:163|172:224|204:121,1,135,6|0,1:0|0:0,0:0:0:0:
146,67,132386,2,0,P|132:112|155:146,1,90,10|0,1:0|0:0,0:0:0:0:
462,320,132659,2,0,P|447:244|353:227,1,180,2|10,1:0|1:0,0:0:0:0:
238,310,133068,2,0,L|194:317,1,45
103,348,133204,102,0,B|153:358|153:358|199:316|170:258,1,161.999995056153,2|0,1:0|0:0,0:0:0:0:
94,252,133477,6,0,B|198:235|132:184|237:162,1,161.999995056153,10|0,1:0|0:0,0:0:0:0:
244,164,133750,101,2,1:0:0:0:
48,84,133886,1,0,1:0:0:0:
236,29,134022,2,0,P|189:46|157:87,1,90,10|0,1:0|0:0,0:0:0:0:
299,346,134295,6,0,P|325:279|329:202,1,135,4|0,1:2|0:0,0:0:0:0:
320,187,134568,2,0,P|348:231|389:250,1,90,10|2,1:0|0:0,0:0:0:0:
473,36,134841,2,0,P|433:26|380:53,1,90,0|2,0:0|1:0,0:0:0:0:
308,94,135113,1,8,0:0:0:0:
439,163,135250,1,2,1:0:0:0:
345,331,135386,102,0,L|251:318,1,90,4|0,1:2|0:0,0:0:0:0:
166,194,135659,2,0,B|211:174|211:174|271:186,1,90,8|2,0:0|1:0,0:0:0:0:
324,218,135863,1,0,0:0:0:0:
324,218,135932,5,4,0:0:0:0:
56,331,136068,1,0,1:0:0:0:
137,380,136204,2,0,L|148:285,1,90,8|0,1:0|0:0,0:0:0:0:
46,66,136477,102,0,P|62:100|27:151,1,101.250003862381,6|0,1:0|0:0,0:0:0:0:
17,156,136750,6,0,B|82:127|138:171|113:186|179:223|240:178,1,215.999993408203,10|2,1:1|1:0,0:0:0:0:
323,155,137159,1,0,0:0:0:0:
257,15,137295,2,0,P|236:59|244:110,1,90,10|0,1:0|0:0,0:0:0:0:
396,226,137568,102,0,L|449:217,3,45,2|2|2|2,0:0|0:0|0:0|0:0,0:0:0:0:
343,331,137841,2,0,L|293:315,3,45,10|2|2|2,0:0|0:0|0:0|0:0,0:0:0:0:
250,198,138113,1,2,1:0:0:0:
238,217,138182,1,2,0:0:0:0:
219,229,138250,1,2,0:0:0:0:
196,231,138318,1,2,0:0:0:0:
173,226,138386,6,0,P|168:206|157:171,1,45,10|0,1:0|0:0,0:0:0:0:
40,266,138522,2,0,P|59:279|82:293,1,45,2|0,1:2|0:0,0:0:0:0:
68,68,138659,102,0,P|70:119|59:177,1,90,6|2,1:1|1:0,0:0:0:0:
334,82,138932,2,0,B|268:69|268:69|258:46|258:46|168:25,1,180,10|0,1:0|1:0,0:0:0:0:
284,177,139341,1,2,1:0:0:0:
95,226,139477,2,0,B|142:234|142:234|187:212,1,90,10|2,1:0|1:0,0:0:0:0:
414,362,139750,5,2,1:0:0:0:
419,349,139818,1,0,1:0:0:0:
424,336,139886,1,2,1:0:0:0:
429,323,139954,1,0,1:0:0:0:
433,310,140022,1,10,1:0:0:0:
438,297,140091,1,0,1:0:0:0:
443,284,140159,2,0,L|424:230,1,45,2|0,1:0|1:0,0:0:0:0:
476,121,140295,101,0,1:0:0:0:
451,140,140363,1,2,1:0:0:0:
419,145,140432,1,2,1:0:0:0:
388,138,140500,1,0,1:0:0:0:
365,116,140568,1,10,1:0:0:0:
339,97,140636,1,0,1:0:0:0:
307,98,140704,1,2,1:0:0:0:
280,115,140772,1,0,1:0:0:0:
265,143,140841,6,0,B|225:129|225:129|199:145|199:145|89:137,1,180,2|10,1:0|1:0,0:0:0:0:
0,17,141250,2,0,B|-9:61|-9:61|16:106,1,90,2|0,1:0|1:0,0:0:0:0:
120,205,141522,1,2,1:0:0:0:
10,363,141659,2,0,B|25:320|17:268|17:268|40:263|59:247,1,135,8|0,1:0|1:0,0:0:0:0:
120,205,141932,101,4,1:2:0:0:
304,331,142068,1,8,1:0:0:0:
184,290,142204,2,0,P|229:272|267:247,1,90,10|0,0:0|0:0,0:0:0:0:
181,149,142477,5,0,1:0:0:0:
227,370,142613,1,8,1:0:0:0:
439,291,142750,1,8,1:0:0:0:
472,369,142886,102,0,P|490:287|494:189,1,180,6|2,1:1|0:1,0:0:0:0:
330,156,143295,2,0,P|376:159|428:168,1,90,2|0,1:0|0:0,0:0:0:0:
254,142,143568,2,0,P|227:180|194:220,1,90,8|0,1:3|0:0,0:0:0:0:
304,83,143841,2,0,P|283:40|265:-7,1,90,8|0,1:3|0:0,0:0:0:0:
452,30,144113,54,0,B|424:63|424:63|372:89,1,90,8|0,1:3|0:0,0:0:0:0:
297,316,144386,2,0,B|281:275|281:275|285:217,1,90,8|0,1:3|0:0,0:0:0:0:
173,41,144659,1,8,1:3:0:0:
269,130,144795,1,8,1:3:0:0:
23,198,144932,1,8,1:0:0:0:
66,125,145068,6,0,P|49:222|45:312,1,180,6|2,1:0|0:1,0:0:0:0:
289,358,145477,2,0,L|265:261,1,90,2|0,1:0|0:0,0:0:0:0:
141,348,145750,101,8,1:3:0:0:
199,189,145886,1,0,0:0:0:0:
180,278,146022,1,8,1:3:0:0:
156,259,146159,1,0,0:0:0:0:
389,169,146295,6,0,P|341:246|257:245,1,180,8|2,1:0|3:0,0:0:0:0:
459,217,146704,1,0,0:0:0:0:
304,177,146841,101,8,1:0:0:0:
340,357,146977,1,8,0:0:0:0:
512,310,147113,1,4,0:0:0:0:
261,343,147250,6,0,B|368:389|324:306|435:344,1,180,6|2,1:0|0:1,0:0:0:0:
256,199,147659,2,0,P|221:226|223:278,1,90,2|0,1:0|0:0,0:0:0:0:
261,179,147932,1,0,1:0:0:0:
305,270,148068,1,8,0:2:0:0:
132,348,148204,2,0,P|120:310|110:256,1,90,0|0,1:0|0:0,0:0:0:0:
261,93,148477,102,0,B|274:137|274:137|259:182,1,90,8|0,1:0|0:0,0:0:0:0:
91,121,148750,1,0,1:0:0:0:
101,106,148886,1,0,0:0:0:0:
2,103,149022,5,0,1:0:0:0:
123,289,149159,2,0,P|133:236|94:196,1,90,0|8,1:0|0:0,0:0:0:0:
31,350,149432,102,0,B|108:333|108:333|145:352|145:352|208:339,1,180,6|2,1:0|0:1,0:0:0:0:
319,194,149841,2,0,P|268:190|218:174,1,90,2|0,1:0|0:0,0:0:0:0:
411,314,150113,1,0,1:0:0:0:
411,314,150250,1,8,0:2:0:0:
254,378,150386,2,0,B|239:333|239:333|252:291,1,90,0|0,1:0|0:0,0:0:0:0:
482,249,150659,5,4,1:2:0:0:
332,335,150795,1,0,1:0:0:0:
509,323,150932,101,4,0:0:0:0:
360,186,151068,1,0,0:0:0:0:
503,27,151204,5,0,1:0:0:0:
490,70,151272,1,0,1:0:0:0:
455,99,151341,1,0,1:0:0:0:
410,100,151409,1,0,1:0:0:0:
374,72,151477,1,0,1:0:0:0:
120,71,151613,38,0,P|178:75|194:185,1,180,6|2,1:1|1:0,0:0:0:0:
18,261,152022,2,0,P|8:217|2:166,1,90,2|0,1:0|0:0,0:0:0:0:
149,372,152295,2,0,P|139:328|133:277,1,90,2|0,1:0|0:0,0:0:0:0:
220,182,152568,2,0,P|210:138|204:87,1,90,2|0,1:0|0:0,0:0:0:0:
355,317,152841,2,0,P|345:273|339:222,1,90,2|0,1:0|0:0,0:0:0:0:
430,148,153113,2,0,P|420:104|414:53,1,90,2|0,1:0|0:0,0:0:0:0:
491,20,153386,5,2,1:0:0:0:
343,115,153522,1,0,1:0:0:0:
475,252,153659,1,2,3:1:0:0:
495,174,153795,102,0,P|468:227|344:252,1,180,6|2,1:0|1:0,0:0:0:0:
106,332,154204,2,0,L|197:351,1,90,2|0,1:0|0:0,0:0:0:0:
219,175,154477,2,0,L|310:194,1,90,2|0,1:0|0:0,0:0:0:0:
120,17,154750,2,0,L|211:36,1,90,2|0,1:0|0:0,0:0:0:0:
14,203,155022,2,0,L|105:222,1,90,2|0,1:0|0:0,0:0:0:0:
339,91,155295,2,0,L|430:110,1,90,2|0,1:0|0:0,0:0:0:0:
497,54,155568,5,2,1:0:0:0:
445,225,155704,1,8,0:1:0:0:
255,196,155841,1,8,3:0:0:0:
182,233,155977,102,0,P|259:239|261:347,1,180,4|8,1:0|0:0,0:0:0:0:
49,364,156386,2,0,L|31:272,1,90,2|0,1:2|0:0,0:0:0:0:
94,74,156659,1,8,0:0:0:0:
105,220,156795,1,2,0:0:0:0:
17,175,156932,1,8,0:0:0:0:
219,34,157068,6,0,P|227:107|225:215,1,180,2|0,1:2|0:0,0:0:0:0:
36,67,157477,2,0,P|71:37|115:42,1,90,2|0,0:0|0:0,0:0:0:0:
308,142,157750,1,0,1:0:0:0:
155,126,157886,1,8,0:0:0:0:
344,55,158022,1,8,0:0:0:0:
401,289,158159,37,4,1:0:0:0:
256,192,158227,12,2,160477,0:0:0:0:
42,91,162659,6,0,B|100:78|100:78|212:140,1,180,4|8,3:2|0:0,0:0:0:0:
205,136,163204,2,0,B|294:124|294:124|318:145|318:145|395:138,1,180,0|8,0:0|0:0,0:0:0:0:
376,139,163750,102,0,B|398:93|398:93|375:52,1,90,0|0,1:0|1:0,0:0:0:0:
263,210,164022,2,0,L|276:299,1,90,8|2,0:0|0:0,0:0:0:0:
491,246,164295,2,0,P|462:220|407:224,1,90,2|0,0:0|0:0,0:0:0:0:
436,384,164568,2,0,P|473:371|497:322,1,90,8|0,0:0|0:0,0:0:0:0:
159,281,164841,22,0,B|237:238|297:286|281:301|348:343|421:297,1,270,6|0,1:0|0:0,0:0:0:0:
159,281,165386,70,0,B|259:261|259:261|297:318|297:318|413:297,1,270,4|0,1:2|0:0,0:0:0:0:
159,281,165932,37,2,1:0:0:0:
351,233,166068,1,10,0:0:0:0:
354,220,166136,1,10,0:0:0:0:
351,210,166204,1,10,1:0:0:0:
217,358,166341,1,8,0:0:0:0:
108,112,166477,69,10,1:0:0:0:
204,141,166613,1,10,1:0:0:0:
175,237,166750,1,4,3:0:0:0:
79,208,166886,1,4,3:0:0:0:
258,35,167022,54,0,L|265:82,1,45,0|0,1:0|0:0,0:0:0:0:
283,95,167159,2,0,L|290:48,1,45,8|0,0:0|0:0,0:0:0:0:
376,108,167295,38,0,B|317:129|303:65|230:82|230:82|218:51|259:34,1,215.999993408203,4|0,1:0|0:0,0:0:0:0:
450,38,167704,1,0,0:0:0:0:
438,228,167841,2,0,P|472:191|467:144,1,90,10|0,1:0|0:0,0:0:0:0:
289,333,168113,101,2,1:0:0:0:
263,247,168250,1,0,0:0:0:0:
357,267,168386,1,10,1:0:0:0:
198,314,168522,1,0,0:0:0:0:
247,158,168659,2,0,B|256:109|256:109|235:56,1,90,2|0,1:0|0:0,0:0:0:0:
76,211,168932,2,0,L|172:223,1,90,10|0,1:0|0:0,0:0:0:0:
40,98,169204,6,0,B|27:168|27:168|40:197|40:197|18:284,1,180,2|10,1:0|1:0,0:0:0:0:
128,148,169613,1,2,1:0:0:0:
7,282,169750,2,0,P|52:321|133:286,1,135,2|0,1:0|0:0,0:0:0:0:
132,318,170022,2,0,L|242:310,1,90,10|0,1:0|0:0,0:0:0:0:
470,355,170295,101,2,1:0:0:0:
320,253,170432,1,2,1:0:0:0:
332,356,170568,5,10,1:0:0:0:
439,265,170704,1,2,1:0:0:0:
217,181,170841,101,2,1:0:0:0:
241,312,170977,1,2,1:2:0:0:
477,150,171113,5,2,1:0:0:0:
451,112,171182,1,0,1:0:0:0:
407,100,171250,1,0,1:0:0:0:
364,115,171318,1,0,1:0:0:0:
336,150,171386,102,0,B|309:109|318:42|318:42|292:72|249:62,1,180,6|10,1:0|1:1,0:0:0:0:
396,18,171795,1,2,3:0:0:0:
207,138,171932,2,0,P|170:89|194:13,1,135,2|0,1:0|0:0,0:0:0:0:
168,56,172204,2,0,P|132:68|84:54,1,90,10|2,0:1|1:0,0:0:0:0:
28,13,172409,1,0,0:0:0:0:
18,6,172477,5,2,1:0:0:0:
83,143,172613,1,0,0:0:0:0:
214,72,172750,101,10,1:0:0:0:
77,156,172886,1,2,1:0:0:0:
120,0,173022,6,0,L|129:89,1,90,2|0,1:0|0:0,0:0:0:0:
255,251,173295,2,0,B|263:204|263:204|238:159,1,90,10|2,1:0|1:0,0:0:0:0:
12,338,173568,102,0,B|82:326|82:326|103:340|103:340|157:332,1,135,2|0,1:0|0:0,0:0:0:0:
203,373,173841,2,0,P|160:348|157:289,1,90,10|2,1:0|3:0,0:0:0:0:
293,167,174113,1,2,3:0:0:0:
275,261,174250,1,2,1:0:0:0:
28,130,174386,2,0,P|83:132|108:177,1,90,8|2,0:0|1:0,0:0:0:0:
135,219,174591,1,0,0:0:0:0:
137,229,174659,5,4,1:2:0:0:
43,244,174795,1,0,0:0:0:0:
240,120,174932,101,12,0:0:0:0:
150,104,175068,1,0,0:0:0:0:
219,329,175204,5,2,1:0:0:0:
336,212,175341,1,2,3:0:0:0:
473,347,175477,2,0,L|379:331,1,90,10|4,1:0|3:0,0:0:0:0:
318,359,175682,1,4,0:3:0:0:
311,370,175750,102,0,P|320:312|305:273,1,101.250003862381,6|0,1:0|0:0,0:0:0:0:
234,268,176022,6,0,P|300:273|316:186,1,161.999995056153,12|0,0:0|0:0,0:0:0:0:
314,173,176295,1,0,1:0:0:0:
166,105,176432,1,0,1:0:0:0:
370,79,176568,2,0,L|281:59,1,90,8|2,0:0|0:0,0:0:0:0:
66,204,176841,102,0,P|82:182|88:157,3,45,2|2|2|2,1:2|0:0|0:0|0:0,0:0:0:0:
19,70,177113,2,0,L|67:83,3,45,10|2|2|2,0:0|0:0|0:0|0:0,0:0:0:0:
150,32,177386,1,2,1:0:0:0:
175,39,177454,1,2,1:2:0:0:
200,46,177522,1,0,1:0:0:0:
226,53,177591,1,2,1:2:0:0:
251,60,177659,2,0,L|308:51,3,45,8|0|2|0,1:0|0:0|1:0|0:0,0:0:0:0:
436,179,177932,6,0,B|392:149|386:104|386:104|352:151|292:132,1,180,4|12,1:0|1:2,0:0:0:0:
478,102,178341,1,2,1:0:0:0:
272,308,178477,2,0,P|281:252|362:235,1,135,0|0,1:0|1:0,0:0:0:0:
405,279,178750,2,0,P|448:273|505:261,1,90,10|2,1:2|1:0,0:0:0:0:
287,376,179022,101,2,1:0:0:0:
273,372,179091,1,0,1:0:0:0:
259,369,179159,1,2,1:2:0:0:
245,365,179227,1,0,1:0:0:0:
232,361,179295,1,10,1:0:0:0:
218,357,179363,1,0,1:0:0:0:
203,354,179432,2,0,L|185:301,1,45,2|0,1:0|1:0,0:0:0:0:
36,117,179568,5,2,1:0:0:0:
11,144,179636,1,0,1:0:0:0:
3,181,179704,1,0,1:0:0:0:
13,216,179772,1,0,1:0:0:0:
39,243,179841,1,10,1:0:0:0:
75,253,179909,1,0,1:0:0:0:
111,246,179977,1,2,1:0:0:0:
140,225,180045,1,0,1:0:0:0:
157,193,180113,102,0,B|253:171|220:238|349:207,1,180,2|8,1:0|0:0,0:0:0:0:
458,138,180522,2,0,P|491:104|492:61,1,90,2|0,1:0|1:0,0:0:0:0:
453,151,180795,1,0,1:0:0:0:
329,16,180932,2,0,P|341:61|378:83,1,90,2|0,1:0|1:0,0:0:0:0:
454,345,181204,5,10,1:0:0:0:
391,217,181341,1,8,0:0:0:0:
366,305,181477,1,8,0:0:0:0:
473,256,181613,1,0,0:0:0:0:
309,234,181750,101,2,1:0:0:0:
187,371,181886,1,2,1:0:0:0:
20,293,182022,1,0,1:0:0:0:
65,353,182159,22,0,P|65:267|57:173,1,180,6|2,1:0|1:1,0:0:0:0:
205,89,182568,2,0,P|196:138|170:173,1,90,2|0,1:0|0:0,0:0:0:0:
30,17,182841,2,0,P|76:0|120:5,1,90,2|0,1:0|0:0,0:0:0:0:
228,258,183113,2,0,B|179:268|179:268|136:257,1,90,2|0,1:0|0:0,0:0:0:0:
12,109,183386,2,0,B|61:99|61:99|104:110,1,90,2|0,1:0|0:0,0:0:0:0:
370,88,183659,6,0,L|390:123,1,33.7500012874604,10|0,0:0|0:0,0:0:0:0:
365,96,183795,6,0,L|337:125,1,33.7500012874604,10|0,0:0|0:0,0:0:0:0:
355,93,183932,102,0,L|318:76,1,33.7500012874604,10|0,0:2|0:0,0:0:0:0:
354,83,184068,6,0,L|358:42,1,33.7500012874604,10|0,0:0|0:0,0:0:0:0:
364,80,184204,102,8,L|403:71,1,33.7500012874604,10|0,0:0|0:0,0:0:0:0:
461,276,184341,102,0,B|377:207|374:286|290:195,1,180,6|2,1:1|1:1,0:0:0:0:
272,144,184682,1,2,0:1:0:0:
275,133,184750,1,12,0:0:0:0:
297,331,184886,1,0,0:0:0:0:
368,263,185022,37,2,0:0:0:0:
210,331,185159,1,2,1:0:0:0:
377,361,185295,1,8,0:0:0:0:
202,336,185432,2,0,B|180:288|180:288|199:242,1,90,2|0,1:0|0:0,0:0:0:0:
355,156,185704,69,2,0:0:0:0:
282,202,185841,1,10,1:0:0:0:
157,133,185977,1,0,0:0:0:0:
15,219,186113,1,0,1:0:0:0:
60,282,186250,2,0,L|71:177,1,90,2|8,1:0|0:0,0:0:0:0:
12,28,186522,38,0,P|63:67|148:49,1,135,6|0,1:0|0:0,0:0:0:0:
151,47,186795,1,2,1:1:0:0:
284,173,186932,2,0,P|238:166|172:154,1,90,8|2,0:0|1:0,0:0:0:0:
436,69,187204,1,2,3:0:0:0:
467,182,187341,1,2,1:0:0:0:
439,60,187477,1,10,1:0:0:0:
353,270,187613,70,0,P|369:228|366:175,1,90,2|2,1:0|3:0,0:0:0:0:
278,216,187886,1,2,1:0:0:0:
468,362,188022,1,8,0:0:0:0:
474,345,188159,1,2,1:0:0:0:
472,265,188295,37,2,1:0:0:0:
259,339,188432,1,2,1:0:0:0:
321,197,188568,1,2,1:0:0:0:
150,354,188704,70,0,B|125:377|125:377|63:326|99:246,1,180,2|2,1:0|1:0,0:0:0:0:
228,330,189113,1,10,1:0:0:0:
56,165,189250,1,0,0:0:0:0:
35,281,189386,37,2,1:0:0:0:
133,244,189522,1,2,1:0:0:0:
56,68,189659,1,10,1:0:0:0:
241,106,189795,2,0,L|302:92,1,45,2|0,1:0|0:0,0:0:0:0:
406,168,189932,70,0,B|398:89|352:131|354:35,1,135,2|0,1:2|0:0,0:0:0:0:
510,91,190204,2,0,B|470:163|451:104|405:168,1,135,10|0,1:0|0:0,0:0:0:0:
469,267,190477,38,0,L|484:206,1,45,10|0,1:0|0:0,0:0:0:0:
377,332,190613,2,0,L|392:393,1,45,2|0,0:2|0:0,0:0:0:0:
234,297,190750,2,0,L|278:285,1,45,10|0,0:2|0:0,0:0:0:0:
303,117,190886,70,0,P|356:124|355:238,1,180,4|2,1:2|1:0,0:0:0:0:
146,366,191295,2,0,P|134:320|131:268,1,90,10|0,1:1|0:0,0:0:0:0:
230,229,191568,37,2,1:2:0:0:
211,240,191704,1,2,0:0:0:0:
55,216,191841,1,8,0:0:0:0:
41,62,191977,1,0,0:0:0:0:
249,59,192113,69,2,1:0:0:0:
146,143,192250,1,0,0:0:0:0:
146,143,192318,1,2,0:0:0:0:
146,143,192386,1,10,0:1:0:0:
303,202,192522,1,2,0:0:0:0:
141,52,192659,37,2,1:0:0:0:
210,233,192795,1,2,0:1:0:0:
395,171,192932,1,10,1:0:0:0:
447,242,193068,70,0,P|439:193|437:97,1,135,4|0,1:2|0:0,0:0:0:0:
436,107,193341,2,0,L|380:91,1,45,0|0,1:0|0:0,0:0:0:0:
168,155,193477,38,0,B|271:124|242:187|330:157,1,161.999995056153,0|0,1:0|0:0,0:0:0:0:
299,40,193750,2,0,P|295:62|294:85,1,45,6|4,3:0|3:0,0:0:0:0:
217,274,193886,2,0,P|213:252|212:230,1,45,6|8,3:0|0:0,0:0:0:0:
360,277,194022,1,8,0:0:0:0:
152,367,194159,70,0,B|109:381|109:381|56:342|65:276,1,161.999995056153,4|0,1:2|0:0,0:0:0:0:
126,215,194432,2,0,L|180:223,1,45,4|0,0:0|0:0,0:0:0:0:
265,293,194568,38,0,B|292:291|292:291|326:278,1,53.9999983520508,4|8,3:0|0:0,0:0:0:0:
410,33,194704,1,8,0:0:0:0:
401,24,194772,1,0,0:0:0:0:
388,19,194841,54,0,P|381:55|386:82,1,53.9999983520508,2|0,1:0|0:0,0:0:0:0:
317,192,194977,2,0,P|343:184|366:169,1,53.9999983520508,2|0,1:0|0:0,0:0:0:0:
503,166,195113,2,0,P|483:147|459:135,1,53.9999983520508,10|0,1:0|0:0,0:0:0:0:
240,121,195250,22,0,B|188:109|188:109|163:124|163:124|105:103,1,135.000005149842,4|0,1:2|0:0,0:0:0:0:
46,148,195659,1,2,0:0:0:0:
13,222,195932,1,2,0:0:0:0:
66,282,196204,1,2,0:0:0:0:
145,267,196477,5,2,0:0:0:0:
44,353,196750,1,2,0:0:0:0:
13,222,197022,1,2,0:0:0:0:
13,222,197295,101,0,0:0:0:0:
229,135,197432,1,2,0:1:0:0:
