osu file format v14

[General]
AudioFilename: audio.mp3
AudioLeadIn: 0
PreviewTime: 66741
Countdown: 0
SampleSet: Soft
StackLeniency: 0.4
Mode: 0
LetterboxInBreaks: 0
WidescreenStoryboard: 0

[Editor]
Bookmarks: 1455,38027,56313,67741,76884,88313,97455,106598,115741,124884,136313,145455,154598,163741,177455,195741,204884,216312,225455,239514
DistanceSpacing: 0.56
BeatDivisor: 4
GridSize: 16
TimelineZoom: 1.5

[Metadata]
Title:Deep Indigo
TitleUnicode:藍二乗
Artist:Yorushika
ArtistUnicode:ヨルシカ
Creator:Yuuya_ke
Version:Collab
Source:
Tags:rock n-buna suis ai nijou smallfish985
BeatmapID:1906317
BeatmapSetID:912555

[Difficulty]
HPDrainRate:0
CircleSize:4.2
OverallDifficulty:0
ApproachRate:9.3
SliderMultiplier:2
SliderTickRate:2

[Events]
//Background and Video events
0,0,"daB.png",0,0
//Break Periods
//Storyboard Layer 0 (Background)
//Storyboard Layer 1 (Fail)
//Storyboard Layer 2 (Pass)
//Storyboard Layer 3 (Foreground)
//Storyboard Sound Samples

[TimingPoints]
313,285.714285714286,4,2,0,40,1,0
1455,-200,4,2,0,40,0,0
10313,-125,4,2,0,40,0,0
10598,-142.857142857143,4,2,0,40,0,0
19741,-100,4,2,0,40,0,0
26598,-83.3333333333333,4,2,0,40,0,0
28313,-83.3333333333333,4,2,0,40,0,0
28884,-83.3333333333333,4,2,0,40,0,0
34598,-62.5,4,2,0,40,0,0
34670,-83.3333333333333,4,2,0,40,0,0
38027,-200,4,2,0,40,0,0
42598,-166.666666666667,4,2,0,40,0,0
43741,-133.333333333333,4,2,0,40,0,0
44884,-100,4,2,0,40,0,0
46027,-86.9565217391304,4,2,0,40,0,0
47170,-117.647058823529,4,2,0,40,0,0
54027,-100,4,2,0,40,0,0
55170,-86.9565217391304,4,2,0,40,0,0
56313,-125,4,2,0,40,0,0
67170,-142.857142857143,4,2,0,40,0,0
67741,-74.0740740740741,4,2,0,40,0,1
88313,-111.111111111111,4,2,0,40,0,0
95170,-83.3333333333333,4,2,0,40,0,0
103170,-62.5,4,2,0,40,0,0
103241,-83.3333333333333,4,2,0,40,0,0
106598,-200,4,2,0,40,0,0
115741,-117.647058823529,4,2,0,40,0,0
122884,-100,4,2,0,40,0,0
123170,-86.9565217391304,4,2,0,40,0,0
123455,-76.9230769230769,4,2,0,40,0,0
123741,-71.4285714285714,4,2,0,40,0,0
125741,-105.263157894737,4,2,0,40,0,0
136313,-74.0740740740741,4,2,0,40,0,1
154598,-83.3333333333333,4,2,0,40,0,0
163741,-100,4,2,0,40,0,0
175170,-144.927536231884,4,2,0,40,0,0
177455,-200,4,2,0,40,0,0
179741,-74.0740740740741,4,2,0,40,0,1
182027,-142.857142857143,4,2,0,40,0,0
182313,-66.6666666666667,4,2,0,40,0,1
182384,-74.0740740740741,4,2,0,40,0,1
207170,666.666666666667,4,2,0,40,1,0
207170,-100,4,2,0,40,0,0
207336,-100,4,2,0,5,0,0
207503,-100,4,2,0,40,0,0
207836,800,4,2,0,40,1,0
208036,-100,4,2,0,5,0,0
208236,-100,4,2,0,40,0,0
208636,666.666666666667,4,2,0,40,1,0
208802,-100,4,2,0,5,0,0
208969,-100,4,2,0,40,0,0
209136,-100,4,2,0,5,0,0
209395,857.142857142857,4,2,0,40,1,0
209609,-100,4,2,0,5,0,0
209823,-100,4,2,0,40,0,0
210403,857.142857142857,4,2,0,40,1,0
210456,-100,4,3,99,5,0,0
210510,-100,4,2,0,5,0,0
212884,285.714285714286,4,2,0,40,1,0
214026,-66.6666666666667,4,2,0,40,0,1
215169,-100,4,2,0,40,0,0
215741,-100,4,2,0,40,0,0
215812,-100,4,2,0,5,0,0
216241,-100,4,2,0,5,0,0
216312,-111.111111111111,4,2,0,40,0,0
225455,-83.3333333333333,4,2,0,40,0,0
231169,-62.5,4,2,0,40,0,0
231241,-83.3333333333333,4,2,0,40,0,0
234026,-83.3333333333333,4,2,0,40,0,0
236098,666.666666666667,4,2,0,40,1,0
236431,666.666666666667,4,2,0,40,1,0
236431,-125,4,2,0,40,0,0
239431,-125,4,2,0,5,0,0
239514,-166.666666666667,4,2,0,40,0,0

[Colours]
Combo1 : 70,104,238
Combo2 : 121,179,236

[HitObjects]
260,165,1313,5,0,0:0:0:0:
260,165,1455,2,0,P|242:116|260:65,1,100
387,67,1884,2,0,P|404:112|391:160,2,100
324,116,2598,1,0,0:0:0:0:
324,116,2884,1,0,0:0:0:0:
401,173,3027,1,0,0:0:0:0:
401,173,3170,2,0,L|390:230,1,50
302,247,3455,2,0,L|313:304,1,50
435,300,3741,5,0,0:0:0:0:
435,300,4027,2,0,L|424:354,1,50
500,193,4313,2,0,L|511:247,2,50
435,104,4741,2,0,P|393:134|339:130,1,100
364,12,5170,2,0,L|372:61,1,50
338,146,5455,1,0,0:0:0:0:
215,78,5741,1,0,0:0:0:0:
215,78,5884,6,0,L|117:105,1,100
35,129,6313,1,0,0:0:0:0:
35,129,6598,1,0,0:0:0:0:
184,186,6884,1,0,0:0:0:0:
184,186,7027,2,0,L|208:286,1,100
235,369,7455,1,0,0:0:0:0:
235,369,7741,1,0,0:0:0:0:
322,220,8027,1,0,0:0:0:0:
322,220,8170,1,0,0:0:0:0:
322,220,8313,6,0,L|382:202,1,50
444,181,8598,2,0,L|396:195,1,50
304,308,8884,2,0,L|364:290,1,50
382,116,9170,2,0,L|334:130,1,50
214,207,9455,6,0,P|255:220|297:208,2,75
212,58,10027,1,0,0:0:0:0:
212,58,10313,6,0,B|164:74|164:74|156:81|156:81|90:101,1,120
20,69,10598,6,0,P|67:98|72:186,1,139.999995727539
4,275,11027,2,0,L|72:261,1,69.9999978637696
194,346,11313,2,0,L|125:332,1,69.9999978637696
114,331,11598,1,0,0:0:0:0:
167,188,11741,1,0,0:0:0:0:
167,188,12027,1,0,0:0:0:0:
250,260,12170,1,0,0:0:0:0:
250,260,12313,2,0,L|272:186,1,69.9999978637696
187,100,12598,2,0,L|177:55,3,34.9999989318848
189,111,12884,6,0,B|271:120|251:81|334:98,1,139.999995727539
372,188,13313,2,0,L|455:173,1,69.9999978637696
512,111,13598,1,0,0:0:0:0:
512,111,13884,2,0,L|484:259,1,139.999995727539
413,362,14313,2,0,L|390:285,1,69.9999978637696
366,210,14598,1,0,0:0:0:0:
181,313,14884,1,0,0:0:0:0:
294,320,15027,2,0,P|226:315|181:254,1,139.999995727539
236,140,15455,1,0,0:0:0:0:
236,140,15741,1,0,0:0:0:0:
25,208,16027,1,0,0:0:0:0:
125,115,16170,6,0,L|95:260,1,139.999995727539
70,359,16598,1,0,0:0:0:0:
70,359,16884,1,0,0:0:0:0:
185,221,17170,2,0,L|196:171,3,34.9999989318848
183,233,17455,6,0,P|250:251|302:207,1,139.999995727539
336,0,18027,2,0,P|286:49|299:116,1,139.999995727539
465,247,18598,2,0,P|447:179|382:156,2,139.999995727539
465,247,19455,2,0,L|450:322,1,69.9999978637696
291,251,19741,6,0,L|389:230,1,100
158,314,20027,2,0,L|256:335,1,100
222,182,20313,1,0,0:0:0:0:
291,251,20455,1,0,0:0:0:0:
300,103,20598,1,0,0:0:0:0:
221,197,20741,1,0,0:0:0:0:
246,46,20884,6,0,P|296:26|343:39,1,100
221,197,21170,2,0,P|171:217|124:204,1,100
158,80,21384,1,0,0:0:0:0:
165,74,21455,2,0,B|174:102|169:141|169:141|178:113|197:94,1,100
40,17,21741,1,0,0:0:0:0:
200,0,21884,1,0,0:0:0:0:
69,130,22027,6,0,B|52:178|52:178|75:234,1,100
201,93,22313,2,0,B|218:45|218:45|195:-11,1,100
183,210,22598,1,0,0:0:0:0:
73,113,22741,1,0,0:0:0:0:
141,284,22884,1,0,0:0:0:0:
256,172,23027,1,0,0:0:0:0:
259,163,23098,1,0,0:0:0:0:
261,156,23170,6,0,B|294:148|325:166|325:166|361:158,1,100
133,270,23455,2,0,B|100:262|69:280|69:280|33:272,1,100
268,367,23741,2,0,B|301:359|332:377|332:377|368:369,1,100
145,190,24027,2,0,B|101:172|101:172|136:279,1,150
113,345,24313,6,0,B|223:356|190:275|302:292,1,200
407,368,24741,2,0,L|420:268,1,100
366,178,25027,1,0,0:0:0:0:
512,247,25170,1,0,0:0:0:0:
463,107,25313,1,0,0:0:0:0:
408,272,25455,6,0,P|323:269|260:174,1,200
374,61,25884,1,0,0:0:0:0:
372,70,25955,1,0,0:0:0:0:
369,79,26027,2,0,L|270:62,1,100
164,184,26313,2,0,L|263:167,1,100
188,16,26598,6,0,B|148:-20|148:-20|81:27|131:105,1,179.999994506836
156,195,26884,1,0,0:0:0:0:
25,104,27027,1,0,0:0:0:0:
97,369,27170,2,0,B|116:260|54:320|71:180,1,179.999994506836
122,90,27455,1,0,0:0:0:0:
238,249,27598,1,0,0:0:0:0:
233,52,27741,5,0,0:0:0:0:
146,229,27884,1,0,0:0:0:0:
153,0,28027,1,0,0:0:0:0:
275,170,28170,1,0,0:0:0:0:
65,182,28313,6,0,P|41:146|61:67,1,119.999996337891
294,81,28598,1,0,0:0:0:0:
249,90,28669,1,0,0:0:0:0:
205,101,28740,1,0,0:0:0:0:
162,111,28812,1,0,0:0:0:0:
118,122,28884,6,0,B|225:103|177:185|307:161,1,179.999994506836
379,69,29170,6,0,L|361:138,1,59.9999981689454
512,161,29313,2,0,L|461:110,1,59.9999981689454
372,222,29455,2,0,L|440:203,1,59.9999981689454
258,72,29598,1,0,0:0:0:0:
260,80,29670,1,0,0:0:0:0:
263,88,29741,1,0,0:0:0:0:
297,283,29884,1,0,0:0:0:0:
149,177,30027,6,0,L|30:161,1,119.999996337891
197,340,30313,1,0,0:0:0:0:
194,347,30384,1,0,0:0:0:0:
192,354,30455,2,0,L|177:291,1,59.9999981689454
120,81,30598,1,0,0:0:0:0:
57,273,30741,1,0,0:0:0:0:
234,128,30884,1,0,0:0:0:0:
30,161,31027,1,0,0:0:0:0:
268,270,31170,6,0,B|314:289|356:260|356:260|353:265|353:265|398:234|449:253,1,179.999994506836
484,327,31455,1,0,0:0:0:0:
481,335,31527,1,0,0:0:0:0:
478,343,31598,2,0,L|393:328,1,59.9999981689454
301,196,31741,1,0,0:0:0:0:
512,208,31884,1,0,0:0:0:0:
333,359,32027,1,0,0:0:0:0:
432,151,32170,1,0,0:0:0:0:
234,262,32313,6,0,P|287:286|346:276,1,119.999996337891
353,86,32598,1,0,0:0:0:0:
171,190,32741,1,0,0:0:0:0:
256,0,32884,1,0,0:0:0:0:
301,205,33027,1,0,0:0:0:0:
145,65,33170,2,0,B|87:18|19:50|19:50|54:93,1,179.999994506836
92,267,33455,6,0,L|116:142,1,119.999996337891
242,367,33741,2,0,L|218:242,1,119.999996337891
164,76,34027,1,0,0:0:0:0:
315,215,34170,1,0,0:0:0:0:
286,13,34313,1,0,0:0:0:0:
207,258,34455,1,0,0:0:0:0:
387,96,34598,6,0,B|434:71|434:71|451:201|451:201|384:183,1,240
296,285,34884,6,0,P|355:262|423:281,1,119.999996337891
154,364,35170,2,0,L|131:244,1,119.999996337891
256,59,35455,2,0,L|279:179,1,119.999996337891
36,131,35741,5,0,0:0:0:0:
262,181,35884,1,0,0:0:0:0:
262,181,36170,5,0,0:0:0:0:
17,276,36313,1,0,0:0:0:0:
17,276,36598,5,0,0:0:0:0:
130,45,36741,1,0,0:0:0:0:
130,45,37027,5,0,0:0:0:0:
178,319,37170,1,0,0:0:0:0:
178,319,37455,6,0,B|265:305|265:305|273:313|273:313|368:299,1,179.999994506836
444,350,37741,2,0,B|463:288|463:288|428:235,1,119.999996337891
304,160,38027,6,0,B|368:160|368:160|416:136,1,100
464,88,38455,1,0,0:0:0:0:
360,88,38598,5,0,0:0:0:0:
352,80,38741,1,0,0:0:0:0:
304,176,38884,5,0,0:0:0:0:
296,168,39027,1,0,0:0:0:0:
208,128,39170,5,0,0:0:0:0:
200,120,39313,1,0,0:0:0:0:
152,232,39455,5,0,0:0:0:0:
144,224,39598,1,0,0:0:0:0:
101,154,39741,6,0,P|68:197|63:259,1,100
60,319,40170,1,0,0:0:0:0:
200,288,40313,6,0,B|264:288|264:288|296:304,1,100
336,368,40741,1,0,0:0:0:0:
408,320,40884,5,0,0:0:0:0:
416,312,41027,1,0,0:0:0:0:
320,264,41170,5,0,0:0:0:0:
328,256,41313,1,0,0:0:0:0:
368,168,41456,5,0,0:0:0:0:
376,160,41599,1,0,0:0:0:0:
264,112,41741,5,0,0:0:0:0:
272,104,41884,1,0,0:0:0:0:
336,24,42027,5,0,0:0:0:0:
344,16,42170,1,0,0:0:0:0:
248,128,42313,5,0,0:0:0:0:
256,120,42456,1,0,0:0:0:0:
392,80,42598,2,0,L|380:215,1,119.999996337891
373,279,43027,1,0,0:0:0:0:
284,235,43170,5,0,0:0:0:0:
292,227,43313,1,0,0:0:0:0:
200,160,43455,5,0,0:0:0:0:
208,152,43598,1,0,0:0:0:0:
440,80,43741,2,0,L|425:242,1,150.000005722046
418,305,44170,1,0,0:0:0:0:
282,247,44313,5,0,0:0:0:0:
284,235,44456,1,0,0:0:0:0:
160,240,44598,5,0,0:0:0:0:
163,229,44741,1,0,0:0:0:0:
464,80,44884,2,0,L|445:279,1,200
439,356,45313,1,0,0:0:0:0:
277,273,45455,5,0,0:0:0:0:
279,261,45598,1,0,0:0:0:0:
148,315,45740,5,0,0:0:0:0:
151,304,45883,1,0,0:0:0:0:
494,51,46027,2,0,P|467:157|389:171,1,172.500003290176
270,169,46313,2,0,P|375:139|426:199,1,172.500003290176
484,303,46598,2,0,P|405:226|432:152,1,172.500003290176
448,64,46884,2,0,B|392:64|392:64|368:48|368:48|344:64|344:64|256:64,1,172.500003290176
152,32,47170,6,0,L|168:223,1,170.000003242493
176,288,47598,1,0,0:0:0:0:
176,288,47741,2,0,P|104:280|88:184,1,170.000003242493
142,117,48170,2,0,L|325:133,1,170.000003242493
400,144,48598,5,0,0:0:0:0:
400,144,48741,1,0,0:0:0:0:
400,144,48884,2,0,L|390:247,1,85.0000016212464
451,341,49170,2,0,L|458:256,1,85.0000016212464
459,245,49384,1,0,0:0:0:0:
459,245,49455,6,0,P|420:298|370:288,1,85.0000016212464
261,320,49741,1,0,0:0:0:0:
360,184,49884,1,0,0:0:0:0:
184,252,50027,2,0,L|192:149,1,85.0000016212464
202,85,50313,1,0,0:0:0:0:
202,85,50455,1,0,0:0:0:0:
328,16,50598,6,0,L|447:26,1,85.0000016212464
488,104,50884,2,0,L|403:96,1,85.0000016212464
304,160,51170,2,0,L|423:170,1,85.0000016212464
464,248,51456,2,0,L|379:240,1,85.0000016212464
224,240,51741,6,0,B|224:296|224:296|248:328,1,85.0000016212464
368,240,52027,2,0,B|368:296|368:296|344:328,1,85.0000016212464
214,240,52313,6,0,B|182:294|182:294|188:339,1,85.0000016212464
377,240,52599,2,0,B|409:294|409:294|403:339,1,85.0000016212464
296,328,52884,2,0,L|104:311,1,170.000003242493
24,304,53313,1,0,0:0:0:0:
24,304,53598,1,0,0:0:0:0:
96,176,53741,1,0,0:0:0:0:
8,88,53884,1,0,0:0:0:0:
184,72,54027,6,0,L|168:256,1,150
328,72,54313,2,0,L|344:256,1,150
168,72,54598,6,0,L|148:255,1,150
343,72,54884,2,0,L|363:255,1,150
384,368,55170,6,0,B|304:368|304:368|256:336,1,115.000002193451
224,288,55455,1,0,0:0:0:0:
224,288,55741,5,0,0:0:0:0:
64,235,55884,1,0,0:0:0:0:
64,68,56027,1,0,0:0:0:0:
224,18,56170,1,0,0:0:0:0:
320,152,56313,5,0,0:0:0:0:
320,152,56598,1,0,0:0:0:0:
480,102,56741,1,0,0:0:0:0:
480,102,57027,1,0,0:0:0:0:
359,264,57170,6,0,B|250:291|274:214|157:242,1,200
150,242,57598,1,0,0:0:0:0:
314,193,57741,1,0,0:0:0:0:
200,321,57884,1,0,0:0:0:0:
252,124,58027,2,0,L|242:41,1,80
95,163,58313,2,0,L|85:246,1,80
73,364,58598,5,0,0:0:0:0:
73,364,58884,1,0,0:0:0:0:
8,187,59027,1,0,0:0:0:0:
8,187,59313,1,0,0:0:0:0:
187,315,59455,6,0,B|241:375|373:338|334:234|288:283,1,200
292,276,59884,1,0,0:0:0:0:
433,155,60027,1,0,0:0:0:0:
395,337,60170,1,0,0:0:0:0:
324,167,60313,2,0,P|280:160|237:174,1,80
435,260,60598,2,0,P|479:267|522:253,1,80
371,95,60884,6,0,L|347:260,1,160
294,31,61313,1,0,0:0:0:0:
294,31,61598,1,0,0:0:0:0:
102,101,61741,2,0,B|140:83|152:42|152:42|157:127|226:163,1,200
214,155,62170,1,0,0:0:0:0:
44,213,62313,1,0,0:0:0:0:
70,26,62455,1,0,0:0:0:0:
156,225,62598,2,0,P|168:269|168:315,1,80
21,123,62884,2,0,P|22:83|34:44,1,80
83,283,63170,5,0,0:0:0:0:
83,283,63455,1,0,0:0:0:0:
194,104,63598,1,0,0:0:0:0:
194,104,63884,1,0,0:0:0:0:
303,285,64027,2,0,P|203:283|148:199,1,200
150,190,64455,1,0,0:0:0:0:
148,353,64598,1,0,0:0:0:0:
248,138,64741,1,0,0:0:0:0:
83,261,64884,2,0,L|-7:245,1,80
248,138,65170,2,0,L|338:122,1,80
253,347,65455,5,0,0:0:0:0:
117,187,65598,1,0,0:0:0:0:
265,51,65741,1,0,0:0:0:0:
169,256,65884,1,0,0:0:0:0:
169,256,66170,1,0,0:0:0:0:
169,256,66455,2,0,L|74:244,1,80
338,341,66741,1,0,0:0:0:0:
217,154,66884,1,0,0:0:0:0:
207,376,67027,1,0,0:0:0:0:
322,162,67170,6,0,B|405:148|384:212|463:194|463:194|439:182|395:225,1,209.999993591309
408,240,67741,6,0,B|212:240|212:240|150:186,1,270.000001029968
96,96,68170,1,0,0:0:0:0:
240,8,68313,2,0,B|272:101|272:101|254:175,1,135.000000514984
74,219,68598,2,0,B|43:200|43:200|0:112,1,135.000000514984
216,40,68884,2,0,B|280:16|280:16|512:16,1,270.000001029968
409,239,69313,5,0,0:0:0:0:
369,92,69455,1,0,0:0:0:0:
325,279,69598,1,0,0:0:0:0:
369,82,69741,1,0,0:0:0:0:
369,71,69884,1,0,0:0:0:0:
495,301,70027,6,0,L|512:112,1,135.000000514984
308,149,70313,2,0,L|290:337,1,135.000000514984
376,80,70598,6,0,P|312:64|200:112,1,135.000000514984
165,285,70884,2,0,P|230:299|295:283,1,135.000000514984
80,8,71170,6,0,L|54:294,1,270.000001029968
48,384,71598,1,0,0:0:0:0:
144,264,71741,2,0,B|184:224|184:224|432:224,1,270.000001029968
504,224,72170,1,0,0:0:0:0:
392,40,72313,5,0,0:0:0:0:
320,128,72455,1,0,0:0:0:0:
392,32,72598,1,0,0:0:0:0:
360,232,72741,1,0,0:0:0:0:
304,40,72884,6,0,B|256:16|256:16|88:16,1,202.500000772476
72,16,73170,1,0,0:0:0:0:
120,200,73313,1,0,0:0:0:0:
300,25,73455,5,0,0:0:0:0:
353,211,73598,1,0,0:0:0:0:
193,25,73741,5,0,0:0:0:0:
139,211,73884,1,0,0:0:0:0:
300,16,74027,5,0,0:0:0:0:
353,214,74170,1,0,0:0:0:0:
193,16,74313,5,0,0:0:0:0:
139,214,74456,1,0,0:0:0:0:
438,95,74598,2,0,P|358:95|406:191,1,202.500000772476
268,193,74884,2,0,P|326:260|379:189,1,202.500000772476
438,282,75170,2,0,P|466:198|379:189,1,202.500000772476
256,368,75455,5,0,0:0:0:0:
16,304,75598,2,0,L|302:329,1,270.000001029968
389,344,76027,1,0,0:0:0:0:
65,242,76170,2,0,L|351:267,1,270.000001029968
430,261,76598,1,0,0:0:0:0:
475,214,76669,1,0,0:0:0:0:
467,150,76740,1,0,0:0:0:0:
410,117,76812,1,0,0:0:0:0:
350,142,76884,6,0,B|276:159|297:109|208:126,1,135.000000514984
13,214,77170,2,0,B|87:231|66:181|155:198,1,135.000000514984
383,292,77455,2,0,B|241:351|274:230|115:291,1,270.000001029968
312,217,77884,1,0,0:0:0:0:
185,374,78027,6,0,P|111:384|42:358,1,135.000000514984
379,276,78313,2,0,P|453:266|522:292,1,135.000000514984
185,374,78598,2,0,L|157:236,1,135.000000514984
319,97,78884,2,0,L|292:229,1,135.000000514984
46,118,79170,6,0,P|110:21|264:19,2,270.000001029968
175,152,79884,1,0,0:0:0:0:
41,294,80027,2,0,L|179:263,1,135.000000514984
433,98,80313,6,0,B|319:83|319:83|359:154|316:241,1,270.000001029968
320,231,80741,2,0,L|247:218,1,67.5000002574921
184,147,80884,2,0,B|148:200|148:200|174:292,1,135.000000514984
407,308,81170,2,0,B|443:255|443:255|417:163,1,135.000000514984
171,284,81455,5,0,0:0:0:0:
287,113,81598,1,0,0:0:0:0:
89,35,81741,2,0,L|115:177,1,135.000000514984
195,292,82027,1,0,0:0:0:0:
193,83,82170,1,0,0:0:0:0:
8,231,82313,1,0,0:0:0:0:
238,214,82455,2,0,P|278:204|322:200,1,67.5000002574921
229,223,82598,6,0,L|261:360,1,135.000000514984
437,164,82884,1,0,0:0:0:0:
326,50,83027,2,0,P|293:44|258:34,1,67.5000002574921
338,46,83170,2,0,L|309:184,1,135.000000514984
160,368,83455,2,0,L|132:235,1,135.000000514984
54,5,83741,5,0,0:0:0:0:
32,181,83884,1,0,0:0:0:0:
226,201,84027,1,0,0:0:0:0:
60,84,84170,1,0,0:0:0:0:
148,265,84313,5,0,0:0:0:0:
217,59,84455,1,0,0:0:0:0:
38,205,84598,1,0,0:0:0:0:
239,296,84741,1,0,0:0:0:0:
149,108,84884,6,0,L|4:83,1,135.000000514984
308,237,85170,2,0,L|453:212,1,135.000000514984
244,50,85455,1,0,0:0:0:0:
96,203,85598,1,0,0:0:0:0:
243,356,85741,1,0,0:0:0:0:
233,302,85812,1,0,0:0:0:0:
224,249,85884,1,0,0:0:0:0:
215,196,85955,1,0,0:0:0:0:
206,143,86027,6,0,P|245:41|405:54,1,270.000001029968
314,261,86455,2,0,B|195:245|195:245|176:258|176:258|41:243,1,270.000001029968
391,180,86884,1,0,0:0:0:0:
197,61,87027,6,0,B|106:2|-11:27|28:161|136:113,1,270.000001029968
385,42,87455,1,0,0:0:0:0:
285,248,87598,1,0,0:0:0:0:
472,139,87741,2,0,B|327:198|348:78|208:148,1,270.000001029968
212,145,88313,6,0,L|200:17,2,89.9999972534181
228,237,88741,1,0,0:0:0:0:
115,197,88884,2,0,L|103:69,3,89.9999972534181
64,16,89455,6,0,L|191:4,1,89.9999972534181
281,103,89741,2,0,L|192:96,1,89.9999972534181
304,16,90027,2,0,L|431:4,3,89.9999972534181
471,22,90598,6,0,L|464:112,1,89.9999972534181
383,239,90884,2,0,L|376:150,1,89.9999972534181
368,64,91170,2,0,L|240:52,3,89.9999972534181
253,54,91670,1,0,0:0:0:0:
253,54,91741,6,0,B|236:102|236:102|259:158,1,89.9999972534181
365,118,92027,2,0,B|382:166|382:166|363:211,1,89.9999972534181
246,222,92313,2,0,B|229:270|229:270|252:326,3,89.9999972534181
102,368,92884,6,0,L|87:197,1,134.999995880127
79,199,93170,2,0,P|143:167|159:119,1,89.9999972534181
72,49,93455,2,0,P|8:81|-8:129,1,89.9999972534181
83,127,93741,2,0,P|115:191|163:207,1,89.9999972534181
256,192,94027,2,0,L|239:383,1,179.999994506836
384,352,94455,1,0,0:0:0:0:
384,352,94527,1,0,0:0:0:0:
384,352,94598,6,0,L|495:361,1,89.9999972534181
320,224,94884,2,0,L|170:210,1,134.999995880127
160,208,95170,6,0,B|80:208|80:208|160:288|48:384,1,239.999992675781
0,368,95598,1,0,0:0:0:0:
224,288,95741,1,0,0:0:0:0:
16,208,95884,1,0,0:0:0:0:
176,128,96027,2,0,B|224:96|224:96|256:160|224:224,1,179.999994506836
224,224,96313,6,0,L|431:242,1,179.999994506836
506,248,96598,1,0,0:0:0:0:
346,309,96741,1,0,0:0:0:0:
455,70,96884,2,0,B|473:100|473:100|462:141|462:141|467:213,1,119.999996337891
480,320,97170,2,0,L|384:311,1,59.9999981689454
272,208,97313,2,0,L|367:199,1,59.9999981689454
488,331,97455,6,0,L|300:316,1,179.999994506836
61,290,97741,2,0,P|82:264|112:250,1,59.9999981689454
206,364,97884,2,0,P|172:358|145:339,1,59.9999981689454
201,202,98027,2,0,P|213:233|210:266,1,59.9999981689454
13,384,98170,1,0,0:0:0:0:
15,374,98242,1,0,0:0:0:0:
17,365,98313,1,0,0:0:0:0:
11,166,98455,1,0,0:0:0:0:
211,275,98598,6,0,P|281:273|331:243,1,119.999996337891
176,75,98884,1,0,0:0:0:0:
170,85,98955,1,0,0:0:0:0:
164,95,99027,2,0,L|175:162,1,59.9999981689454
214,285,99170,1,0,0:0:0:0:
301,94,99313,1,0,0:0:0:0:
96,230,99455,1,0,0:0:0:0:
338,240,99598,1,0,0:0:0:0:
148,89,99741,6,0,B|94:76|94:76|53:99|53:99|1:88|1:88|36:68,1,179.999994506836
236,18,100027,1,0,0:0:0:0:
239,28,100098,1,0,0:0:0:0:
243,38,100170,2,0,L|305:50,1,59.9999981689454
424,192,100313,1,0,0:0:0:0:
396,6,100455,1,0,0:0:0:0:
320,242,100598,1,0,0:0:0:0:
510,146,100741,1,0,0:0:0:0:
278,123,100884,6,0,P|217:114|158:140,1,119.999996337891
35,309,101170,1,0,0:0:0:0:
233,245,101313,1,0,0:0:0:0:
34,180,101455,1,0,0:0:0:0:
160,353,101598,1,0,0:0:0:0:
160,127,101741,2,0,P|158:53|122:9,1,119.999996337891
71,101,101955,1,0,0:0:0:0:
66,91,102027,6,0,L|210:67,1,119.999996337891
321,236,102313,2,0,L|177:212,1,119.999996337891
330,10,102598,1,0,0:0:0:0:
462,212,102741,1,0,0:0:0:0:
226,102,102884,1,0,0:0:0:0:
449,43,103027,1,0,0:0:0:0:
271,207,103170,6,0,B|188:337|309:397|345:343|337:262|246:284,1,240
157,230,103455,6,0,L|29:251,1,119.999996337891
366,123,103741,2,0,L|494:144,1,119.999996337891
145,58,104027,1,0,0:0:0:0:
287,208,104170,1,0,0:0:0:0:
408,0,104313,5,0,0:0:0:0:
212,136,104455,1,0,0:0:0:0:
212,136,104741,5,0,0:0:0:0:
488,153,104884,1,0,0:0:0:0:
488,153,105170,5,0,0:0:0:0:
234,7,105313,1,0,0:0:0:0:
234,7,105598,5,0,0:0:0:0:
241,288,105741,1,0,0:0:0:0:
241,288,106027,6,0,B|137:259|180:333|51:302,1,179.999994506836
0,167,106313,2,0,P|65:167|104:215,1,119.999996337891
104,301,106598,6,0,L|312:283,1,200
416,272,107455,1,0,0:0:0:0:
416,272,107598,1,0,0:0:0:0:
272,160,108027,1,0,0:0:0:0:
389,139,108313,2,0,L|452:144,1,50
336,80,108598,2,0,L|294:76,3,25
368,80,108884,6,0,B|416:64|416:64|480:80,1,100
416,160,109313,1,0,0:0:0:0:
463,244,109455,2,0,B|416:256|416:256|368:240,1,100
304,192,109884,1,0,0:0:0:0:
288,272,110027,2,0,L|293:335,2,50
224,208,110455,1,0,0:0:0:0:
224,208,110598,2,0,L|218:271,1,50
192,363,110884,2,0,L|145:358,3,25
128,368,111170,6,0,L|122:304,1,50
208,208,111455,2,0,L|212:257,1,50
112,176,111741,2,0,L|106:112,1,50
96,48,112027,1,0,0:0:0:0:
240,16,112170,1,0,0:0:0:0:
336,112,112313,2,0,P|416:96|432:64,2,100
336,112,113027,1,0,0:0:0:0:
336,112,113170,5,0,0:0:0:0:
336,224,113313,1,0,0:0:0:0:
320,336,113455,2,0,L|256:330,1,50
416,288,113741,2,0,L|465:292,1,50
336,224,114027,2,0,L|286:219,1,50
480,176,114313,1,0,0:0:0:0:
288,96,114455,6,0,L|293:32,1,50
496,16,114741,2,0,L|491:65,1,50
400,224,115027,2,0,L|463:229,1,50
288,320,115313,2,0,L|238:315,1,50
96,304,115598,1,0,0:0:0:0:
262,171,115741,5,0,0:0:0:0:
218,85,115884,1,0,0:0:0:0:
191,241,116027,1,0,0:0:0:0:
106,190,116170,2,0,L|0:179,1,85.0000016212464
205,79,116455,2,0,L|311:68,1,85.0000016212464
98,18,116741,1,0,0:0:0:0:
244,174,116884,6,0,L|336:163,1,85.0000016212464
100,103,117170,2,0,L|8:92,1,85.0000016212464
121,265,117455,1,0,0:0:0:0:
153,183,117598,1,0,0:0:0:0:
195,349,117741,1,0,0:0:0:0:
63,194,117884,1,0,0:0:0:0:
225,252,118027,5,0,0:0:0:0:
322,205,118170,1,0,0:0:0:0:
289,384,118313,2,0,L|305:301,1,85.0000016212464
336,126,118598,2,0,B|244:120|279:185|159:167,1,170.000003242493
186,2,119027,2,0,L|205:95,1,85.0000016212464
322,205,119312,1,0,0:0:0:0:
365,44,119455,2,0,B|514:17|449:32,1,85.0000016212464
203,93,119741,2,0,B|54:66|118:81,1,85.0000016212464
426,158,120027,1,0,0:0:0:0:
262,9,120170,1,0,0:0:0:0:
230,192,120313,6,0,P|227:233|240:294,1,85.0000016212464
365,141,120598,1,0,0:0:0:0:
183,95,120741,1,0,0:0:0:0:
350,230,120884,2,0,L|442:218,1,85.0000016212464
385,53,121170,1,0,0:0:0:0:
222,207,121313,1,0,0:0:0:0:
408,139,121455,6,0,B|307:147|345:90|234:99,1,170.000003242493
125,150,121884,1,0,0:0:0:0:
248,279,122027,2,0,L|239:373,1,85.0000016212464
94,249,122312,1,0,0:0:0:0:
260,183,122455,1,0,0:0:0:0:
85,257,122598,6,0,P|17:241|37:208,1,127.50000243187
125,149,122884,6,0,P|177:204|139:216,1,150
30,212,123170,6,0,P|-15:156|58:150,1,172.500003290176
143,217,123455,6,0,P|137:302|84:253,1,194.999991073609
55,146,123741,6,0,P|96:90|172:80,1,139.999995727539
289,242,124027,1,0,0:0:0:0:
289,242,124313,1,0,0:0:0:0:
192,374,124455,1,0,0:0:0:0:
144,161,124598,2,0,B|231:177|205:132|290:144,1,139.999995727539
416,149,124884,5,0,0:0:0:0:
416,149,125170,1,0,0:0:0:0:
337,362,125313,1,0,0:0:0:0:
337,362,125598,1,0,0:0:0:0:
132,255,125741,6,0,L|150:67,1,142.49999619484
154,80,126027,1,0,0:0:0:0:
312,19,126170,1,0,0:0:0:0:
261,138,126313,2,0,P|351:143|369:128,1,94.9999974632264
448,80,126598,2,0,P|453:170|438:188,1,94.9999974632264
416,259,126884,1,0,0:0:0:0:
20,361,127170,5,0,0:0:0:0:
20,361,127455,1,0,0:0:0:0:
19,87,127598,1,0,0:0:0:0:
19,87,127884,1,0,0:0:0:0:
283,41,128027,6,0,B|291:88|280:123|280:123|299:143|299:143|309:190|288:241,1,189.999994926453
275,296,128455,1,0,0:0:0:0:
192,160,128598,2,0,L|183:255,1,94.9999974632264
352,160,128884,2,0,L|343:64,1,94.9999974632264
144,176,129170,6,0,B|150:215|141:245|141:245|157:262|157:262|166:303|148:346,1,142.49999619484
160,352,129455,2,0,P|48:304|64:224,1,189.999994926453
75,174,129884,1,0,0:0:0:0:
224,269,130027,2,0,L|92:280,1,94.9999974632264
268,200,130313,6,0,B|324:176|324:176|373:297|220:365,1,284.999992389679
388,332,130884,2,0,L|483:340,1,94.9999974632264
336,208,131170,2,0,L|241:199,1,94.9999974632264
416,96,131455,2,0,L|510:104,1,94.9999974632264
272,16,131741,6,0,L|252:239,1,189.999994926453
244,294,132170,1,0,0:0:0:0:
165,195,132313,1,0,0:0:0:0:
340,173,132455,1,0,0:0:0:0:
156,38,132598,6,0,L|380:58,1,189.999994926453
466,74,133027,1,0,0:0:0:0:
243,133,133170,1,0,0:0:0:0:
503,193,133313,1,0,0:0:0:0:
288,288,133455,2,0,B|320:320|320:320|416:320,1,94.9999974632264
512,144,133741,2,0,B|480:112|480:112|384:112,1,94.9999974632264
256,112,134027,5,0,0:0:0:0:
304,0,134170,1,0,0:0:0:0:
144,48,134313,1,0,0:0:0:0:
384,80,134456,1,0,0:0:0:0:
384,80,134742,1,0,0:0:0:0:
384,80,135027,2,0,L|289:68,1,94.9999974632264
160,48,135313,1,0,0:0:0:0:
240,160,135456,1,0,0:0:0:0:
12,78,135599,1,0,0:0:0:0:
121,234,135741,5,0,0:0:0:0:
125,280,135812,1,0,0:0:0:0:
156,315,135883,1,0,0:0:0:0:
202,325,135955,1,0,0:0:0:0:
245,307,136026,1,0,0:0:0:0:
269,268,136098,1,0,0:0:0:0:
266,221,136169,1,0,0:0:0:0:
236,185,136241,1,0,0:0:0:0:
191,173,136313,6,0,P|261:220|336:85,1,270.000001029968
141,30,136741,1,0,0:0:0:0:
0,178,136884,2,0,L|275:131,1,270.000001029968
61,257,137313,1,0,0:0:0:0:
259,259,137455,6,0,P|282:190|261:125,1,135.000000514984
69,247,137741,2,0,P|46:316|67:381,1,135.000000514984
190,185,138027,2,0,P|141:130|74:116,1,135.000000514984
178,317,138313,2,0,P|249:302|295:251,1,135.000000514984
341,85,138598,6,0,B|188:44|241:158|73:113,2,270.000001029968
143,31,139313,1,0,0:0:0:0:
286,168,139455,2,0,P|309:242|293:303,1,135.000000514984
33,259,139741,6,0,B|104:272|104:272|154:230|154:230|218:242|218:242|104:272,1,270.000001029968
152,259,140170,2,0,L|222:241,1,67.5000002574921
288,192,140313,2,0,B|304:260|304:260|265:323,1,135.000000514984
71,187,140598,2,0,B|55:115|55:115|93:56,1,135.000000514984
285,107,140884,6,0,L|136:133,1,135.000000514984
337,10,141170,2,0,L|486:36,1,135.000000514984
461,204,141455,2,0,B|408:211|372:156|372:156|442:229|399:332,1,270.000001029968
455,114,141884,1,0,0:0:0:0:
302,251,142027,2,0,P|246:253|178:210,1,135.000000514984
237,24,142313,2,0,P|293:22|361:65,1,135.000000514984
96,184,142598,6,0,L|75:46,1,135.000000514984
265,142,142884,2,0,L|244:275,1,135.000000514984
0,331,143170,6,0,P|88:201|181:246,2,270.000001029968
209,327,143884,1,0,0:0:0:0:
145,121,144027,2,0,L|236:133,1,67.5000002574921
320,83,144170,6,0,B|180:33|215:147|47:85,1,270.000001029968
137,17,144598,1,0,0:0:0:0:
300,181,144741,2,0,L|391:169,1,67.5000002574921
431,119,144884,2,0,L|402:257,1,135.000000514984
169,225,145170,1,0,0:0:0:0:
163,158,145241,1,0,0:0:0:0:
190,97,145312,1,0,0:0:0:0:
245,59,145384,1,0,0:0:0:0:
311,52,145455,1,0,0:0:0:0:
478,121,145598,5,0,0:0:0:0:
311,315,145741,2,0,L|295:139,1,135.000000514984
286,23,146027,1,0,0:0:0:0:
175,309,146170,1,0,0:0:0:0:
176,29,146313,1,0,0:0:0:0:
287,315,146456,1,0,0:0:0:0:
64,96,146598,5,0,0:0:0:0:
400,96,146741,1,0,0:0:0:0:
64,224,146884,1,0,0:0:0:0:
400,240,147027,1,0,0:0:0:0:
51,96,147170,5,0,0:0:0:0:
409,96,147313,1,0,0:0:0:0:
51,224,147456,1,0,0:0:0:0:
409,240,147599,1,0,0:0:0:0:
112,352,147741,6,0,B|112:288|112:288|96:272|96:272|96:208,1,135.000000514984
176,64,148027,2,0,B|176:112|176:112|192:128|192:128|192:192,1,135.000000514984
202,309,148313,2,0,L|345:296,1,135.000000514984
464,144,148598,2,0,L|329:155,1,135.000000514984
16,240,148884,6,0,B|0:96|64:32|64:32|112:96,1,270.000001029968
144,224,149313,1,0,0:0:0:0:
240,16,149455,2,0,L|383:28,1,135.000000514984
512,224,149741,2,0,L|377:212,1,135.000000514984
112,256,150027,6,0,B|126:197|97:168|97:168|112:138|112:138|68:65|112:21,1,202.500000772476
80,32,150313,1,0,0:0:0:0:
352,48,150455,1,0,0:0:0:0:
96,128,150598,1,0,0:0:0:0:
368,144,150740,1,0,0:0:0:0:
112,224,150884,6,0,L|124:367,1,135.000000514984
432,240,151170,2,0,L|420:105,1,135.000000514984
407,18,151455,1,0,0:0:0:0:
234,142,151598,1,0,0:0:0:0:
508,166,151741,1,0,0:0:0:0:
240,320,151884,2,0,L|399:333,1,135.000000514984
496,352,152170,1,0,0:0:0:0:
384,160,152313,5,0,0:0:0:0:
384,320,152455,1,0,0:0:0:0:
272,160,152598,1,0,0:0:0:0:
384,332,152741,1,0,0:0:0:0:
160,208,152884,1,0,0:0:0:0:
383,346,153027,1,0,0:0:0:0:
80,288,153170,1,0,0:0:0:0:
383,362,153313,1,0,0:0:0:0:
144,96,153455,6,0,L|367:115,1,202.500000772476
377,116,153741,1,0,0:0:0:0:
220,253,153884,1,0,0:0:0:0:
220,253,154313,5,0,0:0:0:0:
480,191,154455,1,0,0:0:0:0:
204,11,154598,1,0,0:0:0:0:
306,333,155455,5,0,0:0:0:0:
104,302,155598,2,0,B|154:338|154:338|221:308,1,119.999996337891
207,314,156027,2,0,B|157:278|157:278|90:308,1,119.999996337891
20,368,156313,1,0,0:0:0:0:
107,148,156455,1,0,0:0:0:0:
149,384,156741,1,0,0:0:0:0:
17,116,156884,5,0,0:0:0:0:
480,172,157741,1,0,0:0:0:0:
360,32,157884,2,0,B|346:93|346:93|382:159,1,119.999996337891
373,143,158313,2,0,B|387:82|387:82|351:16,1,119.999996337891
228,258,158598,1,0,0:0:0:0:
288,84,158741,1,0,0:0:0:0:
389,253,158884,1,0,0:0:0:0:
184,144,159027,1,0,0:0:0:0:
282,363,159170,5,0,0:0:0:0:
231,20,160027,1,0,0:0:0:0:
104,146,160170,2,0,B|57:185|57:185|-5:171,1,119.999996337891
0,172,160598,2,0,B|47:133|47:133|109:147,1,119.999996337891
287,236,160884,1,0,0:0:0:0:
70,239,161027,1,0,0:0:0:0:
298,121,161313,1,0,0:0:0:0:
206,346,161455,5,0,0:0:0:0:
195,229,161598,1,0,0:0:0:0:
222,344,161741,1,0,0:0:0:0:
284,240,161884,1,0,0:0:0:0:
224,357,162027,1,0,0:0:0:0:
342,310,162170,1,0,0:0:0:0:
211,360,162313,1,0,0:0:0:0:
187,162,162455,6,0,B|167:219|167:219|195:301,1,119.999996337891
296,70,162741,1,0,0:0:0:0:
406,272,162884,2,0,B|426:216|426:216|406:159,1,119.999996337891
299,349,163170,1,0,0:0:0:0:
398,147,163313,1,0,0:0:0:0:
154,230,163455,1,0,0:0:0:0:
395,266,163598,1,0,0:0:0:0:
296,38,163741,5,0,0:0:0:0:
48,96,164027,1,0,0:0:0:0:
48,80,164313,1,0,0:0:0:0:
48,64,164598,1,0,0:0:0:0:
112,176,164741,2,0,B|208:208|208:208|329:176,1,200
384,96,165170,6,0,L|368:274,1,150
368,272,165455,1,0,0:0:0:0:
368,256,165741,1,0,0:0:0:0:
240,304,166027,2,0,B|151:327|151:327|63:297,1,150
64,304,166313,1,0,0:0:0:0:
64,288,166599,1,0,0:0:0:0:
64,272,166884,1,0,0:0:0:0:
32,176,167027,2,0,B|128:208|128:208|249:176,1,200
304,96,167455,6,0,L|288:274,1,150
288,272,167741,1,0,0:0:0:0:
288,256,168027,1,0,0:0:0:0:
288,240,168313,2,0,B|384:272|384:272|505:240,2,200
208,192,169027,1,0,0:0:0:0:
244,89,169170,1,0,0:0:0:0:
324,164,169313,1,0,0:0:0:0:
349,72,169455,6,0,P|409:112|419:164,1,100
304,251,169741,2,0,P|244:211|234:159,1,100
226,92,170027,5,0,0:0:0:0:
118,72,170170,1,0,0:0:0:0:
43,151,170313,1,0,0:0:0:0:
43,151,170455,1,0,0:0:0:0:
43,151,170598,2,0,L|29:368,2,200
53,58,171313,1,0,0:0:0:0:
182,12,171455,6,0,L|314:24,1,100,0|0,2:0|2:0,2:0:0:0:
360,125,171741,2,0,L|260:117,1,100
130,185,172027,2,0,L|262:197,1,100
307,298,172313,2,0,L|208:290,1,100
69,333,172598,2,0,P|59:270|78:231,1,100
155,162,172884,1,0,0:0:0:0:
33,19,173027,6,0,L|19:173,1,150
15,198,173313,1,0,0:0:0:0:
123,60,173455,6,0,L|109:214,1,150
105,239,173741,1,0,0:0:0:0:
210,113,173884,6,0,L|196:267,1,150
192,292,174170,1,0,0:0:0:0:
290,165,174313,6,0,L|276:319,1,150
272,344,174599,1,0,0:0:0:0:
386,205,174741,6,0,L|372:359,1,150
368,384,175027,1,0,0:0:0:0:
131,274,175170,2,0,B|197:273|233:267|258:255|287:236|301:211|297:171|275:141|235:114|185:102|130:107|111:121|125:166|-82:383|193:248|236:280|269:293|313:299|366:296|426:285|464:255|454:199|434:138|431:118|431:118|477:336,1,1035.00000157928
472,314,177455,6,0,L|450:209,1,100
332,364,178027,2,0,L|354:258,1,100
427,100,178598,1,0,0:0:0:0:
281,201,178884,1,0,0:0:0:0:
437,121,179170,1,0,0:0:0:0:
216,77,179455,1,0,0:0:0:0:
216,77,179741,6,0,P|141:64|71:101,1,135.000000514984
381,205,180027,2,0,P|456:218|526:181,1,135.000000514984
160,156,180313,2,0,L|140:298,1,135.000000514984
439,135,180598,2,0,L|420:1,1,135.000000514984
321,359,180884,1,0,0:0:0:0:
171,165,181027,6,0,B|114:131|114:131|39:155,1,135.000000514984
357,255,181313,2,0,B|414:222|414:222|431:145,1,135.000000514984
102,237,181598,2,0,L|114:316,1,67.5000002574921
126,384,181741,1,0,0:0:0:0:
278,188,181884,2,0,L|288:121,1,67.5000002574921
204,20,182027,6,0,P|171:58|221:67,1,104.999996795654
72,50,182313,6,0,P|102:124|235:168,1,225.000008583069
356,170,182598,2,0,L|92:236,1,270.000001029968
359,268,183027,1,0,0:0:0:0:
134,344,183170,6,0,P|55:346|-4:298,1,135.000000514984
182,125,183455,2,0,P|261:123|320:171,1,135.000000514984
87,216,183741,2,0,P|45:148|57:73,1,135.000000514984
218,249,184027,2,0,P|180:319|109:346,1,135.000000514984
244,32,184313,6,0,B|369:54|369:54|387:70|387:70|504:91,2,270.000001029968
447,0,185027,1,0,0:0:0:0:
193,108,185170,2,0,L|214:173,1,67.5000002574921
121,301,185313,6,0,B|165:160|59:195|112:20,1,270.000001029968
29,250,185741,1,0,0:0:0:0:
213,354,185884,2,0,L|288:338,1,67.5000002574921
350,223,186027,2,0,L|206:254,1,135.000000514984
430,110,186313,1,0,0:0:0:0:
471,162,186384,1,0,0:0:0:0:
484,228,186455,1,0,0:0:0:0:
465,292,186527,1,0,0:0:0:0:
419,341,186598,6,0,L|288:313,1,135.000000514984
50,166,186884,2,0,L|181:194,1,135.000000514984
381,51,187170,2,0,B|238:21|285:131|110:83,1,270.000001029968
187,8,187598,1,0,0:0:0:0:
340,148,187741,6,0,P|359:219|343:292,1,135.000000514984
70,302,188027,2,0,P|51:231|67:158,1,135.000000514984
291,349,188313,2,0,L|439:324,1,135.000000514984
134,110,188598,2,0,L|-14:85,1,135.000000514984
418,105,188884,6,0,B|501:75|501:75|310:32,2,270.000001029968
229,72,189598,1,0,0:0:0:0:
437,204,189741,2,0,P|460:270|431:340,1,135.000000514984
162,270,190027,6,0,P|292:198|378:297,1,270.000001029968
371,266,190455,2,0,P|353:229|351:197,1,67.5000002574921
235,76,190598,2,0,B|255:55|260:22|260:22|258:64|263:97,1,135.000000514984
295,322,190884,2,0,B|275:343|270:376|270:376|272:334|267:301,1,135.000000514984
433,115,191170,5,0,0:0:0:0:
234,204,191313,1,0,0:0:0:0:
385,372,191455,2,0,P|392:300|361:242,1,135.000000514984
170,111,191741,1,0,0:0:0:0:
411,118,191884,1,0,0:0:0:0:
165,281,192027,1,0,0:0:0:0:
334,63,192170,2,0,P|302:53|270:41,1,67.5000002574921
318,76,192313,6,0,L|290:217,1,135.000000514984
121,19,192598,1,0,0:0:0:0:
47,220,192741,2,0,P|83:209|119:195,1,67.5000002574921
56,235,192884,2,0,B|46:302|46:302|84:376,1,135.000000514984
280,216,193170,2,0,B|292:150|292:150|252:75,1,135.000000514984
179,366,193455,5,0,0:0:0:0:
189,152,193598,1,0,0:0:0:0:
358,344,193741,1,0,0:0:0:0:
139,244,193884,1,0,0:0:0:0:
352,363,194027,5,0,0:0:0:0:
382,141,194170,1,0,0:0:0:0:
151,258,194313,1,0,0:0:0:0:
421,266,194455,1,0,0:0:0:0:
188,136,194598,6,0,P|142:131|61:170,1,135.000000514984
347,354,194884,2,0,P|393:359|474:320,1,135.000000514984
73,354,195170,1,0,0:0:0:0:
382,230,195313,2,0,P|376:178|367:152,1,67.5000002574921
308,68,195455,2,0,P|267:41|231:34,1,67.5000002574921
138,23,195598,1,0,0:0:0:0:
138,23,195670,1,0,0:0:0:0:
138,23,195741,6,0,B|329:23|329:23|395:73,1,270.000001029968
458,202,196170,1,0,0:0:0:0:
293,281,196313,2,0,P|266:221|289:159,1,135.000000514984
475,216,196598,2,0,P|501:155|479:93,1,135.000000514984
354,18,196884,5,0,0:0:0:0:
392,263,197027,1,0,0:0:0:0:
255,36,197170,5,0,0:0:0:0:
293,281,197313,1,0,0:0:0:0:
168,56,197455,5,0,0:0:0:0:
206,301,197598,1,0,0:0:0:0:
85,72,197741,5,0,0:0:0:0:
123,317,197884,1,0,0:0:0:0:
16,106,198027,5,0,0:0:0:0:
191,282,198170,1,0,0:0:0:0:
14,185,198313,5,0,0:0:0:0:
258,224,198456,1,0,0:0:0:0:
25,260,198598,5,0,0:0:0:0:
246,148,198741,1,0,0:0:0:0:
79,314,198884,5,0,0:0:0:0:
192,94,199027,1,0,0:0:0:0:
155,326,199170,5,0,0:0:0:0:
116,82,199313,1,0,0:0:0:0:
247,323,199455,5,0,0:0:0:0:
204,53,199598,1,0,0:0:0:0:
337,328,199741,5,0,0:0:0:0:
289,30,199884,1,0,0:0:0:0:
429,329,200027,5,0,0:0:0:0:
376,1,200170,1,0,0:0:0:0:
480,240,200313,6,0,B|432:240|432:240|384:272|384:272|336:240|336:240|236:240,1,202.500000772476
288,240,200598,2,0,L|275:96,1,135.000000514984
496,0,200884,2,0,L|507:134,1,135.000000514984
384,352,201170,1,0,0:0:0:0:
288,240,201313,1,0,0:0:0:0:
240,384,201455,2,0,L|80:370,1,135.000000514984
64,224,201741,5,0,0:0:0:0:
256,160,201884,1,0,0:0:0:0:
308,325,202027,2,0,L|165:312,1,135.000000514984
0,304,202313,1,0,0:0:0:0:
256,224,202455,1,0,0:0:0:0:
463,386,202598,6,0,L|288:371,1,135.000000514984
48,192,202884,2,0,L|182:180,1,135.000000514984
351,177,203170,1,0,0:0:0:0:
164,373,203313,1,0,0:0:0:0:
182,179,203455,1,0,0:0:0:0:
363,369,203598,1,0,0:0:0:0:
16,208,203741,6,0,L|32:16,1,135.000000514984
320,208,204027,2,0,L|308:342,1,135.000000514984
128,224,204313,6,0,L|144:32,1,135.000000514984
432,224,204598,2,0,L|422:332,1,67.5000002574921
288,384,204741,2,0,L|299:256,1,67.5000002574921
151,230,204884,6,0,B|230:239|206:189|294:199,1,135.000000514984
483,52,205170,2,0,B|404:61|428:11|340:21,1,135.000000514984
95,74,205455,2,0,B|256:11|198:161|395:91,1,270.000001029968
22,11,205884,1,0,0:0:0:0:
133,288,206027,6,0,L|161:156,1,135.000000514984
9,5,206313,2,0,L|36:137,1,135.000000514984
323,72,206598,2,0,P|261:42|182:57,1,135.000000514984
421,210,206884,1,0,0:0:0:0:
421,210,207170,6,0,L|369:222,1,50
285,246,207503,1,0,0:0:0:0:
285,246,207836,6,0,L|321:285,1,50
384,345,208236,1,0,0:0:0:0:
384,345,208636,6,0,L|399:293,1,50
276,259,208969,2,0,L|260:207,1,50
427,205,209395,2,0,L|442:153,1,50
233,118,209823,1,0,0:0:0:0:
226,112,210403,6,0,B|182:102|182:102|170:84|154:72|154:72|143:16|143:16|139:77|122:116|122:116|151:140|156:176|156:176|220:194|165:266|88:270|27:252|0:185|64:132|85:184,1,600
83,181,213455,6,0,P|69:223|80:278,1,100
241,118,213741,2,0,P|255:76|244:21,1,100
225,288,214026,6,0,P|483:279|368:42,2,600.000022888185
284,197,215741,6,0,P|409:230|317:138,1,350
310,126,216312,6,0,L|298:-2,2,89.9999972534181
352,196,216740,1,0,0:0:0:0:
258,273,216883,2,0,L|246:145,3,89.9999972534181
240,160,217455,6,0,L|367:148,1,89.9999972534181
457,266,217741,2,0,L|368:259,1,89.9999972534181
270,177,218026,2,0,L|397:165,3,89.9999972534181
453,198,218598,6,0,P|454:137|428:99,1,89.9999972534181
301,37,218884,2,0,P|300:98|326:136,1,89.9999972534181
284,201,219169,2,0,P|345:202|383:176,3,89.9999972534181
480,192,219741,6,2,L|459:1,1,179.999994506836
352,80,220169,1,0,0:0:0:0:
232,121,220312,2,0,L|240:32,1,89.9999972534181
112,96,220598,2,0,L|104:185,1,89.9999972534181,0|0,0:0|0:0,0:1:0:0:
64,256,220884,2,0,L|191:267,3,89.9999972534181
256,304,221455,2,0,B|272:256|272:256|256:208,1,89.9999972534181
160,112,221741,2,0,B|144:160|144:160|160:208,1,89.9999972534181
256,144,222026,2,0,L|432:144,1,134.999995880127
416,144,222312,2,0,B|428:106|428:106|412:58,1,89.9999972534181
368,208,222598,2,0,B|355:245|355:245|371:293,3,89.9999972534181
464,384,223169,6,0,L|272:367,1,179.999994506836
160,352,223598,1,0,0:0:0:0:
160,352,223741,2,0,P|144:288|256:240,1,179.999994506836
219,307,224169,1,0,0:0:0:0:
320,192,224312,6,0,L|332:335,1,134.999995880127
196,278,224598,2,0,L|208:144,1,134.999995880127
400,112,224884,2,0,L|412:255,1,134.999995880127
416,288,225169,2,0,L|368:283,1,44.999998626709
192,352,225312,2,0,L|236:355,1,44.999998626709
417,298,225455,6,0,P|304:261|268:198,1,179.999994506836
353,60,225741,2,0,B|362:36|362:36|358:2,1,59.9999981689454
249,127,225884,2,0,B|224:132|224:132|197:153,1,59.9999981689454
363,183,226026,2,0,B|380:203|380:203|412:217,1,59.9999981689454
246,11,226169,1,0,0:0:0:0:
248,21,226241,1,0,0:0:0:0:
250,32,226312,1,0,0:0:0:0:
275,240,226455,1,0,0:0:0:0:
119,108,226598,6,0,L|-15:128,1,119.999996337891
192,346,226884,1,0,0:0:0:0:
185,339,226955,1,0,0:0:0:0:
182,330,227026,2,0,L|190:270,1,59.9999981689454
207,148,227169,1,0,0:0:0:0:
12,297,227312,1,0,0:0:0:0:
263,266,227455,1,0,0:0:0:0:
44,165,227598,1,0,0:0:0:0:
247,358,227741,6,0,B|347:365|305:288|428:294,1,179.999994506836
503,373,228026,1,0,0:0:0:0:
497,366,228098,1,0,0:0:0:0:
490,360,228169,2,0,P|500:329|504:302,1,59.9999981689454
361,174,228312,1,0,0:0:0:0:
397,380,228455,1,0,0:0:0:0:
487,120,228598,1,0,0:0:0:0:
299,265,228741,1,0,0:0:0:0:
361,53,228884,6,0,P|381:110|354:172,1,119.999996337891
99,149,229169,1,0,0:0:0:0:
298,108,229312,1,0,0:0:0:0:
162,260,229455,1,0,0:0:0:0:
183,57,229598,1,0,0:0:0:0:
285,233,229741,2,0,P|346:259|459:214,1,179.999994506836
339,44,230026,6,0,L|360:168,1,119.999996337891
99,19,230312,2,0,L|78:143,1,119.999996337891
236,277,230598,1,0,0:0:0:0:
182,99,230741,1,0,0:0:0:0:
150,340,230884,1,0,0:0:0:0:
268,129,231026,1,0,0:0:0:0:
28,219,231169,6,0,B|198:246|198:246|161:239|126:255,1,240
49,360,231455,2,0,L|195:330,1,119.999996337891
283,130,231741,2,0,L|137:160,1,119.999996337891
319,310,232026,1,0,0:0:0:0:
390,63,232169,1,0,0:0:0:0:
201,237,232312,5,0,0:0:0:0:
452,188,232455,1,0,0:0:0:0:
452,188,232741,5,0,0:0:0:0:
247,369,232884,1,0,0:0:0:0:
247,369,233169,5,0,0:0:0:0:
292,86,233312,1,0,0:0:0:0:
292,86,233598,5,0,0:0:0:0:
439,362,233741,1,0,0:0:0:0:
439,362,234026,6,0,L|264:324,1,179.999994506836
512,190,234312,2,0,L|380:230,1,119.999996337891
136,337,234598,5,0,0:0:0:0:
256,40,234741,1,0,0:0:0:0:
256,40,235026,5,0,0:0:0:0:
0,212,235169,1,0,0:0:0:0:
0,212,235455,5,0,0:0:0:0:
369,145,235598,1,0,0:0:0:0:
369,145,236098,6,0,L|375:177,3,25
367,132,236431,6,0,B|389:74|356:42|306:31|267:53|263:102|263:102|226:72|175:85|143:122|135:183|187:230|236:213|276:213|256:163|327:209|330:251|323:291|323:291|301:255|245:246|205:274|237:312|268:302,1,720
272,317,239514,6,0,P|167:353|93:371,1,179.999994506836
