osu file format v14

[General]
AudioFilename: audio.ogg
AudioLeadIn: 0
PreviewTime: 67147
Countdown: 0
SampleSet: Soft
StackLeniency: 0.7
Mode: 0
LetterboxInBreaks: 0
WidescreenStoryboard: 0

[Editor]
DistanceSpacing: 3.2
BeatDivisor: 4
GridSize: 8
TimelineZoom: 2.6

[Metadata]
Title:Deep Indigo
TitleUnicode:藍二乗
Artist:Yorushika
ArtistUnicode:ヨルシカ
Creator:TheOttoZone
Version:A Story About You
Source:
Tags:ai nijou ainijou blur squared ナブナ nbuna n-buna スイ suis だから僕は音楽を辞めた that's why i gave up on music dakara boku wa ongaku o wo yameta japanese pop j-pop jpop rock j-rock jrock female vocal i^2
BeatmapID:4565412
BeatmapSetID:2164440

[Difficulty]
HPDrainRate:5.6
CircleSize:4
OverallDifficulty:9.2
ApproachRate:9.5
SliderMultiplier:1.4
SliderTickRate:1

[Events]
//Background and Video events
0,0,"deep indigo.jpg",0,0
//Break Periods
2,177775,179336
2,210746,213036
//Storyboard Layer 0 (Background)
//Storyboard Layer 1 (Fail)
//Storyboard Layer 2 (Pass)
//Storyboard Layer 3 (Foreground)
//Storyboard Layer 4 (Overlay)
//Storyboard Sound Samples

[TimingPoints]
433,285.714285714286,4,2,0,25,1,0
17575,-100,4,2,0,10,0,0
17790,-100,4,2,0,5,0,0
17861,-100,4,2,0,15,0,0
18075,-100,4,2,0,5,0,0
18147,-80,4,2,0,20,0,0
18361,-80,4,2,0,5,0,0
18433,-66.6666666666667,4,2,0,25,0,0
18647,-66.6666666666667,4,2,0,5,0,0
18718,-57.1428571428571,4,2,0,30,0,0
18933,-57.1428571428571,4,2,0,5,0,0
19004,-57.1428571428571,4,2,0,35,0,0
19218,-57.1428571428571,4,2,0,5,0,0
19290,-57.1428571428571,4,2,0,45,0,0
19861,-66.6666666666667,4,2,0,50,0,0
27861,-66.6666666666667,4,2,0,55,0,1
29004,-66.6666666666667,4,2,0,25,0,0
29290,-66.6666666666667,4,2,0,60,0,1
38147,-76.9230769230769,4,2,0,45,0,0
67290,-500,4,2,0,25,0,0
67861,-62.5,4,2,0,70,0,1
68361,-62.5,4,2,0,5,0,1
68433,-62.5,4,2,0,70,0,1
68933,-62.5,4,2,0,5,0,1
69004,-62.5,4,2,0,70,0,1
69218,-62.5,4,2,0,5,0,1
69290,-62.5,4,2,0,70,0,1
69504,-62.5,4,2,0,5,0,1
69575,-62.5,4,2,0,70,0,1
70361,-62.5,4,2,0,5,0,1
70433,-62.5,4,2,0,70,0,1
70933,-62.5,4,2,0,5,0,1
71004,-62.5,4,2,0,70,0,1
71218,-62.5,4,2,0,5,0,1
71290,-62.5,4,2,0,70,0,1
71361,-62.5,4,2,0,5,0,1
71575,-62.5,4,2,0,70,0,1
71790,-62.5,4,2,0,5,0,1
71861,-62.5,4,2,0,70,0,1
76861,-62.5,4,2,0,70,0,0
77004,-62.5,4,2,0,70,0,1
83504,-62.5,4,2,0,5,0,1
83575,-62.5,4,2,0,70,0,1
86147,-62.5,4,2,0,70,0,0
86575,-76.9230769230769,4,2,0,70,0,0
87147,-100,4,2,0,70,0,0
87718,-166.666666666667,4,2,0,70,0,0
88433,-80,4,2,0,50,0,0
97861,-66.6666666666667,4,2,0,60,0,0
106718,-133.333333333333,4,2,0,20,0,0
112790,-133.333333333333,4,2,0,5,0,0
112861,-133.333333333333,4,2,0,20,0,0
113075,-133.333333333333,4,2,0,5,0,0
113147,-133.333333333333,4,2,0,20,0,0
114575,-76.9230769230769,4,2,0,40,0,0
122933,-76.9230769230769,4,2,0,5,0,0
123004,-76.9230769230769,4,2,0,40,0,0
123218,-76.9230769230769,4,2,0,5,0,0
123290,-76.9230769230769,4,2,0,45,0,0
123504,-76.9230769230769,4,2,0,5,0,0
123575,-76.9230769230769,4,2,0,50,0,0
125004,-71.4285714285714,4,2,0,50,0,0
136433,-62.5,4,2,0,70,0,1
136647,-62.5,4,2,0,5,0,1
136718,-62.5,4,2,0,70,0,1
136933,-62.5,4,2,0,5,0,1
137004,-62.5,4,2,0,70,0,1
137218,-62.5,4,2,0,5,0,1
137290,-62.5,4,2,0,70,0,1
137504,-62.5,4,2,0,5,0,1
137575,-62.5,4,2,0,70,0,1
137790,-62.5,4,2,0,5,0,1
137861,-62.5,4,2,0,70,0,1
138075,-62.5,4,2,0,5,0,1
138147,-62.5,4,2,0,70,0,1
138718,-62.5,4,2,0,70,0,1
138933,-62.5,4,2,0,5,0,1
139004,-62.5,4,2,0,70,0,1
139218,-62.5,4,2,0,5,0,1
139290,-62.5,4,2,0,70,0,1
139504,-62.5,4,2,0,5,0,1
139575,-62.5,4,2,0,70,0,1
139790,-62.5,4,2,0,5,0,1
139861,-62.5,4,2,0,70,0,1
141218,-62.5,4,2,0,5,0,1
141290,-62.5,4,2,0,70,0,1
141504,-62.5,4,2,0,5,0,1
141575,-62.5,4,2,0,70,0,1
141790,-62.5,4,2,0,5,0,1
141861,-62.5,4,2,0,70,0,1
142075,-62.5,4,2,0,5,0,1
142147,-62.5,4,2,0,70,0,1
142361,-62.5,4,2,0,5,0,1
142433,-62.5,4,2,0,70,0,1
142647,-62.5,4,2,0,5,0,1
142718,-62.5,4,2,0,70,0,1
142933,-62.5,4,2,0,5,0,1
143004,-62.5,4,2,0,70,0,1
143218,-62.5,4,2,0,5,0,1
143290,-62.5,4,2,0,70,0,1
145290,-62.5,4,2,0,70,0,0
145575,-62.5,4,2,0,70,0,1
154647,-62.5,4,2,0,5,0,1
154718,-68.9655172413793,4,2,0,55,0,0
168361,-68.9655172413793,4,2,0,5,0,0
168433,-68.9655172413793,4,2,0,55,0,0
170933,-68.9655172413793,4,2,0,5,0,0
171004,-68.9655172413793,4,2,0,55,0,0
175290,-200,4,2,0,40,0,0
179861,-58.8235294117647,4,2,0,70,0,1
182147,-333.333333333333,4,2,0,80,0,0
182365,-333.333333333333,4,2,0,5,0,0
182433,-57.1428571428571,4,2,0,80,0,1
183218,-57.1428571428571,4,2,0,5,0,1
183290,-57.1428571428571,4,2,0,80,0,1
183504,-57.1428571428571,4,2,0,5,0,1
183575,-57.1428571428571,4,2,0,80,0,1
184361,-57.1428571428571,4,2,0,5,0,1
184433,-57.1428571428571,4,2,0,80,0,1
185647,-57.1428571428571,4,2,0,5,0,1
185718,-57.1428571428571,4,2,0,80,0,1
187790,-57.1428571428571,4,2,0,5,0,1
187861,-57.1428571428571,4,2,0,80,0,1
189218,-57.1428571428571,4,2,0,5,0,1
189290,-57.1428571428571,4,2,0,80,0,1
191218,-57.1428571428571,4,2,0,5,0,1
191290,-57.1428571428571,4,2,0,80,0,1
193504,-57.1428571428571,4,2,0,5,0,1
193575,-57.1428571428571,4,2,0,80,0,1
195290,-57.1428571428571,4,2,0,80,0,0
195861,-57.1428571428571,4,2,0,80,0,1
196075,-57.1428571428571,4,2,0,5,0,1
196147,-57.1428571428571,4,2,0,80,0,1
196933,-57.1428571428571,4,2,0,5,0,1
197004,-57.1428571428571,4,2,0,80,0,1
205004,-64.5161290322581,4,2,0,65,0,0
207004,307.692307692308,4,2,0,40,1,0
207311,333.333333333333,4,2,0,25,1,0
207311,-250,4,2,0,25,0,0
207644,352.941176470588,4,2,0,25,1,0
207996,-333.333333333333,4,2,0,15,0,0
208349,400,4,2,0,15,1,0
208749,352.941176470588,4,2,0,15,1,0
208749,-100,4,2,0,10,0,0
209101,428.571428571429,4,2,0,10,1,0
209529,-333.333333333333,4,2,0,10,0,0
209958,588.235294117647,4,2,0,5,1,0
210546,753.768844221106,4,2,0,10,1,0
213561,292.682926829268,4,2,0,50,1,0
213853,-66.6666666666667,4,2,0,50,0,0
214074,-100,4,2,0,50,0,0
214146,285.714285714286,4,2,0,60,1,0
216431,-66.6666666666667,4,2,0,60,0,0
224431,-66.6666666666667,4,2,0,60,0,1
225574,-66.6666666666667,4,2,0,60,0,0
225860,-64.5161290322581,4,2,0,60,0,1
226074,-64.5161290322581,4,2,0,5,0,1
226146,-64.5161290322581,4,2,0,60,0,1
231788,-64.5161290322581,4,2,0,5,0,1
231860,-64.5161290322581,4,2,0,60,0,1
232360,-64.5161290322581,4,2,0,5,0,1
232431,-57.1428571428571,4,2,0,60,0,1
234360,-57.1428571428571,4,2,0,5,0,1
234431,-57.1428571428571,4,2,0,60,0,1
234646,-57.1428571428571,4,2,0,5,0,1
234717,-57.1428571428571,4,2,0,70,0,1
235860,-57.1428571428571,4,2,0,40,0,0
245003,-57.1428571428571,4,2,0,5,0,0

[HitObjects]
100,285,1433,5,0,0:0:0:0:
100,285,1575,6,0,P|174:302|234:269,1,140
196,120,2004,2,0,P|223:148|246:183,1,70
283,349,2290,2,0,P|311:310|320:273,1,70
393,151,2575,1,0,0:0:0:0:
393,151,2718,6,0,P|357:200|275:211,1,140
166,179,3147,1,0,0:0:0:0:
153,157,3290,2,0,P|159:118|180:88,1,70
298,15,3575,2,0,P|292:54|271:84,1,70
148,129,3861,6,0,P|188:136|226:164,1,70
349,236,4147,2,0,P|316:256|273:252,1,70
130,219,4433,2,0,P|163:199|206:203,1,70
361,160,4718,1,0,0:0:0:0:
361,160,4861,6,0,P|343:217|321:240,1,70
201,285,5147,1,0,0:0:0:0:
198,290,5290,2,0,P|225:260|261:240,1,70
337,143,5575,2,0,P|325:159|313:168,2,35,0|0|0,3:0|3:0|3:0,3:0:0:0:
178,181,5861,1,0,0:0:0:0:
137,243,6004,1,0,0:0:0:0:
124,286,6147,6,0,P|5:267|-13:234,2,140
293,198,7004,1,0,0:0:0:0:
335,164,7147,1,0,0:0:0:0:
369,167,7290,6,0,P|488:148|506:115,2,140
248,154,8147,1,0,0:0:0:0:
216,121,8290,1,0,0:0:0:0:
216,84,8433,6,0,P|273:46|340:58,2,140
435,160,9290,6,0,L|348:180,1,70
249,167,9575,6,0,L|235:242,1,70
198,295,9790,6,0,P|173:268|178:228,1,70
196,207,10004,5,0,0:0:0:0:
81,247,10147,1,0,0:0:0:0:
81,247,10290,1,0,0:0:0:0:
70,143,10433,6,0,P|97:109|159:112,1,105
180,132,10718,6,0,L|159:230,1,70
207,285,11004,1,0,0:0:0:0:
388,299,11147,2,0,L|317:286,1,70
294,120,11433,2,0,L|260:202,1,70
144,305,11718,1,0,0:0:0:0:
137,314,11861,6,0,P|216:302|272:248,1,140
302,201,12290,1,0,0:0:0:0:
307,189,12433,2,0,P|272:171|211:187,1,105
206,199,12718,2,0,L|219:232,3,35
236,254,13004,6,0,P|288:240|336:259,1,105
362,303,13290,1,0,0:0:0:0:
382,287,13433,2,0,L|367:203,1,70
381,47,13718,2,0,L|345:132,1,70
205,230,14004,2,0,L|284:206,1,70
408,174,14290,1,0,0:0:0:0:
420,163,14433,2,0,L|347:137,1,70
208,116,14718,2,0,P|185:147|175:197,1,70
88,309,15004,6,0,P|136:281|175:282,1,70
231,320,15290,1,0,0:0:0:0:
238,326,15575,1,0,0:0:0:0:
249,324,15861,1,0,0:0:0:0:
359,211,16147,6,0,P|344:157|316:130,1,70
139,64,16433,1,0,0:0:0:0:
138,93,16718,1,0,0:0:0:0:
180,149,17004,1,0,0:0:0:0:
277,87,17290,2,0,P|294:73|326:72,3,35
138,140,17575,6,0,P|154:192|203:224,1,105
292,286,17861,6,0,P|277:236|236:204,1,105
84,217,18147,6,0,P|132:242|212:217,1,131.25
316,97,18433,6,0,P|244:104|193:177,1,157.500006008148
102,317,18718,6,0,P|196:286|237:205,1,183.750001752377
335,118,19004,6,0,P|241:149|200:230,1,183.750001752377
215,367,19290,6,0,P|235:270|108:207,1,245.000002336502
87,222,19861,5,0,0:0:0:0:
151,164,20003,1,0,0:0:0:0:
232,195,20146,1,0,0:0:0:0:
242,281,20289,1,0,0:0:0:0:
148,260,20432,5,0,0:0:0:0:
175,351,20575,1,0,0:0:0:0:
343,192,20718,5,0,0:0:0:0:
311,274,20861,1,0,0:0:0:0:
142,141,21004,5,0,0:0:0:0:
140,227,21147,1,0,0:0:0:0:
220,260,21290,1,0,0:0:0:0:
390,156,21433,2,0,L|314:146,1,52.5000020027161
194,122,21575,1,0,0:0:0:0:
291,50,21718,1,0,0:0:0:0:
127,101,21861,5,0,0:0:0:0:
184,212,22004,1,0,0:0:0:0:
254,38,22147,5,0,0:0:0:0:
166,37,22289,1,0,0:0:0:0:
108,103,22432,1,0,0:0:0:0:
120,190,22575,1,0,0:0:0:0:
200,214,22718,5,0,0:0:0:0:
223,129,22860,1,0,0:0:0:0:
174,56,23003,1,0,0:0:0:0:
87,45,23147,2,0,L|96:108,1,52.5000020027161
114,189,23290,5,0,0:0:0:0:
171,105,23433,1,0,0:0:0:0:
261,253,23575,5,0,0:0:0:0:
227,176,23718,1,0,0:0:0:0:
88,322,23861,5,0,0:0:0:0:
115,242,24004,1,0,0:0:0:0:
225,327,24147,5,0,0:0:0:0:
191,259,24290,1,0,0:0:0:0:
67,213,24433,5,0,0:0:0:0:
88,127,24575,1,0,0:0:0:0:
167,89,24718,1,0,0:0:0:0:
247,123,24861,1,0,0:0:0:0:
272,210,25004,5,0,0:0:0:0:
260,123,25147,1,0,0:0:0:0:
318,57,25290,1,0,0:0:0:0:
406,58,25432,1,0,0:0:0:0:
345,224,25575,5,0,0:0:0:0:
399,131,25717,1,0,0:0:0:0:
447,261,25860,1,0,0:0:0:0:
386,73,26004,2,0,L|331:119,1,52.5000020027161
223,189,26147,5,0,0:0:0:0:
281,32,26290,1,0,0:0:0:0:
300,231,26433,5,0,0:0:0:0:
174,81,26575,1,0,0:0:0:0:
321,36,26718,6,0,P|318:104|276:152,1,105.000004005432
205,220,27004,1,0,0:0:0:0:
205,220,27147,1,0,0:0:0:0:
65,51,27290,2,0,P|87:104|134:124,1,105.000004005432,0|0,3:0|3:0,3:0:0:0:
226,39,27575,5,0,0:0:0:0:
353,195,27718,1,0,0:0:0:0:
246,199,27861,5,0,0:0:0:0:
428,140,28004,1,0,0:0:0:0:
290,263,28147,5,0,0:0:0:0:
405,82,28290,1,0,0:0:0:0:
376,301,28433,5,0,0:0:0:0:
299,45,28575,1,0,0:0:0:0:
421,317,28718,5,0,0:0:0:0:
406,266,28789,1,0,0:0:0:0:
371,228,28860,1,0,0:0:0:0:
323,208,28932,1,0,0:0:0:0:
271,212,29003,1,0,0:0:0:0:
252,229,29290,6,0,P|320:226|353:200,1,105.000004005432
162,62,29575,1,0,0:0:0:0:
71,233,29718,1,0,0:0:0:0:
71,233,29790,1,0,0:0:0:0:
71,233,29861,1,0,0:0:0:0:
277,156,30004,1,0,0:0:0:0:
155,70,30147,5,0,0:0:0:0:
220,276,30290,1,0,0:0:0:0:
317,110,30433,1,0,0:0:0:0:
317,110,30504,1,0,0:0:0:0:
317,110,30575,1,0,0:0:0:0:
163,162,30718,5,0,0:0:0:0:
207,304,30861,1,0,0:0:0:0:
336,226,31004,1,0,0:0:0:0:
288,352,31147,1,0,0:0:0:0:
107,239,31290,6,0,L|208:210,1,105.000004005432
382,145,31575,1,0,0:0:0:0:
382,145,31647,1,0,0:0:0:0:
382,145,31718,1,0,0:0:0:0:
135,82,31861,1,0,0:0:0:0:
308,28,32004,1,0,0:0:0:0:
198,187,32147,1,0,0:0:0:0:
365,246,32290,1,0,0:0:0:0:
311,71,32433,6,0,P|245:61|198:86,1,105.000004005432
302,195,32718,1,0,0:0:0:0:
128,286,32861,1,0,0:0:0:0:
173,103,33004,1,0,0:0:0:0:
324,276,33147,1,0,0:0:0:0:
63,225,33290,2,0,P|83:171|134:140,1,105.000004005432
135,144,33504,1,0,0:0:0:0:
148,147,33575,5,0,0:0:0:0:
176,251,33718,1,0,0:0:0:0:
277,145,33861,1,0,0:0:0:0:
206,318,34004,1,0,0:0:0:0:
150,161,34147,1,0,0:0:0:0:
299,311,34290,1,0,0:0:0:0:
346,108,34433,1,0,0:0:0:0:
228,254,34575,1,0,0:0:0:0:
251,54,34718,5,0,0:0:0:0:
370,264,34861,1,0,0:0:0:0:
243,41,35004,2,0,P|174:31|135:110,1,157.500006008148
192,179,35290,1,0,0:0:0:0:
377,88,35433,1,0,0:0:0:0:
378,328,35575,2,0,L|320:173,1,157.500006008148
253,42,35861,5,0,0:0:0:0:
141,314,36004,2,0,L|186:210,1,105.000004005432
425,246,36290,5,0,0:0:0:0:
200,132,36433,2,0,L|292:184,1,105.000004005432
54,278,36718,5,0,0:0:0:0:
203,55,36861,2,0,L|118:183,1,105.000004005432
48,143,37147,5,0,0:0:0:0:
228,321,37290,2,0,L|186:279,1,105.000004005432
316,302,37575,6,0,P|365:271|347:162,1,157.500006008148
326,141,37861,2,0,P|309:200|230:227,1,105.000004005432
65,44,38147,5,0,0:0:0:0:
129,109,38433,5,0,0:0:0:0:
144,127,38575,2,0,P|196:120|232:138,1,90.9999958343508
367,212,38861,2,0,P|320:211|285:238,1,90.9999958343508
228,321,39147,1,0,0:0:0:0:
214,331,39290,2,0,P|163:317|140:287,1,90.9999958343508
99,157,39575,2,0,P|149:170|170:202,1,90.9999958343508
176,321,39861,5,0,0:0:0:0:
279,194,40004,1,0,0:0:0:0:
319,282,40147,2,0,P|361:245|396:253,1,90.9999958343508
409,259,40361,1,0,0:0:0:0:
428,284,40433,6,0,P|481:261|475:212,1,90.9999958343508
419,110,40718,1,0,0:0:0:0:
321,183,40861,1,0,0:0:0:0:
425,85,41004,2,0,P|382:60|335:61,1,90.9999958343508
295,203,41290,5,0,0:0:0:0:
398,108,41433,2,0,P|360:84|308:84,1,90.9999958343508
193,235,41718,1,0,0:0:0:0:
97,176,41861,2,0,P|132:148|177:147,1,90.9999958343508
213,318,42147,2,0,L|242:228,1,90.9999958343508
253,118,42433,1,0,0:0:0:0:
199,65,42575,1,0,0:0:0:0:
119,68,42718,6,0,P|129:113|152:157,1,90.9999958343508
364,186,43004,5,0,0:0:0:0:
364,186,43147,1,0,0:0:0:0:
222,261,43290,5,0,0:0:0:0:
222,261,43433,1,0,0:0:0:0:
119,151,43575,2,0,P|140:95|180:80,1,90.9999958343508
301,42,43861,6,0,L|279:137,1,90.9999958343508
134,214,44147,5,0,0:0:0:0:
134,214,44290,1,0,0:0:0:0:
304,279,44433,5,0,0:0:0:0:
304,279,44575,1,0,0:0:0:0:
92,127,44718,6,0,P|73:102|68:82,3,45.4999979171754
86,150,45004,2,0,P|61:183|74:232,1,90.9999958343508
328,267,45290,5,0,0:0:0:0:
328,267,45433,1,0,0:0:0:0:
151,135,45575,5,0,0:0:0:0:
141,165,45718,1,0,0:0:0:0:
192,116,45861,1,0,0:0:0:0:
232,201,46004,1,0,0:0:0:0:
15,161,46147,5,0,0:0:0:0:
154,112,46290,1,0,0:0:0:0:
57,230,46433,1,0,0:0:0:0:
127,61,46575,1,0,0:0:0:0:
181,218,46718,1,0,0:0:0:0:
34,84,46861,1,0,0:0:0:0:
311,163,47004,1,0,0:0:0:0:
90,79,47147,1,0,0:0:0:0:
90,79,47218,1,0,0:0:0:0:
90,79,47290,6,0,B|179:58|161:149|262:112,1,181.999991668702
366,23,47718,2,0,P|424:41|449:76,1,90.9999958343508
439,191,48004,2,0,P|407:175|441:188,1,90.9999958343508
424,182,48290,6,0,B|381:197|381:197|304:119|156:179,1,272.999987503052
182,297,48861,1,0,0:0:0:0:
38,252,49004,2,0,P|103:248|121:202,1,90.9999958343508
81,102,49290,2,0,P|42:75|23:75,3,45.4999979171754
88,115,49575,5,0,0:0:0:0:
283,185,49718,1,0,0:0:0:0:
81,129,49861,5,0,0:0:0:0:
282,182,50004,1,0,0:0:0:0:
235,58,50147,6,0,P|197:98|171:153,1,90.9999958343508
186,279,50433,1,0,0:0:0:0:
346,119,50575,2,0,P|294:134|244:169,1,90.9999958343508
370,261,50861,1,0,0:0:0:0:
286,346,51004,2,0,P|231:326|216:208,1,181.999991668702
161,143,51433,2,0,P|216:163|241:197,2,90.9999958343508
39,246,51861,6,0,P|93:244|133:229,1,90.9999958343508
212,127,52147,2,0,P|165:129|124:160,1,90.9999958343508
212,293,52433,2,0,P|255:275|301:277,1,90.9999958343508
405,342,52718,2,0,L|388:247,2,90.9999958343508
329,166,53147,1,0,0:0:0:0:
294,239,53290,1,0,0:0:0:0:
121,155,53433,6,0,P|177:90|278:85,1,181.999991668702
281,191,53861,1,0,0:0:0:0:
427,132,54004,1,0,0:0:0:0:
449,262,54147,6,0,P|404:266|368:240,1,90.9999958343508
288,123,54433,6,0,P|332:118|368:144,1,90.9999958343508
348,300,54718,6,0,P|304:292|276:257,1,90.9999958343508
353,102,55004,6,0,P|407:138|409:167,1,90.9999958343508
216,195,55290,1,0,0:0:0:0:
311,326,55433,1,0,0:0:0:0:
311,326,55575,1,0,0:0:0:0:
388,185,55718,5,0,0:0:0:0:
192,146,55861,1,0,0:0:0:0:
302,270,56004,1,0,0:0:0:0:
331,163,56147,1,0,0:0:0:0:
220,185,56290,1,0,0:0:0:0:
160,260,56433,6,0,P|98:238|115:132,1,181.999991668702
380,70,56861,1,0,0:0:0:0:
201,261,57147,1,0,0:0:0:0:
192,269,57290,6,0,P|145:232|36:270,1,181.999991668702
169,357,57718,1,0,0:0:0:0:
175,365,58004,1,0,0:0:0:0:
390,258,58147,5,0,0:0:0:0:
54,215,58718,6,0,L|156:233,1,90.9999958343508
287,246,59004,1,0,0:0:0:0:
180,48,59147,6,0,L|161:150,1,90.9999958343508
231,289,59433,1,0,0:0:0:0:
406,170,59575,2,0,B|307:120|321:224|213:170,1,181.999991668702
89,275,60004,1,0,0:0:0:0:
99,285,60290,1,0,0:0:0:0:
349,213,60433,1,0,0:0:0:0:
383,329,61004,6,0,P|337:311|312:252,1,90.9999958343508
378,128,61290,1,0,0:0:0:0:
226,278,61433,6,0,P|206:232|230:173,1,90.9999958343508
364,132,61719,1,0,0:0:0:0:
113,82,61861,2,0,L|147:278,1,181.999991668702
226,338,62290,1,0,0:0:0:0:
231,347,62575,1,0,0:0:0:0:
16,230,62718,1,0,0:0:0:0:
239,133,63290,6,0,P|288:142|291:201,1,90.9999958343508
233,288,63575,1,0,0:0:0:0:
157,178,63718,5,0,0:0:0:0:
99,314,63861,1,0,0:0:0:0:
185,185,64004,1,0,0:0:0:0:
428,119,64147,2,0,P|330:89|238:132,1,181.999991668702
99,163,64575,2,0,L|132:352,1,181.999991668702
304,253,65004,5,0,0:0:0:0:
289,149,65147,1,0,0:0:0:0:
173,165,65290,1,0,0:0:0:0:
189,266,65433,1,0,0:0:0:0:
371,103,65575,5,0,0:0:0:0:
128,227,65718,1,0,0:0:0:0:
430,159,65861,1,0,0:0:0:0:
108,141,66004,1,0,0:0:0:0:
112,149,66290,5,0,0:0:0:0:
126,165,66575,5,0,0:0:0:0:
161,198,66861,1,0,0:0:0:0:
310,17,67004,1,0,0:0:0:0:
297,240,67147,1,0,0:0:0:0:
301,251,67290,6,0,L|251:234,1,49
224,258,67861,6,0,L|382:226,1,112
418,179,68147,2,0,P|367:152|236:141,1,168
178,196,68433,1,0,0:0:0:0:
245,69,68575,1,0,0:0:0:0:
112,199,68718,2,0,P|157:263|232:239,1,168
416,125,69004,2,0,P|337:153|269:220,1,168
285,343,69290,6,0,P|354:270|435:303,1,168
374,346,69575,1,0,0:0:0:0:
449,193,69718,1,0,0:0:0:0:
236,234,69861,2,0,P|294:216|379:157,1,112
33,110,70147,6,0,P|104:201|161:176,1,168
163,165,70433,2,0,P|239:167|276:220,1,112
416,309,70718,2,0,P|301:323|278:265,1,168
263,183,71004,2,0,P|200:201|204:325,1,168
192,312,71290,2,0,L|251:241,1,56
321,147,71575,6,0,P|381:111|371:178,1,168
374,187,71861,2,0,B|293:123|245:233|157:134,1,224
78,65,72290,1,0,0:0:0:0:
67,54,72433,6,0,P|151:170|171:261,1,224
43,186,72861,1,0,0:0:0:0:
118,318,73004,2,0,P|215:303|331:235,1,224
183,79,73433,1,0,0:0:0:0:
294,169,73575,6,0,P|261:242|224:266,1,112
102,93,73861,2,0,P|135:166|172:190,1,112
177,316,74147,2,0,P|217:277|234:225,1,112
383,143,74433,2,0,P|333:117|278:119,1,112
123,298,74718,6,0,P|126:239|146:187,1,112
306,201,75004,2,0,P|295:144|273:92,1,112
86,55,75290,1,0,0:0:0:0:
185,223,75433,1,0,0:0:0:0:
265,45,75575,1,0,0:0:0:0:
69,245,75718,6,0,L|46:371,1,112
235,308,76004,1,0,0:0:0:0:
143,178,76147,1,0,0:0:0:0:
302,223,76290,1,0,0:0:0:0:
142,285,76433,1,0,0:0:0:0:
323,147,76575,1,0,0:0:0:0:
175,230,76718,1,0,0:0:0:0:
129,228,76790,1,0,0:0:0:0:
96,208,76861,1,0,0:0:0:0:
75,172,76933,1,0,0:0:0:0:
71,136,77004,6,0,P|120:99|182:101,1,112
288,281,77290,2,0,L|307:170,1,112
290,62,77575,2,0,P|231:117|205:169,1,112
141,295,77861,1,0,0:0:0:0:
342,156,78004,1,0,0:0:0:0:
147,189,78147,2,0,L|273:211,1,112
365,338,78433,6,0,P|301:330|247:291,1,112
171,130,78718,1,0,0:0:0:0:
199,323,78861,1,0,0:0:0:0:
25,187,79004,2,0,P|85:242|153:228,1,112
157,152,79290,5,0,0:0:0:0:
286,272,79433,1,0,0:0:0:0:
283,86,79575,2,0,P|330:108|347:176,1,112
146,331,79861,5,0,0:0:0:0:
224,204,80004,1,0,0:0:0:0:
8,228,80146,2,0,P|49:184|112:189,1,112
196,318,80433,6,0,P|248:274|236:222,1,112
83,135,80718,1,0,0:0:0:0:
146,263,80861,1,0,0:0:0:0:
202,118,81004,2,0,P|322:92|413:138,2,224
273,221,81718,5,0,0:0:0:0:
129,297,81861,2,0,P|144:222|188:177,1,112
317,121,82147,1,0,2:0:0:0:
240,285,82290,1,0,2:0:0:0:
438,164,82433,1,0,0:0:0:0:
243,308,82575,2,0,P|299:218|295:99,1,224
70,144,83004,1,0,0:0:0:0:
215,218,83147,5,0,0:0:0:0:
145,67,83290,2,0,P|179:35|145:71,1,168
153,97,83575,2,0,P|121:154|125:212,1,112
162,340,83861,5,0,0:0:0:0:
306,147,84004,1,0,0:0:0:0:
366,372,84147,1,0,0:0:0:0:
152,177,84290,1,0,0:0:0:0:
423,244,84433,5,0,0:0:0:0:
308,58,84575,1,0,0:0:0:0:
271,293,84718,1,0,0:0:0:0:
120,103,84861,1,0,0:0:0:0:
132,216,85004,6,0,P|163:172|216:163,1,112
322,300,85290,2,0,P|268:291|237:246,1,112
193,63,85575,2,0,P|246:71|249:126,1,112
28,107,85861,1,0,0:0:0:0:
81,95,85932,1,0,0:0:0:0:
132,117,86003,1,0,0:0:0:0:
160,164,86075,1,0,0:0:0:0:
166,212,86147,6,0,L|186:330,1,112
262,365,86433,1,0,0:0:0:0:
435,293,86575,6,0,P|367:221|280:182,1,181.999991668702
151,325,87004,5,0,0:0:0:0:
27,246,87147,2,0,P|58:198|151:162,1,140
242,245,87575,1,0,0:0:0:0:
404,107,87718,2,0,P|336:75|273:81,1,125.999996154785
164,203,88433,5,0,0:0:0:0:
180,280,88575,1,0,0:0:0:0:
249,319,88718,1,0,0:0:0:0:
324,294,88861,1,0,0:0:0:0:
346,219,89004,5,0,0:0:0:0:
270,243,89147,1,0,0:0:0:0:
202,204,89290,1,0,0:0:0:0:
185,127,89432,1,0,0:0:0:0:
273,47,89575,5,0,0:0:0:0:
354,119,89718,1,0,0:0:0:0:
399,23,89861,1,0,0:0:0:0:
477,109,90004,2,0,P|452:132|434:170,1,43.75
391,188,90147,5,0,0:0:0:0:
325,73,90290,1,0,0:0:0:0:
270,178,90433,1,0,0:0:0:0:
172,233,90575,1,0,0:0:0:0:
0,148,90718,5,0,0:0:0:0:
16,71,90860,1,0,0:0:0:0:
85,32,91003,1,0,0:0:0:0:
160,57,91146,1,0,0:0:0:0:
118,173,91290,5,0,0:0:0:0:
134,250,91432,1,0,0:0:0:0:
203,289,91575,1,0,0:0:0:0:
276,260,91718,2,0,P|311:228|316:213,1,43.75
333,188,91861,5,0,0:0:0:0:
251,70,92004,1,0,0:0:0:0:
211,250,92147,5,0,0:0:0:0:
295,121,92290,1,0,0:0:0:0:
308,289,92433,5,0,0:0:0:0:
219,159,92575,1,0,0:0:0:0:
206,323,92718,5,0,0:0:0:0:
257,223,92861,1,0,0:0:0:0:
459,223,93004,5,0,0:0:0:0:
443,300,93146,1,0,0:0:0:0:
374,339,93289,1,0,0:0:0:0:
299,314,93432,1,0,0:0:0:0:
252,214,93575,5,0,0:0:0:0:
236,137,93717,1,0,0:0:0:0:
167,98,93860,1,0,0:0:0:0:
92,123,94003,1,0,0:0:0:0:
240,232,94147,5,0,0:0:0:0:
171,324,94290,1,0,0:0:0:0:
78,256,94433,1,0,0:0:0:0:
154,159,94575,2,0,P|180:179|190:194,1,43.75
220,270,94718,5,0,0:0:0:0:
152,140,94861,1,0,0:0:0:0:
218,99,95004,5,0,0:0:0:0:
131,274,95147,1,0,0:0:0:0:
210,366,95290,6,0,P|303:353|349:268,1,175
252,281,95718,1,0,0:0:0:0:
170,178,95861,2,0,P|118:199|105:240,1,87.5
100,352,96147,2,0,P|152:331|165:290,1,87.5
64,176,96433,5,0,0:0:0:0:
199,266,96575,1,0,0:0:0:0:
90,81,96718,5,0,0:0:0:0:
206,241,96861,1,0,0:0:0:0:
152,26,97004,5,0,0:0:0:0:
232,252,97147,1,0,0:0:0:0:
394,146,97290,1,0,0:0:0:0:
416,103,97361,1,0,0:0:0:0:
404,57,97432,1,0,0:0:0:0:
362,32,97504,1,0,0:0:0:0:
316,44,97575,5,0,0:0:0:0:
302,62,97861,2,0,B|246:68|209:111,1,105.000004005432
329,227,98147,1,0,0:0:0:0:
136,278,98290,1,0,0:0:0:0:
136,278,98361,1,0,0:0:0:0:
136,278,98433,1,0,0:0:0:0:
299,328,98575,1,0,0:0:0:0:
299,138,98718,5,0,0:0:0:0:
212,315,98861,1,0,0:0:0:0:
98,169,99004,1,0,0:0:0:0:
98,169,99075,1,0,0:0:0:0:
98,169,99147,1,0,0:0:0:0:
342,250,99290,5,0,0:0:0:0:
221,74,99433,1,0,0:0:0:0:
418,212,99575,1,0,0:0:0:0:
178,105,99718,1,0,0:0:0:0:
460,162,99861,2,0,P|377:158|292:242,1,210.000008010865
297,254,100218,1,0,0:0:0:0:
302,263,100290,1,0,0:0:0:0:
295,106,100433,5,0,0:0:0:0:
382,261,100575,1,0,0:0:0:0:
435,91,100718,1,0,0:0:0:0:
281,302,100861,1,0,0:0:0:0:
109,229,101004,6,0,P|134:172|186:161,1,105.000004005432
328,266,101290,1,0,0:0:0:0:
179,328,101433,1,0,0:0:0:0:
261,164,101575,1,0,0:0:0:0:
421,301,101718,1,0,0:0:0:0:
373,162,101861,2,0,P|341:116|278:124,1,105.000004005432
287,127,102075,1,0,0:0:0:0:
284,137,102147,5,0,0:0:0:0:
218,309,102290,1,0,0:0:0:0:
125,137,102433,1,0,0:0:0:0:
327,250,102575,1,0,0:0:0:0:
268,92,102718,1,0,0:0:0:0:
186,228,102861,1,0,0:0:0:0:
121,103,103004,1,0,0:0:0:0:
95,277,103147,1,0,0:0:0:0:
284,242,103290,5,0,0:0:0:0:
77,127,103433,1,0,0:0:0:0:
245,257,103575,2,0,P|331:269|410:173,1,210.000008010865
257,345,104004,1,0,0:0:0:0:
112,219,104147,2,0,L|131:108,1,105.000004005432
392,105,104433,5,0,0:0:0:0:
138,246,104575,2,0,L|253:192,1,105.000004005432
427,103,104861,5,0,0:0:0:0:
181,56,105004,2,0,L|291:78,1,105.000004005432
486,102,105290,5,0,0:0:0:0:
294,243,105433,2,0,L|392:185,1,105.000004005432
512,93,105718,5,0,0:0:0:0:
263,64,105861,2,0,P|330:42|398:63,1,105.000004005432
135,167,106147,2,0,P|174:216|228:218,1,105.000004005432
401,193,106433,2,0,P|320:120|231:142,1,210.000008010865
130,162,107861,5,0,0:0:0:0:
166,197,108290,5,0,0:0:0:0:
202,220,108718,6,0,P|215:225|236:229,3,26.2500010013581
201,200,109004,2,0,P|240:175|262:172,2,52.5000020027161
388,119,110147,5,0,0:0:0:0:
356,150,110575,5,0,0:0:0:0:
325,178,111004,6,0,P|313:185|300:192,3,26.2500010013581
302,158,111290,2,0,P|264:135|234:135,3,52.5000020027161
147,121,112004,2,0,P|111:117|92:96,1,52.5000020027161
115,54,112433,6,0,P|151:81|159:180,1,131.25000500679
150,186,112861,2,0,P|191:162|241:163,1,78.7500030040742
243,170,113147,2,0,P|264:208|198:215,1,131.25000500679
184,170,113575,6,0,P|247:117|322:112,2,157.500006008148
275,234,114575,5,0,0:0:0:0:
294,264,114861,5,0,0:0:0:0:
305,296,115147,5,0,0:0:0:0:
313,315,115433,5,0,0:0:0:0:
206,240,115575,1,0,0:0:0:0:
135,316,115718,1,0,0:0:0:0:
173,191,115861,6,0,P|214:159|263:155,2,90.9999958343508
227,338,116290,2,0,P|248:277|284:256,1,90.9999958343508
474,312,116575,2,0,P|412:287|387:247,1,90.9999958343508
309,65,116861,2,0,L|277:246,1,181.999991668702
174,200,117290,1,0,0:0:0:0:
308,73,117433,1,0,0:0:0:0:
90,132,117575,2,0,P|55:109|0:98,2,90.9999958343508
177,226,118004,1,0,0:0:0:0:
252,122,118147,5,0,0:0:0:0:
252,122,118290,1,0,0:0:0:0:
107,234,118433,2,0,P|135:275|207:281,1,90.9999958343508,0|0,2:0|2:0,2:0:0:0:
346,243,118718,2,0,P|317:201|245:195,1,90.9999958343508,0|0,2:0|2:0,2:0:0:0:
112,260,119004,5,0,0:0:0:0:
359,203,119147,2,0,L|248:222,1,90.9999958343508
397,346,119433,5,0,0:0:0:0:
169,297,119575,2,0,L|258:312,1,90.9999958343508
426,241,119861,2,0,P|384:202|332:200,1,90.9999958343508
182,164,120147,2,0,P|224:125|276:123,1,90.9999958343508
76,24,120433,6,0,L|94:126,1,90.9999958343508
182,164,120718,1,0,0:0:0:0:
77,226,120861,1,0,0:0:0:0:
190,153,121004,2,0,P|245:150|270:193,1,90.9999958343508
121,313,121290,5,0,0:0:0:0:
226,251,121433,1,0,0:0:0:0:
113,324,121576,2,0,P|57:326|33:284,1,90.9999958343508
165,139,121861,5,0,0:0:0:0:
198,258,122004,1,0,0:0:0:0:
74,226,122147,1,0,0:0:0:0:
171,80,122290,1,0,0:0:0:0:
59,137,122433,2,0,L|80:255,1,90.9999958343508
267,294,122718,6,0,P|317:268|311:177,1,136.499993751526
193,89,123004,6,0,P|243:126|231:215,1,136.499993751526
117,296,123290,6,0,P|163:250|140:173,1,136.499993751526
79,168,123575,6,0,P|94:108|193:115,1,136.499993751526
242,166,123861,5,0,0:0:0:0:
252,179,124004,2,0,P|290:247|208:262,1,181.999991668702
129,72,124433,5,0,0:0:0:0:
56,215,124576,1,0,0:0:0:0:
252,179,124719,1,0,0:0:0:0:
75,100,124861,1,0,0:0:0:0:
169,302,125004,6,0,P|227:304|264:265,1,97.9999970092774,0|0,3:0|3:0,3:0:0:0:
309,142,125290,1,0,0:0:0:0:
105,200,125433,6,0,P|152:233|204:220,1,97.9999970092774,0|0,3:0|3:0,3:0:0:0:
309,142,125719,1,0,0:0:0:0:
165,77,125861,2,0,P|250:25|344:46,1,195.999994018555,0|0,3:0|3:0,3:0:0:0:
378,118,126290,1,0,0:0:0:0:
372,128,126575,5,0,0:0:0:0:
223,99,126718,2,0,P|216:17|145:63,1,195.999994018555
135,101,127147,1,0,0:0:0:0:
133,126,127290,6,0,L|172:236,1,97.9999970092774
204,323,127575,1,0,0:0:0:0:
300,81,127718,6,0,L|258:193,1,97.9999970092774
210,326,128003,1,0,0:0:0:0:
45,200,128147,2,0,P|95:139|219:136,1,195.999994018555
261,192,128575,1,0,0:0:0:0:
268,192,128861,5,0,0:0:0:0:
435,67,129004,2,0,B|461:104|461:104|365:124|337:218,1,195.999994018555
339,258,129433,1,0,0:0:0:0:
324,288,129575,6,0,P|266:295|226:259,1,97.9999970092774,0|0,3:0|3:0,3:0:0:0:
171,141,129861,1,0,0:0:0:0:
219,348,130004,6,0,P|166:322|152:270,1,97.9999970092774,0|0,3:0|3:0,3:0:0:0:
171,141,130290,1,0,0:0:0:0:
30,274,130433,2,0,L|65:77,1,195.999994018555
141,18,130861,1,0,0:0:0:0:
149,31,131147,5,0,0:0:0:0:
356,64,131290,2,0,P|297:80|249:206,1,195.999994018555
255,207,131718,1,0,0:0:0:0:
428,77,131861,6,0,L|408:187,1,97.9999970092774
361,296,132147,1,0,0:0:0:0:
142,247,132290,1,0,0:0:0:0:
258,107,132433,1,0,0:0:0:0:
281,318,132575,1,0,0:0:0:0:
115,340,132718,6,0,P|39:286|62:178,1,195.999994018555
277,124,133147,6,0,P|279:182|240:219,1,97.9999970092774,0|0,3:0|3:0,3:0:0:0:
117,264,133433,1,0,0:0:0:0:
337,165,133575,2,0,L|227:145,1,97.9999970092774
327,62,133861,1,0,0:0:0:0:
224,245,134004,1,0,0:0:0:0:
410,210,134147,5,0,0:0:0:0:
154,120,134290,1,0,0:0:0:0:
304,309,134433,1,0,0:0:0:0:
222,46,134575,5,0,0:0:0:0:
439,125,134861,5,0,0:0:0:0:
62,245,135147,5,0,0:0:0:0:
155,319,135433,5,0,0:0:0:0:
248,161,135575,1,0,0:0:0:0:
315,342,135718,1,0,0:0:0:0:
146,189,135861,5,0,0:0:0:0:
348,242,136004,1,0,0:0:0:0:
258,60,136147,1,0,0:0:0:0:
400,162,136290,1,0,0:0:0:0:
422,196,136361,1,0,0:0:0:0:
419,236,136433,6,0,P|344:306|266:256,1,168
354,173,136718,2,0,B|404:90|453:183|520:70,1,168
313,93,137004,2,0,P|264:46|152:69,1,168
238,141,137290,2,0,L|268:314,1,168
274,319,137575,2,0,B|290:351|290:351|230:317|137:337,1,168
54,216,137861,6,0,P|88:152|184:112,1,168
157,271,138147,1,0,0:0:0:0:
285,151,138290,1,0,0:0:0:0:
102,70,138433,2,0,L|132:243,1,168
201,323,138718,6,0,P|259:334|350:264,1,168
276,245,139004,2,0,P|319:143|387:161,1,168
512,214,139290,2,0,P|450:268|369:262,1,168
209,145,139575,2,0,P|219:88|308:131,1,168
333,132,139861,2,0,B|278:163|278:163|331:243|233:308,1,224
171,152,140290,1,0,0:0:0:0:
130,243,140433,2,0,B|229:196|239:285|350:204,1,224
255,135,140861,1,0,0:0:0:0:
322,66,141004,6,0,P|266:36|171:86,1,168
119,186,141290,2,0,P|233:192|280:147,1,168
327,42,141575,2,0,L|359:219,1,168
382,270,141861,2,0,P|383:326|304:280,1,168
289,289,142147,6,0,P|239:255|122:263,1,168
34,118,142433,2,0,P|95:119|185:195,1,168
339,207,142718,2,0,P|299:263|193:224,1,168
180,114,143004,2,0,P|185:40|260:74,1,168
276,80,143290,6,0,B|282:119|282:119|322:161|322:161|345:287,1,224
410,192,143718,1,0,0:0:0:0:
162,160,143861,1,0,0:0:0:0:
362,52,144004,1,0,0:0:0:0:
283,282,144147,1,0,0:0:0:0:
168,72,144290,2,0,B|245:170|276:46|368:151,1,224
147,268,144718,5,0,0:0:0:0:
339,164,144861,1,0,0:0:0:0:
140,102,145004,1,0,0:0:0:0:
315,273,145146,1,0,0:0:0:0:
180,186,145290,1,0,0:0:0:0:
124,186,145361,1,0,0:0:0:0:
80,218,145432,1,0,0:0:0:0:
64,271,145504,1,0,0:0:0:0:
77,319,145575,6,0,P|129:367|175:365,1,112
346,322,145861,2,0,P|292:247|239:220,1,112
93,90,146147,2,0,P|91:155|120:194,1,112
138,286,146433,1,0,0:0:0:0:
266,90,146575,1,0,0:0:0:0:
386,183,146718,6,0,L|241:207,1,112
111,216,147004,2,0,P|78:252|132:238,1,112
117,242,147290,2,0,P|209:181|326:213,2,224
238,293,148004,1,0,0:0:0:0:
328,115,148147,2,0,P|258:73|206:83,1,112,0|0,2:0|2:0,2:0:0:0:
116,242,148433,1,0,0:0:0:0:
259,135,148575,1,0,0:0:0:0:
240,304,148718,2,0,P|309:270|335:207,1,112
96,5,149004,6,0,L|136:233,1,224
294,142,149434,1,0,0:0:0:0:
412,176,149576,2,0,P|375:232|321:245,1,112
185,121,149861,2,0,P|222:65|276:52,1,112
395,232,150147,6,0,L|284:213,1,112
105,131,150433,2,0,L|215:111,1,112
301,20,150718,1,0,0:0:0:0:
225,209,150861,1,0,0:0:0:0:
412,96,151004,1,0,0:0:0:0:
215,291,151147,6,0,P|285:278|310:142,1,224
155,256,151575,1,0,0:0:0:0:
52,97,151718,2,0,P|168:89|288:56,1,224
378,10,152147,2,0,P|409:72|379:142,1,112
135,161,152433,5,0,0:0:0:0:
336,269,152575,1,0,0:0:0:0:
274,87,152718,1,0,0:0:0:0:
461,234,152861,1,0,0:0:0:0:
414,54,153004,5,0,0:0:0:0:
296,296,153147,1,0,0:0:0:0:
294,92,153290,1,0,0:0:0:0:
168,321,153433,1,0,0:0:0:0:
55,188,153575,6,0,P|95:127|158:122,1,112
221,339,153861,2,0,L|200:220,1,112
51,96,154147,1,0,0:0:0:0:
132,282,154290,1,0,0:0:0:0:
287,198,154433,2,0,P|320:129|251:126,1,168
54,280,154718,5,0,0:0:0:0:
338,216,155147,1,0,0:0:0:0:
465,245,155290,2,0,P|443:191|359:171,1,101.500003097534
223,163,155575,1,0,0:0:0:0:
96,194,155718,2,0,P|118:140|202:120,1,101.500003097534
421,128,156004,5,0,0:0:0:0:
345,251,156147,1,0,0:0:0:0:
299,183,156290,2,0,P|264:235|275:283,1,101.500003097534
334,366,156575,2,0,P|369:314|358:266,1,101.500003097534
104,176,156861,2,0,L|167:208,1,50.7500015487671
416,262,157004,5,0,0:0:0:0:
296,331,157147,1,0,0:0:0:0:
421,266,157290,5,0,0:0:0:0:
294,325,157433,1,0,0:0:0:0:
427,272,157575,2,0,P|382:232|334:227,1,101.500003097534
208,289,157861,1,0,0:0:0:0:
154,215,158004,1,0,0:0:0:0:
322,90,158147,6,0,L|300:216,1,101.500003097534
282,329,158433,1,0,0:0:0:0:
94,147,158575,2,0,L|204:166,1,101.500003097534
374,184,158861,1,0,0:0:0:0:
439,95,159004,1,0,0:0:0:0:
368,202,159147,1,0,0:0:0:0:
197,64,159290,5,0,0:0:0:0:
377,184,160147,1,0,0:0:0:0:
342,288,160290,1,0,0:0:0:0:
218,204,160433,6,0,P|269:160|321:153,1,101.500003097534
165,123,160718,1,0,0:0:0:0:
123,265,160861,2,0,P|65:230|42:182,2,101.500003097534
333,185,161433,2,0,L|296:231,1,50.7500015487671
236,311,161575,5,0,0:0:0:0:
416,337,161718,1,0,0:0:0:0:
342,172,161861,1,0,0:0:0:0:
471,255,162004,1,0,0:0:0:0:
242,301,162147,1,0,0:0:0:0:
394,341,162290,1,0,0:0:0:0:
256,192,162433,1,0,0:0:0:0:
129,336,162575,6,0,L|109:225,1,101.500003097534
175,20,162861,1,0,0:0:0:0:
240,150,163004,1,0,0:0:0:0:
349,41,163147,2,0,P|396:78|397:140,1,101.500003097534
219,255,163433,1,0,0:0:0:0:
381,216,163575,1,0,0:0:0:0:
234,299,163718,1,0,0:0:0:0:
443,160,163861,5,0,0:0:0:0:
451,176,164147,1,0,0:0:0:0:
506,115,164290,2,0,P|458:92|397:119,1,101.500003097534
330,203,164575,1,0,0:0:0:0:
464,305,164718,2,0,L|444:194,1,101.500003097534
266,87,165004,6,0,P|322:89|372:127,2,101.500003097534
145,162,165433,2,0,P|151:211|176:271,1,101.500003097534
354,324,165718,2,0,B|257:242|167:399|94:274|94:274|130:247,1,304.500009292603
354,139,166433,6,0,P|331:78|295:50,1,101.500003097534
265,177,166718,2,0,P|288:238|324:266,1,101.500003097534
411,117,167004,1,0,0:0:0:0:
199,242,167147,6,0,L|302:224,1,101.500003097534
399,126,167433,1,0,0:0:0:0:
366,318,167575,2,0,P|448:276|453:162,1,203.000006195069
374,232,168004,1,0,0:0:0:0:
256,130,168147,2,0,P|187:143|199:224,1,152.250004646301
217,233,168433,6,0,P|221:284|170:302,1,101.500003097534
66,324,168718,2,0,P|62:273|113:255,1,101.500003097534
231,331,169004,1,0,0:0:0:0:
231,331,169147,1,0,0:0:0:0:
186,125,169290,2,0,L|206:243,1,101.500003097534
361,296,169575,5,0,0:0:0:0:
361,296,169718,1,0,0:0:0:0:
430,146,169861,2,0,P|376:119|328:132,1,101.500003097534
257,311,170147,1,0,0:0:0:0:
127,208,170290,1,0,0:0:0:0:
317,219,170433,1,0,0:0:0:0:
151,313,170575,1,0,0:0:0:0:
302,224,170718,6,0,L|144:256,1,152.250004646301
122,242,171004,2,0,P|158:187|299:158,1,203.000006195069
346,288,171433,1,0,0:0:0:0:
133,216,171575,2,0,P|189:182|236:193,1,101.500003097534,2|0,2:0|2:0,2:0:0:0:
307,334,171861,5,0,0:0:0:0:
222,277,172004,1,0,0:0:0:0:
241,183,172147,2,0,P|318:206|330:229,1,101.500003097534
286,344,172433,5,0,0:0:0:0:
57,250,172718,5,0,0:0:0:0:
87,173,172861,1,0,0:0:0:0:
171,226,173004,1,0,0:0:0:0:
316,178,173147,6,0,P|272:130|215:119,1,101.500003097534
144,238,173433,1,0,0:0:0:0:
207,362,173575,6,0,P|241:312|235:247,1,101.500003097534
88,296,173861,1,0,0:0:0:0:
42,89,174004,6,0,L|60:191,1,101.500003097534,0|0,2:0|2:0,2:0:0:0:
197,142,174290,1,0,0:0:0:0:
155,358,174433,6,0,L|173:255,1,101.500003097534,0|0,2:0|2:0,2:0:0:0:
251,341,174718,1,0,0:0:0:0:
366,250,174861,6,0,P|261:239|183:167,1,203.000006195069
464,156,175290,2,0,B|189:107|189:107|219:270|316:174|393:270,1,560
120,248,179861,5,0,0:0:0:0:
245,133,180004,1,0,0:0:0:0:
291,307,180147,1,0,0:0:0:0:
150,144,180290,1,0,0:0:0:0:
423,169,180433,5,0,0:0:0:0:
191,341,180575,1,0,0:0:0:0:
276,78,180718,1,0,0:0:0:0:
346,323,180861,1,0,0:0:0:0:
31,200,181004,6,0,L|157:222,1,119.000002269745
408,197,181290,1,0,0:0:0:0:
176,68,181433,2,0,L|312:141,1,119.000002269745
456,259,181718,5,0,0:0:0:0:
137,309,181861,1,0,0:0:0:0:
473,174,182004,1,0,0:0:0:0:
169,102,182147,2,0,L|201:110,1,31.4999990386963
229,114,182433,6,0,P|281:61|384:99,1,183.750001752377
441,248,182718,1,0,0:0:0:0:
249,290,182861,1,0,0:0:0:0:
386,55,183004,2,0,L|352:240,1,183.750001752377
161,347,183290,6,0,P|253:279|349:300,1,183.750001752377
447,337,183575,2,0,P|483:276|438:217,1,122.500001168251
335,339,183861,1,0,0:0:0:0:
252,164,184004,1,0,0:0:0:0:
467,152,184147,2,0,P|445:72|382:122,1,183.750001752377
292,173,184433,6,0,B|397:208|316:293|458:348,2,245.000002336502
164,302,185147,1,0,0:0:0:0:
95,124,185290,1,0,0:0:0:0:
286,308,185433,6,0,P|335:239|266:120,1,183.750001752377
161,235,185718,1,0,0:0:0:0:
321,73,185861,1,0,0:0:0:0:
347,296,186004,1,0,0:0:0:0:
183,108,186147,1,0,0:0:0:0:
424,193,186290,1,0,0:0:0:0:
145,309,186433,1,0,0:0:0:0:
121,253,186504,1,0,0:0:0:0:
136,195,186575,1,0,0:0:0:0:
183,158,186647,1,0,0:0:0:0:
244,159,186718,6,0,P|297:189|307:259,1,122.500001168251
110,202,187004,2,0,P|57:172|47:102,1,122.500001168251
224,64,187290,1,0,0:0:0:0:
293,259,187433,1,0,0:0:0:0:
429,139,187575,2,0,P|360:93|263:123,1,183.750001752377
233,155,187861,6,0,L|256:289,1,122.500001168251
426,51,188147,2,0,P|427:143|408:163,1,122.500001168251
216,113,188433,1,0,0:0:0:0:
339,290,188575,1,0,0:0:0:0:
155,211,188718,2,0,P|122:134|144:104,1,122.500001168251
397,78,189004,6,0,B|390:120|390:120|413:188|364:267,1,183.750001752377
207,304,189290,2,0,P|135:286|106:236,1,122.500001168251,0|0,0:0|0:0,2:0:0:0:
314,166,189575,1,0,0:0:0:0:
111,86,189718,1,0,0:0:0:0:
346,45,189861,2,0,L|321:187,1,122.500001168251
85,187,190147,5,0,0:0:0:0:
298,211,190290,1,0,0:0:0:0:
140,45,190433,1,0,0:0:0:0:
321,146,190576,1,0,0:0:0:0:
166,240,190718,5,0,0:0:0:0:
247,23,190861,1,0,0:0:0:0:
405,180,191004,2,0,P|397:252|298:289,1,183.750001752377
124,238,191290,6,0,L|273:211,1,122.500001168251
419,138,191575,2,0,L|269:111,1,122.500001168251
102,263,191861,1,0,0:0:0:0:
317,179,192004,1,0,0:0:0:0:
239,349,192147,1,0,0:0:0:0:
421,125,192290,6,0,P|301:110|210:31,1,245.000002336502
346,281,192718,1,0,0:0:0:0:
177,301,192861,2,0,P|96:239|89:95,1,245.000002336502
255,129,193290,2,0,P|243:60|138:80,1,183.750001752377
122,116,193575,5,0,0:0:0:0:
302,328,193718,1,0,0:0:0:0:
47,255,193861,1,0,0:0:0:0:
289,119,194004,1,0,0:0:0:0:
253,335,194147,5,0,0:0:0:0:
145,100,194290,1,0,0:0:0:0:
339,280,194433,1,0,0:0:0:0:
58,190,194575,1,0,0:0:0:0:
218,85,194718,5,0,0:0:0:0:
276,310,194861,1,0,0:0:0:0:
114,91,195004,1,0,0:0:0:0:
178,334,195147,1,0,0:0:0:0:
265,170,195290,1,0,0:0:0:0:
317,141,195361,1,0,0:0:0:0:
377,149,195432,1,0,0:0:0:0:
420,192,195504,1,0,0:0:0:0:
428,252,195575,1,0,0:0:0:0:
399,304,195647,1,0,0:0:0:0:
345,329,195718,1,0,0:0:0:0:
286,317,195790,1,0,0:0:0:0:
234,286,195861,6,0,P|187:210|226:123,1,183.750001752377
305,64,196147,2,0,P|301:124|277:180,1,122.500001168251
59,138,196433,1,0,0:0:0:0:
148,311,196575,1,0,0:0:0:0:
312,208,196718,2,0,P|302:129|212:147,1,183.750001752377
215,148,197004,5,0,0:0:0:0:
305,329,197147,1,0,0:0:0:0:
362,101,197290,1,0,0:0:0:0:
225,324,197433,1,0,0:0:0:0:
405,201,197575,5,0,0:0:0:0:
182,334,197718,1,0,0:0:0:0:
425,207,197861,2,0,L|402:338,1,122.500001168251
285,194,198147,5,0,0:0:0:0:
361,165,198290,1,0,0:0:0:0:
350,272,198433,1,0,0:0:0:0:
286,136,198575,1,0,0:0:0:0:
411,234,198718,1,0,0:0:0:0:
218,228,198861,1,0,0:0:0:0:
372,138,199004,1,0,0:0:0:0:
351,359,199147,1,0,0:0:0:0:
225,53,199290,5,0,0:0:0:0:
265,312,199433,1,0,0:0:0:0:
423,114,199575,1,0,0:0:0:0:
89,129,199718,2,0,B|48:168|48:168|116:213|116:213|66:261|240:303,1,306.250002920628
425,226,200147,2,0,L|360:202,1,61.2500005841255
147,120,200290,2,0,L|242:103,1,61.2500005841255
378,45,200433,5,0,0:0:0:0:
349,281,200575,1,0,0:0:0:0:
271,84,200718,1,0,0:0:0:0:
230,298,200861,1,0,0:0:0:0:
53,102,201004,5,0,0:0:0:0:
336,114,201147,1,0,0:0:0:0:
65,285,201290,1,0,0:0:0:0:
340,197,201433,1,0,0:0:0:0:
123,49,201575,5,0,0:0:0:0:
68,279,201718,1,0,0:0:0:0:
285,185,201861,1,0,0:0:0:0:
33,119,202004,1,0,0:0:0:0:
265,39,202147,1,0,0:0:0:0:
113,297,202290,1,0,0:0:0:0:
238,80,202433,6,0,L|252:156,1,61.2500005841255
314,362,202575,2,0,L|328:276,1,61.2500005841255
336,79,202718,1,0,0:0:0:0:
231,320,202861,1,0,0:0:0:0:
146,93,203004,1,0,0:0:0:0:
406,262,203147,1,0,0:0:0:0:
186,229,203290,5,0,0:0:0:0:
435,131,203433,1,0,0:0:0:0:
266,46,203575,1,0,0:0:0:0:
340,322,203718,1,0,0:0:0:0:
289,48,203861,6,0,P|381:48|433:120,1,183.750001752377
491,306,204147,2,0,P|399:306|347:234,1,183.750001752377
280,74,204433,6,0,B|271:121|271:121|225:153|225:153|208:248,1,183.750001752377
214,270,204718,1,0,0:0:0:0:
235,298,204789,1,0,0:0:0:0:
267,283,204860,1,0,0:0:0:0:
260,248,204932,1,0,0:0:0:0:
227,237,205004,6,0,P|176:249|161:303,1,108.500000827789
345,277,205290,2,0,P|396:265|419:212,1,108.500000827789
328,79,205575,6,0,B|286:198|238:84|176:239,2,217.000001655579
121,8,206433,2,0,L|140:118,1,108.500000827789
224,236,206718,2,0,P|298:226|334:183,1,108.500000827789
307,41,207004,1,0,0:0:0:0:
345,271,207311,6,0,L|281:282,1,56
255,305,207996,2,0,L|207:296,1,41.9999987182618
126,248,208749,5,0,0:0:0:0:
142,222,209101,5,0,0:0:0:0:
185,193,209529,6,0,L|235:200,1,41.9999987182618
307,245,210546,5,0,0:0:0:0:
157,127,213561,5,0,0:0:0:0:
175,148,213853,2,0,P|255:160|250:246,1,157.500006008148
153,316,214146,2,0,B|86:294|84:207|84:207|135:255|214:217|214:217|285:224|242:326|242:326|308:327|343:287|343:287|311:270,1,560
84,83,216431,5,0,0:0:0:0:
149,45,216574,1,0,0:0:0:0:
221,67,216717,1,0,0:0:0:0:
256,134,216859,1,0,0:0:0:0:
224,233,217003,5,0,0:0:0:0:
258,299,217145,1,0,0:0:0:0:
329,321,217288,1,0,0:0:0:0:
395,284,217431,1,0,0:0:0:0:
346,138,217574,5,0,0:0:0:0:
298,198,217716,1,0,0:0:0:0:
250,258,217859,1,0,0:0:0:0:
202,319,218003,2,0,L|216:263,1,52.5000020027161
250,146,218146,5,0,0:0:0:0:
144,86,218288,1,0,0:0:0:0:
174,192,218431,1,0,0:0:0:0:
108,261,218574,1,0,0:0:0:0:
232,331,218717,5,0,0:0:0:0:
299,301,218859,1,0,0:0:0:0:
326,232,219002,1,0,0:0:0:0:
294,163,219145,1,0,0:0:0:0:
233,239,219288,5,0,0:0:0:0:
167,273,219430,1,0,0:0:0:0:
96,252,219573,1,0,0:0:0:0:
62,185,219717,2,0,L|93:144,1,52.5000020027161
251,107,219860,5,0,0:0:0:0:
222,206,220003,1,0,0:0:0:0:
322,235,220146,1,0,0:0:0:0:
353,135,220288,1,0,0:0:0:0:
322,235,220431,5,0,0:0:0:0:
293,334,220574,1,0,0:0:0:0:
393,363,220717,1,0,0:0:0:0:
424,263,220859,1,0,0:0:0:0:
393,149,221003,5,0,0:0:0:0:
359,83,221145,1,0,0:0:0:0:
288,61,221288,1,0,0:0:0:0:
222,98,221431,1,0,0:0:0:0:
273,207,221574,5,0,0:0:0:0:
307,273,221716,1,0,0:0:0:0:
378,295,221859,1,0,0:0:0:0:
444,258,222002,1,0,0:0:0:0:
336,188,222146,5,0,0:0:0:0:
270,117,222289,1,0,0:0:0:0:
199,190,222432,1,0,0:0:0:0:
134,106,222574,2,0,L|186:128,1,52.5000020027161
267,170,222717,5,0,0:0:0:0:
367,34,222860,1,0,0:0:0:0:
240,78,223003,1,0,0:0:0:0:
400,182,223146,1,0,0:0:0:0:
214,93,223288,6,0,L|236:219,1,105.000004005432,0|0,2:0|2:0,2:0:0:0:
399,159,223574,1,0,0:0:0:0:
396,167,223717,1,0,0:0:0:0:
263,316,223860,6,0,P|329:323|362:292,1,105.000004005432
261,162,224146,1,0,0:0:0:0:
263,170,224288,1,0,0:0:0:0:
401,94,224431,5,0,0:0:0:0:
372,185,224574,1,0,0:0:0:0:
273,71,224717,5,0,0:0:0:0:
322,205,224860,1,0,0:0:0:0:
134,102,225003,5,0,0:0:0:0:
257,223,225146,1,0,0:0:0:0:
42,144,225288,5,0,0:0:0:0:
59,192,225359,1,0,0:0:0:0:
98,227,225430,1,0,0:0:0:0:
149,237,225502,1,0,0:0:0:0:
198,222,225573,1,0,0:0:0:0:
209,206,225860,6,0,P|287:218|255:280,1,162.750001241684
208,282,226146,1,0,0:0:0:0:
361,193,226288,1,0,0:0:0:0:
361,193,226360,1,0,0:0:0:0:
361,193,226431,1,0,0:0:0:0:
309,329,226574,1,0,0:0:0:0:
148,144,226717,5,0,0:0:0:0:
206,296,226860,1,0,0:0:0:0:
45,195,227003,1,0,0:0:0:0:
45,195,227074,1,0,0:0:0:0:
45,195,227146,1,0,0:0:0:0:
188,288,227288,5,0,0:0:0:0:
192,123,227431,1,0,0:0:0:0:
72,268,227574,1,0,0:0:0:0:
259,208,227717,1,0,0:0:0:0:
98,105,227860,6,0,P|159:76|194:198,1,217.000001655579
192,196,228217,1,0,0:0:0:0:
176,195,228288,1,0,0:0:0:0:
118,49,228431,1,0,0:0:0:0:
267,122,228574,1,0,0:0:0:0:
168,233,228717,1,0,0:0:0:0:
345,251,228860,1,0,0:0:0:0:
356,42,229003,6,0,B|338:74|338:74|290:86|288:142,1,108.500000827789
332,250,229288,1,0,0:0:0:0:
465,129,229431,1,0,0:0:0:0:
463,306,229574,1,0,0:0:0:0:
367,105,229717,1,0,0:0:0:0:
247,284,229860,2,0,P|263:222|306:221,1,108.500000827789
308,227,230074,1,0,0:0:0:0:
312,239,230146,5,0,0:0:0:0:
220,357,230288,1,0,0:0:0:0:
148,222,230431,1,0,0:0:0:0:
377,274,230574,1,0,0:0:0:0:
264,135,230717,1,0,0:0:0:0:
224,326,230860,1,0,0:0:0:0:
405,180,231003,1,0,0:0:0:0:
168,112,231146,1,0,0:0:0:0:
338,219,231288,5,0,0:0:0:0:
90,329,231431,1,0,0:0:0:0:
338,219,231574,2,0,B|314:191|314:191|246:221|187:167,1,162.750001241684
275,119,231860,1,0,0:0:0:0:
221,260,232003,1,0,0:0:0:0:
74,128,232146,2,0,P|81:190|154:162,1,162.750001241684
164,57,232431,5,0,0:0:0:0:
433,184,232574,2,0,L|309:125,1,122.500001168251
158,251,232860,5,0,0:0:0:0:
282,0,233003,2,0,L|220:122,1,122.500001168251
365,265,233288,5,0,0:0:0:0:
96,138,233431,2,0,L|220:197,1,122.500001168251
370,47,233717,5,0,0:0:0:0:
246,298,233860,2,0,P|299:246|307:175,1,122.500001168251
207,56,234146,2,0,P|190:129|281:145,1,183.750001752377
304,112,234431,2,0,B|316:179|316:179|287:239|287:239|296:299,1,183.750001752377
404,311,234717,5,0,0:0:0:0:
106,244,234860,1,0,0:0:0:0:
110,254,235003,1,0,0:0:0:0:
420,272,235146,5,0,0:0:0:0:
85,133,235288,1,0,0:0:0:0:
88,142,235431,1,0,0:0:0:0:
437,228,235574,5,0,0:0:0:0:
118,19,235717,1,0,0:0:0:0:
256,232,236241,6,0,L|256:160,6,40.8333337227503
256,192,236574,12,0,245003,0:0:0:0:
