osu file format v14

[General]
AudioFilename: audio.mp3
AudioLeadIn: 0
PreviewTime: 67307
Countdown: 0
SampleSet: Soft
StackLeniency: 0.7
Mode: 0
LetterboxInBreaks: 0
WidescreenStoryboard: 0

[Editor]
Bookmarks: 1736,20022,29164,38307,56593,67450,88593,97736,106879,125164,136022,154879,164022,177736,177807,177878,177950,178021,178093,178164,178236,178307,178378,178450,178521,178593,178664,178736,178807,178878,178950,179021,179093,179164,179236,179307,179378,179450,195450,209261,209307,209378,209450,209521,209593,209664,209736,209807,209878,209950,210021,210093,210164,210236,210307,210378,210450,210521,210593,210664,210736,210807,210878,210950,211021,211093,211164,211236,211307,211378,211450,211521,211593,211664,211736,211807,211878,211950,212021,212093,212164,212236,212307,212378,212450,212521,212593,212664,212736,212807,212878,212950,213021,213721,225736,236736
DistanceSpacing: 1.2
BeatDivisor: 4
GridSize: 32
TimelineZoom: 3.999998

[Metadata]
Title:Deep Indigo
TitleUnicode:藍二乗
Artist:Yorushika
ArtistUnicode:ヨルシカ
Creator:Ryuusei Aika
Version:That's Why I Gave up on Mapping
Source:
Tags:Ai Nijou Ainijou blur squared ナブナ nbuna n-buna スイ suis だから僕は音楽を辞めた That's Why I Gave Up on Music dakara boku wa ongaku o wo yameta japanese pop j-pop jpop rock j-rock jrock female vocal Sandrew kanor CoLouRed GlaZeE Delis ShirohaMyMommy Mirash Sing Nanashima Asami
BeatmapID:2588365
BeatmapSetID:1245222

[Difficulty]
HPDrainRate:6
CircleSize:4
OverallDifficulty:8.8
ApproachRate:9.4
SliderMultiplier:2.1
SliderTickRate:1

[Events]
//Background and Video events
0,0,"indigo.jpg",0,0
//Break Periods
2,177792,179307
2,209118,212975
//Storyboard Layer 0 (Background)
//Storyboard Layer 1 (Fail)
//Storyboard Layer 2 (Pass)
//Storyboard Layer 3 (Foreground)
//Storyboard Layer 4 (Overlay)
//Storyboard Sound Samples

[TimingPoints]
450,285.714285714286,4,2,1,30,1,0
1593,-200,4,2,1,30,0,0
10450,-100,4,2,1,30,0,0
10735,-133.333333333333,4,2,1,30,0,0
18164,-166.666666666667,4,2,1,32,0,0
18450,-142.857142857143,4,2,1,34,0,0
18735,-125,4,2,1,36,0,0
19021,-111.111111111111,4,2,1,38,0,0
19307,-100,4,2,1,40,0,0
19593,-200,4,2,1,30,0,0
24164,-100,4,2,1,40,0,0
29021,-133.333333333333,4,2,1,40,0,0
29307,-100,4,2,1,50,0,1
38164,-133.333333333333,4,2,1,30,0,0
45878,-166.666666666667,4,2,1,32,0,0
46164,-142.857142857143,4,2,1,34,0,0
46450,-125,4,2,1,36,0,0
46735,-111.111111111111,4,2,1,38,0,0
47021,-100,4,2,1,40,0,0
47307,-111.111111111111,4,2,1,40,0,0
49593,-117.647058823529,4,2,1,40,0,0
50164,-111.111111111111,4,2,1,40,0,0
53878,-166.666666666667,4,2,1,42,0,0
54164,-142.857142857143,4,2,1,44,0,0
54450,-125,4,2,1,46,0,0
54735,-111.111111111111,4,2,1,48,0,0
55021,-100,4,2,1,50,0,0
55307,-111.111111111111,4,2,1,40,0,0
56450,-133.333333333333,4,2,1,40,0,0
60735,-100,4,2,1,40,0,0
61021,-133.333333333333,4,2,1,40,0,0
63307,-100,4,2,1,40,0,0
66593,-133.333333333333,4,2,1,40,0,0
67307,-333.333333333333,4,2,1,30,0,0
67878,-83.3333333333333,4,2,1,60,0,1
68164,-100,4,2,1,60,0,1
68450,-83.3333333333333,4,2,1,60,0,1
69021,-100,4,2,1,60,0,1
71307,-83.3333333333333,4,2,1,60,0,1
71593,-100,4,2,1,60,0,1
75735,-83.3333333333333,4,2,1,60,0,1
76450,-100,4,2,1,60,0,1
77021,-83.3333333333333,4,2,1,60,0,1
77593,-100,4,2,1,60,0,1
82735,-83.3333333333333,4,2,1,60,0,1
83021,-100,4,2,1,60,0,1
83164,-83.3333333333333,4,2,1,60,0,1
83593,-100,4,2,1,60,0,1
85307,-83.3333333333333,4,2,1,60,0,1
85593,-100,4,2,1,60,0,1
88164,-83.3333333333333,4,2,1,60,0,1
88450,-100,4,2,1,40,0,0
97593,-133.333333333333,4,2,1,40,0,0
97878,-100,4,2,1,50,0,1
106735,-200,4,2,1,30,0,0
113307,-100,4,2,1,30,0,0
113593,-200,4,2,1,30,0,0
114593,-133.333333333333,4,2,1,30,0,0
115878,-166.666666666667,4,2,1,40,0,0
122735,-166.666666666667,4,2,1,42,0,0
123021,-142.857142857143,4,2,1,44,0,0
123307,-125,4,2,1,46,0,0
123593,-111.111111111111,4,2,1,48,0,0
124164,-100,4,2,1,50,0,0
126735,-125,4,2,1,40,0,0
127307,-100,4,2,1,40,0,0
128735,-125,4,2,1,40,0,0
129021,-100,4,2,1,40,0,0
132307,-125,4,2,1,40,0,0
132735,-100,4,2,1,40,0,0
135164,-133.333333333333,4,2,1,40,0,0
135878,-133.333333333333,4,2,1,45,0,0
136021,-133.333333333333,4,2,1,50,0,0
136164,-133.333333333333,4,2,1,54,0,0
136307,-133.333333333333,4,2,1,58,0,0
136450,-83.3333333333333,4,2,1,60,0,1
136734,-100,4,2,1,60,0,1
137021,-83.3333333333333,4,2,1,60,0,1
137592,-100,4,2,1,60,0,1
141021,-83.3333333333333,4,2,1,60,0,1
141307,-100,4,2,1,60,0,1
144306,-83.3333333333333,4,2,1,60,0,1
145021,-100,4,2,1,60,0,1
145592,-83.3333333333333,4,2,1,60,0,1
146164,-100,4,2,1,60,0,1
147593,-83.3333333333333,4,2,1,60,0,1
147878,-100,4,2,1,60,0,1
151306,-83.3333333333333,4,2,1,60,0,1
151592,-100,4,2,1,60,0,1
151735,-83.3333333333333,4,2,1,60,0,1
153593,-100,4,2,1,60,0,1
153878,-83.3333333333333,4,2,1,60,0,1
154450,-100,4,2,1,60,0,1
154735,-100,4,2,1,40,0,0
163878,-90.9090909090909,4,2,1,40,0,0
166450,-133.333333333333,4,2,1,40,0,0
167164,-90.9090909090909,4,2,1,40,0,0
168164,-83.3333333333333,4,2,1,40,0,0
168450,-90.9090909090909,4,2,1,40,0,0
173164,-66.6666666666667,4,2,1,40,0,0
173450,-200,4,2,1,40,0,0
173593,-71.4285714285714,4,2,1,40,0,0
173878,-250,4,2,1,40,0,0
174021,-76.9230769230769,4,2,1,40,0,0
174307,-333.333333333333,4,2,1,40,0,0
174450,-83.3333333333333,4,2,1,40,0,0
174735,-500,4,2,1,40,0,0
174878,-90.9090909090909,4,2,1,40,0,0
175164,-1000,4,2,1,40,0,0
179878,-83.3333333333333,4,2,1,60,0,1
182164,-133.333333333333,4,2,1,40,0,0
182450,-71.4285714285714,4,2,1,60,0,1
183021,-100,4,2,1,60,0,1
184450,-83.3333333333333,4,2,1,60,0,1
187878,-100,4,2,1,60,0,1
192878,-83.3333333333333,4,2,1,60,0,1
193307,-71.4285714285714,4,2,1,60,0,1
196450,-83.3333333333333,4,2,1,60,0,1
207021,307.692307692308,4,2,1,30,1,0
207328,333.333333333333,4,2,1,40,1,0
207328,-333.333333333333,4,2,1,40,0,0
207661,352.941176470588,4,2,1,40,1,0
208013,-333.333333333333,4,2,1,40,0,0
208366,400,4,2,1,40,1,0
208766,352.941176470588,4,2,1,40,1,0
209118,428.571428571429,4,2,1,40,1,0
209975,588.235294117647,4,2,1,40,1,0
210563,603.015075376884,4,2,1,40,1,0
213578,292.682926829268,4,2,1,40,1,0
213578,-133.333333333333,4,2,1,40,0,0
214163,285.714285714286,4,2,1,40,1,0
214163,-133.333333333333,4,2,1,40,0,0
216448,-100,4,2,1,40,0,0
225591,-133.333333333333,4,2,1,50,0,1
225877,-100,4,2,1,50,0,1
227877,-83.3333333333333,4,2,1,50,0,1
235734,-83.3333333333333,4,2,1,50,0,0
236305,-83.3333333333333,4,2,1,30,0,0
236591,-100,4,2,1,30,0,0

[Colours]
Combo1 : 60,94,251
Combo2 : 114,194,233
Combo3 : 232,150,96

[HitObjects]
114,268,1450,5,0,0:0:0:0:
114,268,1593,2,0,P|127:322|133:378,1,105,0|2,1:0|0:3,0:0:0:0:
252,305,2021,2,0,P|223:307|197:312,1,52.5,0|2,0:0|0:3,0:0:0:0:
0,342,2307,2,0,P|29:340|55:335,1,52.5,0|2,0:0|0:3,0:0:0:0:
157,191,2593,5,0,0:0:0:0:
157,191,2735,2,0,P|144:137|138:81,1,105,2|2,0:3|0:3,0:0:0:0:
149,15,3164,1,0,0:0:0:0:
69,172,3307,2,0,P|48:138|36:110,1,52.5,2|0,0:3|0:0,0:0:0:0:
239,93,3593,2,0,P|233:118|231:144,1,52.5,2|0,0:3|0:0,0:0:0:0:
317,249,3878,6,0,L|428:253,1,105,2|2,0:3|0:3,0:0:0:0:
512,154,4450,2,0,L|425:165,1,78.75,2|0,0:3|0:0,0:0:0:0:
417,165,4735,1,2,0:3:0:0:
496,294,4878,6,0,L|505:235,1,52.5,0|2,0:0|0:3,0:0:0:0:
334,165,5164,1,0,0:0:0:0:
334,165,5307,2,0,L|325:106,1,52.5,2|0,0:3|0:0,0:0:0:0:
496,74,5593,2,0,L|502:42,2,26.25,2|0|0,0:3|0:0|0:0,0:0:0:0:
344,16,5878,5,2,0:3:0:0:
418,40,6021,1,0,0:0:0:0:
272,49,6164,2,0,P|226:66|175:112,2,105,2|2|2,0:3|0:3|0:3,0:0:0:0:
63,112,7021,5,2,0:3:0:0:
46,35,7164,1,0,0:0:0:0:
127,157,7307,2,0,P|164:188|230:209,2,105,10|10|10,0:3|0:3|0:3,0:0:0:0:
286,306,8164,5,10,0:3:0:0:
227,359,8307,1,0,0:0:0:0:
293,228,8450,2,0,P|301:179|286:112,2,105,10|10|10,0:3|0:3|0:3,0:0:0:0:
470,256,9307,6,0,P|460:307|469:359,1,105,10|10,0:3|0:3,0:0:0:0:
439,175,9735,1,8,0:3:0:0:
439,175,9807,1,8,0:3:0:0:
439,175,9878,1,2,0:3:0:0:
365,333,10021,1,8,0:3:0:0:
362,209,10164,2,0,P|329:251|287:268,1,78.75,2|0,0:3|0:0,0:0:0:0:
280,181,10450,6,0,B|179:157|231:210|120:177,1,157.5,6|0,0:0|0:0,0:0:0:0:
8,87,10735,6,0,P|40:151|59:245,1,157.500006008148,6|0,1:0|1:0,0:0:0:0:
175,66,11164,2,0,P|129:86|98:112,1,78.7500030040742,0|0,0:0|1:0,0:0:0:0:
135,265,11450,2,0,P|181:285|212:311,1,78.7500030040742,0|0,0:0|1:0,0:0:0:0:
250,97,11735,5,2,0:3:0:0:
250,97,11878,2,0,P|330:85|398:14,1,157.500006008148,0|0,1:0|1:0,0:0:0:0:
511,275,12307,1,0,0:0:0:0:
498,203,12450,2,0,P|454:161|379:142,1,118.125004506111,0|0,1:0|0:0,0:0:0:0:
334,179,12735,1,0,1:0:0:0:
334,179,12807,1,2,0:3:0:0:
334,179,12878,1,2,0:3:0:0:
334,179,12950,1,2,0:3:0:0:
334,179,13021,6,0,L|321:355,1,157.500006008148,4|0,1:0|1:0,0:0:0:0:
481,288,13450,2,0,P|430:286|394:277,1,78.7500030040742,0|0,0:0|1:0,0:0:0:0:
175,242,13735,2,0,P|226:244|262:253,1,78.7500030040742,0|0,0:0|1:0,0:0:0:0:
417,157,14021,5,0,0:0:0:0:
405,78,14164,2,0,L|393:-9,1,78.7500030040742,0|0,1:0|0:0,0:0:0:0:
208,159,14450,2,0,P|242:101|345:92,1,157.500006008148,0|0,1:0|1:0,0:0:0:0:
399,371,15021,5,0,1:0:0:0:
399,371,15164,2,0,L|349:358,1,39.3750015020371,2|0,0:3|0:0,0:0:0:0:
302,306,15307,2,0,P|233:353|139:330,2,157.500006008148,0|0|0,1:0|1:0|1:0,0:0:0:0:
71,316,16164,5,0,1:0:0:0:
150,336,16307,1,2,0:3:0:0:
175,264,16450,2,0,P|168:180|235:110,2,157.500006008148,0|0|0,1:0|1:0|1:0,0:0:0:0:
282,63,17307,5,0,1:0:0:0:
258,73,17378,1,2,0:3:0:0:
239,91,17450,1,2,0:3:0:0:
227,114,17521,1,2,0:3:0:0:
274,175,17593,2,0,P|349:211|376:304,1,157.500006008148,4|4,1:0|1:0,0:0:0:0:
443,66,18164,6,0,P|398:72|377:113,1,94.499997116089,4|0,1:0|0:0,0:0:0:0:
503,235,18450,6,0,P|476:188|424:181,1,110.249996635437,4|0,1:0|0:0,0:0:0:0:
357,358,18735,6,0,P|387:304|371:245,1,126,4|0,1:0|0:0,0:0:0:0:
171,226,19021,6,0,P|235:249|294:215,1,141.749995674133,4|0,1:0|0:0,0:0:0:0:
260,6,19307,6,0,P|246:80|300:133,1,157.5,4|0,1:0|0:0,0:0:0:0:
300,133,19593,6,0,L|245:143,1,52.5,2|2,1:3|0:3,0:0:0:0:
0,84,19878,5,6,1:2:0:0:
76,65,20021,1,2,0:0:0:0:
143,106,20164,1,10,0:2:0:0:
167,180,20307,1,2,0:0:0:0:
229,227,20450,1,2,0:0:0:0:
307,222,20593,1,2,1:2:0:0:
512,102,20735,5,10,0:2:0:0:
445,68,20878,1,2,0:0:0:0:
380,104,21021,1,2,1:2:0:0:
371,177,21164,1,2,1:2:0:0:
427,227,21307,1,10,0:2:0:0:
346,374,21450,5,2,0:3:0:0:
346,374,21521,1,2,0:3:0:0:
346,374,21593,1,2,0:3:0:0:
217,332,21735,1,2,1:2:0:0:
317,240,21878,1,10,0:2:0:0:
293,315,22021,1,2,0:0:0:0:
128,322,22164,5,2,1:2:0:0:
94,250,22307,1,2,1:2:0:0:
135,183,22450,1,10,0:2:0:0:
213,187,22593,1,2,0:0:0:0:
284,155,22735,1,2,0:0:0:0:
302,78,22878,1,2,1:2:0:0:
269,6,23021,1,10,0:2:0:0:
381,89,23164,5,2,0:3:0:0:
381,89,23235,1,2,0:3:0:0:
381,89,23307,1,2,1:2:0:0:
305,61,23450,1,2,1:2:0:0:
310,177,23593,5,10,0:2:0:0:
204,173,23735,1,2,0:0:0:0:
276,312,23878,5,2,0:0:0:0:
135,371,24021,1,2,1:2:0:0:
194,324,24164,6,0,B|300:306|240:360|349:338,1,157.5,14|0,0:2|0:0,0:0:0:0:
428,364,24450,6,0,P|420:313|447:258,1,105,6|2,1:2|0:0,0:0:0:0:
505,221,24735,1,10,0:2:0:0:
310,263,24878,6,0,P|318:212|291:157,1,105,2|2,0:0|0:0,0:0:0:0:
233,120,25164,1,2,1:2:0:0:
464,152,25307,5,8,0:0:0:0:
392,185,25450,1,2,0:0:0:0:
360,109,25593,6,0,L|372:4,1,105,2|2,1:2|1:2,0:0:0:0:
158,181,25878,2,0,L|145:76,1,105,10|2,0:2|0:3,0:0:0:0:
146,64,26093,1,2,0:3:0:0:
146,64,26164,1,2,0:3:0:0:
227,229,26307,1,2,1:2:0:0:
70,139,26450,5,10,0:2:0:0:
233,120,26593,1,2,0:0:0:0:
11,212,26735,6,0,B|-3:263|-3:263|25:317,1,105,2|2,1:2|0:0,0:0:0:0:
145,190,27021,2,0,L|138:257,1,52.5,12|0,0:0|0:0,0:0:0:0:
132,314,27164,2,0,L|125:381,1,52.5,6|0,0:2|0:0,0:0:0:0:
278,274,27307,6,0,B|264:223|264:223|292:169,1,105,2|2,0:0|1:2,0:0:0:0:
412,296,27593,2,0,L|395:138,1,157.5,12|0,0:0|0:0,0:0:0:0:
451,83,27878,5,6,1:2:0:0:
374,63,28021,1,0,0:2:0:0:
350,234,28164,5,14,0:2:0:0:
484,200,28307,1,2,1:2:0:0:
512,384,28450,5,6,1:2:0:0:
248,345,28593,1,2,0:0:0:0:
275,162,28735,5,2,1:2:0:0:
273,170,28807,1,0,1:0:0:0:
272,179,28878,1,2,1:2:0:0:
271,188,28950,1,0,1:0:0:0:
278,274,29021,6,0,P|233:259|189:258,1,78.7500030040742,6|0,0:0|0:0,0:0:0:0:
200,101,29307,2,0,B|59:100|147:155|-15:141,1,210,14|0,0:0|1:0,0:0:0:0:
77,353,29735,5,2,0:0:0:0:
77,353,29807,1,2,0:0:0:0:
77,353,29878,1,10,0:2:0:0:
154,336,30021,1,2,0:0:0:0:
9,222,30164,5,2,1:2:0:0:
220,246,30307,1,2,0:0:0:0:
84,183,30450,1,10,0:2:0:0:
84,183,30521,1,2,0:0:0:0:
84,183,30593,1,2,0:0:0:0:
147,4,30735,5,2,1:2:0:0:
168,144,30878,1,2,0:0:0:0:
365,4,31021,1,10,0:0:0:0:
344,144,31164,1,2,0:0:0:0:
495,75,31307,6,0,P|439:55|442:136,1,157.5,2|0,1:2|0:0,0:0:0:0:
424,209,31593,2,2,P|440:229|452:256,2,52.5,10|2|2,0:0|0:0|0:0,0:0:0:0:
168,144,31878,5,2,1:2:0:0:
138,283,32021,1,2,0:0:0:0:
344,144,32164,1,10,0:2:0:0:
374,283,32307,1,2,0:0:0:0:
201,229,32450,6,0,P|257:209|254:290,1,157.5,2|0,1:2|0:0,0:0:0:0:
316,346,32735,1,10,0:2:0:0:
316,346,32878,1,2,0:0:0:0:
113,364,33021,5,2,1:2:0:0:
399,364,33164,1,2,0:0:0:0:
173,266,33307,2,0,P|194:323|198:376,1,105,10|0,0:0|0:0,0:0:0:0:
316,46,33593,5,2,1:2:0:0:
138,22,33735,1,2,0:0:0:0:
262,151,33878,5,14,0:2:0:0:
167,116,34021,1,2,0:0:0:0:
181,249,34164,5,2,1:2:0:0:
129,194,34307,1,2,0:0:0:0:
84,278,34450,5,10,0:2:0:0:
78,258,34593,1,2,0:0:0:0:
10,310,34735,6,0,P|74:316|129:344,1,105,2|0,1:2|0:0,0:0:0:0:
129,194,35021,2,0,P|192:183|281:134,1,157.5,10|0,0:2|0:0,0:0:0:0:
330,36,35307,5,2,1:2:0:0:
478,112,35450,1,2,0:0:0:0:
409,0,35593,2,0,B|431:88|377:58|403:155,1,157.5,10|0,0:0|0:0,0:0:0:0:
494,207,35878,5,10,0:0:0:0:
262,244,36021,1,2,1:2:0:0:
436,269,36164,1,0,1:0:0:0:
242,50,36307,6,0,L|259:-17,1,52.5,10|0,0:0|0:0,0:0:0:0:
185,108,36450,2,0,L|118:126,1,52.5,2|0,1:2|0:0,0:0:0:0:
264,129,36593,2,0,L|313:177,1,52.5,2|0,1:2|0:0,0:0:0:0:
0,59,36735,5,10,0:0:0:0:
14,137,36878,1,2,1:2:0:0:
115,35,37021,5,0,1:0:0:0:
95,202,37164,2,0,L|105:128,1,52.5,10|0,0:0|0:0,0:0:0:0:
229,1,37307,5,2,1:2:0:0:
170,252,37450,1,2,1:2:0:0:
387,40,37593,6,0,B|335:30|335:30|273:71,1,105,10|2,0:0|1:2,0:0:0:0:
346,319,37878,2,0,B|398:329|398:329|460:288,1,105,2|2,1:2|1:2,0:0:0:0:
445,167,38164,6,0,L|274:197,1,157.500006008148,0|0,1:0|1:0,0:0:0:0:
217,169,38593,2,0,L|207:253,1,78.7500030040742,0|0,0:0|1:0,0:0:0:0:
120,118,38878,2,0,L|130:202,1,78.7500030040742,0|0,0:0|1:0,0:0:0:0:
98,329,39164,5,2,0:3:0:0:
165,369,39307,2,0,P|226:357|277:266,2,157.500006008148,0|0|0,1:0|1:0|1:0,0:0:0:0:
18,300,40021,2,0,P|17:339|27:377,1,78.7500030040742,0|0,0:0|1:0,0:0:0:0:
207,247,40307,5,2,0:3:0:0:
207,247,40378,1,2,0:3:0:0:
207,247,40450,2,0,P|206:172|219:63,1,157.500006008148,4|0,1:0|1:0,0:0:0:0:
410,60,40878,1,0,0:0:0:0:
410,60,41021,2,0,P|339:61|285:133,1,157.500006008148,0|0,1:0|1:0,0:0:0:0:
87,155,41450,6,0,P|131:173|179:177,1,78.7500030040742,2|0,0:3|1:0,0:0:0:0:
372,183,41735,1,0,0:0:0:0:
372,183,41878,2,0,P|333:189|297:205,1,78.7500030040742,0|0,1:0|0:0,0:0:0:0:
131,291,42164,1,0,1:0:0:0:
75,39,42450,5,0,1:0:0:0:
75,39,42593,2,0,P|75:13|83:-21,1,39.3750015020371,4|0,0:0|0:0,0:0:0:0:
150,23,42735,2,0,P|167:74|157:190,2,157.500006008148,0|0|0,1:0|1:0|1:0,0:0:0:0:
417,72,43593,5,0,1:0:0:0:
466,134,43735,1,2,0:3:0:0:
393,144,43878,2,0,P|340:133|244:66,2,157.500006008148,0|0|0,1:0|1:0|1:0,0:0:0:0:
217,350,44735,5,0,1:0:0:0:
205,357,44807,1,2,0:3:0:0:
194,363,44878,1,2,0:3:0:0:
182,367,44950,1,2,0:3:0:0:
166,293,45021,2,0,P|201:252|307:203,2,157.500006008148,4|0|2,1:0|1:0|1:3,0:0:0:0:
8,207,45735,5,2,0:3:0:0:
60,149,45878,2,0,P|102:163|113:207,1,94.499997116089,4|0,1:0|0:0,0:0:0:0:
84,334,46164,6,0,P|113:290|165:292,1,110.249996635437,4|0,1:0|0:0,0:0:0:0:
279,368,46450,6,0,P|242:320|264:263,1,126,4|0,1:0|0:0,0:0:0:0:
382,170,46735,6,0,P|322:200|268:160,1,141.749995674133,4|0,1:0|0:0,0:0:0:0:
204,11,47021,6,0,P|231:69|168:126,1,157.5,4|0,1:0|0:0,0:0:0:0:
13,170,47307,6,0,B|134:160|47:233|222:205,1,188.999994232178,2|0,1:0|1:0,0:0:0:0:
267,159,47735,2,0,P|264:212|272:264,1,94.499997116089,0|0,0:0|1:0,0:0:0:0:
158,35,48021,2,0,P|161:88|153:140,1,94.499997116089,0|0,0:0|1:0,0:0:0:0:
338,106,48307,1,2,0:3:0:0:
469,291,48450,6,0,P|458:229|331:217,1,188.999994232178,0|2,1:0|1:0,0:0:0:0:
183,302,48878,1,0,0:0:0:0:
183,302,49021,2,0,P|192:255|188:195,1,94.499997116089,0|2,1:0|0:0,0:0:0:0:
260,64,49307,1,0,1:0:0:0:
260,64,49378,1,2,0:3:0:0:
260,64,49450,1,2,0:3:0:0:
260,64,49521,1,2,0:3:0:0:
260,64,49593,6,0,L|267:170,1,89.2500017023087,6|0,1:0|0:0,0:0:0:0:
346,384,49878,2,0,L|339:289,1,89.2500017023087,0|2,1:0|0:0,0:0:0:0:
390,224,50164,2,0,B|332:211|332:211|273:240|273:240|199:223,1,188.999994232178,0|2,1:0|1:0,0:0:0:0:
45,160,50593,2,0,L|37:222,1,47.2499985580445,2|0,0:3|0:0,0:0:0:0:
110,241,50735,6,0,B|138:203|138:203|125:134,1,94.499997116089,0|0,1:0|0:0,0:0:0:0:
28,29,51021,2,0,B|46:72|46:72|112:95,1,94.499997116089,2|0,1:0|0:0,0:0:0:0:
252,63,51307,2,0,B|205:57|205:57|151:103,1,94.499997116089,0|2,1:0|0:0,0:0:0:0:
0,291,51593,5,0,1:0:0:0:
0,291,51735,2,0,L|51:281,1,47.2499985580445,4|0,0:0|0:0,0:0:0:0:
110,241,51878,2,0,P|193:294|190:382,1,188.999994232178,2|0,1:0|1:0,0:0:0:0:
394,119,52450,2,0,P|311:172|319:259,1,188.999994232178,0|0,1:0|1:0,0:0:0:0:
391,277,52878,1,2,0:3:0:0:
454,358,53021,6,0,P|468:293|452:156,1,188.999994232178,2|0,1:2|1:0,0:0:0:0:
326,16,53450,1,2,0:0:0:0:
326,16,53593,2,0,P|314:79|325:134,1,94.499997116089,0|0,1:0|0:0,0:0:0:0:
394,119,53878,6,0,P|392:164|429:190,1,94.499997116089,0|2,1:0|0:3,0:0:0:0:
245,68,54164,6,0,P|294:86|337:55,1,110.249996635437,4|0,1:0|0:0,0:0:0:0:
150,194,54450,6,0,P|186:146|166:89,1,126,0|0,1:0|0:0,0:0:0:0:
240,323,54735,6,0,P|198:270|133:284,1,141.749995674133,2|0,1:3|0:0,0:0:0:0:
391,277,55021,6,0,P|323:306|330:379,1,157.5,4|0,1:0|0:0,0:0:0:0:
471,310,55307,6,0,P|470:250|454:210,1,94.499997116089,4|8,1:0|0:0,0:0:0:0:
209,301,55593,2,0,B|328:325|267:255|403:279,1,188.999994232178,4|12,1:0|1:0,0:0:0:0:
418,378,56021,5,8,0:0:0:0:
122,325,56164,1,12,1:0:0:0:
297,205,56307,1,0,1:0:0:0:
219,6,56450,6,0,B|212:65|212:65|237:95|237:95|226:182,1,157.500006008148,6|0,1:0|1:0,0:0:0:0:
75,189,56878,1,8,0:0:0:0:
148,138,57021,2,0,L|158:216,1,78.7500030040742,0|0,0:0|1:0,0:0:0:0:
415,109,57307,6,0,P|368:41|272:52,1,157.500006008148,6|0,1:0|0:0,0:0:0:0:
488,169,57735,2,0,P|494:107|507:74,1,78.7500030040742,0|0,1:0|0:0,0:0:0:0:
297,235,58021,1,0,1:0:0:0:
364,199,58164,2,0,B|456:198|403:251|517:247,1,157.500006008148,12|0,0:0|1:0,0:0:0:0:
330,115,58593,5,0,0:0:0:0:
251,125,58735,2,0,L|163:136,1,78.7500030040742,6|0,1:0|0:0,0:0:0:0:
218,328,59021,1,0,1:0:0:0:
139,318,59164,2,0,L|51:307,1,78.7500030040742,10|0,0:0|0:0,0:0:0:0:
107,91,59450,1,0,1:0:0:0:
39,228,59593,6,0,P|37:169|0:72,1,157.500006008148,6|0,1:0|0:0,0:0:0:0:
181,308,60021,1,0,1:0:0:0:
81,359,60164,2,0,P|92:312|112:272,1,78.7500030040742,0|0,0:0|1:0,0:0:0:0:
338,285,60450,2,0,P|277:267|220:215,1,118.125004506111,12|0,0:0|0:0,0:0:0:0:
215,161,60735,6,0,B|232:52|232:52|185:81,1,157.5,2|0,0:0|0:0,0:0:0:0:
191,76,61021,6,0,B|225:77|247:72|247:72|288:97|288:97|319:92|357:95,1,157.500006008148,6|0,1:0|1:0,0:0:0:0:
417,53,61450,2,0,L|427:154,1,78.7500030040742,8|0,0:0|0:0,0:0:0:0:
499,86,61735,1,0,1:0:0:0:
495,288,61878,6,0,P|470:209|315:186,1,236.250009012223,6|0,1:0|1:0,0:0:0:0:
215,161,62450,2,0,P|247:227|246:253,1,78.7500030040742,0|0,0:0|1:0,0:0:0:0:
317,384,62735,2,0,P|322:314|351:248,1,118.125004506111,12|0,0:0|0:0,0:0:0:0:
338,269,63021,1,0,1:0:0:0:
230,314,63164,1,0,0:0:0:0:
115,214,63307,6,0,P|57:212|-1:199,1,105,6|0,1:0|0:0,0:0:0:0:
146,295,63593,1,0,1:0:0:0:
278,149,63735,6,0,P|336:147|394:134,1,105,10|2,0:0|0:0,0:0:0:0:
247,230,64021,1,0,1:0:0:0:
87,52,64164,6,0,B|182:68|290:-3|290:-3|242:36|236:94,1,315,6|8,1:0|0:0,0:0:0:0:
320,170,64735,2,0,P|317:117|337:69,1,105,0|0,0:0|1:0,0:0:0:0:
212,276,65021,2,0,P|258:300|290:341,1,105,12|0,0:0|0:0,0:0:0:0:
175,129,65307,2,0,P|130:156|79:164,1,105,2|0,1:0|1:0,0:0:0:0:
231,384,65593,5,0,1:0:0:0:
0,277,65735,1,0,1:0:0:0:
215,196,65878,1,0,1:0:0:0:
92,78,66021,5,10,1:0:0:0:
330,267,66307,5,10,1:0:0:0:
61,384,66593,6,0,P|74:337|73:291,1,78.7500030040742,10|0,1:0|0:0,0:0:0:0:
134,255,66878,1,2,0:0:0:0:
13,195,67021,5,8,0:0:0:0:
160,337,67164,1,0,1:0:0:0:
95,175,67307,6,0,L|100:134,3,31.4999990386963,2|2|2|2,0:0|0:0|0:0|0:0,0:0:0:0:
56,69,67878,6,0,B|180:44|111:112|264:83,1,188.999994232178,4|0,1:0|0:0,0:0:0:0:
303,45,68164,2,0,P|321:104|311:175,1,105,8|0,0:0|0:0,0:0:0:0:
504,251,68450,6,0,P|428:246|407:133,1,188.999994232178,0|0,1:0|0:0,0:0:0:0:
414,143,68735,1,8,0:0:0:0:
232,174,68878,1,0,0:0:0:0:
351,282,69021,6,0,P|333:341|343:412,1,105,0|0,1:0|0:0,0:0:0:0:
512,367,69307,2,0,P|450:351|400:351,1,105,8|0,0:0|0:0,0:0:0:0:
155,322,69593,2,0,P|207:319|257:305,1,105,0|0,1:0|0:0,0:0:0:0:
397,149,69878,2,0,P|334:143|294:259,1,157.5,8|0,0:0|0:0,0:0:0:0:
281,212,70164,6,0,P|270:137|253:97,1,105,0|0,1:0|0:0,0:0:0:0:
512,64,70450,2,0,P|495:113|490:165,1,105,8|0,0:0|0:0,0:0:0:0:
277,31,70735,2,0,P|332:40|399:47,1,105,0|0,1:0|0:0,0:0:0:0:
512,249,71021,2,0,P|457:240|390:233,1,105,8|0,0:0|0:0,0:0:0:0:
259,110,71307,6,0,B|278:243|278:243|222:195,1,188.999994232178,0|0,1:0|0:0,0:0:0:0:
236,207,71593,2,0,L|348:201,1,105,8|0,0:0|0:0,0:0:0:0:
303,325,71878,2,0,B|263:327|232:312|232:312|168:346|168:346|141:332|82:331,1,210,0|8,1:0|0:0,0:0:0:0:
33,353,72307,1,0,0:0:0:0:
127,42,72450,5,6,1:2:0:0:
155,261,72593,1,2,0:0:0:0:
0,153,72735,1,10,0:0:0:0:
211,116,72878,1,2,0:0:0:0:
397,33,73021,6,0,P|319:54|293:132,1,157.5,0|0,1:0|0:0,0:0:0:0:
218,134,73307,2,0,P|236:187|238:244,1,105,8|0,0:0|0:0,0:0:0:0:
477,175,73593,6,0,L|360:158,1,105,0|0,1:0|0:0,0:0:0:0:
134,250,73878,2,0,L|251:233,1,105,8|0,0:0|0:0,0:0:0:0:
410,360,74164,2,0,L|293:343,1,105,0|0,1:0|0:0,0:0:0:0:
301,140,74450,2,0,B|358:168|358:168|330:287,1,157.5,8|0,0:0|0:0,0:0:0:0:
306,344,74735,6,0,B|380:335|380:335|417:289|417:289|503:280,1,210,0|8,1:0|0:0,0:0:0:0:
456,123,75164,1,0,0:0:0:0:
500,196,75307,2,0,P|447:201|395:200,1,105,0|0,1:0|0:0,0:0:0:0:
223,12,75593,5,8,0:0:0:0:
322,168,75735,2,0,B|295:116|298:40|298:40|281:72|250:87,1,188.999994232178,4|0,1:0|0:0,0:0:0:0:
259,81,76021,2,0,L|340:88,1,62.9999980773926,0|0,1:0|0:0,0:0:0:0:
209,148,76164,1,8,0:0:0:0:
402,111,76307,1,4,1:0:0:0:
179,234,76450,6,0,B|308:214|238:292|404:253,1,210,0|0,0:0|1:0,0:0:0:0:
213,316,76878,5,0,1:0:0:0:
213,316,76950,1,0,1:0:0:0:
213,316,77021,2,0,P|132:325|23:370,1,188.999994232178,4|0,1:0|0:0,0:0:0:0:
21,355,77307,1,8,0:0:0:0:
163,153,77450,1,0,0:0:0:0:
47,265,77593,6,0,P|3:198|100:210,1,210,0|8,1:0|0:0,0:0:0:0:
149,373,78021,1,0,0:0:0:0:
273,190,78164,6,0,P|213:223|152:237,1,105,0|0,1:0|0:0,0:0:0:0:
364,177,78450,2,0,P|410:203|449:238,1,105,8|0,0:0|0:0,0:0:0:0:
221,112,78735,1,0,1:0:0:0:
332,263,78878,1,0,0:0:0:0:
308,103,79021,2,0,P|308:51|319:0,1,105,8|0,0:0|0:0,0:0:0:0:
507,103,79307,6,0,L|384:95,1,105,0|0,1:0|0:0,0:0:0:0:
359,285,79593,2,0,B|335:238|335:238|357:181,1,105,8|0,0:0|0:0,0:0:0:0:
205,8,79878,2,0,B|229:55|229:55|207:112,1,105,0|0,1:0|0:0,0:0:0:0:
57,190,80164,2,0,L|180:198,1,105,8|0,0:0|0:0,0:0:0:0:
297,372,80450,5,0,1:0:0:0:
293,125,80593,1,0,0:0:0:0:
94,350,80735,1,8,0:0:0:0:
359,285,80878,1,0,0:0:0:0:
191,215,81021,6,0,P|193:273|205:318,1,105,0|0,1:0|0:0,0:0:0:0:
2,177,81307,2,0,P|73:192|106:290,1,157.5,8|0,0:0|0:0,0:0:0:0:
100,271,81593,5,4,1:2:0:0:
280,372,81735,2,0,L|289:265,1,105,2|8,0:0|0:0,0:0:0:0:
191,215,82021,5,2,0:0:0:0:
371,114,82164,2,0,L|380:221,1,105,2|0,1:2|0:0,0:0:0:0:
254,158,82450,1,8,0:0:0:0:
512,182,82593,6,0,L|444:167,1,52.5,4|0,1:0|0:0,0:0:0:0:
372,114,82735,2,0,P|448:91|498:45,1,125.999996154785,0|0,0:0|1:0,0:0:0:0:
148,335,83021,6,0,L|216:320,1,52.5,8|0,0:0|0:0,0:0:0:0:
288,267,83164,2,0,P|212:244|162:198,1,125.999996154785,4|0,1:0|0:0,0:0:0:0:
268,21,83450,5,0,1:0:0:0:
280,143,83593,2,0,L|269:32,1,105,8|2,0:0|0:0,0:0:0:0:
2,14,83878,5,2,1:2:0:0:
27,228,84021,1,2,0:0:0:0:
183,65,84164,1,10,0:0:0:0:
173,182,84307,1,2,0:0:0:0:
1,126,84450,5,2,1:0:0:0:
279,160,84593,1,2,0:0:0:0:
112,252,84735,1,10,0:0:0:0:
92,5,84878,1,2,0:0:0:0:
18,246,85021,6,0,P|39:301|38:361,1,105,4|0,1:0|0:0,0:0:0:0:
378,246,85307,2,0,B|270:225|311:292|191:253,1,188.999994232178,12|0,0:0|0:0,0:0:0:0:
117,293,85593,2,0,P|119:240|139:192,1,105,4|0,1:0|0:0,0:0:0:0:
339,324,85878,5,0,1:0:0:0:
351,326,85950,1,0,1:0:0:0:
364,329,86021,1,0,1:0:0:0:
376,334,86093,1,0,1:0:0:0:
389,339,86164,2,0,P|395:274|430:166,1,157.5,6|0,1:0|0:0,0:0:0:0:
434,182,86450,1,8,0:0:0:0:
264,135,86593,6,0,P|284:191|291:262,1,105,6|0,1:0|0:0,0:0:0:0:
508,374,86878,2,0,P|488:318|481:247,1,105,0|8,1:0|0:0,0:0:0:0:
266,365,87164,5,6,1:0:0:0:
93,334,87307,2,0,L|205:319,1,105,0|0,0:0|1:0,0:0:0:0:
24,289,87593,1,8,0:0:0:0:
197,230,87735,5,6,1:0:0:0:
370,199,87878,2,0,L|258:184,1,105,0|0,0:0|1:0,0:0:0:0:
38,47,88164,6,0,B|70:55|103:54|103:54|137:98|137:98|177:97|222:111,1,188.999994232178,8|0,0:0|0:0,0:0:0:0:
215,120,88450,5,6,1:2:0:0:
270,63,88593,1,2,0:0:0:0:
349,58,88735,1,10,0:2:0:0:
411,109,88878,1,2,0:0:0:0:
422,189,89021,1,2,0:0:0:0:
377,254,89164,1,2,1:2:0:0:
255,353,89307,5,10,0:2:0:0:
234,276,89450,1,2,0:0:0:0:
292,223,89593,1,2,1:2:0:0:
316,148,89735,1,2,1:2:0:0:
278,78,89878,1,10,0:2:0:0:
8,100,90021,5,2,0:3:0:0:
8,100,90093,1,2,0:3:0:0:
8,100,90164,1,2,0:3:0:0:
215,120,90307,1,2,1:2:0:0:
83,226,90450,1,10,0:2:0:0:
45,33,90593,1,2,0:0:0:0:
142,153,90735,5,2,1:2:0:0:
90,213,90878,1,2,1:2:0:0:
85,292,91021,1,10,0:2:0:0:
144,345,91164,1,2,0:0:0:0:
195,284,91307,1,2,0:0:0:0:
273,267,91450,1,2,1:2:0:0:
346,298,91593,1,10,0:2:0:0:
512,205,91735,5,2,0:3:0:0:
512,205,91807,1,2,0:3:0:0:
512,205,91878,1,2,1:2:0:0:
496,122,92021,1,2,1:2:0:0:
413,90,92164,5,10,0:2:0:0:
383,223,92307,1,2,0:0:0:0:
297,243,92450,5,2,0:0:0:0:
252,53,92593,1,2,1:2:0:0:
187,96,92735,6,0,B|98:78|139:128|34:96,1,157.5,14|0,0:2|0:0,0:0:0:0:
24,84,93021,5,6,1:2:0:0:
88,130,93164,1,2,0:0:0:0:
117,204,93307,1,10,0:2:0:0:
101,282,93450,1,2,0:0:0:0:
137,211,93593,1,2,0:0:0:0:
211,183,93735,1,2,1:2:0:0:
289,198,93878,1,8,0:0:0:0:
468,384,94021,5,2,0:0:0:0:
265,352,94164,1,2,1:2:0:0:
418,307,94307,1,2,1:2:0:0:
344,263,94450,1,10,0:2:0:0:
390,186,94593,5,2,0:3:0:0:
390,186,94664,1,2,0:3:0:0:
390,186,94735,1,2,0:3:0:0:
346,0,94878,5,2,1:2:0:0:
289,200,95021,1,10,0:2:0:0:
491,146,95164,1,2,0:0:0:0:
267,24,95307,6,0,P|294:79|306:142,1,105,2|2,1:2|0:0,0:0:0:0:
428,71,95593,2,0,L|367:83,1,52.5,12|0,0:0|0:0,0:0:0:0:
222,110,95735,2,0,L|161:122,1,52.5,6|0,0:2|0:0,0:0:0:0:
218,287,95878,6,0,P|190:342|178:405,1,105,2|2,0:0|1:2,0:0:0:0:
0,253,96164,2,0,P|70:249|116:332,1,157.5,12|0,0:0|0:0,0:0:0:0:
112,328,96450,5,6,1:2:0:0:
191,321,96593,1,0,0:2:0:0:
78,217,96735,5,14,0:2:0:0:
240,240,96878,1,2,1:2:0:0:
42,89,97021,5,6,1:2:0:0:
304,169,97164,1,2,0:0:0:0:
110,18,97307,5,2,1:2:0:0:
110,26,97378,1,0,1:0:0:0:
111,35,97450,1,2,1:2:0:0:
112,44,97521,1,0,1:0:0:0:
203,46,97593,6,0,P|178:89|168:142,1,78.7500030040742,6|0,0:0|0:0,0:0:0:0:
27,185,97878,2,0,B|71:184|100:177|100:177|148:204|148:204|180:196|256:192,1,210,14|0,0:0|1:0,0:0:0:0:
383,142,98307,5,2,0:0:0:0:
383,142,98378,1,2,0:0:0:0:
383,142,98450,1,10,0:2:0:0:
367,221,98593,1,2,0:0:0:0:
419,57,98735,5,2,1:2:0:0:
443,286,98878,1,2,0:0:0:0:
228,193,99021,1,10,0:2:0:0:
228,193,99093,1,2,0:0:0:0:
228,193,99164,1,2,0:0:0:0:
451,200,99307,5,2,1:2:0:0:
186,292,99450,1,2,0:0:0:0:
326,292,99593,1,10,0:0:0:0:
61,200,99735,1,2,0:0:0:0:
133,357,99878,6,0,P|72:370|95:291,1,157.5,2|0,1:2|0:0,0:0:0:0:
186,292,100164,2,2,P|170:270|161:231,2,52.5,10|2|2,0:0|0:0|0:0,0:0:0:0:
137,163,100450,5,2,1:2:0:0:
107,13,100593,1,2,0:0:0:0:
375,163,100735,1,10,0:2:0:0:
405,13,100878,1,2,0:0:0:0:
257,36,101021,6,0,P|196:22|219:101,1,157.5,2|0,1:2|0:0,0:0:0:0:
275,117,101307,5,10,0:2:0:0:
275,117,101450,1,2,0:0:0:0:
392,29,101593,2,0,P|368:91|367:152,1,105,2|2,1:2|0:0,0:0:0:0:
423,225,101878,5,10,0:0:0:0:
89,225,102021,1,0,0:0:0:0:
257,36,102164,5,2,1:2:0:0:
58,106,102307,1,2,0:0:0:0:
282,116,102450,5,14,0:2:0:0:
147,229,102593,1,2,0:0:0:0:
350,166,102735,5,2,1:2:0:0:
293,287,102878,1,2,0:0:0:0:
430,183,103021,5,10,0:2:0:0:
419,277,103164,1,2,0:0:0:0:
504,230,103307,6,0,P|503:293|516:354,1,105,2|0,1:2|0:0,0:0:0:0:
329,356,103593,2,0,P|330:262|299:174,1,157.5,10|0,0:2|0:0,0:0:0:0:
260,9,103878,5,2,1:2:0:0:
353,137,104021,1,2,0:0:0:0:
222,83,104164,2,0,B|325:105|281:41|399:63,1,157.5,10|0,0:0|0:0,0:0:0:0:
438,180,104450,5,10,0:0:0:0:
128,153,104593,1,2,1:2:0:0:
370,265,104735,1,0,1:0:0:0:
177,221,104878,6,0,P|168:250|162:285,1,52.5,10|0,0:0|0:0,0:0:0:0:
241,376,105021,2,0,P|220:353|193:331,1,52.5,2|0,1:2|0:0,0:0:0:0:
74,353,105164,2,0,P|103:346|136:333,1,52.5,2|0,1:2|0:0,0:0:0:0:
6,144,105307,5,10,0:0:0:0:
36,220,105450,1,2,1:2:0:0:
120,81,105593,5,0,1:0:0:0:
152,275,105735,2,0,P|157:249|165:224,1,52.5,10|0,0:0|0:0,0:0:0:0:
261,37,105878,5,2,1:2:0:0:
249,280,106021,1,2,1:2:0:0:
453,50,106164,6,0,P|382:39|320:9,1,105,10|2,0:0|1:2,0:0:0:0:
323,324,106450,2,0,P|375:329|424:347,1,105,2|2,1:2|1:2,0:0:0:0:
319,100,106735,5,2,0:3:0:0:
132,347,107878,5,2,0:1:0:0:
56,370,108307,1,2,0:1:0:0:
0,314,108735,1,2,0:1:0:0:
72,289,108878,5,2,0:3:0:0:
72,289,108950,1,2,0:3:0:0:
72,289,109021,1,2,0:1:0:0:
31,125,109307,1,2,0:1:0:0:
408,286,110164,5,2,0:1:0:0:
408,286,110450,1,2,0:1:0:0:
291,254,110593,5,2,0:1:0:0:
291,254,110878,1,0,0:0:0:0:
218,350,111021,5,2,0:1:0:0:
218,350,111093,1,2,0:3:0:0:
218,350,111164,1,2,0:3:0:0:
218,350,111235,1,2,0:3:0:0:
218,350,111307,1,2,0:1:0:0:
262,169,111593,1,2,0:1:0:0:
335,178,111735,6,0,L|391:185,1,52.5,2|2,0:1|0:3,0:0:0:0:
185,159,112021,1,2,0:1:0:0:
185,159,112164,2,0,L|132:152,1,52.5,2|2,0:1|0:3,0:0:0:0:
28,29,112450,6,0,P|17:88|3:135,1,105,2|2,0:1|0:3,0:0:0:0:
54,192,112878,2,0,P|65:251|79:298,1,105,2|2,0:1|0:1,0:0:0:0:
139,356,113307,6,0,L|142:323,4,26.25,2|2|2|2|2,0:0|0:0|0:0|0:0|0:0,0:0:0:0:
218,350,113593,6,0,P|268:358|333:338,1,105,2|2,0:0|0:3,0:0:0:0:
395,269,114021,2,0,P|446:261|497:273,1,105,2|0,0:1|0:0,0:0:0:0:
511,347,114450,1,2,0:1:0:0:
494,260,114593,6,0,L|508:177,1,78.7500030040742,0|2,1:0|0:3,0:0:0:0:
256,186,114878,2,0,L|242:103,1,78.7500030040742,0|2,1:0|0:3,0:0:0:0:
455,90,115164,1,0,1:0:0:0:
455,90,115235,1,2,3:0:0:0:
455,90,115307,2,0,L|469:7,1,78.7500030040742,2|0,0:3|1:0,0:0:0:0:
326,232,115593,5,2,1:0:0:0:
326,232,115735,1,0,1:0:0:0:
256,186,115878,6,0,L|173:197,1,62.9999980773926,0|0,1:0|0:0,0:0:0:0:
220,91,116164,1,0,1:0:0:0:
220,91,116307,2,0,L|137:80,1,62.9999980773926,0|0,0:0|1:0,0:0:0:0:
112,238,116593,2,0,P|116:191|123:161,1,62.9999980773926,0|0,0:0|1:0,0:0:0:0:
63,32,116878,2,0,P|68:63|70:94,1,62.9999980773926,0|0,1:0|1:0,0:0:0:0:
14,234,117164,5,0,0:0:0:0:
1,158,117307,1,2,1:0:0:0:
14,234,117450,1,0,0:0:0:0:
76,114,117593,6,0,L|148:125,1,62.9999980773926,0|0,1:0|0:0,0:0:0:0:
193,194,117878,1,0,1:0:0:0:
256,21,118021,1,2,0:0:0:0:
315,142,118164,6,0,P|307:109|306:65,1,62.9999980773926,0|0,1:0|0:0,0:0:0:0:
234,269,118450,2,0,P|231:300|224:330,1,62.9999980773926,0|0,1:0|0:0,0:0:0:0:
405,281,118735,2,0,P|365:234|283:234,1,125.999996154785,0|0,1:0|1:0,0:0:0:0:
225,100,119164,5,0,1:0:0:0:
225,100,119307,2,0,P|193:118|155:119,1,62.9999980773926,0|0,1:0|0:0,0:0:0:0:
413,81,119593,2,0,P|445:63|483:62,1,62.9999980773926,2|0,1:0|0:0,0:0:0:0:
330,16,119878,2,0,L|311:167,1,125.999996154785,0|0,1:0|1:0,0:0:0:0:
314,141,120307,1,8,0:0:0:0:
512,177,120450,6,0,P|445:177|380:158,1,125.999996154785,2|0,1:0|1:0,0:0:0:0:
304,266,120878,1,0,0:0:0:0:
304,266,121021,2,0,P|237:266|172:285,1,125.999996154785,0|0,1:0|1:0,0:0:0:0:
20,211,121450,1,0,1:0:0:0:
111,340,121593,6,0,L|94:193,1,125.999996154785,0|0,1:2|1:0,0:0:0:0:
199,143,122021,1,0,0:0:0:0:
199,143,122164,2,0,P|185:179|174:219,1,62.9999980773926,0|0,1:0|1:0,0:0:0:0:
9,350,122450,2,0,P|23:314|34:274,1,62.9999980773926,0|0,1:0|1:0,0:0:0:0:
55,84,122735,6,0,P|100:86|125:124,1,94.499997116089,4|0,1:0|0:0,0:0:0:0:
221,49,123021,6,0,P|232:101|198:142,1,110.249996635437,0|0,1:0|0:0,0:0:0:0:
312,210,123307,6,0,P|259:240|202:217,1,126,2|0,1:3|0:0,0:0:0:0:
188,350,123593,6,0,P|130:313|131:245,1,141.749995674133,4|0,1:0|0:0,0:0:0:0:
82,188,123878,5,4,1:0:0:0:
9,350,124021,1,8,0:0:0:0:
149,279,124164,2,0,B|92:286|92:286|51:261|51:261|-22:272,1,157.5,4|0,1:0|0:0,0:0:0:0:
0,268,124450,5,12,1:0:0:0:
237,259,124593,1,8,0:0:0:0:
109,110,124735,1,12,1:0:0:0:
486,20,125021,6,0,P|400:22|383:142,1,210,6|0,1:0|1:0,0:0:0:0:
445,161,125450,1,8,0:0:0:0:
445,161,125735,5,0,1:0:0:0:
380,206,125878,2,0,B|268:172|305:272|174:223,1,210,6|0,1:0|0:0,0:0:0:0:
167,50,126307,2,0,P|238:48|204:167,1,210,0|0,1:0|1:0,0:0:0:0:
116,284,126735,2,0,P|111:243|100:202,1,84,12|0,0:0|0:0,0:0:0:0:
338,280,127021,2,0,P|320:329|313:381,1,84,0|0,1:0|0:0,0:0:0:0:
159,131,127307,6,0,L|287:111,1,105,6|0,1:0|0:0,0:0:0:0:
78,114,127593,1,0,1:0:0:0:
349,131,127735,1,10,0:0:0:0:
349,131,128021,5,0,1:0:0:0:
279,102,128164,2,0,B|238:101|207:92|207:92|147:124|147:124|113:113|60:115,1,210,6|0,1:0|0:0,0:0:0:0:
3,126,128593,1,0,1:0:0:0:
68,271,128735,2,0,P|62:230|53:189,1,84,0|0,0:0|1:0,0:0:0:0:
268,184,129021,6,0,P|188:201|186:312,1,210,12|2,0:0|0:0,0:0:0:0:
136,375,129450,1,0,0:0:0:0:
255,266,129593,6,0,B|383:250|311:319|470:300,1,210,6|0,1:0|1:0,0:0:0:0:
496,235,130021,1,8,0:0:0:0:
496,235,130307,5,0,1:0:0:0:
310,96,130450,2,0,B|368:148|366:268|366:268|390:186|458:159,1,315,6|4,1:0|0:3,0:0:0:0:
508,92,131021,2,0,P|434:82|398:63,1,105,0|0,0:0|1:0,0:0:0:0:
238,27,131307,6,0,B|208:69|208:69|227:153,1,105,12|0,0:0|0:0,0:0:0:0:
61,302,131593,2,0,B|91:260|91:260|72:176,1,105,0|0,1:0|0:0,0:0:0:0:
70,111,131878,6,0,B|137:132|137:132|162:192|162:192|246:221,1,210,6|0,1:0|1:0,0:0:0:0:
312,173,132307,2,0,L|320:277,1,84,10|2,0:0|0:0,0:0:0:0:
396,208,132593,1,0,1:0:0:0:
191,322,132735,6,0,P|56:341|78:207,1,315,6|8,1:0|0:0,0:0:0:0:
118,281,133307,1,0,0:0:0:0:
0,163,133450,1,0,1:0:0:0:
212,160,133593,2,0,P|136:148|72:74,1,157.5,12|0,0:0|0:0,0:0:0:0:
80,93,133878,2,0,P|99:157|85:232,1,105,2|0,1:0|1:0,0:0:0:0:
231,35,134164,5,0,1:0:0:0:
0,163,134307,1,0,1:0:0:0:
322,384,134450,1,0,1:0:0:0:
137,28,134593,5,10,1:0:0:0:
217,274,134878,5,10,1:0:0:0:
403,136,135164,6,0,P|395:175|392:227,1,78.7500030040742,10|0,1:0|0:0,0:0:0:0:
480,105,135450,1,2,0:0:0:0:
306,161,135593,5,8,0:0:0:0:
476,195,135735,1,0,1:0:0:0:
311,247,135878,5,2,1:2:0:0:
312,252,135950,1,0,1:2:0:0:
313,257,136021,1,2,1:2:0:0:
314,263,136093,1,0,1:2:0:0:
315,269,136164,1,2,1:2:0:0:
315,274,136235,1,0,1:2:0:0:
316,280,136307,1,2,1:2:0:0:
316,285,136378,1,0,1:2:0:0:
393,314,136450,6,0,B|351:311|325:303|325:303|277:332|277:332|246:324|187:321,1,188.999994232178,4|0,1:0|0:0,0:0:0:0:
149,372,136735,2,0,B|127:324|127:324|149:264,1,105,8|0,0:0|0:0,0:0:0:0:
116,40,137021,6,0,P|191:57|198:176,1,188.999994232178,0|0,1:0|0:0,0:0:0:0:
224,172,137307,1,8,0:0:0:0:
0,210,137450,1,0,0:0:0:0:
78,155,137593,6,0,L|68:285,1,105,0|0,1:0|0:0,0:0:0:0:
262,263,137878,2,0,P|183:262|134:241,1,105,8|0,0:0|0:0,0:0:0:0:
346,313,138164,2,0,L|336:183,1,105,0|0,1:0|0:0,0:0:0:0:
512,105,138450,2,0,P|450:97|349:139,1,157.5,8|0,0:0|0:0,0:0:0:0:
362,128,138735,6,0,P|380:72|383:22,1,105,0|0,1:0|0:0,0:0:0:0:
443,283,139021,2,0,P|425:339|422:389,1,105,8|0,0:0|0:0,0:0:0:0:
485,204,139307,2,0,B|434:192|434:192|372:223,1,105,0|0,1:0|0:0,0:0:0:0:
289,57,139593,2,0,B|238:69|238:69|176:38,1,105,8|0,0:0|0:0,0:0:0:0:
262,199,139878,5,0,1:0:0:0:
11,172,140021,1,0,0:0:0:0:
113,10,140164,1,8,0:0:0:0:
194,290,140307,1,0,0:0:0:0:
121,103,140450,6,0,B|98:240|98:240|165:197,1,210,0|8,1:0|0:0,0:0:0:0:
199,271,140878,1,0,0:0:0:0:
380,114,141021,6,0,B|337:69|269:84|269:84|250:122|203:123,1,188.999994232178,6|0,1:2|0:0,0:0:0:0:
113,10,141307,2,0,P|184:24|210:63,1,105,10|2,0:0|0:0,0:0:0:0:
303,323,141593,2,0,B|276:226|342:267|312:148,1,157.5,0|0,1:0|0:0,0:0:0:0:
239,200,141878,1,8,0:0:0:0:
504,347,142021,1,0,0:0:0:0:
381,283,142164,6,0,P|435:278|491:266,1,105,0|0,1:0|0:0,0:0:0:0:
467,77,142450,2,0,L|456:200,1,105,8|0,0:0|0:0,0:0:0:0:
269,362,142735,2,0,L|278:257,1,105,0|0,1:0|0:0,0:0:0:0:
290,56,143021,2,0,P|235:60|180:73,1,105,8|0,0:0|0:0,0:0:0:0:
87,207,143307,6,0,P|178:227|233:134,1,210,0|8,1:0|0:0,0:0:0:0:
100,31,143735,1,0,0:0:0:0:
109,317,143878,1,0,1:0:0:0:
0,172,144021,1,0,1:0:0:0:
148,149,144164,5,8,0:0:0:0:
316,290,144307,2,0,B|271:227|183:244|183:244|210:317,1,188.999994232178,4|0,1:0|0:0,0:0:0:0:
196,280,144593,2,0,L|202:209,1,62.9999980773926,0|0,1:0|0:0,0:0:0:0:
229,362,144735,1,8,0:0:0:0:
250,147,144878,1,4,1:0:0:0:
386,348,145021,6,0,P|408:274|393:222,1,105,0|0,0:0|1:0,0:0:0:0:
469,20,145307,1,0,1:0:0:0:
453,51,145378,1,0,1:0:0:0:
446,85,145450,1,0,1:0:0:0:
451,119,145521,1,0,1:0:0:0:
475,195,145593,6,0,P|441:129|308:139,1,188.999994232178,4|0,1:0|0:0,0:0:0:0:
264,156,145878,2,0,B|239:76|287:105|255:17,1,125.999996154785,8|0,0:0|0:0,0:0:0:0:
11,163,146164,6,0,B|40:206|40:206|159:183,1,157.5,0|0,1:0|0:0,0:0:0:0:
158,168,146450,1,8,0:0:0:0:
131,384,146593,1,0,0:0:0:0:
230,289,146735,6,0,L|101:279,1,105,0|0,1:0|0:0,0:0:0:0:
79,81,147021,2,0,L|183:89,1,105,8|0,0:0|0:0,0:0:0:0:
289,228,147307,1,0,1:0:0:0:
247,27,147450,1,0,0:0:0:0:
374,123,147593,6,0,B|333:93|330:40|330:40|316:91|250:112,1,188.999994232178,8|0,0:0|0:0,0:0:0:0:
512,31,147878,2,0,P|451:27|402:57,1,105,0|0,1:0|0:0,0:0:0:0:
151,0,148164,2,0,P|212:3|257:39,1,105,8|0,0:0|0:0,0:0:0:0:
291,276,148450,2,0,P|302:207|316:156,1,105,0|0,1:0|0:0,0:0:0:0:
388,245,148735,1,8,0:0:0:0:
209,200,148878,1,0,0:0:0:0:
95,59,149021,6,0,P|106:128|120:179,1,105,0|0,1:0|0:0,0:0:0:0:
203,98,149307,1,8,0:0:0:0:
0,143,149450,1,0,0:0:0:0:
200,316,149593,6,0,P|165:266|100:253,1,105,0|0,1:0|0:0,0:0:0:0:
19,384,149878,2,0,P|36:320|37:197,1,157.5,8|0,0:0|0:0,0:0:0:0:
38,216,150164,5,4,1:2:0:0:
208,177,150307,2,0,L|81:163,1,105,2|8,0:0|0:0,0:0:0:0:
477,127,150593,5,2,0:0:0:0:
307,88,150735,2,0,L|434:74,1,105
241,37,151021,1,8,0:0:0:0:
397,167,151164,6,0,P|389:199|380:252,1,52.5,4|0,1:0|0:0,0:0:0:0:
327,331,151307,2,0,P|318:258|290:196,1,125.999996154785,0|0,0:0|1:0,0:0:0:0:
46,12,151593,6,0,P|54:44|63:97,1,52.5,8|0,0:0|0:0,0:0:0:0:
116,176,151735,2,0,P|125:103|153:41,1,125.999996154785,4|0,1:0|0:0,0:0:0:0:
231,264,152021,6,0,L|153:252,1,62.9999980773926,0|0,1:0|0:0,0:0:0:0:
14,322,152164,2,0,B|133:297|60:376|230:333,1,188.999994232178,8|0,0:0|0:0,0:0:0:0:
212,351,152450,5,2,1:2:0:0:
204,154,152593,1,2,0:0:0:0:
387,374,152735,1,10,0:0:0:0:
423,179,152878,1,2,0:0:0:0:
154,259,153021,5,0,0:0:0:0:
445,283,153164,1,2,0:0:0:0:
305,97,153307,1,10,0:0:0:0:
295,384,153450,1,2,0:0:0:0:
320,186,153593,6,0,P|388:190|441:200,1,105,4|0,1:0|0:0,0:0:0:0:
167,79,153878,2,0,P|98:91|42:-28,1,188.999994232178,12|0,0:0|0:0,0:0:0:0:
22,18,154164,5,4,1:0:0:0:
241,38,154307,1,0,0:0:0:0:
98,228,154450,2,0,P|140:178|241:191,1,157.5,0|0,1:0|0:0,0:0:0:0:
292,360,154735,5,6,1:0:0:0:
292,360,155593,5,0,1:0:0:0:
511,159,155735,1,0,1:0:0:0:
511,159,156164,6,0,B|398:124|433:219|299:163,1,210,6|8,1:0|0:0,0:0:0:0:
363,0,156593,2,0,B|387:47|387:47|365:108,1,105,0|0,1:0|0:0,0:0:0:0:
471,283,156878,2,0,L|467:230,1,52.5,2|0,0:3|0:0,0:0:0:0:
295,48,157021,5,6,1:0:0:0:
295,48,157878,5,0,1:0:0:0:
181,252,158021,1,0,1:0:0:0:
181,252,158450,6,0,B|73:232|73:232|28:278,1,157.5,6|0,1:0|0:0,0:0:0:0:
29,281,158735,1,8,0:0:0:0:
139,144,158878,1,0,1:0:0:0:
259,317,159021,2,0,P|261:267|274:197,1,105,2|0,0:3|0:0,0:0:0:0:
8,86,159307,5,6,1:0:0:0:
8,86,160164,5,0,1:0:0:0:
326,158,160307,1,0,1:0:0:0:
326,158,160735,6,0,P|346:109|238:125,1,210,6|8,1:0|0:0,0:0:0:0:
132,45,161164,2,0,P|158:111|157:175,1,105,0|2,1:0|0:3,0:0:0:0:
153,158,161378,1,0,0:0:0:0:
153,158,161450,1,2,0:3:0:0:
356,277,161593,5,6,1:0:0:0:
356,277,162450,5,0,1:0:0:0:
171,301,162593,2,0,L|287:286,1,105,8|0,1:0|0:0,0:0:0:0:
160,144,162878,5,0,1:0:0:0:
345,168,163021,2,0,L|229:153,1,105,6|0,1:0|0:0,0:0:0:0:
0,13,163307,5,8,0:0:0:0:
138,61,163450,1,0,1:0:0:0:
188,176,163593,1,0,1:0:0:0:
171,279,163735,1,0,1:0:0:0:
94,338,163878,5,6,1:0:0:0:
94,338,164164,2,0,P|92:278|66:204,1,115.50000352478,10|0,0:0|0:0,0:0:0:0:
287,125,164450,2,0,P|271:180|269:237,1,115.50000352478,2|0,0:0|0:0,0:0:0:0:
318,305,164735,1,10,0:0:0:0:
85,150,164878,6,0,L|207:135,1,115.50000352478,0|2,1:0|0:0,0:0:0:0:
233,7,165164,1,0,1:0:0:0:
466,213,165307,2,0,L|344:198,1,115.50000352478,10|0,0:0|0:0,0:0:0:0:
329,16,165593,2,0,B|296:64|296:64|312:140,1,115.50000352478,2|0,0:0|0:0,0:0:0:0:
235,372,165878,2,0,B|286:329|286:329|260:189,1,173.250005287171,2|0,0:0|0:0,0:0:0:0:
207,170,166164,5,6,1:0:0:0:
207,170,166307,1,0,1:0:0:0:
136,208,166450,2,0,P|95:207|44:202,1,78.7500030040742,10|0,0:0|0:0,0:0:0:0:
282,134,166735,2,0,P|352:132|448:155,1,157.500006008148,2|10,0:0|0:0,0:0:0:0:
496,0,167164,6,0,L|517:146,1,115.50000352478,0|2,1:0|0:0,0:0:0:0:
357,220,167450,1,0,1:0:0:0:
437,150,167593,2,0,B|449:229|449:229|414:285|414:285|434:375,1,231.000007049561,10|2,0:0|0:0,0:0:0:0:
512,300,168021,1,0,1:0:0:0:
338,310,168164,6,0,P|255:303|231:178,1,188.999994232178,6|0,0:0|0:0,0:0:0:0:
37,114,168450,6,0,B|79:113|111:105|111:105|169:142|169:142|214:128|276:132,2,231.000007049561,6|8|2,1:0|0:0|1:0,0:0:0:0:
196,51,169164,1,2,1:0:0:0:
90,197,169307,1,10,0:0:0:0:
0,12,169450,2,0,P|67:21|136:19,1,115.50000352478,2|0,0:0|1:0,0:0:0:0:
292,241,169735,2,0,P|225:232|156:234,1,115.50000352478,2|8,1:0|0:0,0:0:0:0:
277,4,170021,1,2,0:0:0:0:
377,221,170164,5,0,1:0:0:0:
354,42,170307,1,2,1:0:0:0:
464,191,170450,2,0,B|493:141|493:141|468:69,1,115.50000352478,10|0,0:0|0:0,0:0:0:0:
259,253,170735,6,0,P|280:164|419:143,1,231.000007049561,6|8,1:0|0:0,0:0:0:0:
204,364,171164,2,0,P|179:297|125:256,1,115.50000352478,0|2,0:0|1:0,0:0:0:0:
353,311,171450,1,2,1:0:0:0:
90,347,171593,1,10,0:0:0:0:
417,372,171735,1,0,0:0:0:0:
259,253,171878,6,0,L|243:108,1,115.50000352478,2|2,1:0|1:0,0:0:0:0:
152,194,172164,1,10,0:0:0:0:
357,203,172307,1,0,0:0:0:0:
179,33,172450,6,0,B|282:16|230:79|360:58,1,173.250005287171,2|0,1:0|0:0,0:0:0:0:
368,51,172735,1,8,0:0:0:0:
106,74,172878,1,0,0:0:0:0:
410,125,173021,5,0,1:0:0:0:
401,370,173164,2,0,P|476:314|485:140,1,236.250009012223,6|0,0:0|0:0,0:0:0:0:
501,179,173450,2,0,L|466:189,1,26.25,0|0,1:0|0:0,0:0:0:0:
368,51,173593,6,0,P|400:171|350:283,1,220.499993270874,6|0,0:0|0:0,0:0:0:0:
369,258,173878,2,0,L|335:249,1,21,0|0,1:0|0:0,0:0:0:0:
141,253,174021,6,0,P|244:231|311:143,1,204.749990627289,6|0,0:0|0:0,0:0:0:0:
305,157,174307,2,0,L|288:137,1,15.7499995193482,0|0,1:0|0:0,0:0:0:0:
210,0,174450,6,0,P|227:86|157:171,1,188.999994232178,6|0,0:0|0:0,0:0:0:0:
171,164,174735,2,0,L|163:150,1,10.5,0|0,1:0|0:0,0:0:0:0:
70,99,174878,6,0,P|132:58|75:10,1,173.250005287171,6|0,0:0|0:0,0:0:0:0:
74,10,175164,2,0,L|66:14,1,5.25
2,48,175307,5,4,1:0:0:0:
256,192,175378,12,2,177592,0:0:0:0:
56,152,179878,5,4,1:0:0:0:
410,263,180021,1,0,0:0:0:0:
74,327,180164,1,8,0:0:0:0:
116,22,180307,5,0,0:0:0:0:
191,384,180450,1,4,1:0:0:0:
228,125,180593,1,0,1:0:0:0:
340,347,180735,5,8,0:0:0:0:
0,245,180878,1,0,1:0:0:0:
299,177,181021,6,0,B|318:115|318:115|272:39,1,125.999996154785,0|0,1:0|0:0,0:0:0:0:
391,173,181307,1,8,1:0:0:0:
100,38,181450,6,0,B|81:100|81:100|127:176,1,125.999996154785,0|0,1:0|0:0,0:0:0:0:
4,20,181735,1,2,0:0:0:0:
203,253,181878,6,0,L|211:117,1,125.999996154785,8|0,0:0|1:0,0:0:0:0:
229,112,182093,1,0,1:0:0:0:
229,112,182164,6,0,L|220:246,1,118.125004506111,6|0,1:2|0:0,0:0:0:0:
107,239,182450,6,0,B|177:237|177:237|230:285|230:285|350:278,1,220.499993270874,10|0,0:0|0:0,0:0:0:0:
324,299,182735,1,0,1:0:0:0:
362,57,182878,1,0,1:0:0:0:
415,345,183021,2,0,P|407:294|401:228,1,105,8|0,0:0|0:0,0:0:0:0:
512,147,183307,6,0,L|385:134,1,105,0|0,1:0|0:0,0:0:0:0:
165,33,183593,2,0,L|269:22,1,105,8|0,0:0|0:0,0:0:0:0:
281,250,183878,2,0,P|291:182|319:130,1,105,0|0,1:0|1:0,0:0:0:0:
32,108,184164,2,0,P|22:40|-6:-12,1,105,8|0,0:0|0:0,0:0:0:0:
220,119,184450,6,0,P|149:127|108:246,1,188.999994232178,0|0,1:0|0:0,0:0:0:0:
88,241,184735,1,8,0:0:0:0:
338,315,184878,1,0,0:0:0:0:
0,322,185021,1,0,1:0:0:0:
191,203,185164,1,0,0:0:0:0:
238,384,185307,5,8,0:0:0:0:
414,277,185450,2,0,B|298:258|349:316|209:286,1,188.999994232178,4|0,1:0|0:0,0:0:0:0:
206,296,185735,1,0,1:0:0:0:
512,255,185878,1,8,0:0:0:0:
220,119,186021,1,4,1:0:0:0:
451,0,186164,5,0,0:0:0:0:
277,54,186307,1,0,1:0:0:0:
512,106,186450,1,0,1:0:0:0:
283,214,186593,5,0,1:0:0:0:
283,214,186664,1,0,1:0:0:0:
283,214,186735,2,0,P|365:212|393:97,1,188.999994232178,4|0,1:0|0:0,0:0:0:0:
498,69,187021,2,0,P|487:147|505:204,1,125.999996154785,8|0,0:0|0:0,0:0:0:0:
258,301,187307,5,0,1:0:0:0:
229,92,187450,1,0,0:0:0:0:
31,204,187593,2,0,L|176:221,1,125.999996154785,8|0,0:0|0:0,0:0:0:0:
295,32,187878,6,0,B|322:79|322:79|300:143,1,105,0|0,1:0|0:0,0:0:0:0:
268,384,188164,2,0,B|241:337|241:337|263:273,1,105,8|0,0:0|0:0,0:0:0:0:
386,148,188450,1,0,1:0:0:0:
143,314,188593,1,0,1:0:0:0:
493,347,188735,2,0,L|325:331,1,157.5,8|0,0:0|0:0,0:0:0:0:
336,332,189021,6,0,L|351:201,1,105,0|0,1:0|0:0,0:0:0:0:
140,34,189307,2,0,L|154:165,1,105,8|0,0:0|0:0,0:0:0:0:
410,124,189593,2,0,P|342:136|288:161,1,105,0|0,1:0|1:0,0:0:0:0:
39,250,189878,2,0,P|107:238|161:213,1,105,8|0,0:0|0:0,0:0:0:0:
226,45,190164,5,0,1:0:0:0:
195,284,190307,1,0,0:0:0:0:
38,58,190450,1,8,0:0:0:0:
345,5,190593,1,0,0:0:0:0:
90,151,190735,5,0,1:0:0:0:
275,194,190878,1,0,1:0:0:0:
185,142,191021,2,0,B|157:229|215:205|171:311,1,157.5,8|0,0:0|0:0,0:0:0:0:
14,265,191307,6,0,P|64:274|108:247,1,105,4|2,1:2|0:0,0:0:0:0:
385,295,191593,2,0,P|369:214|238:196,1,210,8|2,0:0|1:2,0:0:0:0:
218,349,192021,1,2,1:2:0:0:
185,142,192164,1,8,0:0:0:0:
406,20,192307,6,0,P|337:24|305:69,1,105,4|0,1:0|0:0,0:0:0:0:
298,274,192593,1,0,1:0:0:0:
92,149,192735,1,8,0:0:0:0:
452,145,192878,6,0,B|415:140|389:133|389:133|338:160|338:160|302:146|251:143,1,188.999994232178,4|0,1:0|0:0,0:0:0:0:
200,163,193164,2,0,P|198:133|186:89,1,62.9999980773926,0|0,1:0|0:0,0:0:0:0:
17,112,193307,2,0,P|92:106|69:231,1,220.499993270874,12|0,0:0|0:0,0:0:0:0:
7,262,193593,5,2,1:2:0:0:
297,232,193735,1,2,0:0:0:0:
145,0,193878,1,14,0:0:0:0:
111,351,194021,1,2,0:0:0:0:
252,142,194164,5,2,1:0:0:0:
5,95,194307,1,2,1:0:0:0:
242,326,194450,1,14,0:0:0:0:
2,371,194593,1,2,0:0:0:0:
189,65,194735,5,4,1:0:0:0:
303,384,194878,1,0,0:0:0:0:
476,113,195021,1,12,0:0:0:0:
145,238,195164,1,0,0:0:0:0:
384,379,195307,6,0,L|375:298,1,73.4999977569581,4|0,1:0|0:0,0:0:0:0:
208,103,195450,5,0,1:0:0:0:
268,82,195521,1,0,1:0:0:0:
327,105,195592,1,0,1:0:0:0:
358,160,195664,1,0,1:0:0:0:
394,209,195735,1,0,1:0:0:0:
454,225,195807,1,0,1:0:0:0:
512,199,195878,6,0,P|427:185|360:302,1,220.499993270874,4|0,1:0|0:0,0:0:0:0:
404,356,196164,1,12,0:0:0:0:
110,305,196307,1,0,0:0:0:0:
268,374,196450,6,0,P|263:305|280:235,1,125.999996154785,4|0,1:0|1:0,0:0:0:0:
6,192,196735,2,0,P|10:123|-6:53,1,125.999996154785,12|0,0:0|0:0,0:0:0:0:
241,12,197021,6,0,P|185:75|301:73,1,251.999992309571,4|12,1:0|0:0,0:0:0:0:
76,7,197450,1,0,0:0:0:0:
396,63,197593,1,4,1:0:0:0:
101,192,197735,1,2,1:0:0:0:
443,208,197878,6,0,P|380:185|304:180,1,125.999996154785,14|0,0:0|0:0,0:0:0:0:
147,384,198164,5,6,1:0:0:0:
304,367,198307,1,2,0:0:0:0:
104,299,198450,5,14,0:0:0:0:
324,285,198593,1,0,0:0:0:0:
63,204,198735,5,6,1:0:0:0:
367,211,198878,1,2,1:0:0:0:
33,104,199021,5,14,0:0:0:0:
435,151,199164,1,0,0:0:0:0:
21,0,199307,5,6,1:0:0:0:
512,92,199450,1,2,0:0:0:0:
293,0,199593,5,14,0:0:0:0:
222,230,199735,2,0,L|215:151,1,62.9999980773926,2|0,0:0|0:0,0:0:0:0:
339,91,199878,2,0,B|303:91|273:100|273:100|223:64|223:64|194:72|143:75,1,188.999994232178,4|0,1:0|0:0,0:0:0:0:
62,10,200164,2,0,P|77:80|75:138,1,125.999996154785,12|0,0:0|0:0,0:0:0:0:
220,315,200450,5,6,1:0:0:0:
0,238,200593,1,2,0:0:0:0:
216,167,200735,1,14,0:0:0:0:
146,384,200878,1,2,0:0:0:0:
156,98,201021,5,6,1:0:0:0:
345,319,201164,1,2,1:0:0:0:
14,335,201307,1,14,0:0:0:0:
281,233,201450,1,2,0:0:0:0:
47,112,201593,5,6,1:0:0:0:
366,161,201735,1,2,0:0:0:0:
14,335,201878,5,14,0:0:0:0:
409,277,202021,1,2,0:0:0:0:
76,20,202164,5,6,1:0:0:0:
146,384,202307,1,2,1:0:0:0:
374,54,202450,5,14,0:0:0:0:
321,324,202593,1,2,0:0:0:0:
501,296,202735,6,0,P|490:189|330:189,1,251.999992309571,6|12,1:0|0:0,0:0:0:0:
146,237,203164,2,0,L|136:143,1,62.9999980773926
275,197,203307,5,6,1:0:0:0:
11,234,203450,1,2,1:0:0:0:
131,49,203593,1,14,0:0:0:0:
161,378,203735,1,2,0:0:0:0:
15,132,203878,6,0,B|121:99|73:175|214:120,1,188.999994232178,6|0,1:0|0:0,0:0:0:0:
275,66,204164,2,0,B|295:127|295:127|257:197,1,125.999996154785,14|0,0:0|0:0,0:0:0:0:
176,7,204450,1,4,1:0:0:0:
221,276,204593,1,0,1:0:0:0:
390,23,204735,5,8,1:0:0:0:
393,43,204806,1,0,1:0:0:0:
396,64,204877,1,0,1:0:0:0:
399,85,204949,1,0,1:0:0:0:
435,157,205021,6,0,P|347:178|270:87,1,188.999994232178,2|0,1:0|0:0,0:0:0:0:
270,75,205307,1,12,0:0:0:0:
238,365,205450,1,0,0:0:0:0:
0,143,205593,6,0,P|88:122|165:213,1,188.999994232178,0|0,1:0|0:0,0:0:0:0:
163,211,205879,1,8,0:0:0:0:
310,0,206022,1,0,0:0:0:0:
342,299,206164,6,0,P|258:275|208:277,1,125.999996154785,4|0,1:0|0:0,0:0:0:0:
78,27,206450,2,0,P|162:51|212:49,1,125.999996154785,12|0,0:0|0:0,0:0:0:0:
137,384,206735,5,4,1:0:0:0:
68,114,206878,1,0,1:0:0:0:
306,319,207021,5,12,0:0:0:0:
332,152,207174,1,0,0:0:0:0:
460,322,207328,6,0,L|493:259,1,62.9999980773926,2|0,0:0|0:0,0:0:0:0:
396,260,208013,2,0,L|403:193,1,62.9999980773926,2|0,0:0|0:0,0:0:0:0:
512,156,208766,1,2,0:0:0:0:
418,327,213578,6,0,B|320:307|370:367|240:333,1,157.500006008148
17,264,214163,6,0,P|217:126|116:354,1,630.000024032594,4|4,1:0|1:0,0:0:0:0:
64,61,216448,5,6,1:2:0:0:
142,54,216591,1,2,0:0:0:0:
194,112,216734,1,10,0:2:0:0:
201,191,216877,1,2,0:0:0:0:
246,255,217020,1,2,0:0:0:0:
324,251,217163,1,2,1:2:0:0:
487,62,217305,5,10,0:2:0:0:
417,30,217448,1,2,0:0:0:0:
343,46,217591,1,2,1:2:0:0:
292,102,217734,1,2,1:2:0:0:
284,178,217877,1,10,0:2:0:0:
405,347,218020,5,2,0:3:0:0:
405,347,218091,1,2,0:3:0:0:
405,347,218163,1,2,0:3:0:0:
378,175,218305,1,2,1:2:0:0:
244,285,218448,1,10,0:2:0:0:
342,269,218591,1,2,0:0:0:0:
32,42,218734,5,2,1:2:0:0:
207,0,218877,1,2,1:2:0:0:
49,164,219020,5,10,0:2:0:0:
165,194,219163,1,2,0:0:0:0:
22,284,219305,5,2,0:0:0:0:
85,332,219448,1,2,1:2:0:0:
127,91,219591,5,10,0:2:0:0:
329,156,219734,1,2,0:3:0:0:
329,156,219805,1,2,0:3:0:0:
329,156,219877,1,2,1:2:0:0:
155,278,220020,1,2,1:2:0:0:
212,120,220163,5,10,0:2:0:0:
235,197,220305,1,2,0:0:0:0:
299,77,220448,5,2,0:0:0:0:
315,238,220591,1,2,1:2:0:0:
403,46,220734,5,14,0:2:0:0:
385,287,220877,1,2,0:0:0:0:
476,151,221020,6,0,P|389:130|332:224,1,210,6|10,1:2|0:2,0:0:0:0:
265,336,221448,2,0,P|329:348|379:382,1,105,2|2,0:0|0:0,0:0:0:0:
464,251,221734,1,2,1:2:0:0:
257,161,221877,2,0,P|210:185|159:192,1,105,8|2,0:0|0:0,0:0:0:0:
172,355,222163,5,2,1:2:0:0:
138,85,222305,1,2,1:2:0:0:
79,317,222448,1,10,0:2:0:0:
9,185,222591,5,2,0:3:0:0:
9,185,222663,1,2,0:3:0:0:
9,185,222734,1,2,0:3:0:0:
205,273,222877,1,2,1:2:0:0:
55,68,223020,1,10,0:2:0:0:
202,42,223163,1,2,0:0:0:0:
119,247,223305,6,0,B|94:171|94:171|157:92,1,157.5,2|0,1:2|0:0,0:0:0:0:
214,65,223591,2,0,L|225:144,1,52.5,12|0,0:0|0:0,0:0:0:0:
46,310,223734,2,0,L|38:258,1,52.5,6|0,0:2|0:0,0:0:0:0:
410,192,223877,6,0,B|435:116|435:116|372:37,1,157.5,2|0,0:0|0:0,0:0:0:0:
315,10,224163,2,0,L|299:191,1,157.5,12|0,0:0|0:0,0:0:0:0:
343,238,224448,5,6,1:2:0:0:
169,146,224591,1,0,0:2:0:0:
410,192,224734,5,14,0:2:0:0:
102,192,224877,1,2,1:2:0:0:
477,146,225020,5,6,1:2:0:0:
35,238,225163,1,2,0:0:0:0:
254,159,225305,5,2,1:2:0:0:
255,176,225376,1,0,1:0:0:0:
257,193,225447,1,2,1:2:0:0:
259,211,225519,1,0,1:0:0:0:
219,297,225591,6,0,P|258:294|297:300,1,78.7500030040742,6|0,0:0|0:0,0:0:0:0:
481,62,225877,2,0,B|360:28|394:110|251:52,1,210,14|0,0:0|1:0,0:0:0:0:
100,8,226305,5,2,0:0:0:0:
100,8,226377,1,2,0:0:0:0:
100,8,226448,1,10,0:2:0:0:
125,154,226591,1,2,0:0:0:0:
21,85,226734,5,2,1:2:0:0:
254,159,226877,1,2,0:0:0:0:
66,273,227020,1,10,0:2:0:0:
66,273,227091,1,2,0:0:0:0:
66,273,227163,1,2,0:0:0:0:
185,95,227305,5,2,1:2:0:0:
123,362,227448,1,2,0:0:0:0:
327,95,227591,1,10,0:0:0:0:
389,362,227734,1,2,0:0:0:0:
490,148,227877,6,0,P|448:106|451:197,1,188.999994232178,2|0,1:2|0:0,0:0:0:0:
411,269,228163,2,2,P|442:291|454:338,2,62.9999980773926,10|2|2,0:0|0:0|0:0,0:0:0:0:
318,327,228448,5,2,1:2:0:0:
414,85,228591,1,2,0:0:0:0:
194,327,228734,1,10,0:2:0:0:
98,85,228877,1,2,0:0:0:0:
43,231,229020,6,0,P|85:189|82:280,1,188.999994232178,2|0,1:2|0:0,0:0:0:0:
40,313,229305,1,10,0:2:0:0:
40,313,229448,1,2,0:0:0:0:
169,133,229591,5,2,1:2:0:0:
119,375,229734,1,2,0:0:0:0:
226,195,229877,2,0,P|236:285|296:380,1,188.999994232178,10|0,0:0|0:0,0:0:0:0:
370,364,230163,5,2,1:2:0:0:
40,313,230305,1,2,0:0:0:0:
343,217,230448,5,14,0:2:0:0:
102,218,230591,1,2,0:0:0:0:
303,91,230734,5,2,1:2:0:0:
148,121,230877,1,2,0:0:0:0:
225,3,231020,5,10,0:2:0:0:
148,36,231163,1,2,0:0:0:0:
214,260,231305,6,0,P|218:184|247:128,1,125.999996154785,2|0,1:2|0:0,0:0:0:0:
12,11,231591,2,0,P|66:96|60:221,1,188.999994232178,10|0,0:2|0:0,0:0:0:0:
58,201,231877,5,2,1:2:0:0:
409,176,232020,1,2,0:0:0:0:
152,173,232163,2,0,B|253:151|207:227|338:196,1,188.999994232178,10|0,0:0|0:0,0:0:0:0:
237,44,232448,5,10,0:0:0:0:
187,371,232591,2,0,B|157:315|157:315|185:237,1,125.999996154785,2|0,1:2|1:0,0:0:0:0:
289,117,232877,5,10,0:0:0:0:
71,301,233020,1,2,1:2:0:0:
283,370,233163,1,2,1:2:0:0:
220,37,233305,5,10,0:0:0:0:
257,290,233448,1,2,1:2:0:0:
380,38,233591,5,0,1:0:0:0:
133,61,233734,1,10,0:0:0:0:
452,149,233877,5,2,1:2:0:0:
60,140,234020,1,2,1:2:0:0:
452,235,234163,5,10,0:0:0:0:
60,244,234306,1,2,1:2:0:0:
380,346,234448,5,2,1:2:0:0:
133,323,234591,1,2,1:2:0:0:
95,35,234734,5,10,1:0:0:0:
124,328,234877,1,10,1:0:0:0:
418,57,235163,5,10,1:0:0:0:
389,350,235306,1,10,1:0:0:0:
52,165,235591,5,10,1:0:0:0:
460,219,235734,1,10,1:0:0:0:
256,192,236305,6,0,L|258:152,8,31.4999990386963,0|0|2|0|6|0|2|0|2,0:0|0:0|0:0|0:0|0:0|0:0|0:0|0:0|0:0,0:0:0:0:
