osu file format v14

[General]
AudioFilename: audio.mp3
AudioLeadIn: 0
PreviewTime: 67307
Countdown: 0
SampleSet: Soft
StackLeniency: 0.7
Mode: 0
LetterboxInBreaks: 0
WidescreenStoryboard: 0

[Editor]
Bookmarks: 38164,67878,88450,106735,136450,154735,179878,195878,216449
DistanceSpacing: 0.1
BeatDivisor: 4
GridSize: 32
TimelineZoom: 2.3

[Metadata]
Title:Deep Indigo
TitleUnicode:藍二乗
Artist:Yorushika
ArtistUnicode:ヨルシカ
Creator:Ryuusei Aika
Version:GlazeE & aika Collab Extra
Source:
Tags:Ai Nijou Ainijou blur squared ナブナ nbuna n-buna スイ suis だから僕は音楽を辞めた That's Why I Gave Up on Music dakara boku wa ongaku o wo yameta japanese pop j-pop jpop rock j-rock jrock female vocal Sandrew kanor CoLouRed GlaZeE Delis ShirohaMyMommy Mirash Sing Nanashima Asami
BeatmapID:2588362
BeatmapSetID:1245222

[Difficulty]
HPDrainRate:7
CircleSize:4
OverallDifficulty:8.5
ApproachRate:9
SliderMultiplier:1.8
SliderTickRate:1

[Events]
//Background and Video events
0,0,"deep.jpg",0,0
//Break Periods
2,8650,10135
2,106935,115278
2,177792,179278
2,210763,212978
//Storyboard Layer 0 (Background)
//Storyboard Layer 1 (Fail)
//Storyboard Layer 2 (Pass)
//Storyboard Layer 3 (Foreground)
//Storyboard Layer 4 (Overlay)
//Storyboard Sound Samples

[TimingPoints]
450,285.714285714286,4,2,1,30,1,0
1593,-200,4,2,1,30,0,0
10735,-125,4,2,1,30,0,0
16450,-100,4,2,1,30,0,0
18164,-100,4,2,1,32,0,0
18450,-100,4,2,1,34,0,0
18735,-100,4,2,1,36,0,0
19021,-100,4,2,1,38,0,0
19307,-250,4,2,1,40,0,0
19593,-250,4,2,1,30,0,0
19735,-100,4,2,1,30,0,0
24164,-100,4,2,1,40,0,0
28450,-83.3333333333333,4,2,1,40,0,0
29021,-200,4,2,1,40,0,0
29307,-83.3333333333333,4,2,1,50,0,0
38164,-166.666666666667,4,2,1,30,0,0
45878,-166.666666666667,4,2,1,32,0,0
46164,-166.666666666667,4,2,1,34,0,0
46450,-166.666666666667,4,2,1,36,0,0
46735,-166.666666666667,4,2,1,38,0,0
47021,-166.666666666667,4,2,1,40,0,0
47307,-125,4,2,1,40,0,0
53878,-125,4,2,1,42,0,0
54164,-125,4,2,1,44,0,0
54450,-125,4,2,1,46,0,0
54735,-125,4,2,1,48,0,0
55021,-125,4,2,1,50,0,0
55307,-125,4,2,1,40,0,0
56450,-100,4,2,1,40,0,0
67307,-200,4,2,1,30,0,0
67878,-83.3333333333333,4,2,1,60,0,1
75735,-71.4285714285714,4,2,1,60,0,1
77021,-83.3333333333333,4,2,1,60,0,1
88450,-100,4,2,1,40,0,0
97593,-200,4,2,1,40,0,0
97878,-83.3333333333333,4,2,1,50,0,0
106735,-83.3333333333333,4,2,1,30,0,0
115878,-100,4,2,1,40,0,0
122735,-100,4,2,1,42,0,0
123021,-100,4,2,1,44,0,0
123307,-100,4,2,1,46,0,0
123593,-100,4,2,1,48,0,0
124164,-100,4,2,1,50,0,0
126735,-100,4,2,1,40,0,0
135878,-100,4,2,1,45,0,0
136021,-100,4,2,1,50,0,0
136164,-100,4,2,1,54,0,0
136307,-100,4,2,1,58,0,0
136450,-83.3333333333333,4,2,1,60,0,1
144307,-71.4285714285714,4,2,1,60,0,1
145593,-83.3333333333333,4,2,1,60,0,1
154307,-100,4,2,1,60,0,1
154735,-166.666666666667,4,2,1,40,0,0
163878,-100,4,2,1,40,0,0
173593,-111.111111111111,4,2,1,40,0,0
174021,-125,4,2,1,40,0,0
174450,-142.857142857143,4,2,1,40,0,0
174878,-166.666666666667,4,2,1,40,0,0
175307,-1000,4,2,1,40,0,0
179878,-71.4285714285714,4,2,1,60,0,0
182164,-71.4285714285714,4,2,1,40,0,0
182450,-83.3333333333333,4,2,1,60,0,1
185450,-71.4285714285714,4,2,1,60,0,1
186735,-83.3333333333333,4,2,1,60,0,1
196164,-66.6666666666667,4,2,1,60,0,1
206164,-76.9230769230769,4,2,1,60,0,1
206450,-83.3333333333333,4,2,1,60,0,1
206735,-90.9090909090909,4,2,1,60,0,1
207021,307.692307692308,4,2,1,30,1,0
207021,-111.111111111111,4,2,1,30,0,0
207328,333.333333333333,4,2,1,40,1,0
207328,-142.857142857143,4,2,1,40,0,0
207661,352.941176470588,4,2,1,40,1,0
208013,-200,4,2,1,40,0,0
208366,400,4,2,1,40,1,0
208766,352.941176470588,4,2,1,40,1,0
208766,-333.333333333333,4,2,1,40,0,0
209118,428.571428571429,4,2,1,40,1,0
209546,-333.333333333333,4,2,1,40,0,0
209975,588.235294117647,4,2,1,40,1,0
210563,603.015075376884,4,2,1,40,1,0
213578,292.682926829268,4,2,1,40,1,0
214163,285.714285714286,4,2,1,40,1,0
225591,-100,4,2,1,50,0,0
236305,-100,4,2,1,30,0,0

[Colours]
Combo1 : 64,117,135
Combo2 : 77,140,162
Combo3 : 97,159,180
Combo4 : 124,175,193
Combo5 : 150,192,205
Combo6 : 177,208,218
Combo7 : 204,224,231

[HitObjects]
34,195,1450,101,0,0:0:0:0:
34,195,1593,1,0,1:0:0:0:
113,172,1878,1,2,0:3:0:0:
113,172,2021,1,0,0:0:0:0:
179,212,2307,1,0,0:0:0:0:
254,183,2593,2,0,L|446:205,1,180
432,203,3307,1,2,0:3:0:0:
432,203,3593,1,2,0:3:0:0:
275,38,3878,5,2,0:3:0:0:
236,103,4164,1,2,0:3:0:0:
304,148,4450,1,2,0:3:0:0:
256,212,4735,1,2,0:3:0:0:
256,212,4878,2,0,L|273:305,1,90
272,300,5307,2,0,L|87:310,1,180,2|2,0:3|0:3,0:0:0:0:
92,309,6021,1,0,0:0:0:0:
27,351,6164,86,0,P|15:276|32:168,1,180,2|2,0:3|0:3,0:0:0:0:
30,173,7021,1,2,0:3:0:0:
100,122,7164,2,0,P|129:244|105:350,1,225,0|10,0:0|0:3,0:0:0:0:
109,339,8164,1,10,0:3:0:0:
189,358,8307,1,0,0:0:0:0:
189,358,8450,1,10,0:3:0:0:
256,192,10735,5,6,1:0:0:0:
256,192,11021,2,0,L|288:120,1,72,0|0,1:0|0:0,0:0:0:0:
218,198,11307,2,0,L|257:266,1,72,0|0,1:0|0:0,0:0:0:0:
301,331,11593,2,0,L|333:259,1,72,0|2,1:0|0:3,0:0:0:0:
392,178,11878,2,0,P|406:237|398:324,1,144,0|0,1:0|1:0,0:0:0:0:
399,319,12307,1,0,0:0:0:0:
497,218,12450,2,0,L|423:262,1,72,0|0,1:0|0:0,0:0:0:0:
318,305,12735,85,0,1:0:0:0:
291,290,12807,1,2,0:3:0:0:
275,301,12878,1,2,0:3:0:0:
248,286,12950,1,2,0:3:0:0:
223,293,13021,1,4,1:0:0:0:
322,86,13307,6,0,L|355:179,1,72,0|0,1:0|0:0,0:0:0:0:
256,201,13593,2,0,L|182:162,1,72,0|0,1:0|0:0,0:0:0:0:
373,176,13878,2,0,L|403:93,1,72,0|0,1:0|0:0,0:0:0:0:
240,100,14164,1,0,1:0:0:0:
347,154,14307,1,0,0:0:0:0:
193,168,14450,1,0,1:0:0:0:
193,168,14735,85,0,1:0:0:0:
283,113,14878,1,0,0:0:0:0:
151,78,15021,1,0,1:0:0:0:
238,190,15164,1,2,0:3:0:0:
101,155,15307,6,0,P|89:240|103:296,3,144,0|0|0|0,1:0|1:0|1:0|1:0,0:0:0:0:
16,256,16307,1,2,0:3:0:0:
196,307,16450,86,0,P|210:218|181:114,3,180,0|0|0|0,1:0|1:0|1:0|1:0,0:0:0:0:
167,105,17378,1,2,0:3:0:0:
184,111,17450,1,2,0:3:0:0:
207,101,17521,1,2,0:3:0:0:
222,112,17593,1,4,1:0:0:0:
133,65,17878,5,4,1:0:0:0:
190,132,18021,1,0,0:0:0:0:
291,150,18164,1,4,1:0:0:0:
291,150,18450,85,4,1:0:0:0:
378,265,18593,1,0,0:0:0:0:
419,96,18735,1,4,1:0:0:0:
389,177,18878,1,0,0:0:0:0:
306,98,19021,5,4,1:0:0:0:
467,151,19164,1,0,0:0:0:0:
302,226,19307,2,0,L|220:206,1,72,4|2,1:0|1:3,0:0:0:0:
333,266,19878,5,6,1:2:0:0:
265,172,20021,1,2,0:0:0:0:
196,76,20164,1,10,0:2:0:0:
177,149,20307,5,2,0:0:0:0:
237,88,20450,1,2,0:0:0:0:
298,28,20593,1,2,1:2:0:0:
372,146,20735,85,10,0:2:0:0:
282,122,20878,1,2,0:0:0:0:
374,243,21021,6,0,L|283:243,1,90,2|2,1:2|1:2,0:0:0:0:
398,268,21307,2,0,L|307:268,1,90,10|2,0:2|0:3,0:0:0:0:
289,268,21521,1,2,0:3:0:0:
262,262,21593,1,2,0:3:0:0:
347,345,21735,1,2,1:2:0:0:
257,345,21878,2,0,L|347:345,1,90,10|2,0:2|0:0,0:0:0:0:
370,172,22164,85,2,1:2:0:0:
370,250,22307,1,2,1:2:0:0:
370,94,22450,1,10,0:2:0:0:
370,172,22593,1,2,0:0:0:0:
437,133,22735,2,0,P|375:138|336:129,1,90,2|2,0:0|1:2,0:0:0:0:
261,152,23021,2,0,P|235:99|238:36,1,90,10|2,0:2|0:3,0:0:0:0:
241,50,23235,1,2,0:3:0:0:
256,34,23307,1,2,1:2:0:0:
330,212,23450,5,2,1:2:0:0:
330,212,23593,2,0,L|435:232,1,90,10|2,0:2|0:0,0:0:0:0:
230,221,23878,2,0,L|290:294,1,90,2|2,0:0|1:2,0:0:0:0:
165,114,24164,2,0,L|139:232,1,90,14|0,0:2|0:0,0:0:0:0:
33,297,24450,2,0,L|71:121,1,180,6|10,1:2|0:2,0:0:0:0:
98,207,24878,1,2,0:0:0:0:
16,111,25021,1,2,0:0:0:0:
164,146,25164,85,2,1:2:0:0:
43,152,25307,1,8,0:0:0:0:
127,68,25450,1,2,0:0:0:0:
241,161,25593,6,0,L|210:245,1,90,2|2,1:2|1:2,0:0:0:0:
420,148,25878,2,0,L|456:47,1,90,10|2,0:2|0:3,0:0:0:0:
444,40,26093,1,2,0:3:0:0:
422,50,26164,1,2,0:3:0:0:
294,36,26307,85,2,1:2:0:0:
323,121,26450,1,10,0:2:0:0:
352,206,26593,1,2,0:0:0:0:
159,111,26735,6,0,L|142:221,1,90,2|2,1:2|0:0,0:0:0:0:
174,31,27021,1,12,0:0:0:0:
237,193,27164,1,6,0:2:0:0:
417,103,27307,86,0,L|399:205,1,90,2|2,0:0|1:2,0:0:0:0:
380,316,27593,1,12,0:0:0:0:
322,161,27735,1,0,0:0:0:0:
474,221,27878,1,6,1:2:0:0:
291,249,28021,5,0,0:2:0:0:
226,319,28164,1,14,0:2:0:0:
137,287,28307,1,2,1:2:0:0:
235,86,28450,86,0,P|127:149|30:129,1,215.999993408203,6|2,1:2|1:2,0:0:0:0:
46,125,28807,1,0,1:0:0:0:
50,115,28878,1,2,1:2:0:0:
54,105,28950,1,0,1:0:0:0:
58,95,29021,2,0,L|-9:134,1,67.5,6|0,0:0|0:0,0:0:0:0:
53,19,29307,6,0,L|8:258,1,215.999993408203,14|0,0:0|1:0,0:0:0:0:
201,211,29735,1,2,0:0:0:0:
201,211,29807,1,2,0:0:0:0:
201,211,29878,2,0,P|170:283|107:320,1,107.999996704102,10|2,0:2|0:0,0:0:0:0:
314,126,30164,1,2,1:2:0:0:
380,201,30307,1,2,0:0:0:0:
206,47,30450,1,10,0:2:0:0:
196,77,30521,1,2,0:0:0:0:
186,108,30593,1,2,0:0:0:0:
300,281,30735,5,2,1:2:0:0:
277,198,30878,1,2,0:0:0:0:
351,271,31021,1,10,0:0:0:0:
236,231,31164,1,2,0:0:0:0:
482,199,31307,6,0,B|509:150|509:150|500:53|400:33,1,215.999993408203,2|10,1:2|0:0,0:0:0:0:
394,62,31664,1,2,0:0:0:0:
408,90,31735,2,0,P|351:119|296:102,1,107.999996704102,2|2,0:0|1:2,0:0:0:0:
249,50,32021,1,2,0:0:0:0:
313,196,32164,1,10,0:2:0:0:
160,170,32307,1,2,0:0:0:0:
79,33,32450,2,0,P|77:106|88:165,1,107.999996704102,2|0,1:2|0:0,0:0:0:0:
216,347,32735,2,0,P|218:274|207:215,1,107.999996704102,10|2,0:2|0:0,0:0:0:0:
36,259,33021,86,0,P|104:297|142:291,1,107.999996704102,2|2,1:2|0:0,0:0:0:0:
293,251,33307,2,0,P|315:193|292:120,1,107.999996704102,10|0,0:0|0:0,0:0:0:0:
302,122,33521,1,0,0:0:0:0:
271,111,33593,1,2,1:2:0:0:
174,99,33735,1,2,0:0:0:0:
215,292,33878,6,0,P|253:352|324:360,1,107.999996704102,14|2,0:2|0:0,0:0:0:0:
435,228,34164,2,0,L|409:344,1,107.999996704102,2|2,1:2|0:0,0:0:0:0:
411,333,34450,1,10,0:2:0:0:
363,104,34593,1,2,0:0:0:0:
497,177,34735,2,0,L|369:234,1,107.999996704102,2|0,1:2|0:0,0:0:0:0:
298,182,35021,1,10,0:2:0:0:
213,215,35164,1,0,0:0:0:0:
316,128,35307,1,2,1:2:0:0:
302,277,35450,1,2,0:0:0:0:
120,127,35593,86,0,P|100:220|122:292,1,161.999995056153,10|0,0:0|0:0,0:0:0:0:
140,312,35878,1,10,0:0:0:0:
231,82,36021,2,0,P|302:68|450:91,1,215.999993408203,2|10,1:2|0:0,0:0:0:0:
350,352,36450,2,0,P|398:329|426:284,1,107.999996704102,2|2,1:2|1:2,0:0:0:0:
353,175,36735,1,10,0:0:0:0:
455,195,36878,1,2,1:2:0:0:
231,82,37021,5,0,1:0:0:0:
303,243,37164,1,10,0:0:0:0:
303,243,37235,1,0,0:0:0:0:
303,243,37307,1,2,1:2:0:0:
135,210,37450,1,2,1:2:0:0:
336,63,37593,86,0,P|416:66|468:60,1,107.999996704102,10|2,0:0|1:2,0:0:0:0:
176,321,37878,2,0,P|96:318|44:324,1,107.999996704102,2|2,1:2|1:2,0:0:0:0:
256,192,38164,53,0,1:0:0:0:
256,192,38450,1,0,1:0:0:0:
270,267,38593,2,0,L|384:246,1,107.999996704102
270,267,39021,1,0,1:0:0:0:
214,328,39164,2,0,P|159:319|102:290,1,107.999996704102,2|0,0:3|0:0,0:0:0:0:
112,296,39593,1,0,1:0:0:0:
79,231,39878,5,0,1:0:0:0:
12,273,40021,1,0,0:0:0:0:
79,231,40164,1,0,1:0:0:0:
47,161,40307,1,2,0:3:0:0:
47,161,40378,1,2,0:3:0:0:
47,161,40450,2,0,P|100:189|160:201,1,107.999996704102,4|0,1:0|1:0,0:0:0:0:
222,146,40878,1,0,0:0:0:0:
236,253,41021,86,0,L|222:146,1,107.999996704102,0|0,1:0|1:0,0:0:0:0:
329,86,41450,2,0,P|332:139|309:187,1,107.999996704102,2|0,0:3|0:0,0:0:0:0:
315,74,41878,2,0,P|359:44|412:41,1,107.999996704102,0|0,1:0|1:0,0:0:0:0:
481,73,42450,1,0,1:0:0:0:
458,215,42593,1,4,0:0:0:0:
389,183,42735,6,0,P|402:231|410:309,1,107.999996704102,0|0,1:0|1:0,0:0:0:0:
362,349,43164,1,0,0:0:0:0:
290,328,43307,1,0,1:0:0:0:
289,328,43593,1,0,1:0:0:0:
213,303,43736,1,2,0:3:0:0:
236,384,43878,86,0,P|247:263|273:161,1,215.999993408203,0|0,1:0|1:0,0:0:0:0:
342,141,44593,1,0,0:0:0:0:
269,171,44735,1,0,1:0:0:0:
199,147,44878,1,2,0:3:0:0:
196,133,44949,1,2,0:3:0:0:
193,120,45020,1,4,1:0:0:0:
129,335,45307,6,0,L|58:345,1,53.9999983520508,0|0,1:0|0:0,0:0:0:0:
145,255,45593,2,0,L|78:228,1,53.9999983520508,2|2,1:3|0:3,0:0:0:0:
14,277,45878,2,0,L|36:153,1,107.999996704102,4|4,1:0|1:0,0:0:0:0:
77,23,46450,2,0,L|95:129,2,107.999996704102,4|4|4,1:0|1:0|1:0,0:0:0:0:
9,66,47164,1,0,0:0:0:0:
9,66,47235,1,0,0:0:0:0:
9,66,47307,1,2,1:0:0:0:
158,24,47593,85,0,1:0:0:0:
158,24,47735,2,0,B|224:-9|261:26|261:26|236:58,1,144
181,103,48164,1,0,1:0:0:0:
189,175,48307,2,0,L|180:94,1,72,2|0,0:3|1:0,0:0:0:0:
207,182,48735,1,2,1:0:0:0:
225,189,48878,2,0,L|216:270,1,72,0|0,0:0|1:0,0:0:0:0:
374,341,49307,2,0,L|381:269,1,72,0|2,1:0|0:3,0:0:0:0:
163,319,49593,22,0,P|234:298|314:295,1,144,6|0,1:0|1:0,0:0:0:0:
303,294,50021,1,2,0:0:0:0:
306,172,50164,2,0,P|296:238|302:347,1,144,0|2,1:0|1:0,0:0:0:0:
384,196,50593,2,0,L|378:92,1,72,2|0,0:3|1:0,0:0:0:0:
333,64,50878,1,0,0:0:0:0:
333,64,51021,1,2,1:0:0:0:
455,131,51307,1,0,1:0:0:0:
396,5,51593,85,0,1:0:0:0:
396,5,51735,1,4,0:0:0:0:
396,5,51878,2,0,L|241:39,1,144,2|0,1:0|1:0,0:0:0:0:
36,149,52450,2,0,P|102:149|198:166,1,144,0|0,1:0|1:0,0:0:0:0:
250,202,52878,1,2,0:3:0:0:
185,79,53021,6,0,B|129:48|129:48|79:67|33:68,1,144,2|0,1:2|1:0,0:0:0:0:
36,149,53450,1,2,0:0:0:0:
29,230,53593,2,0,B|85:261|85:261|135:242|181:241,1,144,0|0,1:0|1:0,0:0:0:0:
162,242,54021,1,0,0:0:0:0:
178,327,54164,2,0,P|140:331|96:353,1,72,4|0,1:0|0:0,0:0:0:0:
288,281,54450,1,0,1:0:0:0:
340,343,54592,1,0,0:0:0:0:
261,270,54735,85,2,1:3:0:0:
365,335,54878,1,0,0:0:0:0:
284,251,55021,1,4,1:0:0:0:
252,365,55164,1,0,0:0:0:0:
376,255,55307,1,4,1:0:0:0:
376,255,55450,2,0,P|389:222|384:174,1,72,8|4,0:0|1:0,0:0:0:0:
256,23,55878,5,12,1:0:0:0:
306,80,56021,1,8,0:0:0:0:
381,65,56164,1,12,1:0:0:0:
331,8,56307,1,0,1:0:0:0:
316,157,56450,86,0,P|236:202|132:193,1,180,6|0,1:0|1:0,0:0:0:0:
85,154,56878,2,0,L|101:49,1,90,8|0,0:0|0:0,0:0:0:0:
160,18,57164,1,0,1:0:0:0:
75,139,57307,2,0,L|91:34,1,90,6|0,1:0|0:0,0:0:0:0:
169,32,57593,1,0,0:0:0:0:
169,32,57735,1,0,1:0:0:0:
3,111,58021,1,0,1:0:0:0:
65,158,58164,2,0,L|78:246,1,90,12|0,0:0|0:0,0:0:0:0:
42,369,58450,5,0,1:0:0:0:
42,369,58593,1,0,0:0:0:0:
42,369,58735,2,0,P|151:351|186:272,1,180,6|0,1:0|1:0,0:0:0:0:
355,270,59164,2,0,P|246:252|211:173,1,180,10|0,0:0|1:0,0:0:0:0:
422,225,59593,2,0,L|448:347,1,90,6|0,1:0|0:0,0:0:0:0:
351,187,59878,1,0,0:0:0:0:
351,187,60021,2,0,P|364:139|371:87,1,90,0|0,1:0|0:0,0:0:0:0:
333,34,60307,1,0,1:0:0:0:
441,61,60450,2,0,P|447:105|459:148,1,90,12|0,0:0|0:0,0:0:0:0:
459,148,60735,1,2,0:0:0:0:
260,82,61021,6,0,B|217:85|182:54|182:54|133:51|85:108,1,180,6|0,1:0|1:0,0:0:0:0:
26,65,61450,2,0,P|6:104|8:170,1,90,8|0,0:0|0:0,0:0:0:0:
3,149,61735,1,0,1:0:0:0:
17,339,61878,2,0,B|32:275|90:250|90:250|79:179,1,180,6|0,1:0|0:0,0:0:0:0:
159,186,62307,2,0,L|172:274,1,90,0|0,1:0|0:0,0:0:0:0:
187,350,62593,1,0,1:0:0:0:
313,276,62735,2,0,P|353:281|409:320,1,90,12|0,0:0|0:0,0:0:0:0:
248,225,63021,2,0,P|253:184|291:127,1,90,0|0,1:0|0:0,0:0:0:0:
427,218,63307,86,0,P|429:156|312:90,1,180,6|0,1:0|1:0,0:0:0:0:
235,19,63735,2,0,L|352:4,1,90,10|2,0:0|0:0,0:0:0:0:
324,7,64021,1,0,1:0:0:0:
253,39,64164,2,0,L|74:61,1,180,6|0,1:0|0:0,0:0:0:0:
333,130,64593,2,0,L|422:141,2,90,8|0|0,0:0|0:0|1:0,0:0:0:0:
257,120,65021,5,12,0:0:0:0:
181,110,65164,1,0,0:0:0:0:
105,100,65307,1,2,1:0:0:0:
29,90,65450,1,0,1:0:0:0:
118,302,65593,85,0,1:0:0:0:
210,179,65735,1,0,1:0:0:0:
58,160,65878,1,0,1:0:0:0:
163,238,66021,5,10,1:0:0:0:
88,231,66307,85,10,1:0:0:0:
163,238,66593,6,0,B|270:245|199:326|359:317,1,180,10|2,1:0|0:0,0:0:0:0:
386,276,67021,2,0,P|393:315|413:366,1,90,8|0,0:0|1:0,0:0:0:0:
320,239,67307,86,0,L|315:188,1,45,2|2,0:0|0:0,0:0:0:0:
462,265,67593,2,0,L|457:214,1,45,2|2,0:0|0:0,0:0:0:0:
443,34,67878,6,0,P|382:52|253:62,1,161.999995056153,4|0,1:0|0:0,0:0:0:0:
234,46,68164,2,0,P|152:55|101:57,1,107.999996704102,8|0,0:0|0:0,0:0:0:0:
303,267,68450,2,0,P|411:270|517:235,1,215.999993408203,0|8,1:0|0:0,0:0:0:0:
493,113,68878,1,0,0:0:0:0:
294,139,69021,2,0,P|200:154|133:157,1,161.999995056153,0|0,1:0|0:0,0:0:0:0:
91,114,69307,2,0,L|144:212,1,107.999996704102,8|0,0:0|0:0,0:0:0:0:
226,363,69593,1,0,1:0:0:0:
134,313,69735,5,0,0:0:0:0:
134,313,69807,1,0,0:0:0:0:
134,313,69878,1,8,0:0:0:0:
330,221,70021,1,0,0:0:0:0:
165,81,70164,2,0,P|159:144|170:213,1,107.999996704102,0|0,1:0|0:0,0:0:0:0:
237,274,70450,85,8,0:0:0:0:
271,152,70593,1,0,0:0:0:0:
359,254,70735,1,0,1:0:0:0:
216,219,70878,1,0,0:0:0:0:
306,335,71021,5,8,0:0:0:0:
350,133,71164,1,0,0:0:0:0:
494,240,71307,85,0,1:0:0:0:
389,224,71450,1,0,0:0:0:0:
284,208,71593,1,8,0:0:0:0:
179,192,71735,1,0,0:0:0:0:
247,295,71878,5,0,1:0:0:0:
222,115,72021,1,0,0:0:0:0:
171,301,72164,1,8,0:0:0:0:
297,135,72307,1,0,0:0:0:0:
20,193,72450,86,0,B|74:199|134:219|134:219|240:207,2,215.999993408203,6|10|0,1:2|0:0|1:0,0:0:0:0:
111,92,73164,1,0,0:0:0:0:
111,92,73235,1,0,0:0:0:0:
111,92,73307,2,0,P|199:83|241:67,1,107.999996704102,8|0,0:0|0:0,0:0:0:0:
66,288,73593,2,0,P|127:344|240:329,1,161.999995056153,0|0,1:0|0:0,0:0:0:0:
235,314,73878,1,8,0:0:0:0:
265,217,74021,1,0,0:0:0:0:
385,69,74164,6,0,P|381:146|352:199,1,107.999996704102,0|0,1:0|0:0,0:0:0:0:
369,173,74378,1,0,0:0:0:0:
369,173,74450,2,0,P|427:121|472:106,1,107.999996704102,8|0,0:0|0:0,0:0:0:0:
219,87,74735,2,0,B|233:131|220:171|220:171|273:305,2,215.999993408203,0|8|0,1:0|0:0|1:0,0:0:0:0:
290,29,75450,1,0,0:0:0:0:
187,13,75593,1,8,0:0:0:0:
345,182,75735,86,0,L|149:255,1,188.999994232178,4|0,1:0|0:0,0:0:0:0:
123,216,76021,1,0,1:0:0:0:
302,310,76164,2,0,B|336:321|372:307|372:307|348:337|337:383,1,125.999996154785,8|4,0:0|1:0,0:0:0:0:
167,324,76450,5,0,0:0:0:0:
261,123,76593,1,0,0:0:0:0:
123,216,76735,1,0,1:0:0:0:
344,236,76878,85,0,1:0:0:0:
344,236,76950,1,0,1:0:0:0:
344,236,77021,1,4,1:0:0:0:
344,236,77307,2,0,P|284:273|231:279,1,107.999996704102,8|0,0:0|0:0,0:0:0:0:
402,103,77593,1,0,1:0:0:0:
334,151,77735,1,0,0:0:0:0:
367,67,77878,1,8,0:0:0:0:
418,225,78021,1,0,0:0:0:0:
142,71,78164,6,0,P|130:162|91:278,1,161.999995056153,0|0,1:0|0:0,0:0:0:0:
89,279,78450,2,0,P|87:203|52:149,1,107.999996704102,8|0,0:0|0:0,0:0:0:0:
62,154,78664,1,0,0:0:0:0:
46,139,78735,1,0,1:0:0:0:
220,181,78878,1,0,0:0:0:0:
220,181,79021,2,0,B|285:234|378:218|378:218|440:179,1,215.999993408203,8|0,0:0|1:0,0:0:0:0:
366,120,79450,85,0,0:0:0:0:
377,305,79593,1,8,0:0:0:0:
288,292,79735,1,0,0:0:0:0:
307,176,79878,1,0,1:0:0:0:
223,205,80021,5,0,0:0:0:0:
168,292,80164,1,8,0:0:0:0:
288,292,80307,1,0,0:0:0:0:
76,345,80450,2,0,B|96:295|80:256|80:256|44:235|44:235|36:177|83:126,1,215.999993408203,0|8,1:0|0:0,0:0:0:0:
223,205,80878,2,0,P|169:172|136:117,1,107.999996704102,0|0,0:0|1:0,0:0:0:0:
339,119,81164,1,0,0:0:0:0:
339,119,81235,1,0,0:0:0:0:
339,119,81307,2,0,B|382:129|391:169|391:169|368:200,1,107.999996704102,8|0,0:0|0:0,0:0:0:0:
176,30,81593,85,4,1:2:0:0:
176,30,81878,1,8,0:0:0:0:
249,137,82021,1,2,0:0:0:0:
111,83,82164,1,2,1:2:0:0:
246,94,82307,1,0,0:0:0:0:
124,208,82450,5,8,0:0:0:0:
332,154,82593,1,4,1:0:0:0:
240,179,82735,2,0,B|274:266|274:266|375:235,1,161.999995056153
385,228,83021,1,8,0:0:0:0:
173,329,83164,2,0,L|289:355,1,107.999996704102,4|0,1:0|0:0,0:0:0:0:
375,346,83450,1,0,1:0:0:0:
219,117,83593,85,8,0:0:0:0:
273,222,83735,1,2,0:0:0:0:
368,93,83878,2,0,P|373:167|342:228,1,107.999996704102,2|2,1:2|0:0,0:0:0:0:
144,291,84164,2,0,P|139:217|170:156,1,107.999996704102,10|2,0:0|0:0,0:0:0:0:
298,329,84450,1,2,1:0:0:0:
299,135,84593,2,0,L|227:239,1,107.999996704102,2|10,0:0|0:0,0:0:0:0:
199,50,84878,1,2,0:0:0:0:
397,66,85021,5,4,1:0:0:0:
308,55,85164,1,0,0:0:0:0:
237,223,85307,1,12,0:0:0:0:
195,146,85450,1,0,0:0:0:0:
414,159,85593,85,4,1:0:0:0:
315,252,85735,1,0,0:0:0:0:
272,122,85878,1,0,1:0:0:0:
272,122,85950,1,0,1:0:0:0:
272,122,86021,1,0,1:0:0:0:
272,122,86093,1,0,1:0:0:0:
272,122,86164,2,0,P|195:95|50:105,1,215.999993408203,6|8,1:0|0:0,0:0:0:0:
308,55,86593,2,0,P|222:168|217:272,1,215.999993408203,6|0,1:0|1:0,0:0:0:0:
373,105,87021,1,8,0:0:0:0:
390,321,87164,6,0,B|345:344|345:344|287:342|227:355,1,161.999995056153,6|0,1:0|0:0,0:0:0:0:
190,361,87450,1,0,1:0:0:0:
307,226,87593,1,8,0:0:0:0:
102,286,87735,86,0,P|78:180|123:56,1,215.999993408203,6|0,1:0|1:0,0:0:0:0:
146,268,88164,2,0,P|73:236|37:187,1,107.999996704102,8|0,0:0|0:0,0:0:0:0:
238,117,88450,1,6,1:2:0:0:
305,176,88593,1,2,0:0:0:0:
330,263,88735,1,10,0:2:0:0:
217,143,88878,69,2,0:0:0:0:
312,130,89021,1,2,0:0:0:0:
407,117,89164,1,2,1:2:0:0:
312,130,89307,6,0,P|286:88|282:17,1,90,10|2,0:2|0:0,0:0:0:0:
433,0,89593,2,0,P|393:20|363:53,2,90,2|2|10,1:2|1:2|0:2,0:0:0:0:
484,76,90021,1,2,0:3:0:0:
493,105,90092,1,2,0:3:0:0:
502,134,90164,1,2,0:3:0:0:
444,200,90307,2,0,P|429:242|431:286,1,90,2|10,1:2|0:2,0:0:0:0:
496,350,90593,1,2,0:0:0:0:
496,350,90735,85,2,1:2:0:0:
512,259,90878,1,2,1:2:0:0:
496,350,91021,1,10,0:2:0:0:
421,305,91164,1,2,0:0:0:0:
486,369,91307,5,2,0:0:0:0:
331,311,91450,2,0,P|375:305|442:307,1,90,2|10,1:2|0:2,0:0:0:0:
316,295,91735,2,0,P|333:336|344:379,1,90,2|2,0:3|1:2,0:0:0:0:
345,379,92021,1,2,1:2:0:0:
239,280,92164,2,0,P|250:236|267:195,1,90,10|2,0:2|0:0,0:0:0:0:
174,328,92450,85,2,0:0:0:0:
90,362,92593,1,2,1:2:0:0:
39,289,92735,1,14,0:2:0:0:
191,172,92878,5,0,0:0:0:0:
134,116,93021,2,0,B|159:199|135:238|135:238|165:311,1,180,6|10,1:2|0:2,0:0:0:0:
155,288,93450,1,2,0:0:0:0:
45,215,93593,2,0,L|60:102,1,90,2|2,0:0|1:2,0:0:0:0:
192,28,93878,1,8,0:0:0:0:
38,43,94021,85,2,0:0:0:0:
112,0,94164,1,2,1:2:0:0:
192,28,94307,1,2,1:2:0:0:
296,144,94450,5,10,0:2:0:0:
294,36,94593,1,2,0:3:0:0:
219,109,94735,1,2,0:3:0:0:
280,20,94878,85,2,1:2:0:0:
335,112,95021,1,10,0:2:0:0:
363,12,95163,1,2,0:0:0:0:
444,178,95307,6,0,P|496:136|471:15,1,180,2|12,1:2|0:0,0:0:0:0:
422,67,95735,1,6,0:2:0:0:
179,167,95878,2,0,P|235:115|353:121,1,180,2|12,0:0|0:0,0:0:0:0:
352,130,96235,1,0,0:0:0:0:
363,152,96307,1,0,0:0:0:0:
299,334,96450,85,6,1:2:0:0:
320,225,96593,1,0,0:2:0:0:
366,384,96735,1,14,0:2:0:0:
387,275,96878,1,2,1:2:0:0:
93,249,97021,6,0,B|131:287|131:287|180:254|253:266,1,180,6|2,1:2|1:2,0:0:0:0:
243,227,97378,1,0,1:0:0:0:
233,188,97450,1,2,1:2:0:0:
223,149,97521,1,0,1:0:0:0:
223,149,97593,2,0,P|192:142|154:140,1,67.5,6|0,0:0|0:0,0:0:0:0:
75,138,97878,86,0,P|181:121|275:69,1,215.999993408203,14|0,0:0|1:0,0:0:0:0:
128,41,98307,1,2,0:0:0:0:
95,36,98378,1,2,0:0:0:0:
63,31,98449,1,10,0:2:0:0:
206,15,98593,1,2,0:0:0:0:
294,145,98735,21,2,1:2:0:0:
333,5,98878,1,2,0:0:0:0:
381,171,99021,1,10,0:2:0:0:
381,171,99093,1,2,0:0:0:0:
381,171,99164,1,2,0:0:0:0:
412,23,99307,1,2,1:2:0:0:
275,68,99450,5,2,0:0:0:0:
323,234,99593,1,10,0:0:0:0:
354,86,99735,1,2,0:0:0:0:
354,86,99878,86,0,B|374:132|374:132|323:235|323:235|352:288,1,215.999993408203,2|10,1:2|0:0,0:0:0:0:
367,312,100235,1,2,0:0:0:0:
386,344,100307,1,2,0:0:0:0:
446,193,100450,1,2,1:2:0:0:
446,193,100521,1,0,0:0:0:0:
446,193,100593,1,2,0:0:0:0:
470,272,100735,5,10,0:2:0:0:
364,203,100878,1,2,0:0:0:0:
480,120,101021,2,0,P|471:68|438:26,1,107.999996704102,2|0,1:2|0:0,0:0:0:0:
317,131,101307,2,0,P|275:164|222:173,1,107.999996704102,10|2,0:2|0:0,0:0:0:0:
149,133,101593,2,0,L|135:259,1,107.999996704102,2|2,1:2|0:0,0:0:0:0:
80,95,101878,1,10,0:0:0:0:
226,77,102021,85,0,0:0:0:0:
226,77,102093,1,0,0:0:0:0:
226,77,102164,2,0,P|169:56|129:28,1,107.999996704102,2|2,1:2|0:0,0:0:0:0:
130,29,102450,1,14,0:2:0:0:
102,141,102593,2,0,P|55:179|11:200,1,107.999996704102,2|2,0:0|1:2,0:0:0:0:
7,122,102878,1,2,0:0:0:0:
150,212,103021,2,0,P|160:271|156:320,1,107.999996704102,10|2,0:2|0:0,0:0:0:0:
87,384,103307,5,2,1:2:0:0:
0,342,103450,1,0,0:0:0:0:
0,342,103593,2,0,B|60:283|160:299|160:299|199:347,1,215.999993408203,10|2,0:2|1:2,0:0:0:0:
255,384,104021,1,2,0:0:0:0:
309,300,104164,2,0,B|305:344|305:344|255:384,1,107.999996704102,10|0,0:0|0:0,0:0:0:0:
339,192,104450,86,0,L|425:274,1,107.999996704102,10|2,0:0|1:2,0:0:0:0:
445,339,104735,1,0,1:0:0:0:
293,124,104878,6,0,L|274:252,1,107.999996704102,10|2,0:0|1:2,0:0:0:0:
307,49,105164,1,2,1:2:0:0:
128,0,105307,86,0,P|191:23|273:4,1,107.999996704102,10|2,0:0|1:2,0:0:0:0:
230,20,105593,1,0,1:0:0:0:
103,86,105735,5,10,0:0:0:0:
135,204,105878,1,2,1:2:0:0:
253,172,106021,1,2,1:2:0:0:
181,134,106164,85,10,0:0:0:0:
216,265,106307,1,2,1:2:0:0:
346,230,106450,1,2,1:2:0:0:
311,99,106593,1,2,1:2:0:0:
256,190,106735,5,2,0:3:0:0:
292,227,115878,54,0,P|348:232|393:252,1,90,0|0,1:0|0:0,0:0:0:0:
258,259,116164,2,0,P|265:199|296:142,1,90,0|0,1:0|0:0,0:0:0:0:
320,310,116450,1,0,1:0:0:0:
160,350,116593,2,0,P|84:323|60:286,1,90,0|0,0:0|1:0,0:0:0:0:
160,350,116878,2,0,P|130:263|173:164,1,180,0|0,1:0|0:0,0:0:0:0:
216,131,117307,1,2,1:0:0:0:
216,131,117450,1,0,0:0:0:0:
242,205,117593,5,0,1:0:0:0:
136,98,117735,1,0,0:0:0:0:
264,161,117878,1,0,1:0:0:0:
82,196,118021,1,2,0:0:0:0:
236,301,118164,86,0,B|289:273|289:273|326:296|367:302,1,135,0|0,1:0|0:0,0:0:0:0:
358,300,118450,2,0,L|332:203,1,90,0|0,1:0|0:0,0:0:0:0:
424,235,118735,1,0,1:0:0:0:
320,122,118878,2,0,P|383:142|426:145,1,90,0|0,0:0|1:0,0:0:0:0:
255,193,119164,2,0,P|283:124|229:11,1,180,0|0,1:0|0:0,0:0:0:0:
249,101,119593,2,0,P|186:48|59:49,1,180,2|0,1:0|1:0,0:0:0:0:
19,57,120021,1,0,0:0:0:0:
71,112,120164,1,0,1:0:0:0:
0,251,120307,5,8,0:0:0:0:
161,177,120450,1,2,1:0:0:0:
161,177,120735,1,0,1:0:0:0:
119,243,120878,1,0,0:0:0:0:
203,295,121021,1,0,1:0:0:0:
164,228,121164,1,0,0:0:0:0:
129,339,121307,1,0,1:0:0:0:
247,321,121450,1,0,1:0:0:0:
322,193,121593,86,0,P|337:310|328:373,1,180,0|0,1:2|1:0,0:0:0:0:
410,338,122021,1,0,0:0:0:0:
283,260,122164,2,0,P|352:274|383:275,1,90,0|0,1:0|1:0,0:0:0:0:
444,229,122450,1,0,1:0:0:0:
356,123,122593,5,0,1:0:0:0:
356,123,122735,2,0,P|293:107|238:109,1,90,4|0,1:0|0:0,0:0:0:0:
238,76,123021,2,0,P|163:121|135:154,1,90,0|0,1:0|0:0,0:0:0:0:
83,121,123307,2,0,P|82:187|99:246,1,90,2|0,1:3|0:0,0:0:0:0:
31,312,123593,2,0,P|72:365|96:381,1,90,4|0,1:0|0:0,0:0:0:0:
302,317,123878,85,4,1:0:0:0:
220,230,124021,1,8,0:0:0:0:
185,339,124164,1,4,1:0:0:0:
185,339,124450,5,12,1:0:0:0:
301,242,124593,1,8,0:0:0:0:
143,214,124735,1,12,1:0:0:0:
215,261,124878,1,0,0:0:0:0:
261,98,125021,6,0,P|209:49|103:41,1,180,6|0,1:0|1:0,0:0:0:0:
210,150,125450,2,0,P|289:140|355:43,1,180,8|0,0:0|1:0,0:0:0:0:
434,25,125878,2,0,L|479:214,1,180,6|0,1:0|0:0,0:0:0:0:
382,182,126307,85,0,1:0:0:0:
419,281,126450,1,0,0:0:0:0:
297,250,126593,1,0,1:0:0:0:
254,317,126735,5,12,0:0:0:0:
292,168,126878,1,0,0:0:0:0:
337,315,127021,1,0,1:0:0:0:
208,230,127164,1,0,0:0:0:0:
131,364,127307,1,6,1:0:0:0:
131,364,127593,1,0,1:0:0:0:
80,109,127735,86,0,L|118:294,1,180,10|0,0:0|1:0,0:0:0:0:
189,131,128164,2,0,L|111:203,1,90,6|0,1:0|0:0,0:0:0:0:
156,50,128450,1,0,0:0:0:0:
254,31,128593,1,0,1:0:0:0:
277,212,128735,1,0,0:0:0:0:
265,121,128878,1,0,1:0:0:0:
454,101,129021,5,12,0:0:0:0:
454,101,129307,1,2,0:0:0:0:
437,189,129450,1,0,0:0:0:0:
420,277,129593,2,0,P|364:330|326:343,1,90,6|0,1:0|0:0,0:0:0:0:
502,323,129878,1,0,1:0:0:0:
355,149,130021,2,0,B|344:190|344:190|308:226|246:222,1,135,8|0,0:0|0:0,0:0:0:0:
220,217,130307,1,0,1:0:0:0:
117,55,130450,2,0,P|98:158|132:260,1,180,6|0,1:0|0:0,0:0:0:0:
191,101,130878,1,4,0:3:0:0:
188,197,131021,85,0,0:0:0:0:
283,94,131164,1,0,1:0:0:0:
423,127,131307,1,12,0:0:0:0:
423,127,131593,2,0,P|468:150|530:163,1,90,0|0,1:0|0:0,0:0:0:0:
318,241,131878,5,6,1:0:0:0:
394,292,132021,2,0,P|403:236|398:180,1,90,0|0,0:0|1:0,0:0:0:0:
173,347,132307,2,0,P|276:365|356:359,1,180,10|0,0:0|1:0,0:0:0:0:
126,115,132735,2,0,P|102:203|103:301,1,180,6|0,1:0|0:0,0:0:0:0:
191,176,133164,1,8,0:0:0:0:
204,260,133307,1,0,0:0:0:0:
34,139,133450,85,0,1:0:0:0:
213,79,133593,1,12,0:0:0:0:
268,324,133878,5,2,1:0:0:0:
268,324,134021,1,0,1:0:0:0:
343,268,134164,85,0,1:0:0:0:
182,225,134307,1,0,1:0:0:0:
342,155,134450,1,0,1:0:0:0:
181,112,134593,1,10,1:0:0:0:
433,214,134878,5,10,1:0:0:0:
79,170,135164,1,10,1:0:0:0:
313,301,135450,85,2,0:0:0:0:
200,140,135593,2,0,P|196:85|203:29,1,90,8|0,0:0|1:0,0:0:0:0:
369,104,135878,69,2,1:2:0:0:
366,112,135950,1,0,1:2:0:0:
363,120,136021,1,2,1:2:0:0:
360,128,136093,1,0,1:2:0:0:
374,150,136164,101,2,1:2:0:0:
359,160,136235,1,0,1:2:0:0:
344,171,136307,1,2,1:2:0:0:
329,181,136378,1,0,1:2:0:0:
290,208,136450,38,0,P|205:241|112:231,1,161.999995056153,4|0,1:0|0:0,0:0:0:0:
119,218,136735,2,0,B|211:215|282:250|282:250|334:331,1,215.999993408203,8|0,0:0|1:0,0:0:0:0:
272,358,137164,1,0,0:0:0:0:
64,316,137307,2,0,L|33:197,1,107.999996704102,8|0,0:0|0:0,0:0:0:0:
93,384,137593,2,0,L|218:372,1,107.999996704102,0|0,1:0|0:0,0:0:0:0:
382,281,137878,5,8,0:0:0:0:
454,247,138021,1,0,0:0:0:0:
308,120,138164,1,0,1:0:0:0:
301,199,138307,1,0,0:0:0:0:
484,136,138449,1,8,0:0:0:0:
419,91,138592,1,0,0:0:0:0:
462,269,138735,85,0,1:0:0:0:
462,269,138878,1,0,0:0:0:0:
410,175,139021,1,8,0:0:0:0:
399,333,139164,1,0,0:0:0:0:
337,155,139307,5,0,1:0:0:0:
472,298,139450,1,0,0:0:0:0:
286,213,139593,1,8,0:0:0:0:
431,99,139735,1,0,0:0:0:0:
359,233,139878,86,0,B|301:248|301:248|212:235|140:165,1,215.999993408203,0|8,1:0|0:0,0:0:0:0:
160,183,140307,1,0,0:0:0:0:
54,102,140450,2,0,P|76:151|93:229,1,107.999996704102,0|0,1:0|0:0,0:0:0:0:
0,164,140735,1,8,0:0:0:0:
130,71,140878,5,2,0:0:0:0:
161,50,140949,1,2,0:0:0:0:
193,30,141021,2,0,P|250:34|345:65,1,107.999996704102,6|0,1:2|0:0,0:0:0:0:
450,214,141307,2,0,P|393:210|298:179,1,107.999996704102,10|2,0:0|0:0,0:0:0:0:
213,127,141593,2,0,P|324:126|458:80,1,215.999993408203,0|8,1:0|0:0,0:0:0:0:
475,41,142021,1,0,0:0:0:0:
366,204,142164,86,0,L|351:354,1,107.999996704102,0|0,1:0|0:0,0:0:0:0:
193,346,142450,2,0,P|139:335|71:330,1,107.999996704102,8|0,0:0|0:0,0:0:0:0:
91,239,142735,2,0,B|166:215|166:215|211:259|211:259|290:237,1,215.999993408203,0|8,1:0|0:0,0:0:0:0:
439,177,143164,1,0,0:0:0:0:
405,372,143307,5,0,1:0:0:0:
322,330,143450,1,0,0:0:0:0:
277,250,143593,1,8,0:0:0:0:
262,159,143735,1,0,0:0:0:0:
242,375,143878,85,0,1:0:0:0:
367,228,144021,1,0,1:0:0:0:
177,193,144164,1,8,0:0:0:0:
424,96,144307,6,0,P|335:6|198:46,1,251.999992309571,4|0,1:0|1:0,0:0:0:0:
220,25,144735,1,8,0:0:0:0:
53,260,144878,2,0,P|9:226|19:139,1,125.999996154785,4|0,1:0|0:0,0:0:0:0:
146,7,145164,1,0,1:0:0:0:
136,170,145307,85,0,1:0:0:0:
90,178,145378,1,0,1:0:0:0:
47,160,145449,1,0,1:0:0:0:
23,120,145521,1,0,1:0:0:0:
25,74,145593,2,0,B|59:204|118:106|139:291,1,215.999993408203,4|8,1:0|0:0,0:0:0:0:
54,368,146021,1,0,0:0:0:0:
216,288,146164,5,0,1:0:0:0:
290,335,146307,1,0,0:0:0:0:
209,375,146450,1,8,0:0:0:0:
135,328,146593,1,0,0:0:0:0:
355,243,146735,86,0,L|383:396,1,107.999996704102,0|0,1:0|0:0,0:0:0:0:
391,363,146950,1,0,0:0:0:0:
407,376,147021,2,0,B|385:271|385:271|377:225|411:158,1,215.999993408203,8|0,0:0|1:0,0:0:0:0:
459,87,147450,1,0,0:0:0:0:
353,67,147593,2,0,P|406:82|482:86,1,107.999996704102,8|0,0:0|0:0,0:0:0:0:
265,27,147878,5,0,1:0:0:0:
64,67,148021,1,0,0:0:0:0:
36,138,148164,85,8,0:0:0:0:
46,298,148307,1,0,0:0:0:0:
117,326,148450,5,0,1:0:0:0:
206,288,148593,1,0,0:0:0:0:
277,316,148735,85,8,0:0:0:0:
196,128,148878,1,0,0:0:0:0:
410,232,149021,6,0,B|378:182|378:182|284:168|284:168|238:210,1,215.999993408203,0|8,1:0|0:0,0:0:0:0:
238,209,149450,1,0,0:0:0:0:
330,151,149593,2,0,B|271:60,1,107.999996704102,0|0,1:0|0:0,0:0:0:0:
349,18,149878,2,0,P|408:18|451:59,1,107.999996704102,8|0,0:0|0:0,0:0:0:0:
467,39,150093,1,0,0:0:0:0:
489,30,150164,2,0,P|495:137|445:276,1,215.999993408203,4|8,1:2|0:0,0:0:0:0:
407,291,150593,1,2,0:0:0:0:
243,208,150735,85,0,0:0:0:0:
324,195,150878,1,0,0:0:0:0:
405,182,151021,1,8,0:0:0:0:
185,276,151164,6,0,B|201:350|267:370|267:370|318:348|359:348,1,215.999993408203,4|0,1:0|1:0,0:0:0:0:
348,348,151593,1,8,0:0:0:0:
103,304,151735,2,0,P|101:258|143:197,1,107.999996704102,4|0,1:0|0:0,0:0:0:0:
208,179,152021,1,0,1:0:0:0:
65,145,152164,2,0,P|89:192|135:218,1,107.999996704102,8|0,0:0|0:0,0:0:0:0:
265,121,152450,85,2,1:2:0:0:
197,22,152593,1,2,0:0:0:0:
265,121,152735,1,10,0:0:0:0:
302,16,152878,1,2,0:0:0:0:
190,97,153021,5,0,0:0:0:0:
377,40,153164,1,2,0:0:0:0:
197,22,153307,1,10,0:0:0:0:
369,114,153450,1,2,0:0:0:0:
283,67,153593,86,0,B|263:122|263:122|304:296,1,215.999993408203,4|12,1:0|0:0,0:0:0:0:
343,338,154021,1,0,0:0:0:0:
217,292,154164,5,4,1:0:0:0:
463,280,154307,2,0,L|263:256,1,180
105,236,154735,53,6,1:0:0:0:
230,173,155164,1,0,0:0:0:0:
105,236,155307,2,0,P|79:157|100:119,1,107.999996704102,0|0,0:0|1:0,0:0:0:0:
300,270,155735,2,0,P|258:312|205:318,1,107.999996704102,0|0,1:0|0:0,0:0:0:0:
192,96,156164,1,6,1:0:0:0:
289,65,156307,2,0,P|290:119|282:143,1,53.9999983520508,0|8,0:0|0:0,0:0:0:0:
205,178,156593,2,0,B|178:190|178:190|161:151,2,53.9999983520508,0|0|2,1:0|0:0|0:3,0:0:0:0:
422,189,157021,6,0,P|458:193|497:195,1,53.9999983520508,6|0,1:0|0:0,0:0:0:0:
475,194,157307,2,0,P|470:253|469:272,1,53.9999983520508
408,109,157593,1,0,0:0:0:0:
408,109,157878,1,0,1:0:0:0:
399,260,158021,1,0,1:0:0:0:
264,182,158164,2,0,B|228:164|228:164|204:186|166:194,1,107.999996704102,0|6,0:0|1:0,0:0:0:0:
260,326,158593,2,0,P|302:311|318:289,1,53.9999983520508,0|8,0:0|0:0,0:0:0:0:
376,236,158878,1,0,1:0:0:0:
395,320,159021,85,2,0:3:0:0:
284,222,159164,1,0,0:0:0:0:
420,147,159307,1,6,1:0:0:0:
415,163,159593,1,0,0:0:0:0:
410,179,159878,1,0,0:0:0:0:
405,195,160164,1,0,1:0:0:0:
333,61,160307,1,0,1:0:0:0:
316,175,160450,5,0,0:0:0:0:
383,66,160593,1,0,0:0:0:0:
227,129,160735,1,6,1:0:0:0:
405,195,160878,2,0,P|408:243|404:272,1,53.9999983520508,0|8,0:0|0:0,0:0:0:0:
352,356,161164,1,0,1:0:0:0:
352,356,161450,1,2,0:3:0:0:
238,267,161593,86,0,L|183:290,1,53.9999983520508,6|0,1:0|0:0,0:0:0:0:
133,235,161878,2,0,L|126:159,1,53.9999983520508
231,142,162164,1,0,0:0:0:0:
320,167,162307,1,0,0:0:0:0:
201,101,162450,1,0,1:0:0:0:
313,301,162593,2,0,P|285:252|305:190,1,107.999996704102,8|0,1:0|1:0,0:0:0:0:
407,233,163021,1,6,1:0:0:0:
313,301,163164,2,0,L|247:277,1,53.9999983520508,0|8,0:0|0:0,0:0:0:0:
156,241,163450,5,0,1:0:0:0:
222,138,163593,1,0,1:0:0:0:
187,321,163735,1,0,1:0:0:0:
100,169,163878,5,6,1:0:0:0:
100,169,164164,2,0,P|43:202|21:236,1,90,10|0,0:0|0:0,0:0:0:0:
203,234,164450,2,0,P|212:171|171:83,1,135,2|0,0:0|0:0,0:0:0:0:
159,76,164735,1,10,0:0:0:0:
293,141,164878,2,0,P|349:135|380:122,1,90,0|2,1:0|0:0,0:0:0:0:
318,51,165164,1,0,1:0:0:0:
355,223,165307,1,10,0:0:0:0:
293,141,165450,85,0,0:0:0:0:
398,45,165593,1,2,0:0:0:0:
452,194,165735,1,0,0:0:0:0:
380,122,165878,1,2,0:0:0:0:
399,268,166021,1,0,0:0:0:0:
501,202,166164,1,6,1:0:0:0:
501,202,166307,1,0,1:0:0:0:
444,333,166450,6,0,B|395:372|323:351|323:351|282:293,1,180,10|2,0:0|0:0,0:0:0:0:
254,228,166878,1,0,0:0:0:0:
352,247,167021,1,10,0:0:0:0:
207,315,167164,2,0,P|223:243|168:127,1,180,0|0,1:0|1:0,0:0:0:0:
381,107,167593,2,0,P|280:94|229:-1,1,180,10|2,0:0|0:0,0:0:0:0:
171,101,168021,1,0,1:0:0:0:
263,132,168164,85,6,0:0:0:0:
139,243,168307,1,0,0:0:0:0:
305,275,168450,1,6,1:0:0:0:
305,275,168735,2,0,P|376:284|411:295,1,90,8|0,0:0|0:0,0:0:0:0:
445,112,169021,2,0,P|399:140|361:151,1,90,2|2,1:0|1:0,0:0:0:0:
167,174,169307,2,0,P|211:116|222:76,1,90,10|2,0:0|0:0,0:0:0:0:
247,346,169593,2,0,P|173:300|73:301,2,180,0|8|0,1:0|0:0|1:0,0:0:0:0:
316,280,170307,5,2,1:0:0:0:
234,242,170450,1,10,0:0:0:0:
320,199,170593,1,0,0:0:0:0:
238,162,170735,2,0,L|140:112,1,90,6|0,1:0|0:0,0:0:0:0:
98,248,171021,2,0,B|5:201|5:201|35:156|20:87,1,180,8|2,0:0|1:0,0:0:0:0:
0,47,171450,1,2,1:0:0:0:
120,157,171593,2,0,P|209:152|265:116,1,135,10|0,0:0|0:0,0:0:0:0:
283,99,171878,2,0,L|254:205,1,90,2|2,1:0|1:0,0:0:0:0:
223,344,172164,86,0,P|293:329|320:303,1,90,10|0,0:0|0:0,0:0:0:0:
369,241,172450,1,2,1:0:0:0:
315,170,172593,1,0,0:0:0:0:
347,285,172735,1,8,0:0:0:0:
418,162,172878,1,0,0:0:0:0:
347,285,173021,1,0,1:0:0:0:
154,177,173164,38,0,L|274:23,1,180,6|0,0:0|1:0,0:0:0:0:
384,291,173593,86,0,L|231:364,1,161.999995056153,6|0,0:0|1:0,0:0:0:0:
347,113,174021,86,0,L|471:211,1,144,6|0,0:0|1:0,0:0:0:0:
200,231,174450,86,0,L|148:99,1,125.999996154785,6|0,0:0|1:0,0:0:0:0:
333,221,174878,86,0,L|277:319,1,107.999996704102,6|0,0:0|0:0,0:0:0:0:
270,132,175307,70,0,P|312:119|342:124,2,72,4|0|2,1:0|0:0|0:0,0:0:0:0:
270,132,179878,86,0,P|204:130|139:110,1,125.999996154785,4|0,1:0|0:0,0:0:0:0:
242,252,180164,2,0,P|308:254|373:274,1,125.999996154785,8|0,0:0|0:0,0:0:0:0:
66,150,180450,2,0,L|78:23,1,125.999996154785,4|0,1:0|1:0,0:0:0:0:
352,252,180735,2,0,L|340:379,1,125.999996154785,8|0,0:0|1:0,0:0:0:0:
25,369,181021,70,0,P|145:372|290:315,1,251.999992309571,0|8,1:0|1:0,0:0:0:0:
365,35,181450,2,0,P|302:34|243:55,2,125.999996154785,0|0|2,1:0|0:0|0:0,0:0:0:0:
107,196,181878,1,8,0:0:0:0:
108,242,181949,1,8,0:0:0:0:
140,274,182020,1,0,1:0:0:0:
186,276,182092,1,0,1:0:0:0:
225,249,182163,1,6,1:2:0:0:
229,253,182450,6,0,P|241:206|244:122,1,107.999996704102,10|0,0:0|0:0,0:0:0:0:
288,345,182735,2,0,B|346:331|374:273|374:273|430:253|494:294,1,215.999993408203,0|8,1:0|0:0,0:0:0:0:
512,353,183164,1,0,0:0:0:0:
429,153,183307,2,0,P|388:177|309:189,1,107.999996704102,0|0,1:0|0:0,0:0:0:0:
239,74,183593,2,0,B|228:133|264:178|264:178|310:202|316:284,2,215.999993408203,8|0|8,0:0|1:0|0:0,0:0:0:0:
239,74,184307,1,0,0:0:0:0:
401,38,184450,85,0,1:0:0:0:
318,23,184593,1,0,0:0:0:0:
160,125,184735,1,8,0:0:0:0:
77,110,184878,1,0,0:0:0:0:
318,23,185021,5,0,1:0:0:0:
221,202,185164,1,0,0:0:0:0:
131,45,185307,1,8,0:0:0:0:
0,228,185450,86,0,B|54:181|117:176|175:233|175:233|234:195,1,251.999992309571,4|0,1:0|1:0,0:0:0:0:
34,318,185878,2,0,L|27:381,1,62.9999980773926,8|0,0:0|0:0,0:0:0:0:
261,322,186021,2,0,P|130:322|27:382,1,251.999992309571,4|0,1:0|1:0,0:0:0:0:
291,246,186450,5,0,1:0:0:0:
330,253,186521,1,0,1:0:0:0:
374,262,186592,1,0,1:0:0:0:
418,271,186664,1,0,1:0:0:0:
460,282,186735,2,0,P|460:339|446:388,1,107.999996704102,4|0,1:0|0:0,0:0:0:0:
360,220,187021,2,0,P|345:168|346:114,1,107.999996704102,8|0,0:0|0:0,0:0:0:0:
497,59,187307,86,0,P|469:106|399:133,1,107.999996704102,0|0,1:0|0:0,0:0:0:0:
224,81,187593,1,8,0:0:0:0:
161,30,187736,1,0,0:0:0:0:
234,0,187879,1,0,1:0:0:0:
297,51,188022,1,0,0:0:0:0:
150,118,188164,5,8,0:0:0:0:
168,224,188307,1,0,0:0:0:0:
135,140,188450,1,0,1:0:0:0:
102,56,188593,1,0,1:0:0:0:
48,105,188735,86,0,L|12:250,1,107.999996704102,8|0,0:0|0:0,0:0:0:0:
38,231,188950,1,0,0:0:0:0:
61,218,189021,2,0,P|57:281|27:342,1,107.999996704102,0|0,1:0|0:0,0:0:0:0:
158,375,189307,5,8,0:0:0:0:
304,275,189450,1,0,0:0:0:0:
231,325,189593,1,0,1:0:0:0:
383,313,189735,1,0,1:0:0:0:
304,275,189878,2,0,P|306:223|328:159,1,107.999996704102,8|0,0:0|0:0,0:0:0:0:
463,351,190164,2,0,B|485:291|485:291|449:123,1,215.999993408203,0|8,1:0|0:0,0:0:0:0:
400,83,190593,1,0,0:0:0:0:
82,92,190735,86,0,B|110:139|110:139|199:180|266:103,1,215.999993408203,0|8,1:0|0:0,0:0:0:0:
257,113,191164,1,0,0:0:0:0:
20,140,191307,2,0,P|46:192|56:267,1,107.999996704102,4|2,1:2|0:0,0:0:0:0:
303,274,191593,2,0,P|249:281|202:309,1,107.999996704102,8|0,0:0|0:0,0:0:0:0:
130,276,191878,2,0,L|110:428,1,107.999996704102,2|2,1:2|1:2,0:0:0:0:
115,383,192164,1,8,0:0:0:0:
241,215,192307,5,4,1:0:0:0:
315,301,192450,2,0,L|435:288,1,107.999996704102,0|0,0:0|1:0,0:0:0:0:
223,236,192735,1,8,0:0:0:0:
512,299,192878,2,0,L|297:322,1,215.999993408203,4|0,1:0|1:0,0:0:0:0:
496,145,193307,2,0,P|452:112|391:116,1,107.999996704102,12|0,0:0|0:0,0:0:0:0:
332,155,193593,85,2,1:2:0:0:
332,155,193735,1,2,0:0:0:0:
179,63,193878,1,14,0:0:0:0:
179,63,194020,1,2,0:0:0:0:
254,206,194164,5,2,1:0:0:0:
256,10,194306,1,2,1:0:0:0:
332,155,194449,1,14,0:0:0:0:
179,63,194593,1,2,0:0:0:0:
357,50,194735,85,4,1:0:0:0:
326,171,194877,1,0,0:0:0:0:
231,212,195020,1,12,0:0:0:0:
151,165,195164,1,0,0:0:0:0:
101,94,195307,6,0,P|75:109|45:153,1,53.9999983520508,4|0,1:0|0:0,0:0:0:0:
15,201,195450,2,0,P|14:231|38:278,1,53.9999983520508,0|0,1:0|1:0,0:0:0:0:
74,324,195593,1,0,1:0:0:0:
101,353,195664,1,0,1:0:0:0:
137,370,195735,1,0,1:0:0:0:
178,373,195807,1,0,1:0:0:0:
216,360,195878,2,0,P|276:342|338:330,1,107.999996704102,4|0,1:0|0:0,0:0:0:0:
512,133,196164,86,0,B|463:186|463:186|393:122|294:160,1,202.500007724762,12|0,0:0|0:0,0:0:0:0:
272,167,196450,1,4,1:0:0:0:
348,245,196593,1,0,1:0:0:0:
350,36,196735,1,12,0:0:0:0:
208,78,196878,1,0,0:0:0:0:
257,269,197021,22,0,B|225:294|235:337|235:337|191:348|142:311,1,135.000005149842,4|0,1:0|0:0,0:0:0:0:
133,337,197235,1,0,0:0:0:0:
91,321,197307,2,0,P|153:283|169:188,1,135.000005149842,12|0,0:0|0:0,0:0:0:0:
48,84,197593,85,4,1:0:0:0:
100,168,197735,1,2,1:0:0:0:
191,18,197878,5,14,0:0:0:0:
199,158,198021,1,0,0:0:0:0:
360,95,198164,86,0,B|394:162|336:217|336:217|338:261|382:291,1,202.500007724762,6|0,1:0|0:0,0:0:0:0:
411,340,198450,2,0,B|449:311|451:262|451:262|416:209,1,135.000005149842,14|0,0:0|0:0,0:0:0:0:
460,133,198735,1,6,1:0:0:0:
242,34,198878,5,2,1:0:0:0:
283,142,199021,1,14,0:0:0:0:
177,108,199164,1,0,0:0:0:0:
226,349,199307,86,0,P|146:304|135:246,1,135.000005149842,6|2,1:0|0:0,0:0:0:0:
136,245,199521,1,0,0:0:0:0:
150,227,199593,1,14,0:0:0:0:
435,159,199735,2,0,B|375:178|346:226|346:226|302:207|225:211,1,202.500007724762,2|0,0:0|0:0,0:0:0:0:
200,168,200021,1,0,0:0:0:0:
309,99,200164,1,12,0:0:0:0:
170,64,200307,1,0,0:0:0:0:
303,328,200450,6,0,P|372:347|444:345,1,135.000005149842,6|2,1:0|0:0,0:0:0:0:
512,117,200735,2,0,P|492:213|461:247,1,135.000005149842,14|2,0:0|0:0,0:0:0:0:
330,243,201021,1,6,1:0:0:0:
401,93,201164,1,2,1:0:0:0:
378,271,201307,1,14,0:0:0:0:
353,67,201450,1,2,0:0:0:0:
457,185,201593,86,0,L|292:152,1,135.000005149842,6|2,1:0|0:0,0:0:0:0:
279,148,201807,1,0,0:0:0:0:
233,138,201878,2,0,P|211:207|233:279,1,135.000005149842,14|2,0:0|0:0,0:0:0:0:
286,351,202164,1,6,1:0:0:0:
337,266,202307,5,2,1:0:0:0:
479,356,202450,1,14,0:0:0:0:
457,185,202593,1,2,0:0:0:0:
315,91,202735,86,0,L|227:63,4,67.5000025749208,6|0|0|0|12,1:0|0:0|0:0|0:0|0:0,0:0:0:0:
424,36,203164,1,0,0:0:0:0:
382,221,203307,1,6,1:0:0:0:
205,166,203450,1,2,1:0:0:0:
238,361,203593,5,14,0:0:0:0:
220,264,203735,1,2,0:0:0:0:
154,337,203878,1,6,1:0:0:0:
274,320,204021,1,0,0:0:0:0:
102,158,204164,1,14,0:0:0:0:
57,314,204307,1,0,0:0:0:0:
307,218,204450,2,0,B|278:190|233:183|233:183|256:165|257:136,1,135.000005149842,4|0,1:0|1:0,0:0:0:0:
434,36,204735,85,8,1:0:0:0:
438,41,204807,1,0,1:0:0:0:
442,46,204878,1,0,1:0:0:0:
446,51,204950,1,0,1:0:0:0:
450,56,205021,2,0,P|482:137|377:258,1,202.500007724762,2|0,1:0|0:0,0:0:0:0:
476,265,205307,2,0,P|396:297|327:284,1,135.000005149842,12|0,0:0|0:0,0:0:0:0:
88,239,205593,2,0,P|233:214|289:88,1,270.000010299683,0|8,1:0|0:0,0:0:0:0:
353,191,206021,1,0,0:0:0:0:
181,137,206164,6,0,P|161:81|172:22,1,116.999994644165,4|0,1:0|0:0,0:0:0:0:
277,278,206450,86,0,P|272:335|226:398,1,107.999996704102,12|0,0:0|0:0,0:0:0:0:
342,130,206735,6,0,P|359:77|394:41,1,99.0000030212403,4|0,1:0|1:0,0:0:0:0:
442,254,207021,86,0,P|398:290|347:294,1,80.9999975280763,12|0,0:0|0:0,0:0:0:0:
198,186,207328,22,0,P|238:161|329:168,1,125.999996154785,2|0,0:0|0:0,0:0:0:0:
342,315,208013,102,0,P|305:302|280:258,1,90,2|0,0:0|0:0,0:0:0:0:
396,204,208766,102,0,P|403:237|386:259,1,53.9999983520508,2|0,0:0|0:0,0:0:0:0:
321,249,209546,2,0,P|314:216|331:194,1,53.9999983520508
358,224,210563,1,0,0:0:0:0:
358,224,213578,101,0,0:0:0:0:
320,124,213870,1,0,0:0:0:0:
169,280,214163,38,0,P|178:232|164:170,1,90,4|0,1:0|0:0,0:0:0:0:
111,95,214448,2,0,P|119:153|154:194,1,90
267,332,214734,2,0,P|283:265|275:217,1,90
231,34,215020,2,0,P|229:102|242:142,1,90
480,192,215305,5,4,1:0:0:0:
478,200,215877,1,0,0:0:0:0:
476,208,216448,1,6,1:2:0:0:
