osu file format v14

[General]
AudioFilename: audio.mp3
AudioLeadIn: 0
PreviewTime: 67307
Countdown: 0
SampleSet: Soft
StackLeniency: 0.5
Mode: 0
LetterboxInBreaks: 0
WidescreenStoryboard: 0

[Editor]
Bookmarks: 38164,67878,88450,106735,136450,154735,179878,195878,216449
DistanceSpacing: 1.2
BeatDivisor: 4
GridSize: 4
TimelineZoom: 2.3

[Metadata]
Title:Deep Indigo
TitleUnicode:藍二乗
Artist:Yorushika
ArtistUnicode:ヨルシカ
Creator:Ryuusei Aika
Version:Delis & Mirash Collab Extra
Source:
Tags:Ai Nijou Ainijou blur squared ナブナ nbuna n-buna スイ suis だから僕は音楽を辞めた That's Why I Gave Up on Music dakara boku wa ongaku o wo yameta japanese pop j-pop jpop rock j-rock jrock female vocal Sandrew kanor CoLouRed GlaZeE Delis ShirohaMyMommy Mirash Sing Nanashima Asami
BeatmapID:2588481
BeatmapSetID:1245222

[Difficulty]
HPDrainRate:8
CircleSize:4
OverallDifficulty:9
ApproachRate:9.5
SliderMultiplier:1.8
SliderTickRate:1

[Events]
//Background and Video events
0,0,"indigo.jpg",0,0
//Break Periods
2,106935,112782
//Storyboard Layer 0 (Background)
//Storyboard Layer 1 (Fail)
//Storyboard Layer 2 (Pass)
//Storyboard Layer 3 (Foreground)
//Storyboard Layer 4 (Overlay)
//Storyboard Sound Samples

[TimingPoints]
450,285.714285714286,4,2,1,30,1,0
1593,-200,4,2,1,30,0,0
10735,-133.333333333333,4,2,1,30,0,0
18164,-133.333333333333,4,2,1,32,0,0
18450,-133.333333333333,4,2,1,34,0,0
18735,-133.333333333333,4,2,1,36,0,0
19021,-133.333333333333,4,2,1,38,0,0
19307,-133.333333333333,4,2,1,40,0,0
19593,-133.333333333333,4,2,1,30,0,0
24164,-133.333333333333,4,2,1,40,0,0
26735,-100,4,2,1,40,0,0
29021,-83.3333333333333,4,2,1,40,0,0
29307,-83.3333333333333,4,2,1,50,0,0
38164,-100,4,2,1,30,0,0
45878,-100,4,2,1,32,0,0
46164,-100,4,2,1,34,0,0
46450,-100,4,2,1,36,0,0
46735,-100,4,2,1,38,0,0
47021,-100,4,2,1,40,0,0
53878,-100,4,2,1,42,0,0
54164,-100,4,2,1,44,0,0
54450,-100,4,2,1,46,0,0
54735,-100,4,2,1,48,0,0
55021,-100,4,2,1,50,0,0
55307,-100,4,2,1,40,0,0
56450,-133.333333333333,4,2,1,40,0,0
67307,-133.333333333333,4,2,1,30,0,0
67878,-76.9230769230769,4,2,1,60,0,0
88450,-133.333333333333,4,2,1,40,0,0
96735,-100,4,2,1,40,0,0
97021,-80,4,2,1,40,0,0
97593,-133.333333333333,4,2,1,40,0,0
97878,-83.3333333333333,4,2,1,50,0,0
103878,-100,4,2,1,50,0,0
104164,-83.3333333333333,4,2,1,50,0,0
105021,-76.9230769230769,4,2,1,50,0,0
106735,-76.9230769230769,4,2,1,30,0,0
113307,-125,4,2,1,30,0,0
115878,-125,4,2,1,40,0,0
122735,-125,4,2,1,42,0,0
123021,-111.111111111111,4,2,1,44,0,0
123307,-100,4,2,1,46,0,0
123593,-90.9090909090909,4,2,1,48,0,0
124164,-90.9090909090909,4,2,1,50,0,0
125021,-133.333333333333,4,2,1,50,0,0
126735,-133.333333333333,4,2,1,40,0,0
135878,-133.333333333333,4,2,1,45,0,0
136021,-133.333333333333,4,2,1,50,0,0
136164,-133.333333333333,4,2,1,54,0,0
136307,-133.333333333333,4,2,1,58,0,0
136450,-76.9230769230769,4,2,1,60,0,0
154735,-76.9230769230769,4,2,1,40,0,0
155307,-100,4,2,1,40,0,0
155735,-76.9230769230769,4,2,1,40,0,0
156164,-200,4,2,1,40,0,0
157021,-100,4,2,1,40,0,0
158021,-76.9230769230769,4,2,1,40,0,0
159307,-200,4,2,1,40,0,0
160450,-76.9230769230769,4,2,1,40,0,0
161593,-100,4,2,1,40,0,0
162593,-76.9230769230769,4,2,1,40,0,0
164164,-100,4,2,1,40,0,0
172735,-250,4,2,1,40,0,0
173164,-66.6666666666667,4,2,1,40,0,0
175307,-1000,4,2,1,40,0,0
176450,-500,4,2,1,40,0,0
179878,-76.9230769230769,4,2,1,60,0,0
181307,-133.333333333333,4,2,1,60,0,0
182164,-200,4,2,1,40,0,0
182450,-76.9230769230769,4,2,1,60,0,0
198164,-71.4285714285714,4,2,1,60,0,0
207021,307.692307692308,4,2,1,30,1,0
207328,333.333333333333,4,2,1,40,1,0
207328,-500,4,2,1,40,0,0
207661,352.941176470588,4,2,1,40,1,0
208013,-500,4,2,1,40,0,0
208366,400,4,2,1,40,1,0
208766,352.941176470588,4,2,1,40,1,0
209118,428.571428571429,4,2,1,40,1,0
209546,-500,4,2,1,40,0,0
209975,588.235294117647,4,2,1,40,1,0
210563,603.015075376884,4,2,1,40,1,0
213578,292.682926829268,4,2,1,40,1,0
214163,285.714285714286,4,2,1,40,1,0
214163,-200,4,2,1,40,0,0
215305,-133.333333333333,4,2,1,40,0,0
225591,-133.333333333333,4,2,1,50,0,0
236305,-133.333333333333,4,2,1,30,0,0

[Colours]
Combo1 : 60,94,251
Combo2 : 114,194,233
Combo3 : 232,150,96

[HitObjects]
77,92,1450,5,0,0:0:0:0:
77,92,1593,2,0,L|181:79,1,90,0|2,1:0|0:3,0:0:0:0:
225,30,2164,1,2,0:3:0:0:
281,87,2450,2,0,L|475:105,1,180,2|2,0:3|0:3,0:0:0:0:
506,167,3307,1,2,0:3:0:0:
448,222,3593,1,2,0:3:0:0:
283,194,3878,6,0,L|128:213,2,135,2|0|2,0:3|0:0|0:3,0:0:0:0:
283,194,5307,1,2,0:3:0:0:
347,239,5593,2,0,L|398:233,2,45,2|0|2,0:3|0:0|0:3,0:0:0:0:
168,344,6164,6,0,P|111:325|91:245,1,135,2|0,0:3|0:0,0:0:0:0:
55,120,7021,2,0,L|238:138,1,180,2|10,0:3|0:3,0:0:0:0:
289,196,7878,1,10,0:3:0:0:
289,196,8450,1,10,0:3:0:0:
364,186,8735,1,10,0:3:0:0:
440,191,9021,1,10,0:3:0:0:
508,219,9307,1,10,0:3:0:0:
421,117,9593,5,10,0:3:0:0:
268,134,9807,1,8,0:3:0:0:
268,134,9878,1,2,0:3:0:0:
224,71,10021,1,8,0:3:0:0:
295,44,10164,1,2,0:3:0:0:
295,44,10307,1,0,0:0:0:0:
295,44,10450,1,6,0:0:0:0:
180,143,10735,6,0,L|98:130,1,67.5,6|0,1:0|0:0,0:0:0:0:
218,221,11021,2,0,L|136:208,1,67.5,0|0,1:0|0:0,0:0:0:0:
248,296,11307,2,0,L|166:283,1,67.5,0|0,1:0|0:0,0:0:0:0:
120,324,11593,1,0,1:0:0:0:
267,366,11735,6,0,L|349:353,1,67.5,2|0,0:3|1:0,0:0:0:0:
364,289,12021,1,0,0:0:0:0:
400,221,12164,2,0,L|466:231,1,67.5,0|0,1:0|0:0,0:0:0:0:
363,142,12450,2,0,L|429:152,1,67.5,0|0,1:0|0:0,0:0:0:0:
289,62,12735,1,0,1:0:0:0:
295,62,12807,1,2,0:3:0:0:
301,62,12878,1,2,0:3:0:0:
307,62,12950,1,2,0:3:0:0:
313,62,13021,2,0,L|379:72,1,67.5,4|0,1:0|0:0,0:0:0:0:
281,134,13307,6,0,L|214:144,1,67.5,0|0,1:0|0:0,0:0:0:0:
161,58,13593,2,0,L|227:68,1,67.5,0|0,1:0|0:0,0:0:0:0:
161,197,13878,1,0,1:0:0:0:
129,130,14021,2,0,L|62:140,1,67.5,0|0,0:0|1:0,0:0:0:0:
6,93,14307,1,0,0:0:0:0:
21,210,14450,2,0,L|87:220,1,67.5,0|0,1:0|0:0,0:0:0:0:
114,295,14735,2,0,L|258:275,1,135.000005149842,0|0,1:0|1:0,0:0:0:0:
300,215,15164,5,2,0:3:0:0:
306,217,15235,1,0,0:0:0:0:
312,219,15307,2,0,L|378:229,1,67.5,0|0,1:0|0:0,0:0:0:0:
409,304,15593,2,0,L|475:314,1,67.5,0|0,1:0|0:0,0:0:0:0:
306,361,15878,2,0,L|372:371,1,67.5,0|0,1:0|0:0,0:0:0:0:
277,240,16164,1,0,1:0:0:0:
209,276,16307,2,0,L|275:286,1,67.5,2|0,0:3|1:0,0:0:0:0:
146,323,16593,1,0,0:0:0:0:
214,359,16736,2,0,L|147:369,1,67.5,0|0,1:0|0:0,0:0:0:0:
73,335,17021,2,0,L|6:345,1,67.5,0|0,1:0|0:0,0:0:0:0:
92,246,17307,5,0,1:0:0:0:
98,248,17378,1,2,0:3:0:0:
104,250,17450,1,2,0:3:0:0:
110,251,17521,1,2,0:3:0:0:
116,252,17593,2,0,L|137:99,1,135.000005149842,4|4,1:0|1:0,0:0:0:0:
377,118,18164,2,0,L|396:252,1,135.000005149842,4|4,1:0|1:0,0:0:0:0:
146,179,18735,6,0,L|156:102,1,67.5000025749208,4|0,1:0|0:0,0:0:0:0:
366,205,19021,2,0,L|355:281,1,67.5000025749208,4|0,1:0|0:0,0:0:0:0:
253,197,19307,5,4,1:0:0:0:
253,197,19593,1,2,1:3:0:0:
253,197,19735,1,2,0:3:0:0:
323,81,19878,5,6,1:2:0:0:
395,65,20021,1,2,0:0:0:0:
443,121,20164,1,10,0:2:0:0:
431,194,20307,1,2,0:0:0:0:
369,235,20450,1,2,0:0:0:0:
295,247,20593,1,2,1:2:0:0:
308,92,20735,5,10,0:2:0:0:
380,76,20878,1,2,0:0:0:0:
428,132,21021,1,2,1:2:0:0:
416,205,21164,1,2,1:2:0:0:
354,246,21307,1,10,0:2:0:0:
280,258,21450,1,2,0:3:0:0:
273,255,21521,1,2,0:3:0:0:
266,252,21593,1,2,0:3:0:0:
293,103,21735,5,2,1:2:0:0:
365,87,21878,1,10,0:2:0:0:
413,143,22021,1,2,0:0:0:0:
119,197,22164,5,2,1:2:0:0:
102,124,22307,1,2,1:2:0:0:
86,51,22450,1,10,0:2:0:0:
139,102,22593,1,2,0:0:0:0:
192,153,22735,1,2,0:0:0:0:
245,204,22878,1,2,1:2:0:0:
108,208,23021,5,10,0:2:0:0:
91,135,23164,1,2,0:3:0:0:
88,128,23235,1,2,0:3:0:0:
85,121,23307,1,2,1:2:0:0:
63,49,23450,1,2,1:2:0:0:
262,4,23593,5,10,0:2:0:0:
332,28,23735,1,2,0:0:0:0:
314,102,23878,1,2,0:0:0:0:
244,78,24020,1,2,1:2:0:0:
181,28,24164,6,0,L|198:122,1,67.5000025749208,14|0,0:2|0:0,0:0:0:0:
269,234,24450,5,6,1:2:0:0:
257,307,24593,1,2,0:0:0:0:
328,324,24735,1,10,0:2:0:0:
340,251,24878,1,2,0:0:0:0:
225,285,25021,5,2,0:0:0:0:
268,345,25164,1,2,1:2:0:0:
371,274,25306,1,8,0:0:0:0:
327,213,25449,1,2,0:0:0:0:
186,121,25593,5,2,1:2:0:0:
198,194,25736,1,2,1:2:0:0:
54,239,25878,1,10,0:2:0:0:
68,162,26021,1,2,0:3:0:0:
72,156,26093,1,2,0:3:0:0:
76,150,26164,1,2,0:3:0:0:
90,79,26307,1,2,1:2:0:0:
270,173,26450,5,10,0:2:0:0:
331,132,26593,1,2,0:0:0:0:
488,199,26735,6,0,B|401:174|401:174|342:255,1,180,2|12,1:2|0:0,0:0:0:0:
277,224,27164,1,6,0:2:0:0:
220,273,27307,2,0,L|240:373,1,90,2|2,0:0|1:2,0:0:0:0:
455,379,27593,2,0,L|472:290,1,90,12|0,0:0|0:0,0:0:0:0:
182,92,27878,5,6,1:2:0:0:
117,124,28021,1,0,0:2:0:0:
88,190,28164,1,14,0:2:0:0:
86,262,28307,1,2,1:2:0:0:
385,243,28450,5,6,1:2:0:0:
435,118,28593,1,2,0:0:0:0:
435,118,28664,1,0,0:0:0:0:
435,118,28735,1,2,1:2:0:0:
302,46,28878,1,2,1:2:0:0:
180,297,29021,6,0,B|311:297|237:224|379:217,1,215.999993408203,6|14,0:0|0:0,0:0:0:0:
485,345,29450,2,0,P|419:323|356:328,1,107.999996704102,0|0,0:0|1:0,0:0:0:0:
168,380,29735,1,2,0:0:0:0:
157,376,29807,1,2,0:0:0:0:
146,373,29878,2,0,P|90:336|69:268,1,107.999996704102,10|2,0:2|0:0,0:0:0:0:
60,49,30164,5,2,1:2:0:0:
161,146,30307,1,2,0:0:0:0:
47,221,30450,1,10,0:2:0:0:
47,221,30521,1,2,0:0:0:0:
47,221,30593,1,2,0:0:0:0:
47,221,30664,1,0,0:0:0:0:
47,221,30735,2,0,P|57:163|93:121,1,107.999996704102,2|2,1:2|0:0,0:0:0:0:
238,107,31021,2,0,L|259:221,1,107.999996704102,10|2,0:0|0:0,0:0:0:0:
366,27,31307,6,0,P|408:107|360:249,1,215.999993408203,2|10,1:2|0:0,0:0:0:0:
256,364,31735,1,2,0:0:0:0:
256,364,31807,1,0,0:0:0:0:
256,364,31878,2,0,P|294:322|306:261,1,107.999996704102,2|2,1:2|0:0,0:0:0:0:
54,308,32164,2,0,L|164:313,1,107.999996704102,10|2,0:2|0:0,0:0:0:0:
509,191,32450,1,2,1:2:0:0:
509,191,32735,5,10,0:2:0:0:
385,125,32878,1,2,0:0:0:0:
285,201,33021,1,2,1:2:0:0:
409,267,33164,1,2,0:0:0:0:
509,191,33307,6,0,L|493:81,1,107.999996704102,10|0,0:0|0:0,0:0:0:0:
265,18,33593,5,2,1:2:0:0:
247,95,33735,1,2,0:0:0:0:
131,93,33878,1,14,0:2:0:0:
149,170,34020,1,2,0:0:0:0:
347,189,34164,5,2,1:2:0:0:
329,266,34306,1,2,0:0:0:0:
328,193,34450,1,10,0:2:0:0:
310,270,34592,1,2,0:0:0:0:
103,325,34735,6,0,B|154:344|154:344|207:302,1,107.999996704102,2|0,1:2|0:0,0:0:0:0:
318,102,35021,2,0,B|369:83|369:83|422:125,1,107.999996704102,10|0,0:2|0:0,0:0:0:0:
261,348,35307,5,2,1:2:0:0:
154,174,35450,1,2,0:0:0:0:
359,173,35593,1,10,0:0:0:0:
359,173,35878,5,10,0:0:0:0:
154,174,36021,1,2,1:2:0:0:
261,348,36164,1,0,1:0:0:0:
310,136,36307,5,10,0:0:0:0:
150,229,36450,1,2,1:2:0:0:
312,316,36593,1,2,1:2:0:0:
257,129,36735,5,10,0:0:0:0:
175,273,36878,1,2,1:2:0:0:
340,268,37021,1,0,1:0:0:0:
149,121,37164,5,10,0:0:0:0:
184,358,37307,1,2,1:2:0:0:
247,295,37450,5,2,1:2:0:0:
265,165,37593,1,10,0:0:0:0:
347,207,37735,5,2,1:2:0:0:
371,292,37878,1,2,1:2:0:0:
437,232,38021,5,2,1:2:0:0:
288,272,38164,5,0,1:0:0:0:
104,244,38450,1,0,1:0:0:0:
280,192,38735,1,0,1:0:0:0:
152,320,39021,1,0,1:0:0:0:
188,240,39164,1,2,0:3:0:0:
68,328,39307,5,0,1:0:0:0:
128,152,39593,1,0,1:0:0:0:
232,312,39878,1,0,1:0:0:0:
288,140,40164,1,0,1:0:0:0:
208,216,40307,5,2,0:3:0:0:
208,216,40378,1,2,0:3:0:0:
208,216,40450,1,4,1:0:0:0:
264,48,40735,1,0,1:0:0:0:
296,224,41021,1,0,1:0:0:0:
184,72,41307,1,0,1:0:0:0:
260,132,41450,1,2,0:3:0:0:
120,144,41593,5,0,1:0:0:0:
264,48,41878,1,0,1:0:0:0:
164,252,42164,1,0,1:0:0:0:
76,48,42450,1,0,1:0:0:0:
184,156,42593,5,4,0:0:0:0:
84,212,42736,1,0,1:0:0:0:
192,64,43021,1,0,1:0:0:0:
164,252,43307,1,0,1:0:0:0:
304,72,43593,1,0,1:0:0:0:
272,152,43735,1,2,0:3:0:0:
360,144,43878,1,0,1:0:0:0:
452,44,44164,5,0,1:0:0:0:
488,276,44450,1,0,1:0:0:0:
360,144,44735,5,0,1:0:0:0:
351,146,44807,1,2,0:3:0:0:
342,148,44878,1,2,0:3:0:0:
333,150,44950,1,2,0:3:0:0:
324,152,45021,2,0,L|216:136,1,90,4|0,1:0|0:0,0:0:0:0:
180,240,45307,2,0,L|288:224,1,90,0|0,1:0|0:0,0:0:0:0:
269,226,45593,2,0,L|160:212,1,90,2|2,1:3|0:3,0:0:0:0:
234,138,45878,2,0,L|334:122,1,90,4|0,1:0|0:0,0:0:0:0:
256,40,46164,5,4,1:0:0:0:
256,348,46450,1,4,1:0:0:0:
200,124,46735,5,4,1:0:0:0:
336,188,46878,1,0,0:0:0:0:
196,232,47021,1,4,1:0:0:0:
260,176,47164,1,0,0:0:0:0:
248,320,47307,6,0,P|168:340|88:272,1,180,2|0,1:0|1:0,0:0:0:0:
76,208,47735,1,0,0:0:0:0:
76,208,48021,1,0,0:0:0:0:
188,264,48164,1,0,1:0:0:0:
132,144,48307,1,2,0:3:0:0:
216,184,48450,5,0,1:0:0:0:
256,104,48593,1,0,0:0:0:0:
292,216,48735,1,2,1:0:0:0:
176,116,48878,1,0,0:0:0:0:
328,56,49021,2,0,P|376:56|424:52,1,90,0|2,1:0|0:0,0:0:0:0:
384,188,49307,5,0,1:0:0:0:
375,187,49378,1,2,0:3:0:0:
365,186,49450,1,2,0:3:0:0:
356,185,49521,1,2,0:3:0:0:
346,183,49593,2,0,B|236:152|168:252,1,180,6|0,1:0|1:0,0:0:0:0:
140,304,50021,1,2,0:0:0:0:
112,132,50164,2,0,L|84:240,1,90,0|0,1:0|0:0,0:0:0:0:
140,44,50450,1,2,1:0:0:0:
140,44,50593,1,2,0:3:0:0:
232,188,50735,6,0,P|280:180|324:140,1,90,0|0,1:0|0:0,0:0:0:0:
396,32,51021,2,0,P|380:76|392:140,1,90,2|0,1:0|0:0,0:0:0:0:
456,252,51307,2,0,P|424:220|372:196,1,90,0|2,1:0|0:0,0:0:0:0:
216,104,51593,5,0,1:0:0:0:
312,232,51735,1,4,0:0:0:0:
124,152,51878,6,0,P|52:200|28:308,2,180,2|0|0,1:0|1:0|1:0,0:0:0:0:
208,192,52593,1,0,0:0:0:0:
304,164,52735,1,0,1:0:0:0:
280,260,52878,1,2,0:3:0:0:
188,280,53021,1,2,1:2:0:0:
164,364,53164,2,0,P|248:348|272:340,1,90,0|0,0:0|1:0,0:0:0:0:
408,288,53450,6,0,P|440:216|396:124,1,180,2|0,0:0|0:0,0:0:0:0:
328,192,53878,1,0,1:0:0:0:
308,104,54021,1,0,0:0:0:0:
132,280,54164,6,0,P|184:272|228:264,1,90,4|0,1:0|0:0,0:0:0:0:
96,32,54450,2,0,P|88:72|80:136,1,90,0|0,1:0|0:0,0:0:0:0:
416,352,54735,2,0,P|424:312|432:248,1,90,2|0,1:3|0:0,0:0:0:0:
380,104,55021,2,0,P|328:112|284:120,1,90,4|0,1:0|0:0,0:0:0:0:
160,156,55307,5,4,1:0:0:0:
256,192,55450,1,8,0:0:0:0:
352,228,55593,1,4,1:0:0:0:
352,228,55878,5,12,1:0:0:0:
144,272,56021,1,8,0:0:0:0:
212,68,56164,1,12,1:0:0:0:
248,256,56307,5,0,1:0:0:0:
304,156,56450,2,0,P|232:172|160:176,1,135.000005149842,6|0,1:0|1:0,0:0:0:0:
96,152,56878,1,8,0:0:0:0:
140,332,57164,1,0,1:0:0:0:
216,356,57307,2,0,P|292:344|360:328,1,135.000005149842,6|0,1:0|0:0,0:0:0:0:
424,348,57735,1,0,1:0:0:0:
352,240,57878,2,0,P|360:192|372:128,1,101.250003862381
369,140,58164,2,0,P|324:156|288:160,1,67.5000025749208,12|0,0:0|0:0,0:0:0:0:
228,180,58450,2,0,P|192:128|184:96,1,67.5000025749208,0|0,1:0|0:0,0:0:0:0:
204,44,58735,5,6,1:0:0:0:
32,180,59021,1,0,1:0:0:0:
40,113,59164,2,0,L|28:209,1,67.5000025749208,10|0,0:0|0:0,0:0:0:0:
188,284,59450,1,0,1:0:0:0:
192,212,59593,2,0,L|200:120,1,67.5000025749208,6|0,1:0|0:0,0:0:0:0:
236,32,59878,5,0,0:0:0:0:
296,80,60021,2,0,P|384:80|448:68,1,135.000005149842,0|0,1:0|1:0,0:0:0:0:
472,152,60450,2,0,P|404:160|320:164,1,135.000005149842,12|2,0:0|0:0,0:0:0:0:
272,248,60878,5,0,0:0:0:0:
272,248,60950,1,0,0:0:0:0:
272,248,61021,2,0,P|352:240|424:236,1,135.000005149842,6|0,1:0|1:0,0:0:0:0:
406,236,61450,1,8,0:0:0:0:
196,84,61735,1,0,1:0:0:0:
252,144,61878,2,0,P|184:176|123:157,1,135.000005149842,6|0,1:0|0:0,0:0:0:0:
68,108,62307,2,0,L|56:24,1,67.5000025749208,0|0,1:0|0:0,0:0:0:0:
96,256,62593,1,0,1:0:0:0:
0,212,62735,2,0,P|36:196|72:172,1,67.5000025749208,12|0,0:0|0:0,0:0:0:0:
248,220,63021,2,0,P|212:236|176:260,1,67.5000025749208,0|0,1:0|0:0,0:0:0:0:
136,312,63307,5,6,1:0:0:0:
148,188,63450,1,0,0:0:0:0:
148,188,63593,1,0,1:0:0:0:
88,240,63735,5,10,0:0:0:0:
196,128,63878,1,2,0:0:0:0:
196,128,64021,1,0,1:0:0:0:
112,112,64164,5,6,1:0:0:0:
276,140,64307,1,0,0:0:0:0:
276,140,64450,1,0,0:0:0:0:
248,60,64593,5,8,0:0:0:0:
304,216,64736,1,0,0:0:0:0:
304,216,64879,1,0,1:0:0:0:
352,152,65021,5,12,0:0:0:0:
260,284,65164,1,0,0:0:0:0:
260,284,65307,1,2,1:0:0:0:
180,152,65450,1,0,1:0:0:0:
324,192,65593,5,0,1:0:0:0:
224,220,65735,1,0,1:0:0:0:
252,124,65878,1,0,1:0:0:0:
204,340,66021,5,10,1:0:0:0:
256,40,66307,1,10,1:0:0:0:
312,340,66593,1,10,1:0:0:0:
312,340,66878,5,2,0:0:0:0:
380,248,67021,1,8,0:0:0:0:
280,176,67164,1,0,1:0:0:0:
200,272,67307,1,2,0:0:0:0:
288,272,67450,5,2,0:0:0:0:
304,256,67593,1,2,0:0:0:0:
280,252,67735,1,2,0:0:0:0:
498,265,67878,6,0,B|481:183|481:183|435:138|435:138|415:46,1,233.999989288331,4|8,1:0|0:0,0:0:0:0:
282,106,68307,1,0,0:0:0:0:
217,39,68450,2,0,L|187:173,1,116.999994644165,0|0,1:0|0:0,0:0:0:0:
314,320,68735,2,0,P|370:334|447:296,1,116.999994644165,8|0,0:0|0:0,0:0:0:0:
227,236,69021,6,0,P|157:248|66:378,1,233.999989288331,0|8,1:0|0:0,0:0:0:0:
141,381,69450,1,0,0:0:0:0:
279,293,69593,5,0,1:0:0:0:
263,373,69735,1,0,0:0:0:0:
358,295,69878,1,8,0:0:0:0:
342,375,70020,1,0,0:0:0:0:
319,204,70164,5,0,1:0:0:0:
246,266,70307,1,0,0:0:0:0:
311,336,70450,1,8,0:0:0:0:
412,230,70593,5,0,0:0:0:0:
477,160,70736,1,0,1:0:0:0:
404,98,70879,1,0,0:0:0:0:
84,137,71021,5,8,0:0:0:0:
200,175,71164,1,0,0:0:0:0:
92,161,71307,1,0,1:0:0:0:
164,97,71450,5,0,0:0:0:0:
246,104,71593,1,8,0:0:0:0:
291,170,71735,1,0,0:0:0:0:
282,253,71878,1,0,1:0:0:0:
215,301,72021,1,0,0:0:0:0:
137,287,72164,1,8,0:0:0:0:
65,315,72307,1,0,0:0:0:0:
335,369,72450,6,0,B|352:287|352:287|398:242|398:242|418:150,1,233.999989288331,6|10,1:2|0:0,0:0:0:0:
303,71,72878,1,2,0:0:0:0:
222,138,73021,2,0,B|278:161|278:161|338:137,1,116.999994644165,0|0,1:0|0:0,0:0:0:0:
120,46,73307,1,8,0:0:0:0:
68,125,73450,1,0,0:0:0:0:
242,251,73593,6,0,L|223:376,1,116.999994644165,0|0,1:0|0:0,0:0:0:0:
18,272,73878,1,8,0:0:0:0:
108,192,74021,1,0,0:0:0:0:
340,202,74164,1,0,1:0:0:0:
250,122,74307,1,0,0:0:0:0:
154,346,74450,5,8,0:0:0:0:
308,369,74593,1,0,0:0:0:0:
243,250,74735,1,0,1:0:0:0:
243,250,74878,1,0,0:0:0:0:
148,202,75021,5,8,0:0:0:0:
328,205,75164,1,0,0:0:0:0:
232,384,75306,1,0,1:0:0:0:
232,384,75449,1,0,0:0:0:0:
240,133,75593,5,8,0:0:0:0:
379,384,75735,2,0,B|426:354|426:354|492:369,1,116.999994644165,4|0,1:0|0:0,0:0:0:0:
508,300,76021,1,0,1:0:0:0:
508,300,76093,1,0,0:0:0:0:
508,300,76164,1,8,0:0:0:0:
363,224,76307,1,4,1:0:0:0:
277,361,76450,2,0,B|230:331|230:331|164:346,1,116.999994644165
48,286,76735,5,0,1:0:0:0:
48,286,76807,1,0,0:0:0:0:
48,286,76878,1,0,1:0:0:0:
48,286,76950,1,0,1:0:0:0:
48,286,77021,2,0,B|37:145|127:196|110:49,1,233.999989288331,4|8,1:0|0:0,0:0:0:0:
49,23,77450,1,0,0:0:0:0:
164,216,77593,2,0,P|219:192|250:132,1,116.999994644165,0|0,1:0|0:0,0:0:0:0:
246,19,77878,2,0,P|301:12|362:59,1,116.999994644165,8|0,0:0|0:0,0:0:0:0:
392,211,78164,5,0,1:0:0:0:
479,73,78307,1,0,0:0:0:0:
481,247,78450,1,8,0:0:0:0:
399,117,78593,1,0,0:0:0:0:
263,200,78735,5,0,1:0:0:0:
399,117,78878,1,0,0:0:0:0:
481,247,79021,1,8,0:0:0:0:
346,338,79164,1,0,0:0:0:0:
447,173,79307,6,0,P|438:112|436:34,1,116.999994644165,0|0,1:0|0:0,0:0:0:0:
214,220,79593,1,8,0:0:0:0:
320,268,79735,1,0,0:0:0:0:
285,14,79878,1,0,1:0:0:0:
190,82,80021,1,0,0:0:0:0:
465,185,80164,1,8,0:0:0:0:
444,43,80307,1,0,0:0:0:0:
261,176,80450,6,0,P|141:192|12:202,1,233.999989288331,0|8,1:0|0:0,0:0:0:0:
30,123,80878,1,0,0:0:0:0:
107,119,81021,2,0,P|172:112|233:102,1,116.999994644165,0|0,1:0|0:0,0:0:0:0:
483,214,81307,2,0,P|425:223|367:229,1,116.999994644165,8|0,0:0|0:0,0:0:0:0:
250,296,81593,5,4,1:2:0:0:
176,275,81735,1,2,0:0:0:0:
104,297,81878,1,8,0:0:0:0:
55,358,82021,1,2,0:0:0:0:
129,366,82164,1,2,1:2:0:0:
197,343,82307,1,0,0:0:0:0:
250,296,82450,5,8,0:0:0:0:
500,316,82593,2,0,P|398:300|292:212,1,233.999989288331,4|0,1:0|1:0,0:0:0:0:
424,143,83021,5,8,0:0:0:0:
174,163,83164,2,0,P|276:147|382:59,1,233.999989288331,4|0,1:0|1:0,0:0:0:0:
111,14,83593,2,0,P|49:57|27:99,1,116.999994644165,8|2,0:0|0:0,0:0:0:0:
259,374,83878,5,2,1:2:0:0:
300,258,84021,1,2,0:0:0:0:
259,374,84164,5,10,0:0:0:0:
220,198,84307,1,2,0:0:0:0:
259,374,84450,5,2,1:0:0:0:
329,130,84593,1,2,0:0:0:0:
259,374,84735,5,10,0:0:0:0:
204,49,84878,1,2,0:0:0:0:
313,1,85021,5,4,1:0:0:0:
388,33,85164,1,0,0:0:0:0:
425,109,85307,1,12,0:0:0:0:
403,189,85450,1,0,0:0:0:0:
331,231,85593,1,4,1:0:0:0:
269,290,85735,1,0,0:0:0:0:
266,384,85878,1,0,1:0:0:0:
266,384,85950,1,0,1:0:0:0:
266,384,86021,1,0,1:0:0:0:
266,384,86093,1,0,1:0:0:0:
266,384,86164,5,6,1:0:0:0:
181,362,86307,1,0,0:0:0:0:
236,302,86450,1,8,0:0:0:0:
402,278,86593,5,6,1:0:0:0:
487,256,86736,1,0,0:0:0:0:
432,196,86879,1,0,1:0:0:0:
402,278,87021,1,8,0:0:0:0:
241,122,87164,5,6,1:0:0:0:
127,155,87307,1,0,0:0:0:0:
241,196,87450,1,0,1:0:0:0:
170,93,87593,1,8,0:0:0:0:
165,271,87735,5,6,1:0:0:0:
318,167,87878,2,0,B|368:197|368:197|447:173,1,116.999994644165,0|0,0:0|1:0,0:0:0:0:
33,116,88164,6,0,L|50:271,1,116.999994644165,8|0,0:0|0:0,0:0:0:0:
248,320,88450,5,6,1:2:0:0:
168,336,88593,1,2,0:0:0:0:
152,256,88735,1,10,0:2:0:0:
232,236,88878,1,2,0:0:0:0:
212,156,89021,1,2,0:0:0:0:
132,172,89164,1,2,1:2:0:0:
116,92,89306,1,10,0:2:0:0:
196,72,89449,1,2,0:0:0:0:
352,196,89593,5,2,1:2:0:0:
420,248,89735,1,2,1:2:0:0:
444,160,89878,1,10,0:2:0:0:
372,112,90021,1,2,0:3:0:0:
352,196,90164,1,2,0:3:0:0:
332,280,90307,1,2,1:2:0:0:
268,220,90450,1,10,0:2:0:0:
284,132,90593,1,2,0:0:0:0:
40,216,90735,5,2,1:2:0:0:
124,200,90878,1,2,1:2:0:0:
208,184,91021,1,10,0:2:0:0:
124,200,91164,1,2,0:0:0:0:
180,260,91307,1,2,0:0:0:0:
240,320,91450,1,2,1:2:0:0:
180,260,91593,1,10,0:2:0:0:
144,340,91735,1,2,0:3:0:0:
88,272,91878,1,2,1:2:0:0:
324,216,92021,5,2,1:2:0:0:
408,240,92164,1,10,0:2:0:0:
480,184,92307,1,2,0:0:0:0:
288,188,92450,1,2,0:0:0:0:
200,148,92593,5,2,1:2:0:0:
108,120,92735,1,14,0:2:0:0:
32,168,92878,1,0,0:0:0:0:
280,96,93021,5,6,1:2:0:0:
288,188,93164,1,2,0:0:0:0:
212,240,93307,1,10,0:2:0:0:
200,148,93450,1,2,0:0:0:0:
132,208,93593,1,2,0:0:0:0:
144,296,93735,1,2,1:2:0:0:
160,384,93878,1,8,0:0:0:0:
248,372,94021,1,2,0:0:0:0:
344,184,94164,5,2,1:2:0:0:
440,192,94307,1,2,1:2:0:0:
380,112,94450,1,10,0:2:0:0:
272,108,94593,1,2,0:3:0:0:
272,108,94664,1,2,0:3:0:0:
272,108,94735,1,2,0:3:0:0:
240,184,94878,1,2,1:2:0:0:
144,48,95021,1,10,0:2:0:0:
152,208,95164,1,2,0:0:0:0:
20,88,95307,6,0,P|68:132|148:124,1,135.000005149842,2|12,1:2|0:0,0:0:0:0:
216,92,95735,1,6,0:2:0:0:
171,341,95878,2,0,L|147:177,1,135.000005149842,2|12,0:0|0:0,0:0:0:0:
240,260,96307,1,0,0:0:0:0:
372,152,96450,6,0,P|336:164|296:168,1,67.5000025749208,6|0,1:2|0:2,0:0:0:0:
224,112,96735,2,0,P|156:80|128:52,1,90,14|2,0:2|1:2,0:0:0:0:
372,152,97021,2,0,P|332:208|288:236,1,112.5,6|2,1:2|0:0,0:0:0:0:
60,196,97307,5,2,1:2:0:0:
216,252,97450,1,2,1:2:0:0:
112,128,97593,6,0,P|136:108|184:96,1,67.5000025749208,6|0,0:0|0:0,0:0:0:0:
184,72,97807,1,0,0:0:0:0:
192,40,97878,2,0,P|256:88|352:84,1,161.999995056153,14|0,0:0|0:0,0:0:0:0:
368,64,98164,1,0,1:0:0:0:
332,256,98307,1,2,0:0:0:0:
292,276,98378,1,2,0:0:0:0:
248,272,98450,1,10,0:2:0:0:
180,232,98593,1,2,0:0:0:0:
132,168,98735,5,2,1:2:0:0:
124,312,98878,1,2,0:0:0:0:
92,228,99021,1,10,0:2:0:0:
96,184,99093,1,2,0:0:0:0:
92,140,99164,1,2,0:0:0:0:
40,80,99307,5,2,1:2:0:0:
36,296,99450,1,2,0:0:0:0:
168,104,99593,1,10,0:0:0:0:
168,272,99735,1,2,0:0:0:0:
256,144,99878,2,0,P|252:200|256:276,1,107.999996704102,2|0,1:2|0:0,0:0:0:0:
312,52,100164,5,10,0:0:0:0:
312,52,100235,1,2,0:0:0:0:
312,52,100307,1,2,0:0:0:0:
312,52,100378,1,2,0:0:0:0:
352,88,100450,5,2,1:2:0:0:
352,88,100521,1,0,0:0:0:0:
352,88,100593,1,2,0:0:0:0:
352,88,100664,1,2,0:0:0:0:
380,116,100735,6,0,L|372:224,1,107.999996704102,10|2,0:2|0:0,0:0:0:0:
392,264,100950,1,0,0:0:0:0:
412,304,101021,2,0,P|360:328|300:324,1,107.999996704102,2|0,1:2|0:0,0:0:0:0:
236,340,101307,1,10,0:2:0:0:
144,208,101450,1,2,0:0:0:0:
268,244,101593,1,2,1:2:0:0:
148,352,101735,1,2,0:0:0:0:
8,276,101878,2,0,P|8:228|4:160,1,107.999996704102,10|0,0:0|0:0,0:0:0:0:
116,48,102164,5,2,1:2:0:0:
140,164,102307,1,2,0:0:0:0:
248,116,102450,1,14,0:2:0:0:
288,232,102593,1,2,0:0:0:0:
92,116,102735,5,2,1:2:0:0:
116,216,102878,1,2,0:0:0:0:
220,248,103021,1,10,0:2:0:0:
240,352,103164,1,2,0:0:0:0:
48,184,103307,5,2,1:2:0:0:
64,260,103450,1,0,0:0:0:0:
124,308,103593,1,10,0:2:0:0:
136,380,103736,1,0,0:0:0:0:
192,332,103878,2,0,P|240:312|296:320,1,90,2|2,1:2|0:0,0:0:0:0:
360,196,104164,2,0,L|136:236,1,215.999993408203,10|10,0:0|0:0,0:0:0:0:
64,72,104593,6,0,P|120:124|208:112,1,161.999995056153,2|0,1:2|0:0,0:0:0:0:
228,84,104878,1,10,0:0:0:0:
456,228,105021,2,0,P|408:280|300:264,1,175.499991966248,2|0,1:2|0:0,0:0:0:0:
276,240,105307,1,10,0:0:0:0:
60,184,105450,2,0,P|64:248|72:304,1,116.999994644165,2|0,1:2|1:0,0:0:0:0:
292,144,105735,5,10,0:0:0:0:
248,256,105878,1,2,1:2:0:0:
176,168,106021,1,2,1:2:0:0:
316,104,106164,5,10,0:0:0:0:
200,280,106307,1,2,1:2:0:0:
368,172,106450,1,2,1:2:0:0:
104,152,106593,5,2,1:2:0:0:
256,188,106735,1,2,0:3:0:0:
435,194,113307,5,2,0:0:0:0:
435,194,113378,1,2,0:0:0:0:
435,194,113450,1,2,0:0:0:0:
435,194,113521,1,0,0:0:0:0:
435,194,113593,1,2,0:0:0:0:
435,194,114593,1,0,1:0:0:0:
366,169,114878,1,0,1:0:0:0:
304,208,115164,1,0,1:0:0:0:
240,244,115450,1,0,1:0:0:0:
162,229,115593,1,2,1:0:0:0:
132,156,115735,1,0,1:0:0:0:
205,53,115878,6,0,L|213:151,1,72,0|0,1:0|0:0,0:0:0:0:
280,154,116164,1,0,1:0:0:0:
351,182,116307,2,0,L|332:343,1,144
422,317,116878,5,0,1:0:0:0:
455,244,117021,2,0,L|444:163,1,72,0|0,1:0|0:0,0:0:0:0:
491,111,117307,1,2,1:0:0:0:
480,95,117593,5,0,1:0:0:0:
426,152,117735,1,0,0:0:0:0:
379,89,117878,1,0,1:0:0:0:
243,190,118021,5,2,0:0:0:0:
109,66,118164,2,0,B|141:86|141:86|193:69,1,72,0|0,1:0|0:0,0:0:0:0:
267,33,118450,2,0,L|254:123,1,72,0|0,1:0|0:0,0:0:0:0:
154,168,118735,2,0,L|179:334,1,144,0|0,1:0|1:0,0:0:0:0:
275,242,119164,5,0,1:0:0:0:
36,202,119307,2,0,P|64:145|92:123,1,72,0|0,1:0|0:0,0:0:0:0:
325,185,119593,2,0,P|356:217|370:249,1,72,2|0,1:0|0:0,0:0:0:0:
141,342,119878,2,0,P|188:318|233:318,2,72,0|0|0,1:0|0:0|1:0,0:0:0:0:
316,316,120307,5,8,0:0:0:0:
149,194,120450,2,0,P|124:318|111:362,1,144,2|0,1:0|1:0,0:0:0:0:
193,351,120878,1,0,0:0:0:0:
267,343,121021,2,0,P|253:294|246:252,1,72,0|0,1:0|0:0,0:0:0:0:
114,83,121307,1,0,1:0:0:0:
36,195,121450,1,0,1:0:0:0:
161,187,121593,6,0,P|136:100|122:23,1,144,0|0,1:2|1:0,0:0:0:0:
125,47,122021,1,0,0:0:0:0:
36,195,122164,5,0,1:0:0:0:
199,284,122307,1,0,1:0:0:0:
289,121,122450,1,0,1:0:0:0:
171,195,122593,5,0,1:0:0:0:
266,239,122735,6,0,L|254:148,1,72,4|0,1:0|0:0,0:0:0:0:
360,310,123021,6,0,L|345:211,1,80.9999975280763,0|0,1:0|0:0,0:0:0:0:
174,210,123307,6,0,L|181:114,1,90,2|0,1:3|0:0,0:0:0:0:
77,291,123593,6,0,L|89:179,1,99.0000030212403,4|0,1:0|0:0,0:0:0:0:
279,358,123878,5,4,1:0:0:0:
157,286,124021,1,8,0:0:0:0:
229,164,124164,1,4,1:0:0:0:
351,236,124450,5,12,1:0:0:0:
279,358,124593,1,8,0:0:0:0:
157,286,124735,1,12,1:0:0:0:
258,256,124878,1,0,0:0:0:0:
69,223,125021,6,0,B|58:269|58:269|93:302|93:361,1,135.000005149842,6|0,1:0|1:0,0:0:0:0:
211,369,125450,1,8,0:0:0:0:
312,294,125593,2,0,B|281:306|281:306|236:284,1,67.5000025749208,0|0,0:0|1:0,0:0:0:0:
329,209,125878,1,6,1:0:0:0:
397,249,126021,1,0,0:0:0:0:
377,38,126164,6,0,P|321:68|309:91,1,67.5000025749208,0|0,0:0|1:0,0:0:0:0:
244,80,126450,2,0,P|247:130|261:151,1,67.5000025749208,0|0,0:0|1:0,0:0:0:0:
454,268,126735,2,0,P|423:204|362:192,1,135.000005149842,12|0,0:0|1:0,0:0:0:0:
304,245,127164,1,0,0:0:0:0:
38,175,127307,6,0,B|89:217|89:217|156:182,1,135.000005149842,6|0,1:0|1:0,0:0:0:0:
212,144,127735,1,10,0:0:0:0:
369,296,127878,2,0,L|279:284,1,67.5000025749208,0|0,0:0|1:0,0:0:0:0:
396,223,128164,1,6,1:0:0:0:
442,286,128307,1,0,0:0:0:0:
247,349,128450,6,0,P|200:316|189:290,1,67.5000025749208,0|0,0:0|1:0,0:0:0:0:
120,294,128735,2,0,P|118:245|141:201,1,67.5000025749208,0|0,0:0|1:0,0:0:0:0:
317,192,129021,2,0,P|277:168|185:212,1,135.000005149842,12|2,0:0|0:0,0:0:0:0:
188,269,129450,1,0,0:0:0:0:
464,288,129593,6,0,P|454:234|449:190,1,67.5000025749208,6|0,1:0|0:0,0:0:0:0:
479,152,129878,1,0,1:0:0:0:
317,169,130021,2,0,P|306:288|297:327,1,135.000005149842,8|0,0:0|1:0,0:0:0:0:
298,316,130450,2,0,P|281:253|281:229,1,67.5000025749208,6|0,1:0|0:0,0:0:0:0:
211,154,130735,6,0,P|152:177|143:187,1,67.5000025749208,0|4,0:0|0:3,0:0:0:0:
243,74,131021,2,0,P|308:86|329:97,1,67.5000025749208,0|0,0:0|1:0,0:0:0:0:
260,377,131307,1,12,0:0:0:0:
186,366,131593,1,0,1:0:0:0:
4,186,131878,6,0,P|71:171|95:97,1,135.000005149842,6|0,1:0|1:0,0:0:0:0:
133,50,132307,1,10,0:0:0:0:
286,175,132450,2,0,P|334:159|364:129,1,67.5000025749208,2|0,0:0|1:0,0:0:0:0:
202,179,132735,1,6,1:0:0:0:
231,261,132878,1,0,0:0:0:0:
388,304,133021,6,0,P|379:262|395:222,1,67.5000025749208,0|8,0:0|0:0,0:0:0:0:
362,375,133307,2,0,P|305:349|292:333,1,67.5000025749208,0|0,0:0|1:0,0:0:0:0:
443,375,133593,2,0,P|467:333|499:317,1,67.5000025749208,12|0,0:0|0:0,0:0:0:0:
269,240,133878,1,2,1:0:0:0:
269,240,134021,1,0,1:0:0:0:
176,240,134164,5,0,1:0:0:0:
354,280,134307,1,0,1:0:0:0:
149,163,134450,5,0,1:0:0:0:
395,353,134593,1,10,1:0:0:0:
452,302,134878,1,10,1:0:0:0:
486,373,135164,1,10,1:0:0:0:
486,373,135450,5,2,0:0:0:0:
392,269,135593,1,8,0:0:0:0:
504,189,135735,1,0,1:0:0:0:
267,138,135878,5,2,1:2:0:0:
250,142,135950,1,0,1:2:0:0:
236,157,136021,1,2,1:2:0:0:
226,179,136093,1,0,1:2:0:0:
193,204,136164,1,2,1:2:0:0:
148,198,136235,1,0,1:2:0:0:
101,167,136307,1,2,1:2:0:0:
40,166,136378,1,0,1:2:0:0:
0,228,136450,6,0,P|0:296|32:336,1,116.999994644165,4|0,1:0|0:0,0:0:0:0:
424,256,136735,2,0,P|340:312|212:284,1,233.999989288331,8|0,0:0|1:0,0:0:0:0:
160,232,137164,1,0,0:0:0:0:
148,156,137307,1,8,0:0:0:0:
160,80,137450,1,0,0:0:0:0:
4,36,137593,6,0,P|16:104|8:160,1,116.999994644165,0|0,1:0|0:0,0:0:0:0:
244,88,137878,2,0,L|384:80,1,116.999994644165,8|0,0:0|0:0,0:0:0:0:
444,124,138164,1,0,1:0:0:0:
500,36,138307,1,0,0:0:0:0:
488,232,138450,2,0,P|436:256|376:244,1,116.999994644165,8|0,0:0|0:0,0:0:0:0:
212,164,138735,5,0,1:0:0:0:
260,100,138878,1,0,0:0:0:0:
276,256,139021,1,8,0:0:0:0:
136,176,139164,1,0,0:0:0:0:
308,160,139307,1,0,1:0:0:0:
320,328,139450,1,0,0:0:0:0:
212,328,139593,2,0,P|196:296|216:212,1,116.999994644165,8|0,0:0|0:0,0:0:0:0:
136,80,139878,6,0,P|224:92|304:40,1,175.499991966248,0|0,1:0|0:0,0:0:0:0:
340,120,140164,2,0,L|464:92,1,116.999994644165,8|0,0:0|0:0,0:0:0:0:
488,68,140378,1,0,0:0:0:0:
480,112,140450,1,0,1:0:0:0:
472,200,140593,1,0,0:0:0:0:
344,300,140735,1,8,0:0:0:0:
356,208,140878,1,0,0:0:0:0:
60,220,141021,6,0,P|156:284|268:236,1,233.999989288331,6|10,1:2|0:0,0:0:0:0:
212,152,141450,1,2,0:0:0:0:
368,28,141593,2,0,P|396:76|392:140,1,116.999994644165,0|0,1:0|0:0,0:0:0:0:
320,192,141878,1,8,0:0:0:0:
304,100,142021,1,0,0:0:0:0:
56,48,142164,6,0,P|40:128|124:224,1,175.499991966248,0|0,1:0|0:0,0:0:0:0:
124,184,142450,2,0,L|104:312,1,116.999994644165,8|0,0:0|0:0,0:0:0:0:
48,364,142735,1,0,1:0:0:0:
172,348,142878,1,0,0:0:0:0:
384,320,143021,2,0,L|372:192,1,116.999994644165,8|0,0:0|0:0,0:0:0:0:
240,56,143307,6,0,L|264:304,1,233.999989288331,0|8,1:0|0:0,0:0:0:0:
348,184,143735,1,0,0:0:0:0:
164,216,143878,1,0,1:0:0:0:
272,368,144021,1,0,1:0:0:0:
332,104,144164,5,8,0:0:0:0:
92,144,144307,2,0,P|52:248|112:348,1,233.999989288331,4|0,1:0|1:0,0:0:0:0:
196,320,144735,1,8,0:0:0:0:
360,340,144878,1,4,1:0:0:0:
216,212,145021,1,0,0:0:0:0:
136,252,145164,1,0,1:0:0:0:
200,112,145307,1,0,1:0:0:0:
352,240,145450,5,0,1:0:0:0:
352,240,145521,1,0,1:0:0:0:
352,240,145593,2,0,L|360:108,1,116.999994644165,4|0,1:0|0:0,0:0:0:0:
468,188,145878,2,0,L|460:320,1,116.999994644165,8|0,0:0|0:0,0:0:0:0:
256,352,146164,2,0,L|124:344,1,116.999994644165,0|0,1:0|0:0,0:0:0:0:
40,104,146450,2,0,L|172:112,1,116.999994644165,8|0,0:0|0:0,0:0:0:0:
292,208,146735,5,0,1:0:0:0:
328,136,146878,1,0,0:0:0:0:
324,240,147021,1,8,0:0:0:0:
284,120,147164,1,0,0:0:0:0:
364,260,147307,1,0,1:0:0:0:
240,128,147450,1,0,0:0:0:0:
408,260,147593,1,8,0:0:0:0:
208,160,147735,1,0,0:0:0:0:
424,164,147878,6,0,P|444:112|432:40,1,116.999994644165,0|0,1:0|0:0,0:0:0:0:
228,260,148164,2,0,P|252:312|320:348,1,116.999994644165,8|0,0:0|0:0,0:0:0:0:
280,120,148450,2,0,P|236:84|152:72,1,116.999994644165,0|0,1:0|0:0,0:0:0:0:
368,240,148735,2,0,P|432:244|492:208,1,116.999994644165,8|0,0:0|0:0,0:0:0:0:
176,168,149021,2,0,L|36:184,1,116.999994644165,0|0,1:0|0:0,0:0:0:0:
68,188,149235,1,0,0:0:0:0:
76,196,149307,2,0,L|224:178,1,116.999994644165,8|0,0:0|0:0,0:0:0:0:
376,164,149593,5,0,1:0:0:0:
360,72,149735,1,0,0:0:0:0:
272,88,149878,1,8,0:0:0:0:
288,180,150021,1,0,0:0:0:0:
304,268,150164,5,4,1:2:0:0:
320,360,150307,1,2,0:0:0:0:
232,376,150450,1,8,0:0:0:0:
216,284,150592,1,2,0:0:0:0:
200,200,150735,5,0,0:0:0:0:
184,108,150877,1,0,0:0:0:0:
96,124,151020,1,8,0:0:0:0:
112,216,151163,1,4,1:0:0:0:
356,160,151307,6,0,L|472:172,3,116.999994644165,0|0|8|4,0:0|1:0|0:0|1:0,0:0:0:0:
112,48,151878,2,0,L|136:172,3,116.999994644165,0|0|8|0,0:0|1:0|0:0|0:0,0:0:0:0:
348,344,152450,5,2,1:2:0:0:
168,312,152593,1,2,0:0:0:0:
320,256,152735,1,10,0:0:0:0:
192,208,152878,1,2,0:0:0:0:
312,160,153021,1,0,0:0:0:0:
184,112,153164,1,2,0:0:0:0:
336,72,153307,1,10,0:0:0:0:
148,32,153450,1,2,0:0:0:0:
64,52,153593,6,0,B|36:108|72:164|72:164|56:208|56:208|132:292|72:388,1,350.999983932496,4|0,1:0|0:0,0:0:0:0:
172,332,154164,5,4,1:0:0:0:
380,288,154307,1,0,0:0:0:0:
336,32,154450,1,0,1:0:0:0:
128,76,154593,1,0,0:0:0:0:
256,192,154735,5,6,1:0:0:0:
256,192,155307,2,0,P|261:255|271:314,1,90
271,355,155593,1,0,1:0:0:0:
322,109,155735,6,0,P|333:224|353:347,1,233.999989288331,0|0,1:0|0:0,0:0:0:0:
351,340,156164,6,0,P|405:330|443:322,1,90,6|8,1:0|0:0,0:0:0:0:
510,366,156593,1,0,1:0:0:0:
510,366,156735,1,0,0:0:0:0:
510,366,156878,1,2,0:3:0:0:
266,196,157021,6,0,P|272:130|272:85,1,90,6|0,1:0|0:0,0:0:0:0:
312,42,157307,1,0,0:0:0:0:
312,42,157450,1,0,0:0:0:0:
358,102,157593,2,0,P|409:90|451:84,2,90,0|0|0,0:0|0:0|1:0,0:0:0:0:
81,62,158021,5,0,1:0:0:0:
157,43,158164,2,0,P|170:140|172:191,1,116.999994644165
191,335,158450,1,6,1:0:0:0:
266,322,158593,2,0,P|332:313|411:305,1,116.999994644165,0|8,0:0|0:0,0:0:0:0:
454,302,158878,1,0,1:0:0:0:
380,295,159021,2,0,P|321:301|263:309,1,116.999994644165,2|0,0:3|0:0,0:0:0:0:
60,320,159307,6,0,P|99:310|153:301,1,90,6|0,1:0|0:0,0:0:0:0:
204,351,159878,1,0,0:0:0:0:
204,351,160164,1,0,1:0:0:0:
358,242,160307,5,0,1:0:0:0:
438,251,160450,2,0,P|427:167|424:0,1,233.999989288331,0|6,0:0|1:0,0:0:0:0:
495,8,160878,1,0,0:0:0:0:
271,27,161021,5,8,0:0:0:0:
346,19,161164,2,0,P|347:135|360:252,1,233.999989288331,0|2,1:0|0:3,0:0:0:0:
398,339,161593,6,0,P|423:293|455:254,1,90,6|0,1:0|0:0,0:0:0:0:
239,249,161878,2,0,P|296:302|319:344,1,90
414,145,162164,1,0,0:0:0:0:
330,210,162307,1,0,0:0:0:0:
250,130,162450,1,0,1:0:0:0:
287,0,162593,6,0,P|297:150|308:256,1,233.999989288331,8|0,1:0|1:0,0:0:0:0:
318,313,163021,1,6,1:0:0:0:
159,173,163164,2,0,P|91:190|25:222,1,116.999994644165,0|8,0:0|0:0,0:0:0:0:
35,287,163450,5,0,1:0:0:0:
128,358,163593,5,0,1:0:0:0:
254,256,163735,5,0,1:0:0:0:
430,352,163878,5,6,1:0:0:0:
430,352,164164,2,0,P|434:277|438:144,1,180,10|2,0:0|0:0,0:0:0:0:
437,172,164735,5,10,0:0:0:0:
376,131,164878,2,0,P|323:136|268:138,1,90,0|2,1:0|0:0,0:0:0:0:
451,95,165164,1,0,1:0:0:0:
390,54,165307,2,0,P|337:59|282:61,1,90,10|0,0:0|0:0,0:0:0:0:
235,17,165593,2,0,P|166:30|52:50,1,180,2|2,0:0|0:0,0:0:0:0:
1,101,166021,1,0,0:0:0:0:
177,237,166164,6,0,P|265:221|295:214,1,90,6|0,1:0|1:0,0:0:0:0:
302,154,166450,2,0,P|390:138|479:121,1,180,10|2,0:0|0:0,0:0:0:0:
479,121,167021,5,10,0:0:0:0:
421,173,167164,2,0,P|405:261|398:291,1,90,0|2,1:0|0:0,0:0:0:0:
404,97,167450,1,0,1:0:0:0:
346,149,167593,2,0,P|330:237|323:267,1,90,10|0,0:0|0:0,0:0:0:0:
254,250,167878,1,2,0:0:0:0:
339,359,168021,1,0,1:0:0:0:
425,265,168164,2,0,P|434:220|440:176,1,90,6|0,0:0|0:0,0:0:0:0:
202,19,168450,6,0,P|186:107|169:196,1,180,6|8,1:0|0:0,0:0:0:0:
169,196,168878,1,0,0:0:0:0:
101,235,169021,2,0,P|50:220|6:210,2,90,2|2|10,1:0|1:0|0:0,0:0:0:0:
144,297,169593,5,0,1:0:0:0:
216,276,169735,1,2,1:0:0:0:
291,277,169878,1,8,0:0:0:0:
368,297,170164,5,0,1:0:0:0:
296,276,170306,1,2,1:0:0:0:
221,277,170449,1,10,0:0:0:0:
261,345,170593,5,0,0:0:0:0:
296,152,170735,1,6,1:0:0:0:
306,140,171021,1,8,0:0:0:0:
330,125,171307,1,2,1:0:0:0:
371,120,171593,1,10,0:0:0:0:
417,132,171878,1,2,1:0:0:0:
458,163,172164,1,10,0:0:0:0:
478,185,172450,1,2,1:0:0:0:
487,198,172735,2,0,L|497:154,1,36,8|0,0:0|0:0,0:0:0:0:
196,14,173021,5,0,1:0:0:0:
178,91,173164,2,0,P|293:64|459:34,1,270.000010299683,6|0,0:0|1:0,0:0:0:0:
350,205,173593,2,0,P|235:178|69:148,1,270.000010299683,6|0,0:0|1:0,0:0:0:0:
182,316,174021,2,0,P|297:289|463:259,1,270.000010299683,6|0,0:0|1:0,0:0:0:0:
0,196,174450,6,0,L|20:336,1,135.000005149842,6|0,0:0|0:0,0:0:0:0:
86,363,174735,1,0,1:0:0:0:
512,188,174878,6,0,L|492:48,1,135.000005149842,6|0,0:0|0:0,0:0:0:0:
426,21,175163,1,0,0:0:0:0:
244,190,175307,6,0,L|239:254,1,63,4|0,1:0|0:0,0:0:0:0:
244,279,176450,6,0,P|284:263|383:277,1,144,0|2,0:0|0:0,0:0:0:0:
442,346,178164,2,0,L|484:341,1,36
491,329,178735,2,0,L|455:333,1,36
391,370,179307,1,0,0:0:0:0:
391,370,179593,1,0,0:0:0:0:
160,96,179878,6,0,P|140:152|152:220,1,116.999994644165,4|0,1:0|0:0,0:0:0:0:
360,64,180164,2,0,P|404:152|392:200,1,116.999994644165,8|0,0:0|0:0,0:0:0:0:
48,192,180450,2,0,P|72:268|116:304,1,116.999994644165,4|0,1:0|1:0,0:0:0:0:
492,164,180735,2,0,P|468:232|420:268,1,116.999994644165,8|0,0:0|1:0,0:0:0:0:
176,348,181021,5,0,1:0:0:0:
232,280,181164,1,0,0:0:0:0:
232,280,181235,1,0,0:0:0:0:
232,280,181307,2,0,L|324:300,1,67.5000025749208,8|0,1:0|1:0,0:0:0:0:
380,316,181593,1,0,0:0:0:0:
208,172,181735,5,2,0:0:0:0:
232,40,181878,1,8,0:0:0:0:
328,140,182021,1,0,1:0:0:0:
80,68,182164,6,0,L|68:124,1,45,6|0,1:2|0:0,0:0:0:0:
56,124,182378,1,0,0:0:0:0:
44,136,182450,2,0,P|80:240|32:356,1,233.999989288331,10|0,0:0|1:0,0:0:0:0:
136,332,182878,1,0,1:0:0:0:
240,216,183021,1,8,0:0:0:0:
224,372,183164,1,0,0:0:0:0:
152,176,183307,5,0,1:0:0:0:
300,148,183450,1,0,0:0:0:0:
200,32,183593,2,0,P|140:56|80:44,1,116.999994644165,8|0,0:0|0:0,0:0:0:0:
280,340,183878,2,0,P|288:284|328:232,1,116.999994644165,0|0,1:0|1:0,0:0:0:0:
108,136,184164,2,0,P|44:172|12:220,1,116.999994644165,8|0,0:0|0:0,0:0:0:0:
92,360,184450,2,0,P|184:316|204:176,1,233.999989288331,0|8,1:0|0:0,0:0:0:0:
192,112,184878,5,0,0:0:0:0:
376,88,185021,1,0,1:0:0:0:
304,264,185164,1,0,0:0:0:0:
276,36,185307,1,8,0:0:0:0:
288,152,185450,6,0,P|184:216|84:172,1,233.999989288331,4|0,1:0|1:0,0:0:0:0:
8,124,185878,1,8,0:0:0:0:
72,44,186021,1,4,1:0:0:0:
84,272,186164,1,0,0:0:0:0:
4,208,186307,5,0,1:0:0:0:
4,208,186378,1,0,0:0:0:0:
4,208,186450,1,0,1:0:0:0:
184,96,186593,1,0,1:0:0:0:
256,312,186735,1,4,1:0:0:0:
256,312,187021,2,0,P|316:316|376:276,1,116.999994644165,8|0,0:0|0:0,0:0:0:0:
456,324,187307,2,0,P|484:228|416:104,1,233.999989288331,0|8,1:0|0:0,0:0:0:0:
268,196,187735,5,0,0:0:0:0:
352,44,187878,1,0,1:0:0:0:
376,216,188021,1,0,0:0:0:0:
336,132,188164,1,8,0:0:0:0:
180,180,188307,1,0,0:0:0:0:
312,280,188450,2,0,L|432:304,1,116.999994644165,0|0,1:0|1:0,0:0:0:0:
168,336,188735,2,0,L|32:308,1,116.999994644165,8|0,0:0|0:0,0:0:0:0:
128,68,189021,5,0,1:0:0:0:
144,156,189164,1,0,0:0:0:0:
364,172,189307,5,8,0:0:0:0:
288,112,189450,1,0,0:0:0:0:
168,336,189593,5,0,1:0:0:0:
236,272,189735,1,0,1:0:0:0:
56,192,189878,5,8,0:0:0:0:
256,176,190021,1,0,0:0:0:0:
456,192,190164,1,0,1:0:0:0:
452,200,190450,1,8,0:0:0:0:
448,208,190735,1,0,1:0:0:0:
488,304,190878,5,0,1:0:0:0:
368,236,191021,1,8,0:0:0:0:
328,356,191164,1,0,0:0:0:0:
148,276,191307,6,0,P|128:220|152:156,1,116.999994644165,4|2,1:2|0:0,0:0:0:0:
312,40,191593,2,0,P|332:96|308:160,1,116.999994644165,8|0,0:0|0:0,0:0:0:0:
136,80,191878,5,2,1:2:0:0:
236,60,192021,1,2,1:2:0:0:
376,304,192164,5,8,0:0:0:0:
276,324,192307,1,4,1:0:0:0:
256,192,192450,6,0,P|368:180|492:192,1,233.999989288331,0|8,0:0|0:0,0:0:0:0:
324,264,192878,2,0,P|264:272|208:272,1,116.999994644165,4|0,1:0|0:0,0:0:0:0:
256,192,193164,1,0,1:0:0:0:
192,116,193307,2,0,P|252:108|308:108,1,116.999994644165,12|0,0:0|0:0,0:0:0:0:
140,200,193593,5,2,1:2:0:0:
140,200,193735,1,2,0:0:0:0:
376,176,193878,1,14,0:0:0:0:
376,176,194021,1,2,0:0:0:0:
172,288,194164,1,2,1:0:0:0:
172,288,194307,1,2,1:0:0:0:
316,100,194450,1,14,0:0:0:0:
316,100,194593,1,2,0:0:0:0:
256,264,194735,5,4,1:0:0:0:
336,344,194878,1,0,0:0:0:0:
452,212,195021,5,12,0:0:0:0:
344,264,195164,1,0,0:0:0:0:
116,148,195307,5,4,1:0:0:0:
344,184,195450,1,0,1:0:0:0:
376,124,195521,1,0,1:0:0:0:
352,56,195593,1,0,1:0:0:0:
288,28,195664,1,0,1:0:0:0:
220,44,195735,1,0,1:0:0:0:
184,104,195807,1,0,1:0:0:0:
204,172,195878,2,0,P|226:245|242:305,1,116.999994644165,4|0,1:0|0:0,0:0:0:0:
109,368,196164,1,12,0:0:0:0:
84,240,196307,1,0,0:0:0:0:
386,153,196450,5,4,1:0:0:0:
415,277,196593,1,0,1:0:0:0:
297,230,196735,1,12,0:0:0:0:
386,153,196878,1,0,0:0:0:0:
247,356,197021,5,4,1:0:0:0:
134,317,197164,1,0,0:0:0:0:
169,206,197307,1,12,0:0:0:0:
312,306,197450,5,0,0:0:0:0:
176,380,197593,1,4,1:0:0:0:
81,166,197736,5,2,1:0:0:0:
250,239,197878,1,14,0:0:0:0:
323,70,198021,1,0,0:0:0:0:
43,106,198164,6,0,B|101:119|101:119|167:69,1,125.999996154785,6|2,1:0|0:0,0:0:0:0:
274,3,198450,1,14,0:0:0:0:
239,170,198593,1,0,0:0:0:0:
478,184,198735,2,0,B|420:197|420:197|354:147,1,125.999996154785,6|2,1:0|1:0,0:0:0:0:
119,290,199021,5,14,0:0:0:0:
236,130,199164,1,0,0:0:0:0:
394,248,199307,5,6,1:0:0:0:
303,317,199450,1,2,0:0:0:0:
222,233,199593,1,14,0:0:0:0:
509,291,199735,6,0,P|434:269|418:90,1,251.999992309571,2|0,0:0|0:0,0:0:0:0:
510,100,200164,1,12,0:0:0:0:
249,8,200307,5,0,0:0:0:0:
249,8,200378,1,0,0:0:0:0:
249,8,200450,2,0,P|233:98|217:144,1,125.999996154785,6|2,1:0|0:0,0:0:0:0:
40,163,200735,1,14,0:0:0:0:
212,236,200878,1,2,0:0:0:0:
413,135,201021,5,6,1:0:0:0:
313,59,201164,1,2,1:0:0:0:
277,188,201307,5,14,0:0:0:0:
377,264,201450,1,2,0:0:0:0:
487,96,201593,5,6,1:0:0:0:
268,285,201735,1,2,0:0:0:0:
512,238,201878,5,14,0:0:0:0:
240,142,202020,1,2,0:0:0:0:
404,332,202164,5,6,1:0:0:0:
350,48,202306,1,2,1:0:0:0:
379,190,202450,5,14,0:0:0:0:
379,190,202593,1,2,0:0:0:0:
11,232,202735,6,0,B|42:229|75:221|75:221|147:159|174:208|258:192,1,251.999992309571,6|12,1:0|0:0,0:0:0:0:
418,81,203164,1,0,0:0:0:0:
344,283,203307,1,6,1:0:0:0:
289,64,203450,1,2,1:0:0:0:
459,208,203593,1,14,0:0:0:0:
252,192,203735,5,2,0:0:0:0:
418,81,203878,1,6,1:0:0:0:
344,283,204021,1,0,0:0:0:0:
289,64,204164,1,14,0:0:0:0:
459,208,204307,1,0,0:0:0:0:
175,95,204450,5,4,1:0:0:0:
175,95,204521,1,0,0:0:0:0:
175,95,204593,1,0,1:0:0:0:
175,95,204664,1,0,0:0:0:0:
99,95,204735,1,8,1:0:0:0:
48,151,204807,1,0,1:0:0:0:
36,225,204878,1,0,1:0:0:0:
71,292,204950,1,0,1:0:0:0:
141,316,205021,2,0,P|203:298|274:285,1,125.999996154785,2|0,1:0|0:0,0:0:0:0:
504,209,205307,2,0,P|442:191|371:178,1,125.999996154785,12|0,0:0|0:0,0:0:0:0:
224,54,205593,5,0,1:0:0:0:
115,61,205735,1,0,0:0:0:0:
84,174,205878,1,8,0:0:0:0:
171,237,206021,1,0,0:0:0:0:
362,156,206164,5,4,1:0:0:0:
450,142,206307,1,0,0:0:0:0:
467,227,206450,1,12,0:0:0:0:
381,248,206593,1,0,0:0:0:0:
265,226,206735,5,4,1:0:0:0:
251,150,206878,1,0,1:0:0:0:
89,234,207021,5,12,0:0:0:0:
103,310,207174,1,0,0:0:0:0:
174,352,207328,6,0,L|180:312,1,36,2|0,0:0|0:0,0:0:0:0:
235,265,208013,2,0,L|229:225,1,36,2|0,0:0|0:0,0:0:0:0:
272,169,208766,1,2,0:0:0:0:
225,113,209118,1,0,0:0:0:0:
275,7,209546,2,0,L|314:14,1,36
379,34,210563,1,0,0:0:0:0:
379,34,213578,5,0,0:0:0:0:
314,64,213870,1,0,0:0:0:0:
67,34,214163,6,0,B|130:174|-14:138|39:295,1,270,4|0,1:0|0:0,0:0:0:0:
322,369,215305,6,0,P|319:310|324:79,1,270.000010299683,4|0,1:0|0:0,0:0:0:0:
208,272,216448,5,6,1:2:0:0:
