osu file format v14

[General]
AudioFilename: audio.mp3
AudioLeadIn: 0
PreviewTime: 67307
Countdown: 0
SampleSet: Soft
StackLeniency: 0.2
Mode: 0
LetterboxInBreaks: 0
WidescreenStoryboard: 0

[Editor]
Bookmarks: 34736,103236,231450
DistanceSpacing: 1.2
BeatDivisor: 4
GridSize: 32
TimelineZoom: 3.199998

[Metadata]
Title:Deep Indigo
TitleUnicode:藍二乗
Artist:Yorushika
ArtistUnicode:ヨルシカ
Creator:Ryuusei Aika
Version:Asami's Extreme
Source:
Tags:Ai Nijou Ainijou blur squared ナブナ nbuna n-buna スイ suis だから僕は音楽を辞めた That's Why I Gave Up on Music dakara boku wa ongaku o wo yameta japanese pop j-pop jpop rock j-rock jrock female vocal Sandrew kanor CoLouRed GlaZeE Delis ShirohaMyMommy Mirash Sing Nanashima Asami
BeatmapID:2589617
BeatmapSetID:1245222

[Difficulty]
HPDrainRate:5.7
CircleSize:4.2
OverallDifficulty:9.3
ApproachRate:9.7
SliderMultiplier:1.7
SliderTickRate:1

[Events]
//Background and Video events
0,0,"ha.png",0,0
//Break Periods
2,38792,45383
2,107506,113955
2,177792,179383
//Storyboard Layer 0 (Background)
//Storyboard Layer 1 (Fail)
//Storyboard Layer 2 (Pass)
//Storyboard Layer 3 (Foreground)
//Storyboard Layer 4 (Overlay)
//Storyboard Sound Samples

[TimingPoints]
450,285.714285714286,4,2,2,40,1,0
1593,-133.333333333333,4,2,2,40,0,0
2593,-133.333333333333,4,2,2,40,0,0
10735,-133.333333333333,4,2,2,50,0,0
16450,-133.333333333333,4,2,2,50,0,0
19878,-100,4,2,2,60,0,0
28164,-90.9090909090909,4,2,2,60,0,0
29021,-125,4,2,2,60,0,0
29307,-83.3333333333333,4,2,2,60,0,0
38164,-181.818181818181,4,2,2,60,0,0
38235,-133.333333333333,4,2,2,30,0,0
45878,-133.333333333333,4,2,2,60,0,0
47307,-133.333333333333,4,2,2,60,0,0
51878,-117.647058823529,4,2,2,60,0,0
52735,-133.333333333333,4,2,2,60,0,0
55450,-100,4,2,2,60,0,0
57307,-133.333333333333,4,2,2,60,0,0
58735,-100,4,2,2,60,0,0
59592,-133.333333333333,4,2,2,60,0,0
61450,-100,4,2,2,60,0,0
61878,-133.333333333333,4,2,2,60,0,0
63307,-100,4,2,2,60,0,0
67307,-200,4,2,2,60,0,0
67878,-83.3333333333333,4,2,2,70,0,1
75735,-71.4285714285714,4,2,2,70,0,1
76021,-83.3333333333333,4,2,2,70,0,1
88450,-83.3333333333333,4,2,2,60,0,0
88735,-100,4,2,2,60,0,0
97021,-83.3333333333333,4,2,2,60,0,0
97592,-133.333333333333,4,2,2,60,0,0
97878,-83.3333333333333,4,2,2,60,0,0
106735,-133.333333333333,4,2,2,60,0,0
106807,-133.333333333333,4,2,2,30,0,0
124021,-100,4,2,2,60,0,0
125450,-133.333333333333,4,2,2,60,0,0
127307,-100,4,2,2,60,0,0
128164,-133.333333333333,4,2,2,60,0,0
129592,-100,4,2,2,60,0,0
130450,-133.333333333333,4,2,2,60,0,0
131878,-100,4,2,2,60,0,0
136450,-83.3333333333333,4,2,2,70,0,1
144307,-66.6666666666667,4,2,2,70,0,1
144592,-83.3333333333333,4,2,2,70,0,1
154735,-83.3333333333333,4,2,2,60,0,0
155592,-100,4,2,2,60,0,0
159307,-133.333333333333,4,2,2,60,0,0
160307,-100,4,2,2,60,0,0
175450,-100,4,2,2,30,0,0
179878,-83.3333333333333,4,2,2,70,0,1
181164,-100,4,2,2,70,0,1
182164,-125,4,2,2,60,0,0
182450,-76.9230769230769,4,2,2,70,0,1
185450,-66.6666666666667,4,2,2,70,0,1
185735,-76.9230769230769,4,2,2,70,0,1
207021,307.692307692308,4,2,2,70,1,1
207021,-100,4,2,2,70,0,1
207328,333.333333333333,4,2,2,30,1,0
207328,-133.333333333333,4,2,2,30,0,0
207661,352.941176470588,4,2,2,30,1,0
207661,-133.333333333333,4,2,2,30,0,0
208366,400,4,2,2,30,1,0
208766,352.941176470588,4,2,2,30,1,0
208766,-204.081632653061,4,2,2,30,0,0
209118,428.571428571429,4,2,2,30,1,0
209118,-200,4,2,2,30,0,0
209975,588.235294117647,4,2,2,5,1,0
210563,603.015075376884,4,2,2,5,1,0
211769,-200,4,2,2,5,0,0
213578,292.682926829268,4,2,2,40,1,0
214163,285.714285714286,4,2,2,40,1,0
214163,-133.333333333333,4,2,2,60,0,0
215877,-200,4,2,2,60,0,0
217591,-100,4,2,2,60,0,0
225877,-83.3333333333333,4,2,2,60,0,0
236305,-83.3333333333333,4,2,2,35,0,0
237378,-83.3333333333333,4,2,2,30,0,0
237878,-83.3333333333333,4,2,2,5,0,0

[Colours]
Combo1 : 60,94,251
Combo2 : 114,194,233
Combo3 : 232,150,96

[HitObjects]
44,193,1450,5,0,3:0:0:0:
44,193,1593,2,0,B|112:172|95:227|181:210,1,127.500004863739,6|0,3:2|0:0,0:0:0:0:
271,95,2021,2,0,P|262:167|258:227,2,127.500004863739
156,23,2735,6,0,B|153:46|142:67|142:67|175:35|218:23,1,127.500004863739,2|0,0:0|0:0,0:0:0:0:
395,7,3164,1,0,0:0:0:0:
395,7,3307,2,0,P|406:41|381:75,1,63.7500024318696
329,280,3593,2,0,P|317:250|328:221,1,63.7500024318696
416,158,3878,1,2,0:0:0:0:
416,158,4164,6,0,B|447:164|447:164|451:162|451:162|491:169,1,63.7500024318696
329,280,4450,2,0,P|315:230|222:215,1,127.500004863739
145,123,4878,6,0,P|161:187|169:257,1,127.500004863739,2|0,0:0|0:0,0:0:0:0:
7,384,5307,1,0,0:0:0:0:
233,295,5593,1,0,0:0:0:0:
248,300,5664,1,0,0:0:0:0:
262,311,5735,1,0,0:0:0:0:
341,351,5878,2,0,P|385:354|425:364,1,63.7500024318696
495,302,6164,6,0,B|492:222|457:263|460:166,1,127.500004863739,2|0,0:0|0:0,0:0:0:0:
512,73,6593,2,0,B|518:101|518:101|409:76,1,127.500004863739
319,66,7021,2,0,P|302:37|304:4,1,63.7500024318696
225,122,7307,6,0,P|208:151|210:184,1,63.7500024318696,2|0,0:0|0:0,0:0:0:0:
156,54,7593,2,0,P|112:56|62:14,1,95.6250036478044
64,18,7878,2,0,P|75:92|83:152,1,127.500004863739
54,229,8307,1,0,0:0:0:0:
151,345,8450,1,2,0:0:0:0:
151,345,8735,6,0,L|298:364,2,127.500004863739
54,229,9593,1,0,0:0:0:0:
64,18,9807,1,0,0:0:0:0:
64,18,9878,2,0,P|86:47|139:53,1,63.7500024318696
369,154,10164,2,0,P|347:181|301:187,1,63.7500024318696,2|0,0:0|0:0,0:0:0:0:
130,266,10450,6,0,B|132:230|132:230|190:188,1,95.6250036478044
233,137,10735,6,0,L|214:282,1,127.500004863739,6|0,3:2|0:0,0:0:0:0:
276,334,11164,2,0,P|303:313|350:316,1,63.7500024318696,2|0,0:0|0:0,0:0:0:0:
456,156,11450,1,2,0:0:0:0:
416,80,11593,2,0,L|432:155,1,63.7500024318696,0|2,0:0|0:0,0:0:0:0:
452,285,11878,6,0,B|385:268|401:319|316:308,1,127.500004863739
150,233,12307,1,0,0:0:0:0:
150,233,12450,2,0,P|166:276|168:303,1,63.7500024318696,2|0,0:0|0:0,0:0:0:0:
117,384,12735,2,0,P|118:361|126:330,1,31.8750012159348
163,139,12878,1,0,0:0:0:0:
163,139,12950,1,0,0:0:0:0:
163,139,13021,6,0,P|138:196|58:224,1,127.500004863739,2|0,3:2|0:0,0:0:0:0:
81,224,13450,2,0,P|109:242|154:235,1,63.7500024318696,2|0,0:0|0:0,0:0:0:0:
109,43,13735,2,0,P|137:26|151:-17,1,63.7500024318696,2|0,0:0|0:0,0:0:0:0:
27,117,14021,5,2,0:0:0:0:
163,139,14164,2,0,B|217:146|217:146|223:150|223:150|315:163,1,127.500004863739,0|2,0:0|0:0,0:0:0:0:
465,29,14735,2,0,P|419:49|403:95,1,95.6250036478044
474,99,15021,2,0,P|491:68|481:37,1,63.7500024318696
278,13,15307,6,0,P|307:58|321:156,1,127.500004863739,2|0,3:2|0:0,0:0:0:0:
315,209,15735,1,0,0:0:0:0:
263,267,15878,2,0,B|238:294|238:294|254:284|269:281,1,63.7500024318696
509,348,16164,2,0,L|497:268,1,63.7500024318696,2|0,0:0|0:0,0:0:0:0:
300,363,16450,5,2,0:0:0:0:
300,363,16735,2,0,P|252:323|175:318,1,127.500004863739
70,168,17307,2,0,L|62:125,1,31.8750012159348,2|0,0:0|0:0,0:0:0:0:
100,60,17450,1,0,0:0:0:0:
100,60,17521,1,0,0:0:0:0:
100,60,17593,6,0,L|78:210,1,127.500004863739,2|0,3:2|0:0,0:0:0:0:
424,367,18164,1,6,0:0:0:0:
354,297,18450,1,6,0:0:0:0:
231,255,18735,1,6,0:0:0:0:
44,312,19021,1,6,0:0:0:0:
44,312,19164,6,0,B|32:326|32:326|49:323,1,31.8750012159348
244,122,19307,2,0,P|252:80|233:124,1,127.500004863739,6|0,0:0|0:0,0:0:0:0:
231,255,19735,6,0,L|238:298,1,31.8750012159348
328,305,19878,5,6,3:2:0:0:
330,291,20021,1,0,0:0:0:0:
378,227,20164,5,8,0:0:0:0:
391,384,20307,1,0,0:0:0:0:
328,305,20450,5,0,0:0:0:0:
231,255,20593,1,0,0:0:0:0:
125,273,20735,1,8,0:0:0:0:
61,317,20878,1,0,0:0:0:0:
44,311,21021,5,0,3:2:0:0:
65,78,21164,1,0,3:2:0:0:
0,192,21307,6,0,L|100:173,1,85,8|0,0:0|0:0,0:0:0:0:
103,172,21521,6,0,L|61:164,1,42.5
9,0,21735,1,0,3:2:0:0:
76,77,21878,6,0,P|111:58|171:61,1,85,8|0,0:0|0:0,0:0:0:0:
339,7,22164,5,0,3:2:0:0:
326,83,22307,1,0,3:2:0:0:
346,1,22450,5,8,0:0:0:0:
333,77,22593,1,0,0:0:0:0:
420,41,22735,6,0,L|508:24,1,85
385,223,23021,2,0,B|378:257|378:257|379:264|379:264|370:313,1,85,8|0,0:0|0:0,0:0:0:0:
299,357,23235,1,0,0:0:0:0:
291,345,23307,5,0,3:2:0:0:
243,167,23450,1,0,0:0:0:0:
173,217,23593,5,8,0:0:0:0:
159,312,23735,1,0,0:0:0:0:
85,359,23878,5,0,0:0:0:0:
17,149,24021,1,0,3:2:0:0:
92,209,24164,6,0,L|-6:193,1,85,12|0,0:0|0:0,0:0:0:0:
159,312,24450,6,0,P|202:259|310:243,1,170,4|8,0:0|0:0,0:0:0:0:
405,297,24878,1,0,0:0:0:0:
359,52,25021,1,0,0:0:0:0:
429,0,25164,5,0,3:0:0:0:
411,109,25307,2,0,B|404:148|404:148|407:156|407:156|400:207,1,85,8|0,0:0|0:0,0:0:0:0:
473,358,25593,5,0,3:2:0:0:
291,126,25735,1,0,3:2:0:0:
401,192,25878,2,0,B|415:175|415:175|323:194,1,85,8|0,0:0|0:0,0:0:0:0:
324,204,26093,2,0,L|317:252,1,42.5
81,381,26307,5,0,3:2:0:0:
132,239,26450,1,8,0:0:0:0:
235,177,26593,1,0,0:0:0:0:
317,246,26735,6,0,B|271:290|223:281|223:281|200:234,1,127.5,0|0,3:0|0:0,0:0:0:0:
132,239,27021,6,0,L|66:227,1,42.5,8|0,0:0|0:0,0:0:0:0:
215,13,27164,2,0,P|241:40|237:64,1,42.5
5,227,27307,5,0,3:2:0:0:
101,27,27450,1,0,3:2:0:0:
10,133,27593,6,0,L|119:116,1,85,8|0,0:0|0:0,0:0:0:0:
382,0,27878,5,4,3:2:0:0:
241,42,28021,1,0,0:0:0:0:
230,64,28164,5,12,0:0:0:0:
434,121,28307,1,0,0:0:0:0:
491,281,28450,6,0,P|454:228|364:207,1,140.25000428009,4|0,3:2|0:0,0:0:0:0:
311,221,28735,5,8,0:3:0:0:
254,264,28807,1,8,0:3:0:0:
248,316,28878,1,4,0:3:0:0:
271,339,28950,1,4,0:3:0:0:
239,285,29021,6,0,P|201:271|146:266,1,68,4|0,0:0|0:0,0:0:0:0:
16,0,29307,2,0,P|76:31|91:129,1,152.999995330811,12|0,0:0|0:0,0:0:0:0:
94,129,29593,5,0,3:2:0:0:
276,37,29735,2,0,P|297:49|341:47,2,50.9999984436036,0|0|8,0:0|0:0|0:0,0:0:0:0:
441,110,30021,1,0,0:0:0:0:
475,198,30164,5,0,3:2:0:0:
504,0,30307,1,0,0:0:0:0:
485,208,30450,6,0,L|477:272,1,50.9999984436036,8|0,0:0|0:0,0:0:0:0:
451,100,30593,2,0,L|400:106,1,50.9999984436036
334,179,30735,5,0,3:2:0:0:
273,4,30878,1,0,0:0:0:0:
188,120,31021,5,8,0:0:0:0:
109,74,31164,1,0,0:0:0:0:
44,120,31307,6,0,P|81:188|70:276,1,152.999995330811,0|0,3:2|0:0,0:0:0:0:
15,330,31593,2,0,P|22:303|53:289,1,50.9999984436036,8|0,0:0|0:0,0:0:0:0:
133,235,31735,5,0,0:0:0:0:
133,235,31807,1,0,0:0:0:0:
133,235,31878,2,0,B|169:239|169:239|174:243|174:243|259:256,1,101.999996887207,0|0,3:2|0:0,0:0:0:0:
505,367,32164,2,0,L|451:333,1,50.9999984436036,8|0,0:0|0:0,0:0:0:0:
380,355,32307,2,0,L|368:293,1,50.9999984436036
290,260,32450,6,0,P|293:196|392:151,1,152.999995330811,0|0,3:2|0:0,0:0:0:0:
434,156,32735,6,0,B|458:144|458:144|421:137,1,50.9999984436036,8|0,0:0|0:0,0:0:0:0:
212,73,32878,1,0,0:0:0:0:
337,0,33021,5,0,3:2:0:0:
247,188,33164,1,0,0:0:0:0:
178,212,33307,5,8,0:0:0:0:
212,73,33450,1,0,0:0:0:0:
212,73,33521,1,0,0:0:0:0:
212,73,33593,6,0,L|86:89,1,101.999996887207,0|0,3:2|0:0,0:0:0:0:
373,333,33878,2,0,L|472:354,1,101.999996887207,12|0,0:0|0:0,0:0:0:0:
319,208,34164,5,0,3:2:0:0:
237,233,34307,1,0,0:0:0:0:
186,305,34450,1,8,0:0:0:0:
129,118,34593,5,0,0:0:0:0:
92,193,34735,2,0,P|65:199|48:223,1,50.9999984436036,0|0,3:2|0:0,0:0:0:0:
107,269,34878,2,0,P|94:292|100:320,1,50.9999984436036
185,294,35021,6,0,P|192:230|259:152,1,152.999995330811,8|0,0:0|0:0,0:0:0:0:
311,128,35307,6,0,L|298:62,1,50.9999984436036,0|0,3:2|0:0,0:0:0:0:
426,5,35450,2,0,L|416:55,1,50.9999984436036
363,187,35593,6,0,B|354:214|361:240|361:240|394:194|459:168,1,152.999995330811,8|0,0:0|0:0,0:0:0:0:
502,140,35878,5,12,0:0:0:0:
361,370,36021,1,8,3:2:0:0:
465,282,36164,1,0,3:2:0:0:
353,380,36307,5,8,0:0:0:0:
426,5,36450,1,0,0:0:0:0:
252,203,36593,1,0,0:0:0:0:
363,187,36735,6,0,L|471:165,1,101.999996887207,8|0,0:0|0:0,0:0:0:0:
238,371,37021,5,0,3:2:0:0:
173,328,37164,1,12,0:0:0:0:
77,339,37307,5,0,3:2:0:0:
13,130,37450,1,0,3:2:0:0:
108,7,37593,5,12,0:0:0:0:
247,111,37735,1,0,3:2:0:0:
321,37,37878,5,12,0:0:0:0:
397,74,38021,1,0,3:2:0:0:
397,74,38093,1,0,0:0:0:0:
397,74,38164,6,0,L|380:235,1,140.25000428009,4|0,3:2|0:0,0:0:0:0:
35,352,45878,6,0,P|47:309|105:282,1,95.6250036478044,4|0,3:2|0:0,0:0:0:0:
102,272,46164,6,0,P|148:299|216:298,1,95.6250036478044,4|0,3:2|0:0,0:0:0:0:
200,299,46450,5,4,3:2:0:0:
257,124,46593,1,0,0:0:0:0:
330,178,46735,5,4,3:2:0:0:
484,77,46878,1,0,0:0:0:0:
395,244,47021,5,4,3:2:0:0:
427,326,47164,1,0,0:0:0:0:
427,326,47235,1,0,0:0:0:0:
427,326,47307,6,0,B|346:305|374:354|280:344,1,127.500004863739,6|0,3:2|0:0,0:0:0:0:
201,223,47735,2,0,P|213:291|220:356,1,127.500004863739
96,370,48164,2,0,B|78:353|78:353|126:359,1,63.7500024318696
219,349,48450,6,0,B|134:335|167:384|72:367,1,127.500004863739,0|2,0:0|0:0,0:0:0:0:
53,306,48878,1,0,0:0:0:0:
48,229,49021,1,0,0:0:0:0:
104,176,49164,1,0,0:0:0:0:
131,104,49307,2,0,L|180:92,1,31.8750012159348,2|0,0:0|0:0,0:0:0:0:
93,34,49450,2,0,L|132:8,1,31.8750012159348
17,25,49593,5,2,0:0:0:0:
110,187,49735,1,0,0:0:0:0:
265,85,49878,2,0,L|344:71,1,63.7500024318696
258,176,50164,6,0,B|253:230|253:230|251:233|251:233|246:291,1,95.6250036478044
247,279,50450,1,0,0:0:0:0:
316,336,50593,6,0,P|354:369|444:375,1,127.500004863739
416,173,51021,2,0,P|378:202|365:253,1,95.6250036478044,2|0,0:0|0:0,0:0:0:0:
361,258,51307,1,0,0:0:0:0:
428,380,51450,5,2,0:0:0:0:
416,173,51593,1,0,0:0:0:0:
490,63,51735,1,0,0:0:0:0:
490,63,51807,1,0,0:0:0:0:
490,63,51878,6,0,B|495:77|506:93|506:93|474:75|434:71,1,108.375002067089,2|0,0:0|0:0,0:0:0:0:
370,104,52164,2,0,P|339:75|305:65,1,72.2500013780594
121,0,52450,6,0,P|75:0|116:21,1,108.375002067089
114,29,52735,1,0,0:0:0:0:
241,196,52878,2,0,P|227:128|162:74,1,127.500004863739
189,87,53307,1,0,0:0:0:0:
93,239,53450,6,0,L|81:319,1,63.7500024318696,2|0,0:0|0:0,0:0:0:0:
213,370,53735,1,0,0:0:0:0:
281,305,53878,2,0,P|256:326|220:331,1,63.7500024318696,2|0,0:0|0:0,0:0:0:0:
20,191,54164,6,0,P|66:200|94:261,1,95.6250036478044,6|0,0:0|0:0,0:0:0:0:
102,247,54450,6,0,P|142:249|189:196,1,95.6250036478044,4|0,0:0|0:0,0:0:0:0:
253,158,54735,6,0,B|284:162|284:162|287:160|287:160|318:165,1,63.7500024318696,4|0,0:0|0:0,0:0:0:0:
484,246,55021,2,0,B|510:276|510:276|454:251,1,95.6250036478044,4|0,0:0|0:0,0:0:0:0:
389,209,55307,5,4,0:0:0:0:
415,17,55450,2,0,B|436:4|436:4|418:36|422:92,1,85,8|0,0:0|0:0,0:0:0:0:
484,246,55735,6,0,P|480:213|457:192,1,42.5
329,113,55878,1,8,0:3:0:0:
187,146,56021,1,8,0:3:0:0:
134,228,56164,1,4,0:3:0:0:
149,304,56307,1,4,0:3:0:0:
181,346,56450,6,0,P|230:322|321:306,1,127.5,6|0,3:2|0:0,0:0:0:0:
419,350,56735,1,0,3:2:0:0:
313,306,56878,6,0,L|193:288,1,85,8|0,0:0|0:0,0:0:0:0:
23,211,57164,1,0,3:2:0:0:
98,377,57307,6,0,P|113:329|161:301,1,95.6250036478044,12|0,0:0|0:0,0:0:0:0:
228,293,57593,5,0,0:0:0:0:
24,199,57735,2,0,L|9:111,1,63.7500024318696,8|0,0:3|0:0,0:0:0:0:
177,0,58021,5,0,3:2:0:0:
38,72,58164,2,0,L|22:214,1,127.500004863739,8|0,0:0|0:0,0:0:0:0:
62,269,58521,1,0,0:0:0:0:
62,269,58593,2,0,L|102:258,1,31.8750012159348
322,209,58735,6,0,B|305:149|235:157|235:157|254:179,1,127.5,4|0,0:0|0:0,0:0:0:0:
170,242,59021,5,0,3:2:0:0:
328,198,59164,2,0,L|419:174,1,85,8|0,0:0|0:0,0:0:0:0:
469,97,59450,1,0,3:2:0:0:
333,325,59593,6,0,P|325:283|358:228,1,95.6250036478044,8|0,0:0|0:0,0:0:0:0:
410,176,59878,5,0,0:0:0:0:
472,305,60021,2,0,L|397:290,1,63.7500024318696,8|0,0:3|0:0,0:0:0:0:
197,363,60307,1,0,3:2:0:0:
333,325,60450,6,0,P|300:305|232:312,1,95.6250036478044,8|0,0:0|0:0,0:0:0:0:
197,363,60735,2,0,L|114:352,1,63.7500024318696
41,172,61021,6,0,P|77:199|87:275,1,95.6250036478044,4|0,0:0|0:0,0:0:0:0:
91,258,61307,1,0,0:0:0:0:
91,91,61450,2,0,P|50:120|40:167,1,85,8|0,0:0|0:0,0:0:0:0:
0,310,61735,1,0,3:2:0:0:
122,179,61878,6,0,P|167:140|254:126,1,127.500004863739
376,161,62307,6,0,B|408:167|408:167|411:170|411:170|445:176,1,63.7500024318696,8|0,0:3|0:0,0:0:0:0:
512,196,62593,1,0,3:2:0:0:
345,231,62735,2,0,P|333:185|287:149,1,95.6250036478044,8|0,0:0|0:0,0:0:0:0:
282,145,63021,5,0,0:0:0:0:
512,196,63164,1,0,0:0:0:0:
333,244,63307,6,0,L|190:277,1,127.5,4|0,0:0|0:0,0:0:0:0:
131,297,63593,5,0,0:0:0:0:
144,92,63735,2,0,L|152:-2,1,85,8|4,0:0|0:3,0:0:0:0:
44,147,64021,5,0,3:2:0:0:
333,244,64164,2,0,L|416:260,1,85,8|0,0:0|0:0,0:0:0:0:
489,279,64378,1,0,0:0:0:0:
499,289,64450,5,0,0:0:0:0:
468,146,64593,1,8,0:0:0:0:
391,67,64735,1,0,0:0:0:0:
298,43,64878,1,0,3:3:0:0:
479,154,65021,5,8,0:0:0:0:
217,61,65164,1,0,0:0:0:0:
139,139,65307,1,0,3:2:0:0:
114,229,65450,1,8,0:0:0:0:
128,305,65593,5,8,0:0:0:0:
391,67,65735,1,8,0:0:0:0:
114,229,65878,5,8,0:0:0:0:
482,380,66021,1,8,3:2:0:0:
139,139,66307,1,8,3:2:0:0:
292,380,66593,6,0,B|292:309|339:335|326:247,1,127.5,8|0,0:0|0:0,0:0:0:0:
279,205,66878,6,0,P|254:214|243:231,1,42.5
172,251,67021,2,0,P|163:282|170:306,1,42.5
142,369,67164,1,0,3:2:0:0:
426,240,67307,6,0,L|501:220,3,42.5
328,262,67878,6,0,B|304:194|231:202|231:202|247:230,1,152.999995330811,6|0,3:2|0:0,0:0:0:0:
172,251,68164,2,0,P|116:222|59:228,1,101.999996887207,8|0,0:0|0:0,0:0:0:0:
411,52,68450,2,0,P|368:90|349:200,1,152.999995330811,0|0,3:0|0:0,0:0:0:0:
328,262,68735,5,8,0:0:0:0:
274,64,68878,1,0,0:0:0:0:
274,64,68950,1,0,0:0:0:0:
274,64,69021,6,0,P|238:18|126:8,1,152.999995330811,0|0,3:2|0:0,0:0:0:0:
84,50,69307,2,0,B|32:66|32:66|22:112,1,101.999996887207,8|0,0:0|0:0,0:0:0:0:
0,255,69593,5,0,3:2:0:0:
225,326,69735,1,0,0:0:0:0:
305,277,69878,1,8,0:0:0:0:
428,356,70021,1,0,0:0:0:0:
428,356,70093,1,0,0:0:0:0:
428,356,70164,6,0,B|394:279|461:288|418:194,1,152.999995330811,0|0,3:2|0:0,0:0:0:0:
500,112,70450,2,0,B|510:134|511:152|511:152|459:107|396:113,1,152.999995330811,8|0,0:0|0:0,0:0:0:0:
318,116,70735,5,0,3:2:0:0:
107,3,70878,1,0,0:0:0:0:
137,133,71021,5,8,0:0:0:0:
7,96,71164,1,0,0:0:0:0:
0,109,71235,1,0,0:0:0:0:
3,124,71307,6,0,P|34:190|32:287,1,152.999995330811,0|0,3:2|0:0,0:0:0:0:
0,379,71593,2,0,B|37:313|37:313|117:288,1,152.999995330811,8|0,0:0|0:0,0:0:0:0:
183,273,71878,5,0,3:2:0:0:
246,358,72021,1,0,0:0:0:0:
484,306,72164,1,8,0:0:0:0:
469,276,72235,1,0,0:0:0:0:
439,262,72307,1,0,0:0:0:0:
387,263,72378,1,0,0:0:0:0:
354,333,72450,6,0,B|325:357|325:357|295:318|274:237|363:168,1,203.999993774414,4|8,3:2|0:0,0:0:0:0:
512,54,72878,2,0,P|498:85|470:90,1,50.9999984436036
434,169,73021,6,0,P|401:115|340:100,1,101.999996887207,0|0,3:2|0:0,0:0:0:0:
273,69,73307,1,8,0:0:0:0:
78,257,73450,1,0,0:0:0:0:
78,257,73521,1,0,0:0:0:0:
78,257,73593,6,0,B|86:191|86:191|85:185|85:185|101:66,1,152.999995330811,0|0,3:2|0:0,0:0:0:0:
0,45,73878,2,0,B|-27:67|-26:101|-26:101|3:65|75:41,1,152.999995330811,8|0,0:0|0:0,0:0:0:0:
111,8,74164,5,0,3:2:0:0:
78,257,74307,1,0,0:0:0:0:
212,350,74450,5,8,0:0:0:0:
196,124,74593,1,0,0:0:0:0:
196,124,74664,1,0,0:0:0:0:
196,124,74735,2,0,L|59:97,1,101.999996887207,0|0,3:2|0:0,0:0:0:0:
272,201,75021,5,8,0:0:0:0:
219,16,75164,1,0,0:0:0:0:
394,278,75307,5,4,3:2:0:0:
318,30,75450,1,0,0:0:0:0:
510,360,75593,5,8,0:0:0:0:
414,48,75735,2,0,B|343:60|325:161|369:182|403:158,1,178.499994552612,4|0,3:2|0:0,0:0:0:0:
485,171,76021,6,0,P|488:143|460:123,1,50.9999984436036,0|0,3:0|0:0,0:0:0:0:
486,47,76164,2,0,P|461:24|426:28,1,50.9999984436036,8|0,0:0|0:0,0:0:0:0:
281,259,76307,1,4,0:0:0:0:
281,259,76378,1,0,0:0:0:0:
281,259,76450,6,0,P|340:188|441:155,1,152.999995330811
485,171,76735,2,0,B|508:191|508:191|401:170,1,101.999996887207,4|8,0:0|0:0,0:0:0:0:
330,144,76950,1,8,0:0:0:0:
322,153,77021,6,0,L|183:123,1,101.999996887207,0|0,3:2|0:0,0:0:0:0:
6,376,77307,2,0,B|50:366|50:366|57:370|57:370|108:356,1,101.999996887207,14|0,0:0|0:0,0:0:0:0:
120,48,77593,6,0,P|53:78|24:175,1,152.999995330811,0|0,3:2|0:0,0:0:0:0:
6,218,77878,1,8,0:0:0:0:
239,354,78021,2,0,P|234:319|207:297,1,50.9999984436036
7,233,78164,6,0,P|50:186|147:157,1,152.999995330811,0|0,3:2|0:0,0:0:0:0:
207,45,78450,2,0,P|216:8|187:42,1,101.999996887207,8|0,0:0|0:0,0:0:0:0:
109,63,78664,1,0,0:0:0:0:
92,59,78735,5,0,3:2:0:0:
292,162,78878,1,0,0:0:0:0:
403,120,79021,1,8,0:0:0:0:
473,180,79164,1,0,0:0:0:0:
473,180,79235,1,0,0:0:0:0:
473,180,79307,6,0,P|402:144|329:137,1,152.999995330811,0|0,3:2|0:0,0:0:0:0:
162,104,79593,2,0,B|184:36|258:37|258:37|233:83,1,152.999995330811,8|0,0:0|0:0,0:0:0:0:
239,170,79878,6,0,B|229:243|229:243|230:248|230:248|220:336,1,152.999995330811,0|0,3:2|0:0,0:0:0:0:
222,338,80164,1,8,0:0:0:0:
487,232,80307,2,0,P|500:241|513:275,1,50.9999984436036
490,348,80450,6,0,B|512:375|512:375|452:342|360:345,1,152.999995330811,0|0,3:2|0:0,0:0:0:0:
372,370,80735,2,0,L|392:250,1,101.999996887207,8|0,0:0|0:0,0:0:0:0:
401,196,80950,1,0,0:0:0:0:
395,183,81021,5,0,3:2:0:0:
397,97,81164,1,0,0:0:0:0:
465,43,81307,2,0,P|509:20|469:56,1,152.999995330811,8|0,0:0|0:0,0:0:0:0:
407,92,81593,6,0,P|370:57|232:43,1,152.999995330811,0|0,3:2|0:0,0:0:0:0:
136,110,81878,2,0,B|135:130|112:153|112:153|163:119|208:121,1,152.999995330811,8|0,0:0|0:0,0:0:0:0:
273,18,82164,6,0,P|247:87|251:189,1,152.999995330811,0|0,3:2|0:0,0:0:0:0:
301,244,82450,2,0,B|319:250|319:250|296:229,1,50.9999984436036,8|0,0:0|0:0,0:0:0:0:
47,16,82593,6,0,P|147:47|217:149,1,203.999993774414,4|0,3:2|0:0,0:0:0:0:
46,373,83021,6,0,P|32:357|27:318,1,50.9999984436036,8|0,0:0|0:0,0:0:0:0:
245,165,83164,2,0,L|52:132,1,152.999995330811,4|0,3:2|0:0,0:0:0:0:
20,130,83450,5,0,0:0:0:0:
167,359,83593,1,8,0:0:0:0:
265,267,83735,1,0,0:0:0:0:
265,267,83807,1,0,0:0:0:0:
265,267,83878,6,0,L|346:248,1,50.9999984436036,4|0,3:2|0:0,0:0:0:0:
391,265,84021,1,0,0:0:0:0:
461,313,84164,1,8,0:0:0:0:
500,383,84307,1,0,0:0:0:0:
304,144,84450,5,0,3:2:0:0:
325,69,84593,1,0,0:0:0:0:
383,18,84735,1,8,0:0:0:0:
466,11,84878,1,0,0:0:0:0:
466,11,84950,1,0,0:0:0:0:
466,11,85021,6,0,B|472:29|468:62|468:62|477:33|498:19,1,101.999996887207,0|0,3:2|0:0,0:0:0:0:
314,255,85307,2,0,P|246:205|156:194,1,152.999995330811,12|0,0:0|0:0,0:0:0:0:
101,218,85593,6,0,P|47:180|44:133,1,101.999996887207,0|0,3:2|0:0,0:0:0:0:
383,18,85878,2,0,P|356:45|332:43,1,50.9999984436036,8|8,0:0|0:0,0:0:0:0:
262,90,86021,1,8,0:0:0:0:
262,90,86093,1,8,0:0:0:0:
262,90,86164,6,0,B|271:114|271:114|128:86,1,152.999995330811,6|0,3:2|0:0,0:0:0:0:
73,70,86450,1,8,0:0:0:0:
417,153,86593,2,0,P|356:184|309:286,1,152.999995330811,4|0,3:2|0:0,0:0:0:0:
282,323,86878,5,0,0:0:0:0:
213,375,87021,1,8,0:0:0:0:
127,377,87164,6,0,B|118:318|118:318|111:315|111:315|95:220,1,152.999995330811,4|0,3:2|0:0,0:0:0:0:
83,153,87450,1,0,3:2:0:0:
282,323,87593,2,0,L|358:302,1,50.9999984436036,8|0,0:0|0:0,0:0:0:0:
417,153,87735,6,0,P|347:125|304:55,1,152.999995330811,4|0,3:2|0:0,0:0:0:0:
267,0,88021,2,0,P|242:23|242:59,1,50.9999984436036,0|0,3:2|0:0,0:0:0:0:
96,230,88164,2,0,P|159:190|269:157,1,152.999995330811,12|0,0:0|0:0,0:0:0:0:
302,138,88450,5,4,3:2:0:0:
367,172,88593,1,0,0:0:0:0:
412,316,88735,5,8,0:0:0:0:
401,240,88878,1,0,0:0:0:0:
421,166,89021,1,0,0:0:0:0:
482,121,89164,1,0,0:0:0:0:
404,323,89307,2,0,L|306:346,1,85,8|0,0:0|0:0,0:0:0:0:
158,376,89593,5,0,3:2:0:0:
192,178,89735,1,0,3:2:0:0:
255,131,89878,5,8,0:0:0:0:
254,245,90021,2,0,L|248:299,2,42.5
323,86,90307,5,0,3:2:0:0:
123,225,90450,1,8,0:0:0:0:
244,362,90593,1,0,0:0:0:0:
254,245,90735,6,0,L|266:147,1,85,0|0,3:2|0:0,0:0:0:0:
32,5,91021,2,0,B|7:43|7:43|70:29,1,85,8|0,0:0|0:0,0:0:0:0:
216,103,91307,1,0,0:0:0:0:
140,92,91450,1,0,0:0:0:0:
67,113,91593,1,8,0:0:0:0:
22,175,91735,2,0,L|35:228,1,42.5
120,355,91878,6,0,B|125:314|125:314|128:312|128:312|136:252,1,85,0|0,3:2|3:2,0:0:0:0:
198,231,92164,1,8,0:0:0:0:
369,311,92307,1,0,0:0:0:0:
383,228,92450,5,0,0:0:0:0:
486,324,92593,1,0,3:2:0:0:
500,238,92735,6,0,L|489:146,1,85,12|0,0:0|0:0,0:0:0:0:
304,346,93021,6,0,P|267:320|218:319,1,85,4|0,3:2|0:0,0:0:0:0:
152,331,93307,1,8,0:0:0:0:
95,383,93450,1,0,0:0:0:0:
184,257,93593,5,0,0:0:0:0:
190,180,93735,1,0,3:2:0:0:
156,111,93878,1,8,0:0:0:0:
87,76,94021,1,0,0:0:0:0:
12,92,94164,5,0,3:2:0:0:
78,305,94307,1,0,3:2:0:0:
200,176,94450,2,0,L|295:157,1,85,8|0,0:0|0:0,0:0:0:0:
298,150,94664,2,0,L|291:205,1,42.5
489,364,94878,5,0,3:2:0:0:
436,308,95021,1,8,0:0:0:0:
428,231,95164,1,0,0:0:0:0:
475,170,95307,6,0,P|501:130|493:86,1,85,0|0,3:2|0:0,0:0:0:0:
242,36,95593,2,0,P|238:15|226:-1,1,42.5,8|0,0:0|0:0,0:0:0:0:
202,112,95735,2,0,P|198:132|185:149,1,42.5
134,57,95878,6,0,P|94:54|42:33,1,85,0|0,3:2|3:2,0:0:0:0:
393,188,96164,2,0,P|433:185|485:164,1,85,12|0,0:0|0:0,0:0:0:0:
235,279,96450,5,4,3:2:0:0:
326,98,96593,1,0,0:0:0:0:
400,52,96735,5,12,0:0:0:0:
325,347,96878,1,0,0:0:0:0:
443,370,97021,6,0,B|484:317|448:239|387:261|382:295,1,152.999995330811,4|0,3:2|0:0,0:0:0:0:
325,347,97307,1,8,0:3:0:0:
288,299,97378,1,8,0:3:0:0:
235,279,97450,5,4,0:3:0:0:
267,263,97521,1,4,0:3:0:0:
273,230,97593,6,0,L|280:160,1,63.7500024318696,4|0,3:2|0:0,0:0:0:0:
55,0,97878,6,0,P|60:34|183:99,1,152.999995330811,12|0,0:0|0:0,0:0:0:0:
222,95,98164,1,0,3:2:0:0:
44,207,98307,1,0,0:0:0:0:
31,222,98378,1,0,0:0:0:0:
24,243,98450,1,8,0:0:0:0:
124,384,98593,5,0,0:0:0:0:
153,150,98735,1,0,3:2:0:0:
222,95,98878,5,0,0:0:0:0:
240,278,99021,2,0,L|187:296,2,50.9999984436036,8|0|0,0:0|0:0|0:0,0:0:0:0:
283,37,99307,5,0,3:2:0:0:
335,221,99450,1,0,0:0:0:0:
447,275,99593,2,0,P|403:247|353:234,1,101.999996887207,8|0,0:0|0:0,0:0:0:0:
122,360,99878,6,0,P|169:300|276:284,1,152.999995330811,0|0,3:2|0:0,0:0:0:0:
318,308,100164,1,8,0:0:0:0:
327,320,100235,1,0,0:0:0:0:
331,334,100307,2,0,L|322:386,1,50.9999984436036
447,275,100450,5,0,3:2:0:0:
416,136,100593,1,0,0:0:0:0:
478,85,100735,5,8,0:0:0:0:
502,0,100878,1,0,0:0:0:0:
416,136,101021,6,0,P|375:96|274:77,1,152.999995330811,0|0,3:2|0:0,0:0:0:0:
215,34,101307,1,8,0:0:0:0:
252,278,101450,1,0,0:0:0:0:
178,334,101593,6,0,L|170:389,1,50.9999984436036,0|0,3:2|0:0,0:0:0:0:
202,169,101735,2,0,L|209:118,1,50.9999984436036
92,255,101878,6,0,B|69:281|69:281|123:249|199:249,1,152.999995330811,8|0,0:0|0:0,0:0:0:0:
252,278,102164,6,0,L|370:299,1,101.999996887207,0|0,3:2|0:0,0:0:0:0:
512,36,102450,2,0,B|464:47|464:47|458:45|458:45|394:57,1,101.999996887207,12|0,0:0|0:0,0:0:0:0:
202,169,102735,5,0,3:2:0:0:
234,87,102878,1,0,0:0:0:0:
307,48,103021,1,8,0:0:0:0:
125,234,103164,5,0,0:2:0:0:
93,161,103307,2,0,P|70:155|51:130,1,50.9999984436036,0|0,3:2|0:0,0:0:0:0:
112,88,103450,2,0,P|99:67|104:36,1,50.9999984436036
202,169,103593,6,0,B|289:181|247:229|343:242,1,152.999995330811,8|0,0:0|0:0,0:0:0:0:
396,198,103878,6,0,P|388:177|386:143,1,50.9999984436036,0|0,3:2|0:0,0:0:0:0:
204,252,104021,2,0,P|201:282|193:311,1,50.9999984436036
373,384,104164,6,0,B|351:334|351:334|282:313,1,101.999996887207,8|0,0:0|0:0,0:0:0:0:
245,364,104378,1,0,0:0:0:0:
242,377,104450,5,4,3:2:0:0:
110,55,104593,1,0,0:0:0:0:
202,169,104735,1,0,3:2:0:0:
27,344,104878,5,8,0:0:0:0:
245,42,105021,2,0,L|362:8,1,101.999996887207,0|0,0:0|3:2,0:0:0:0:
511,380,105307,5,8,0:0:0:0:
238,34,105450,2,0,P|218:23|177:24,1,50.9999984436036,8|0,0:0|0:0,0:0:0:0:
65,67,105593,5,4,0:0:0:0:
119,305,105735,1,4,0:3:0:0:
194,335,105878,5,0,0:0:0:0:
187,110,106021,1,4,0:3:0:0:
306,160,106164,5,8,0:3:0:0:
261,374,106307,1,0,0:0:0:0:
194,335,106450,5,6,0:3:0:0:
425,233,106593,1,4,0:3:0:0:
425,233,106664,1,0,0:0:0:0:
425,233,106735,6,0,B|463:214|452:178|452:178|383:260|421:363,1,255.000009727478,4|0,0:0|0:0,0:0:0:0:
86,129,114450,5,0,0:0:0:0:
86,129,114593,2,0,P|125:115|143:85,1,63.7500024318696,8|0,0:3|0:0,0:0:0:0:
234,327,114878,2,0,P|273:341|291:371,1,63.7500024318696,8|0,0:3|0:0,0:0:0:0:
371,194,115164,6,0,P|416:167|487:162,1,95.6250036478044,8|0,0:3|0:0,0:0:0:0:
471,153,115450,1,0,0:3:0:0:
407,47,115593,1,4,0:3:0:0:
310,18,115735,1,4,0:3:0:0:
233,32,115878,6,0,L|224:106,1,63.7500024318696,6|0,0:0|0:0,0:0:0:0:
81,277,116164,1,0,0:0:0:0:
150,317,116307,6,0,P|119:287|81:282,1,63.7500024318696
46,69,116593,2,0,P|16:100|11:138,1,63.7500024318696,2|0,0:0|0:0,0:0:0:0:
2,216,116878,5,0,0:0:0:0:
144,179,117021,2,0,B|85:194|85:194|79:193|79:193|20:207,1,127.500004863739
403,351,117593,6,0,P|402:311|429:278,1,63.7500024318696
468,230,117878,1,2,0:0:0:0:
436,10,118021,1,8,0:0:0:0:
512,95,118164,6,0,L|435:83,1,63.7500024318696
403,351,118450,2,0,L|326:363,1,63.7500024318696
209,250,118735,6,0,P|192:215|227:156,1,95.6250036478044
224,151,119021,1,0,0:0:0:0:
187,79,119164,6,0,L|179:12,1,63.7500024318696,2|0,0:0|0:0,0:0:0:0:
209,250,119450,1,0,0:0:0:0:
91,103,119593,2,0,B|62:98|62:98|60:99|60:99|18:92,1,63.7500024318696,2|0,0:0|0:0,0:0:0:0:
119,328,119878,6,0,P|145:279|217:249,1,127.500004863739
460,349,120307,1,8,0:0:0:0:
322,209,120450,6,0,B|351:225|360:257|360:257|358:223|376:195,1,127.500004863739
439,146,120878,1,0,0:0:0:0:
439,146,121021,2,0,P|454:108|443:82,1,63.7500024318696,2|0,0:0|0:0,0:0:0:0:
412,0,121307,5,2,0:0:0:0:
450,244,121450,1,8,0:3:0:0:
364,103,121593,6,0,L|243:85,1,95.6250036478044
251,81,121878,1,0,0:0:0:0:
183,117,122021,1,0,0:0:0:0:
241,304,122164,5,0,0:0:0:0:
213,233,122307,1,0,0:0:0:0:
149,189,122450,2,0,L|67:182,1,63.7500024318696,2|0,0:0|0:0,0:0:0:0:
11,29,122735,6,0,P|-1:-5|24:22,1,95.6250036478044,4|0,0:0|0:0,0:0:0:0:
85,80,123021,6,0,P|114:52|175:42,1,95.6250036478044,4|0,0:0|0:0,0:0:0:0:
307,71,123307,6,0,B|339:89|339:89|269:81,1,95.6250036478044,4|0,0:0|0:0,0:0:0:0:
176,19,123593,2,0,L|197:142,1,95.6250036478044,4|0,0:0|0:0,0:0:0:0:
203,187,123878,5,0,3:2:0:0:
61,331,124021,2,0,B|48:363|48:363|90:328|157:313,1,127.5,8|0,0:0|0:0,0:0:0:0:
208,335,124307,1,0,0:0:0:0:
390,132,124450,5,8,0:0:0:0:
344,235,124593,1,8,0:3:0:0:
481,383,124735,2,0,P|456:342|401:331,1,85,4|0,0:3|0:0,0:0:0:0:
208,335,125021,6,0,B|287:313|265:372|362:348,1,127.5,6|0,3:2|0:0,0:0:0:0:
340,344,125307,1,0,3:2:0:0:
475,198,125450,2,0,L|482:121,1,63.7500024318696,8|0,0:0|0:0,0:0:0:0:
377,15,125735,1,0,3:2:0:0:
472,212,125878,6,0,P|429:159|349:150,1,127.500004863739,12|0,0:0|0:0,0:0:0:0:
296,110,126307,2,0,P|289:79|324:39,1,63.7500024318696,8|0,0:3|0:0,0:0:0:0:
377,15,126593,5,0,3:2:0:0:
351,248,126735,2,0,L|338:361,1,95.6250036478044,12|0,0:0|0:0,0:0:0:0:
339,364,127021,5,0,0:0:0:0:
246,224,127164,1,0,0:0:0:0:
188,278,127307,6,0,B|154:324|108:321|108:321|78:280,1,127.5,4|0,3:2|0:0,0:0:0:0:
75,279,127593,1,0,0:0:0:0:
191,294,127735,2,0,L|287:307,1,85,8|0,0:0|0:0,0:0:0:0:
339,364,128021,5,0,3:2:0:0:
149,151,128164,2,0,B|174:98|233:93|233:93|224:135,1,127.500004863739,12|0,0:0|0:0,0:0:0:0:
318,135,128593,6,0,L|245:122,1,63.7500024318696,8|0,0:3|0:0,0:0:0:0:
44,46,128878,1,4,0:3:0:0:
149,151,129021,2,0,P|167:198|166:270,1,95.6250036478044
169,257,129307,5,8,0:3:0:0:
139,325,129450,1,0,0:0:0:0:
77,370,129593,6,0,B|135:356|135:356|142:358|142:358|217:341,1,127.5,4|0,3:2|0:0,0:0:0:0:
213,339,129878,1,0,3:0:0:0:
372,204,130021,2,0,P|382:162|355:118,1,85,8|0,0:0|0:0,0:0:0:0:
226,22,130307,1,0,3:2:0:0:
365,126,130450,6,0,L|350:273,1,127.500004863739,4|0,0:0|0:0,0:0:0:0:
338,329,130878,5,8,0:3:0:0:
275,277,131021,1,4,0:3:0:0:
196,269,131164,1,4,0:3:0:0:
77,369,131307,6,0,P|41:350|-5:353,1,63.7500024318696,8|0,0:0|0:0,0:0:0:0:
121,302,131593,2,0,P|116:270|100:243,1,63.7500024318696
346,335,131878,6,0,P|404:310|436:256,1,127.5,4|0,3:2|0:0,0:0:0:0:
449,176,132164,1,0,3:2:0:0:
276,64,132307,6,0,P|300:119|372:153,1,127.5,8|0,0:0|0:0,0:0:0:0:
442,167,132593,1,0,3:2:0:0:
346,335,132735,6,0,L|159:314,1,170,12|0,0:0|0:0,0:0:0:0:
61,169,133164,2,0,B|58:131|58:131|55:128|55:128|51:77,1,85,8|0,0:0|0:0,0:0:0:0:
79,3,133450,1,0,3:2:0:0:
65,179,133593,6,0,L|53:319,1,127.5,12|0,0:0|0:0,0:0:0:0:
46,315,133878,1,0,3:2:0:0:
117,354,134021,1,0,0:0:0:0:
192,335,134164,5,8,0:0:0:0:
347,67,134307,1,8,0:0:0:0:
317,350,134450,5,8,0:0:0:0:
418,33,134593,1,8,3:2:0:0:
434,369,134878,5,0,3:2:0:0:
495,10,135164,2,0,B|509:88|461:56|473:170,1,127.5,0|0,3:2|0:0,0:0:0:0:
406,166,135450,6,0,P|371:148|365:130,1,42.5
224,302,135593,2,0,P|209:317|204:337,1,42.5,8|0,0:0|0:0,0:0:0:0:
118,82,135735,2,0,P|83:64|77:46,1,42.5
38,241,135878,5,6,0:0:0:0:
57,220,135950,1,0,0:0:0:0:
93,199,136021,1,0,0:0:0:0:
150,183,136093,1,0,0:0:0:0:
208,190,136164,5,0,0:0:0:0:
252,231,136235,1,0,0:0:0:0:
313,265,136307,1,0,0:0:0:0:
389,282,136378,1,0,0:0:0:0:
472,257,136450,6,0,B|507:218|500:158|440:129|412:163,1,152.999995330811,6|0,3:2|0:0,0:0:0:0:
343,201,136735,2,0,P|397:181|404:107,1,101.999996887207,8|0,0:0|0:0,0:0:0:0:
115,2,137021,6,0,P|159:65|168:165,1,152.999995330811,0|0,3:2|0:0,0:0:0:0:
170,165,137307,1,8,0:0:0:0:
17,356,137450,1,0,0:0:0:0:
29,330,137521,1,0,0:0:0:0:
53,315,137593,6,0,B|139:293|113:352|216:332,1,152.999995330811,0|0,3:2|0:0,0:0:0:0:
251,277,137878,2,0,P|249:235|233:269,1,101.999996887207,8|0,0:0|0:0,0:0:0:0:
389,362,138164,5,0,3:2:0:0:
452,316,138307,1,0,0:0:0:0:
433,236,138450,5,8,0:0:0:0:
512,0,138593,2,0,P|495:20|471:26,1,50.9999984436036
412,83,138735,6,0,P|365:44|256:33,1,152.999995330811,0|0,3:2|0:0,0:0:0:0:
203,97,139021,2,0,P|261:78|275:36,1,101.999996887207,8|0,0:0|0:0,0:0:0:0:
138,0,139307,5,0,3:2:0:0:
79,229,139450,1,0,0:0:0:0:
11,201,139593,5,8,0:0:0:0:
0,341,139735,1,0,0:0:0:0:
0,341,139807,1,0,0:0:0:0:
0,341,139878,6,0,B|60:328|60:328|62:325|62:325|148:306,1,152.999995330811,0|0,3:2|0:0,0:0:0:0:
171,300,140164,1,8,0:0:0:0:
263,363,140307,1,0,0:0:0:0:
452,211,140450,6,0,B|420:151|344:158|344:158|376:209,1,152.999995330811,0|0,3:2|0:0,0:0:0:0:
384,252,140735,1,8,0:0:0:0:
399,288,140807,1,0,0:0:0:0:
389,342,140878,1,0,0:0:0:0:
342,374,140950,1,0,0:0:0:0:
263,363,141021,6,0,L|280:197,1,152.999995330811,4|0,3:2|0:0,0:0:0:0:
219,115,141307,2,0,B|197:159|197:159|237:122|290:117,1,152.999995330811,8|0,0:0|0:0,0:0:0:0:
375,96,141593,6,0,P|392:44|356:3,1,101.999996887207,0|0,3:2|0:0,0:0:0:0:
92,153,141878,1,8,0:0:0:0:
290,117,142021,5,0,0:0:0:0:
290,117,142093,1,0,0:0:0:0:
290,117,142164,2,0,P|245:52|165:37,1,152.999995330811,0|0,3:2|0:0,0:0:0:0:
74,0,142450,2,0,B|21:11|21:11|0:68,1,101.999996887207,8|0,0:0|0:0,0:0:0:0:
92,153,142735,5,0,3:2:0:0:
54,218,142878,1,0,0:0:0:0:
108,268,143021,5,8,0:0:0:0:
138,384,143164,1,0,0:0:0:0:
138,384,143235,1,0,0:0:0:0:
138,384,143307,2,0,P|79:326|1:318,1,152.999995330811,0|0,3:2|0:0,0:0:0:0:
0,321,143593,5,12,0:0:0:0:
337,185,143735,1,0,0:0:0:0:
54,218,143878,5,0,3:2:0:0:
315,18,144021,1,0,3:2:0:0:
89,101,144164,5,8,0:0:0:0:
365,346,144307,2,0,B|370:255|278:242|278:242|290:299,1,191.250007295609,4|0,3:2|0:0,0:0:0:0:
232,384,144593,6,0,P|273:366|284:345,1,50.9999984436036
185,172,144735,2,0,P|198:193|220:206,1,50.9999984436036,8|0,0:0|0:0,0:0:0:0:
365,346,144878,5,4,3:2:0:0:
365,346,144950,1,0,0:0:0:0:
365,346,145021,2,0,P|277:314|192:305,1,152.999995330811
137,338,145307,2,0,P|113:291|50:274,1,101.999996887207,12|8,0:0|0:0,0:0:0:0:
12,201,145521,1,8,0:0:0:0:
11,214,145593,6,0,P|46:255|30:198,1,152.999995330811,2|0,3:2|0:0,0:0:0:0:
14,60,145878,2,0,P|69:113|152:127,1,152.999995330811,12|0,0:0|0:0,0:0:0:0:
263,66,146164,6,0,B|261:43|261:43|192:100|243:180,1,152.999995330811,0|0,3:2|0:0,0:0:0:0:
238,234,146450,1,8,0:0:0:0:
444,373,146593,2,0,P|421:341|393:330,1,50.9999984436036
204,312,146735,6,0,P|237:260|336:218,1,152.999995330811,0|0,3:2|0:0,0:0:0:0:
352,155,147021,2,0,P|358:117|336:150,1,101.999996887207,8|0,0:0|0:0,0:0:0:0:
312,322,147307,5,0,3:2:0:0:
126,242,147450,1,0,0:0:0:0:
79,304,147593,5,8,0:0:0:0:
0,221,147735,1,0,0:0:0:0:
0,221,147807,1,0,0:0:0:0:
0,221,147878,6,0,B|6:173|6:173|9:169|9:169|17:95,1,101.999996887207,0|0,3:2|0:0,0:0:0:0:
347,3,148164,2,0,P|259:32|220:111,1,152.999995330811,8|0,0:0|0:0,0:0:0:0:
258,175,148450,6,0,P|264:115|234:85,1,101.999996887207,0|0,3:2|0:0,0:0:0:0:
14,120,148735,2,0,B|64:130|64:130|68:128|68:128|150:147,1,101.999996887207,8|0,0:0|0:0,0:0:0:0:
325,362,149021,6,0,P|289:286|158:232,1,203.999993774414,0|8,3:2|0:0,0:0:0:0:
73,288,149450,1,0,0:0:0:0:
65,307,149521,1,0,0:0:0:0:
65,325,149593,5,0,3:2:0:0:
113,67,149735,1,0,0:0:0:0:
203,0,149878,5,8,0:0:0:0:
186,232,150021,1,0,0:0:0:0:
186,232,150093,1,0,0:0:0:0:
186,232,150164,6,0,B|256:212|256:212|262:216|262:216|336:194,1,152.999995330811,4|0,0:0|0:0,0:0:0:0:
391,114,150450,2,0,P|337:144|330:198,1,101.999996887207,8|0,0:0|0:0,0:0:0:0:
512,375,150735,2,0,B|538:318|481:266|481:266|448:296,1,152.999995330811,0|0,3:2|0:0,0:0:0:0:
394,331,151021,5,8,0:0:0:0:
434,12,151164,2,0,B|411:46|411:46|270:79,1,152.999995330811,4|0,3:2|0:0,0:0:0:0:
220,54,151450,6,0,P|224:28|253:7,1,50.9999984436036,0|0,3:2|0:0,0:0:0:0:
158,98,151593,2,0,P|137:78|133:51,1,50.9999984436036,8|0,0:0|0:0,0:0:0:0:
315,278,151735,6,0,B|291:250|291:250|151:211,1,152.999995330811,4|0,3:2|0:0,0:0:0:0:
108,201,152021,1,0,3:2:0:0:
350,367,152164,1,8,0:0:0:0:
427,280,152307,2,0,L|435:228,1,50.9999984436036
454,153,152450,5,4,3:2:0:0:
383,163,152593,1,0,0:0:0:0:
327,208,152735,1,8,0:0:0:0:
315,278,152878,1,0,0:0:0:0:
109,201,153021,5,0,3:2:0:0:
127,270,153164,1,0,3:2:0:0:
182,315,153307,1,8,0:0:0:0:
254,319,153450,1,0,0:0:0:0:
330,197,153593,6,0,B|335:156|335:156|338:151|338:151|344:92,1,101.999996887207,0|0,3:2|0:0,0:0:0:0:
25,39,153878,2,0,B|7:84|7:84|59:73,1,101.999996887207,12|0,0:0|0:0,0:0:0:0:
136,63,154093,1,8,0:0:0:0:
140,50,154164,5,8,0:3:0:0:
84,343,154307,1,4,0:3:0:0:
254,219,154450,6,0,P|249:163|212:133,1,101.999996887207,4|0,0:3|0:0,0:0:0:0:
24,28,154735,1,4,0:0:0:0:
372,335,155593,5,0,3:2:0:0:
279,340,155735,2,0,L|373:318,1,85,8|0,0:0|0:0,0:0:0:0:
457,99,156021,1,0,0:0:0:0:
457,99,156164,2,0,P|406:107|372:191,1,127.5,8|0,0:0|0:0,0:0:0:0:
404,244,156450,6,0,B|426:251|426:251|402:224,1,42.5,8|0,0:0|0:0,0:0:0:0:
284,147,156593,2,0,P|226:139|185:75,1,127.5,0|0,3:2|0:0,0:0:0:0:
165,16,156878,5,0,0:0:0:0:
21,126,157021,2,0,L|192:84,1,170,8|0,0:0|0:0,0:0:0:0:
498,359,157593,6,0,L|415:339,1,85
347,296,157878,5,0,3:2:0:0:
103,362,158021,2,0,L|11:381,1,85,8|0,0:0|0:0,0:0:0:0:
19,379,158307,5,0,0:0:0:0:
277,248,158450,2,0,P|299:199|284:167,1,85,8|0,0:0|0:0,0:0:0:0:
251,106,158664,1,0,0:0:0:0:
254,91,158735,5,8,0:0:0:0:
178,106,158878,1,8,0:3:0:0:
104,86,159021,1,4,0:3:0:0:
66,19,159164,1,0,0:0:0:0:
180,117,159307,6,0,L|200:274,1,127.500004863739,6|0,0:0|0:0,0:0:0:0:
176,317,159735,1,0,0:0:0:0:
116,364,159878,1,0,0:0:0:0:
406,135,160164,5,0,3:2:0:0:
487,194,160307,2,0,P|455:165|391:155,1,85,8|0,0:0|0:0,0:0:0:0:
181,50,160593,1,0,0:0:0:0:
356,69,160735,6,0,B|345:97|345:97|238:116,1,127.5,8|0,0:0|0:0,0:0:0:0:
179,127,161021,5,8,0:0:0:0:
19,291,161164,2,0,B|4:370|4:370|83:345,1,127.5,0|0,3:2|0:0,0:0:0:0:
116,332,161450,1,0,0:0:0:0:
402,383,161593,5,0,3:2:0:0:
19,291,161878,1,0,0:0:0:0:
19,291,162021,1,0,0:0:0:0:
179,127,162164,5,0,0:0:0:0:
179,127,162307,2,0,L|190:36,1,85
50,114,162593,6,0,B|40:135|40:135|133:107,1,85,12|0,0:0|0:0,0:0:0:0:
289,25,162878,1,0,0:0:0:0:
434,176,163021,2,0,P|389:133|290:105,1,127.5,8|0,0:0|0:0,0:0:0:0:
310,108,163307,5,8,0:3:0:0:
230,177,163450,1,4,0:3:0:0:
308,246,163593,1,4,0:3:0:0:
264,306,163735,1,4,0:3:0:0:
299,371,163878,6,0,P|263:335|175:321,1,127.5,6|0,0:0|0:0,0:0:0:0:
170,329,164164,1,8,0:0:0:0:
51,206,164307,2,0,L|34:112,1,85
35,122,164735,5,8,0:0:0:0:
348,8,164878,2,0,P|355:50|331:84,1,85,0|0,3:2|0:0,0:0:0:0:
127,157,165164,5,0,3:2:0:0:
127,157,165307,2,0,P|160:103|234:70,1,127.5,8|0,0:0|0:0,0:0:0:0:
236,90,165593,6,0,B|308:102|308:102|312:107|312:107|422:129,1,170,0|8,0:0|0:0,0:0:0:0:
479,54,166021,2,0,P|497:36|501:13,1,42.5
405,140,166164,6,0,P|434:184|436:278,1,127.5,0|0,3:2|0:0,0:0:0:0:
439,276,166450,1,8,0:0:0:0:
84,357,166735,2,0,L|-8:377,1,85
323,315,167021,5,8,0:0:0:0:
112,271,167164,2,0,B|174:279|174:279|227:341,1,127.5,0|0,3:2|0:0,0:0:0:0:
223,339,167450,5,0,3:2:0:0:
245,143,167593,2,0,B|250:91|250:91|254:84|254:84|264:4,1,127.5,8|0,0:0|0:0,0:0:0:0:
263,1,167878,5,0,0:0:0:0:
8,123,168021,1,0,3:2:0:0:
161,44,168164,6,0,B|177:64|177:64|64:41,1,127.5,12|0,0:0|0:0,0:0:0:0:
77,43,168450,6,0,L|101:179,1,127.5,4|0,0:0|0:0,0:0:0:0:
106,240,168735,2,0,B|77:208|77:208|27:197,1,85,8|0,0:0|0:0,0:0:0:0:
289,360,169021,5,0,3:2:0:0:
332,297,169164,1,0,3:2:0:0:
407,281,169307,2,0,P|421:306|416:333,1,42.5,8|0,0:0|0:0,0:0:0:0:
232,173,169450,5,0,0:0:0:0:
239,97,169593,1,0,3:2:0:0:
287,38,169735,1,0,3:2:0:0:
361,19,169878,5,8,0:0:0:0:
332,297,170021,1,0,0:0:0:0:
210,172,170164,1,0,3:2:0:0:
210,172,170307,2,0,L|124:158,1,85,0|8,3:2|0:0,0:0:0:0:
24,337,170593,2,0,P|54:332|68:310,1,42.5
135,276,170735,6,0,P|150:231|115:147,1,127.5,0|0,3:2|0:0,0:0:0:0:
32,116,171021,2,0,P|68:151|121:147,1,85,12|0,0:0|0:0,0:0:0:0:
351,0,171307,5,0,3:2:0:0:
294,52,171450,1,0,3:2:0:0:
282,127,171593,1,8,0:0:0:0:
314,196,171735,2,0,L|321:254,1,42.5
401,300,171878,6,0,L|496:317,1,85,0|0,3:2|3:2,0:0:0:0:
171,144,172164,2,0,B|127:132|127:132|144:184,1,85,8|0,0:0|0:0,0:0:0:0:
274,384,172450,6,0,P|266:355|188:320,1,85,0|0,3:2|3:2,0:0:0:0:
118,255,172735,5,8,0:0:0:0:
401,300,172878,1,0,0:0:0:0:
171,144,173021,5,0,3:2:0:0:
274,384,173164,2,0,P|274:322|296:297,1,85,8|0,0:0|0:0,0:0:0:0:
158,153,173450,5,0,3:2:0:0:
369,8,173593,2,0,P|369:70|391:95,1,85,8|0,0:0|0:0,0:0:0:0:
146,162,173878,5,0,3:2:0:0:
433,189,174021,2,0,B|367:167|378:219|286:194,1,127.5,8|0,0:0|0:0,0:0:0:0:
295,194,174307,5,0,3:2:0:0:
57,297,174450,2,0,P|16:274|42:320,1,127.5,12|0,0:0|0:0,0:0:0:0:
41,338,174735,5,0,3:2:0:0:
216,384,174878,2,0,L|190:183,1,170,12|0,0:0|0:0,0:0:0:0:
146,162,175235,6,0,P|150:137|173:124,1,42.5,0|4,0:0|0:0,0:0:0:0:
256,192,175450,12,2,177592,0:0:0:0:
199,103,179878,6,0,P|218:51|219:95,1,152.999995330811,6|0,3:2|0:0,0:0:0:0:
287,249,180164,2,0,P|235:208|138:196,1,152.999995330811,8|0,0:0|0:0,0:0:0:0:
26,126,180450,6,0,B|47:104|63:85|63:85|36:129|39:206,1,152.999995330811,0|0,3:2|0:0,0:0:0:0:
116,372,180735,2,0,P|131:315|90:258,1,101.999996887207,8|8,0:0|0:0,0:0:0:0:
34,253,180950,1,8,0:0:0:0:
21,257,181021,5,0,3:2:0:0:
199,103,181164,2,0,P|218:58|205:7,1,85,8|0,0:0|0:0,0:0:0:0:
351,256,181450,2,0,P|370:301|357:352,1,85,8|0,0:0|0:0,0:0:0:0:
474,131,181735,6,0,P|496:127|523:102,1,42.5,8|0,0:0|0:0,0:0:0:0:
336,41,181878,2,0,P|332:19|307:-8,1,42.5,8|0,0:3|0:0,0:0:0:0:
420,12,182021,5,4,0:3:0:0:
420,12,182093,1,0,0:0:0:0:
420,12,182164,2,0,P|415:68|376:131,1,102
432,216,182450,6,0,P|408:168|275:117,1,165.749992412568,4|0,0:0|0:0,0:0:0:0:
255,79,182735,5,0,3:2:0:0:
197,239,182878,1,0,3:2:0:0:
249,300,183021,1,8,0:0:0:0:
152,384,183164,1,0,0:0:0:0:
152,384,183235,1,0,0:0:0:0:
152,384,183307,6,0,L|39:362,1,110.499994941712,0|0,3:2|0:0,0:0:0:0:
0,77,183593,2,0,B|55:68|55:68|61:70|61:70|114:60,1,110.499994941712,8|0,0:0|0:0,0:0:0:0:
174,21,183807,1,0,0:0:0:0:
174,21,183878,6,0,B|229:7|229:7|213:74,1,110.499994941712,0|0,3:2|3:2,0:0:0:0:
43,362,184164,2,0,P|34:298|62:259,1,110.499994941712,8|0,0:0|0:0,0:0:0:0:
45,166,184378,1,0,0:0:0:0:
53,178,184450,6,0,P|107:248|214:267,1,165.749992412568,0|0,3:2|0:0,0:0:0:0:
272,293,184735,5,8,0:0:0:0:
166,67,184878,1,0,0:0:0:0:
377,321,185021,5,0,3:2:0:0:
277,23,185164,1,0,3:2:0:0:
480,359,185307,5,8,0:0:0:0:
389,0,185450,2,0,B|437:77|376:159|323:113|333:76,1,191.250007295609,4|0,3:2|0:0,0:0:0:0:
277,23,185735,6,0,P|316:33|326:57,1,55.2499974708558
480,82,185878,2,0,P|478:109|459:128,1,55.2499974708558,8|0,0:0|0:0,0:0:0:0:
212,234,186021,6,0,P|259:175|369:136,1,165.749992412568,4|0,3:2|0:0,0:0:0:0:
362,136,186307,1,0,0:0:0:0:
480,359,186450,1,8,0:0:0:0:
459,337,186521,1,0,0:0:0:0:
454,303,186593,1,0,0:0:0:0:
415,326,186664,1,0,0:0:0:0:
368,332,186735,6,0,P|322:297|246:301,1,110.499994941712,6|0,3:2|0:0,0:0:0:0:
169,327,187021,1,8,0:0:0:0:
16,149,187164,2,0,L|1:79,1,55.2499974708558
43,20,187307,5,0,3:2:0:0:
273,99,187450,1,0,3:2:0:0:
256,9,187593,5,8,0:0:0:0:
373,88,187735,1,0,0:0:0:0:
373,88,187807,1,0,0:0:0:0:
373,88,187878,2,0,B|368:135|368:135|371:138|371:138|364:207,1,110.499994941712,0|0,3:2|0:0,0:0:0:0:
22,384,188164,2,0,P|49:336|106:316,1,110.499994941712,8|0,0:0|0:0,0:0:0:0:
169,327,188378,1,0,0:0:0:0:
180,333,188450,5,0,3:2:0:0:
237,269,188593,1,0,3:2:0:0:
303,316,188735,5,8,0:0:0:0:
373,88,188878,1,0,0:0:0:0:
373,88,188950,1,0,0:0:0:0:
373,88,189021,6,0,L|202:119,1,165.749992412568,0|0,3:2|0:0,0:0:0:0:
54,94,189307,2,0,B|66:18|145:15|145:15|133:89,1,165.749992412568,8|0,0:0|0:0,0:0:0:0:
127,152,189593,6,0,P|97:196|100:252,1,110.499994941712,0|0,3:2|3:2,0:0:0:0:
437,376,189878,1,8,0:0:0:0:
227,249,190021,5,0,0:0:0:0:
227,249,190093,1,0,0:0:0:0:
227,249,190164,2,0,B|204:280|204:280|365:241,1,165.749992412568,0|0,3:2|0:0,0:0:0:0:
406,235,190450,2,0,P|437:185|420:137,1,110.499994941712,8|0,0:0|0:0,0:0:0:0:
183,25,190735,5,0,3:2:0:0:
85,183,190878,1,0,3:2:0:0:
141,237,191021,1,8,0:0:0:0:
51,324,191164,1,0,0:0:0:0:
51,324,191235,1,0,0:0:0:0:
51,324,191307,6,0,B|29:377|29:377|79:338|145:329,1,165.749992412568,0|0,3:2|0:0,0:0:0:0:
277,315,191593,2,0,P|225:359|225:287,1,165.749992412568,8|0,0:0|0:0,0:0:0:0:
281,229,191878,6,0,P|307:244|340:243,1,55.2499974708558,0|0,3:2|0:0,0:0:0:0:
388,291,192021,2,0,P|425:266|429:244,1,55.2499974708558
499,271,192164,2,0,P|515:238|503:202,1,55.2499974708558,8|0,0:0|0:0,0:0:0:0:
479,19,192307,6,0,P|424:71|303:102,1,165.749992412568,4|0,3:2|0:0,0:0:0:0:
280,55,192593,2,0,B|263:76|263:107|263:107|252:81|219:64,1,110.499994941712,0|8,3:2|0:0,0:0:0:0:
88,164,192878,6,0,B|64:119|64:119|123:147|202:143,1,165.749992412568,6|0,0:0|0:0,0:0:0:0:
194,139,193164,1,0,3:2:0:0:
128,365,193307,1,8,0:0:0:0:
54,309,193450,2,0,L|-22:289,1,55.2499974708558
134,372,193593,5,4,3:2:0:0:
173,305,193735,1,0,0:0:0:0:
241,268,193878,1,8,0:0:0:0:
317,278,194021,1,0,0:0:0:0:
181,215,194164,5,0,3:2:0:0:
141,147,194307,1,0,3:2:0:0:
144,69,194450,1,8,0:0:0:0:
190,9,194593,2,0,P|219:4|258:33,1,55.2499974708558
305,77,194735,5,12,3:2:0:0:
492,16,194878,1,8,0:0:0:0:
261,160,195021,5,12,3:2:0:0:
503,150,195164,1,8,0:0:0:0:
219,247,195307,5,12,3:2:0:0:
492,299,195450,1,8,0:0:0:0:
455,288,195521,1,8,0:0:0:0:
405,295,195593,1,8,0:0:0:0:
349,323,195664,1,8,0:0:0:0:
287,352,195735,1,8,0:0:0:0:
216,354,195807,1,8,0:0:0:0:
142,326,195878,6,0,B|118:344|118:344|75:288|129:210,1,165.749992412568,6|0,3:2|0:0,0:0:0:0:
61,123,196164,2,0,B|50:164|50:164|82:129|128:119,1,110.499994941712,8|0,0:0|0:0,0:0:0:0:
422,18,196450,6,0,P|349:50|284:158,1,165.749992412568,0|0,3:2|0:0,0:0:0:0:
289,130,196735,1,8,0:0:0:0:
61,123,196878,1,0,0:0:0:0:
61,123,196950,1,0,0:0:0:0:
61,123,197021,6,0,L|42:7,1,110.499994941712,0|0,3:2|0:0,0:0:0:0:
187,248,197307,2,0,B|182:296|182:296|185:300|185:300|179:361,1,110.499994941712,8|0,0:0|0:0,0:0:0:0:
162,363,197521,2,0,P|129:354|111:318,1,55.2499974708558,0|0,0:0|3:2,0:0:0:0:
472,120,197735,5,0,0:0:0:0:
446,193,197878,1,8,0:0:0:0:
388,244,198021,1,0,0:0:0:0:
309,250,198164,2,0,P|257:216|192:217,1,110.499994941712,0|0,3:2|0:0,0:0:0:0:
22,293,198450,5,8,0:0:0:0:
136,79,198593,1,0,0:0:0:0:
137,63,198664,1,0,0:0:0:0:
132,48,198735,1,0,3:2:0:0:
49,20,198878,5,0,0:0:0:0:
109,245,199021,1,8,0:0:0:0:
192,276,199164,5,0,0:0:0:0:
216,46,199307,1,0,3:2:0:0:
363,81,199450,5,0,0:0:0:0:
264,313,199593,1,8,0:0:0:0:
331,363,199735,6,0,B|359:342|375:301|355:264|355:264|317:252|303:210,1,165.749992412568
346,154,200021,2,0,P|375:168|381:204,1,55.2499974708558
259,324,200164,2,0,P|212:283|91:262,1,165.749992412568,8|0,0:0|0:0,0:0:0:0:
93,257,200450,5,6,3:2:0:0:
125,187,200593,1,0,0:0:0:0:
117,109,200735,1,8,0:0:0:0:
65,50,200878,1,0,0:0:0:0:
274,100,201021,5,0,3:2:0:0:
283,23,201164,1,0,0:0:0:0:
266,96,201307,5,8,0:0:0:0:
275,19,201450,1,0,0:0:0:0:
125,187,201593,6,0,P|180:140|278:123,1,165.749992412568,0|0,3:2|0:0,0:0:0:0:
336,154,201878,2,0,P|319:182|285:191,1,55.2499974708558,8|0,0:0|0:0,0:0:0:0:
0,282,202021,6,0,P|38:230|65:301,1,165.749992412568
91,365,202307,2,0,P|121:352|133:323,1,55.2499974708558
222,204,202450,1,8,0:0:0:0:
236,239,202521,1,0,0:0:0:0:
271,284,202593,1,0,0:0:0:0:
327,326,202664,1,0,0:0:0:0:
407,341,202735,6,0,B|404:259|459:284|439:166,1,165.749992412568,4|0,3:2|0:0,0:0:0:0:
442,165,203021,5,8,0:0:0:0:
263,37,203164,1,0,0:0:0:0:
360,75,203307,5,0,3:2:0:0:
151,32,203450,1,0,0:0:0:0:
22,171,203593,5,8,0:0:0:0:
263,37,203735,1,0,0:0:0:0:
263,37,203807,1,0,0:0:0:0:
263,37,203878,2,0,P|217:95|210:195,1,165.749992412568,0|0,3:2|0:0,0:0:0:0:
259,247,204164,2,0,B|287:260|287:260|267:234,1,55.2499974708558,8|0,0:0|0:0,0:0:0:0:
22,171,204307,6,0,P|59:126|172:91,1,165.749992412568
183,90,204593,1,0,0:0:0:0:
408,371,204735,1,8,0:0:0:0:
400,338,204807,1,8,0:0:0:0:
366,304,204878,1,8,0:0:0:0:
316,289,204950,1,8,0:0:0:0:
251,322,205021,6,0,B|266:342|266:342|116:321,1,165.749992412568,0|0,3:2|0:0,0:0:0:0:
10,343,205307,2,0,L|129:316,1,110.499994941712,14|0,0:0|0:0,0:0:0:0:
326,209,205593,6,0,P|369:175|380:62,1,165.749992412568,0|0,3:2|0:0,0:0:0:0:
378,58,205878,1,8,0:0:0:0:
110,0,206021,1,0,0:0:0:0:
110,0,206093,1,0,0:0:0:0:
110,0,206164,6,0,B|92:53|92:53|155:33,1,110.499994941712,0|0,3:2|0:0,0:0:0:0:
433,233,206450,2,0,L|292:201,1,110.499994941712,8|0,0:0|0:0,0:0:0:0:
81,304,206735,5,0,3:2:0:0:
154,280,206878,1,0,0:0:0:0:
204,221,207021,1,8,0:0:0:0:
220,145,207174,1,0,0:0:0:0:
220,145,207251,1,0,0:0:0:0:
220,145,207328,6,0,P|150:120|131:71,1,127.500004863739,2|0,0:0|0:0,0:0:0:0:
383,311,208013,2,0,P|354:365|294:381,1,127.500004863739,2|0,0:0|0:0,0:0:0:0:
460,188,208766,5,0,0:0:0:0:
460,188,209118,2,0,P|464:146|469:96,1,85,2|0,0:0|0:0,0:0:0:0:
256,192,209975,12,0,212070,0:0:0:0:
192,60,213578,6,0,P|234:108|246:218,1,170
62,336,214163,6,0,P|36:287|73:331,1,159.375006079674,6|0,3:2|0:0,0:0:0:0:
148,350,214591,2,0,P|162:335|184:327,1,31.8750012159348
414,352,214734,6,0,P|364:343|275:262,1,159.375006079674
247,210,215163,1,0,0:0:0:0:
247,210,215234,1,0,0:0:0:0:
247,210,215305,5,14,0:0:0:0:
487,7,215877,2,0,P|488:49|410:95,1,127.5
350,56,216448,5,6,3:2:0:0:
346,39,216591,1,0,0:0:0:0:
260,4,216734,5,8,0:0:0:0:
237,163,216877,1,0,0:0:0:0:
350,56,217020,5,0,0:0:0:0:
243,4,217163,1,0,0:0:0:0:
143,22,217305,1,8,0:0:0:0:
79,74,217448,1,0,0:0:0:0:
52,142,217591,6,0,L|47:233,1,85,0|0,3:2|3:2,0:0:0:0:
250,367,217877,2,0,B|247:329|247:329|244:325|244:325|237:265,1,85,8|0,0:0|0:0,0:0:0:0:
226,212,218091,1,0,0:0:0:0:
225,196,218163,5,0,0:0:0:0:
3,302,218305,1,0,3:2:0:0:
156,321,218448,6,0,B|128:284|128:284|70:271,1,85,8|0,0:0|0:0,0:0:0:0:
400,96,218734,5,0,3:2:0:0:
386,170,218877,1,0,3:2:0:0:
407,89,219020,5,8,0:0:0:0:
394,168,219163,1,0,0:0:0:0:
470,32,219305,5,0,0:0:0:0:
314,114,219448,1,0,0:0:0:0:
224,63,219591,1,8,0:0:0:0:
162,122,219734,1,0,0:0:0:0:
162,122,219805,1,0,0:0:0:0:
162,122,219877,6,0,L|150:218,1,85,0|0,3:2|3:2,0:0:0:0:
380,365,220163,2,0,B|423:374|423:374|406:320,1,85,8|0,0:0|0:0,0:0:0:0:
304,240,220448,5,0,0:0:0:0:
249,293,220591,1,0,3:2:0:0:
175,312,220734,2,0,P|135:288|88:283,1,85,12|0,0:0|0:0,0:0:0:0:
0,0,221020,6,0,P|22:50|112:89,1,127.5,4|0,3:2|0:0,0:0:0:0:
97,85,221305,1,8,0:0:0:0:
362,126,221448,2,0,L|461:140,1,85
483,8,221734,5,0,3:2:0:0:
352,131,221877,2,0,P|335:171|348:215,1,85,8|0,0:0|0:0,0:0:0:0:
506,376,222163,6,0,P|515:335|498:297,1,85,0|0,3:2|3:2,0:0:0:0:
463,225,222448,1,8,0:0:0:0:
329,326,222591,1,0,0:0:0:0:
315,332,222663,1,0,0:0:0:0:
300,328,222734,5,0,0:0:0:0:
352,131,222877,1,0,3:2:0:0:
257,94,223020,5,8,0:0:0:0:
219,346,223163,1,0,0:0:0:0:
132,371,223305,6,0,P|108:320|27:283,1,127.5,0|0,3:2|0:0,0:0:0:0:
35,281,223591,6,0,L|27:226,1,42.5,8|0,0:0|0:0,0:0:0:0:
110,22,223734,2,0,L|103:64,1,42.5
151,200,223877,5,0,3:2:0:0:
227,0,224020,1,0,3:2:0:0:
300,139,224163,6,0,B|315:119|315:119|232:143,1,85,12|0,0:0|0:0,0:0:0:0:
132,371,224448,2,0,P|164:331|211:309,1,85,4|0,3:2|0:0,0:0:0:0:
393,366,224734,5,12,3:2:0:0:
151,200,224877,1,0,0:0:0:0:
151,200,224948,1,0,0:0:0:0:
151,200,225020,2,0,P|152:146|100:64,1,127.5,4|0,3:2|0:0,0:0:0:0:
19,0,225305,5,8,0:3:0:0:
56,57,225377,1,8,0:3:0:0:
119,81,225448,1,4,0:3:0:0:
164,78,225520,1,4,0:3:0:0:
192,56,225591,6,0,L|284:36,1,85,6|0,3:2|0:0,0:0:0:0:
512,49,225877,6,0,B|489:40|470:14|470:14|502:74|496:132,1,152.999995330811,12|0,0:0|0:0,0:0:0:0:
490,181,226163,1,0,3:2:0:0:
369,301,226305,6,0,L|309:293,2,50.9999984436036,0|0|8,0:0|0:0|0:0,0:0:0:0:
256,217,226591,1,0,0:0:0:0:
185,366,226734,5,0,3:2:0:0:
124,305,226877,1,0,0:0:0:0:
52,354,227020,6,0,L|-5:344,1,50.9999984436036,8|0,0:0|0:0,0:0:0:0:
106,140,227163,2,0,L|117:75,1,50.9999984436036
59,4,227305,5,0,3:2:0:0:
96,227,227448,1,0,0:0:0:0:
208,119,227591,2,0,L|313:99,1,101.999996887207,8|0,0:0|0:0,0:0:0:0:
489,12,227877,6,0,P|427:48|405:147,1,152.999995330811,0|0,3:2|0:0,0:0:0:0:
435,192,228163,1,8,0:0:0:0:
449,208,228234,1,0,0:0:0:0:
466,215,228305,1,0,0:0:0:0:
325,125,228448,5,0,3:2:0:0:
368,326,228591,1,0,0:0:0:0:
234,376,228734,5,8,0:0:0:0:
260,200,228877,1,0,0:0:0:0:
260,200,228948,1,0,0:0:0:0:
260,200,229020,6,0,L|369:210,1,101.999996887207,0|0,3:2|0:0,0:0:0:0:
66,367,229305,1,8,0:0:0:0:
85,290,229448,1,0,0:0:0:0:
35,232,229591,5,0,3:2:0:0:
72,7,229734,1,0,0:0:0:0:
1,128,229877,6,0,B|-12:164|-12:164|41:122|108:116,1,152.999995330811,8|0,0:0|0:0,0:0:0:0:
158,88,230163,5,0,3:2:0:0:
235,117,230305,1,0,0:0:0:0:
280,182,230448,1,12,0:0:0:0:
285,261,230591,1,0,0:0:0:0:
371,103,230734,5,0,3:2:0:0:
408,42,230877,1,0,0:0:0:0:
475,19,231020,1,8,0:0:0:0:
332,325,231163,5,0,0:0:0:0:
285,261,231305,2,0,P|254:255|236:234,1,50.9999984436036,0|0,3:2|0:0,0:0:0:0:
280,182,231448,2,0,P|262:155|264:128,1,50.9999984436036
154,335,231591,6,0,P|209:289|311:257,1,152.999995330811,8|0,0:0|0:0,0:0:0:0:
359,284,231877,5,0,3:2:0:0:
74,181,232020,1,0,0:0:0:0:
161,344,232163,6,0,P|166:291|128:230,1,101.999996887207,8|0,0:0|0:0,0:0:0:0:
120,22,232448,5,12,0:0:0:0:
65,342,232591,1,8,0:0:0:0:
33,214,232734,1,0,3:2:0:0:
69,353,232877,5,8,0:0:0:0:
274,76,233020,2,0,L|385:55,1,101.999996887207,8|0,0:0|0:0,0:0:0:0:
482,376,233305,5,8,0:0:0:0:
260,65,233448,2,0,L|199:56,1,50.9999984436036,8|0,0:0|0:0,0:0:0:0:
138,29,233591,5,0,0:0:0:0:
50,229,233734,1,12,3:2:0:0:
120,264,233877,5,8,0:0:0:0:
161,369,234020,1,0,0:0:0:0:
250,295,234163,5,12,0:0:0:0:
482,376,234305,1,0,0:0:0:0:
323,222,234448,5,12,0:0:0:0:
461,0,234591,2,0,L|390:17,1,50.9999984436036,0|0,3:2|0:0,0:0:0:0:
255,1,234734,5,12,0:0:0:0:
161,369,234877,1,8,0:0:0:0:
323,222,235020,1,0,0:0:0:0:
72,47,235163,5,8,0:0:0:0:
250,295,235305,1,8,0:0:0:0:
120,264,235448,1,0,0:0:0:0:
255,1,235591,5,8,0:0:0:0:
482,376,235734,1,8,0:0:0:0:
164,104,236305,6,0,L|168:146,8,25.4999992218018,2|0|0|0|0|0|0|0|0,0:0|0:0|0:0|0:0|0:0|0:0|0:0|0:0|0:0,0:0:0:0:
256,192,236734,12,0,239663,0:0:0:0:
