osu file format v14

[General]
AudioFilename: audio.mp3
AudioLeadIn: 0
PreviewTime: 66983
Countdown: 0
SampleSet: Normal
StackLeniency: 0.7
Mode: 0
LetterboxInBreaks: 0
WidescreenStoryboard: 0

[Editor]
DistanceSpacing: 1
BeatDivisor: 4
GridSize: 4
TimelineZoom: 1.8

[Metadata]
Title:Deep Indigo
TitleUnicode:藍二乗
Artist:Yorushika
ArtistUnicode:ヨルシカ
Creator:Magician_J
Version:Aozora
Source:
Tags:Japanese Pop Yorushika Blur Rock
BeatmapID:1885057
BeatmapSetID:902953

[Difficulty]
HPDrainRate:6.5
CircleSize:4
OverallDifficulty:6
ApproachRate:9
SliderMultiplier:1.4
SliderTickRate:1

[Events]
//Background and Video events
0,0,"clouds and girl.jpg",0,0
//Break Periods
2,106754,115097
//Storyboard Layer 0 (Background)
//Storyboard Layer 1 (Fail)
//Storyboard Layer 2 (Pass)
//Storyboard Layer 3 (Foreground)
//Storyboard Sound Samples

[TimingPoints]
1412,285.714285714286,4,1,0,100,1,0
1512,-100,4,1,0,100,0,0
27697,-50,4,1,0,100,0,0
28412,-100,4,1,0,100,0,0
54269,-66.6666666666667,4,1,0,100,0,0
54554,-57.1428571428571,4,1,0,100,0,0
54840,-50,4,1,0,100,0,0
55126,-100,4,1,0,100,0,0
67697,285.714285714286,4,1,0,100,1,1
88268,-100,4,1,0,100,0,0
122839,-66.6666666666667,4,1,0,100,0,0
123125,-50,4,1,0,100,0,0
123411,-40,4,1,0,100,0,0
123697,-100,4,1,0,100,0,0
135697,-100,4,1,0,100,0,1
153411,-100,4,1,0,100,0,0
179697,-100,4,1,0,100,0,1
207125,-133.333333333333,4,1,0,100,0,1
207697,-133.333333333333,4,1,0,100,0,1
209411,-100,4,1,0,100,0,0

[Colours]
Combo1 : 255,157,255
Combo2 : 160,131,226
Combo3 : 115,210,135
Combo4 : 99,140,234
Combo5 : 221,81,81
Combo6 : 138,255,255

[HitObjects]
165,29,1269,5,0,0:0:0:0:
251,48,1412,2,0,P|251:117|186:163,1,140
44,147,1983,1,0,0:0:0:0:
42,300,2269,1,0,0:0:0:0:
173,343,2554,2,0,P|233:293|243:219,1,140
244,39,3126,2,0,P|312:68|341:145,1,140
340,209,3697,5,0,0:0:0:0:
451,324,3983,1,0,0:0:0:0:
328,323,4269,1,0,0:0:0:0:
446,228,4554,1,0,0:0:0:0:
430,117,4840,2,0,P|382:56|311:27,1,140
178,37,5412,1,0,0:0:0:0:
78,183,5697,5,0,0:0:0:0:
78,183,5840,6,0,B|130:257|241:157|154:47|300:50|361:178,1,350
345,258,6840,5,0,0:0:0:0:
345,258,6983,6,0,B|258:117|212:294|206:195|164:423|51:310,1,350
75,193,7983,5,0,0:0:0:0:
75,193,8126,6,0,P|184:193|181:196,1,350
137,255,9126,5,0,0:0:0:0:
402,305,9412,1,0,0:0:0:0:
261,195,9697,2,0,P|310:204|321:194,1,70
446,132,9983,2,0,P|409:125|360:149,1,70
286,59,10269,2,0,P|328:44|361:56,1,70
465,55,10554,5,0,0:0:0:0:
252,140,10840,1,0,0:0:0:0:
463,249,11126,1,0,0:0:0:0:
248,335,11412,1,0,0:0:0:0:
93,337,11697,2,0,P|72:283|84:253,1,70
170,229,11983,2,0,P|167:180|136:150,1,70
47,137,12269,2,0,P|57:78|79:64,1,70
217,64,12554,2,0,P|226:108|208:146,1,70
254,209,12840,5,0,0:0:0:0:
476,295,13126,1,0,0:0:0:0:
262,352,13412,1,0,0:0:0:0:
459,183,13697,1,0,0:0:0:0:
431,68,13983,2,0,P|398:47|347:54,1,70
314,130,14269,2,0,P|271:135|256:114,1,70
103,36,14554,2,0,B|64:59|48:96,1,70
157,199,14840,2,0,P|206:170|218:146,1,70
295,55,15126,6,0,P|235:53|161:95,1,140
69,172,15697,2,0,P|74:222|138:298,1,140
259,317,16269,2,0,B|320:271|328:196,1,140
408,48,16840,2,0,P|445:118|443:187,1,140
322,220,17412,2,0,P|304:149|302:74,1,140
218,100,17983,2,0,P|209:169|207:252,1,140
137,339,18554,1,0,0:0:0:0:
380,255,18840,1,0,0:0:0:0:
367,63,19126,1,0,0:0:0:0:
179,31,19412,1,0,0:0:0:0:
60,67,19697,6,0,L|132:104,1,70
226,131,19983,1,0,0:0:0:0:
326,70,20126,1,0,0:0:0:0:
402,142,20269,6,0,L|329:184,1,70
249,221,20554,1,0,0:0:0:0:
99,166,20697,1,0,0:0:0:0:
75,248,20840,6,0,L|163:284,1,70
249,308,21126,1,0,0:0:0:0:
373,271,21269,1,0,0:0:0:0:
467,216,21412,6,0,P|469:171|456:124,1,70
397,56,21697,2,0,P|330:42|315:47,1,70
229,61,21983,5,0,0:0:0:0:
159,265,22126,1,0,0:0:0:0:
344,213,22269,1,0,0:0:0:0:
226,71,22412,1,0,0:0:0:0:
157,277,22554,1,0,0:0:0:0:
351,224,22697,1,0,0:0:0:0:
222,81,22840,1,0,0:0:0:0:
167,283,22983,1,0,0:0:0:0:
362,227,23126,1,0,0:0:0:0:
249,145,23269,5,0,0:0:0:0:
325,328,23412,1,0,0:0:0:0:
424,126,23554,1,0,0:0:0:0:
248,161,23697,1,0,0:0:0:0:
339,330,23840,1,0,0:0:0:0:
418,133,23983,2,0,P|366:145|343:179,1,70
259,238,24269,5,0,0:0:0:0:
132,120,24412,1,0,0:0:0:0:
235,54,24554,2,0,P|281:50|322:58,1,70
437,89,24840,5,0,0:0:0:0:
439,225,24983,1,0,0:0:0:0:
296,166,25126,2,0,P|243:170|215:200,1,70
160,256,25412,5,0,0:0:0:0:
316,353,25554,1,0,0:0:0:0:
438,277,25697,2,0,P|441:213|428:188,1,70
417,89,25983,5,0,0:0:0:0:
294,238,26126,1,0,0:0:0:0:
194,151,26269,6,0,P|178:117|142:68,1,70
63,124,26554,6,0,L|74:197,1,70
169,308,26840,2,0,L|244:252,1,70
375,287,27126,2,0,L|302:239,1,70
204,185,27412,2,0,L|291:171,1,70
381,122,27697,6,0,L|191:39,1,140
40,47,27983,2,0,L|189:119,1,140
124,177,28269,2,0,L|35:342,1,140
236,320,28554,5,0,0:0:0:0:
269,328,28625,1,0,0:0:0:0:
303,323,28696,1,0,0:0:0:0:
332,304,28768,1,0,0:0:0:0:
351,275,28840,2,0,P|382:233|381:205,1,70
201,163,29126,6,0,L|119:171,1,70
47,101,29412,2,0,L|71:73,1,35
195,49,29554,1,0,0:0:0:0:
229,46,29625,1,0,0:0:0:0:
268,52,29697,2,0,P|306:62|340:87,1,70
445,110,29983,2,0,P|421:160|398:184,1,70
290,229,30269,5,0,0:0:0:0:
261,248,30340,1,0,0:0:0:0:
227,256,30411,1,0,0:0:0:0:
192,252,30483,1,0,0:0:0:0:
156,236,30554,2,0,P|111:263|104:292,1,70
178,351,30840,2,0,L|250:345,1,70
365,338,31126,2,0,L|403:279,1,70
431,180,31412,5,0,0:0:0:0:
424,146,31483,1,0,0:0:0:0:
401,113,31554,1,0,0:0:0:0:
311,42,31697,2,0,L|213:48,1,70
66,51,31983,2,0,L|149:89,1,70
112,160,32269,2,0,L|203:169,1,70
327,172,32554,1,0,0:0:0:0:
188,271,32697,1,0,0:0:0:0:
387,299,32840,1,0,0:0:0:0:
215,170,32983,1,0,0:0:0:0:
269,354,33126,1,0,0:0:0:0:
46,52,33412,6,0,L|123:60,1,70
200,105,33697,2,0,L|166:138,2,35
57,174,33983,2,0,L|111:227,1,70
245,218,34269,2,0,L|211:251,2,35
204,342,34554,2,0,L|285:348,1,70
425,351,34840,2,0,L|367:286,1,70
356,221,35126,1,0,0:0:0:0:
420,197,35269,1,0,0:0:0:0:
460,142,35412,1,0,0:0:0:0:
315,47,35697,6,0,L|278:117,2,70
131,45,36126,2,0,L|168:119,2,70
41,206,36554,2,0,P|126:207|126:207,2,70
150,355,36983,2,0,P|186:289|186:289,2,70
366,355,37412,2,0,L|316:299,2,70
213,126,37840,5,0,0:0:0:0:
256,48,37983,5,0,0:0:0:0:
433,48,38269,1,0,0:0:0:0:
302,178,38554,1,0,0:0:0:0:
447,147,38840,2,0,P|460:199|450:216,1,70
467,287,39126,6,0,P|398:308|370:303,1,70
249,326,39412,2,0,P|265:266|279:257,1,70
334,207,39697,2,0,P|382:197|406:183,1,70
444,93,39983,2,0,P|407:65|362:63,1,70
250,62,40269,2,0,P|187:51|99:64,1,140
35,138,40697,1,0,0:0:0:0:
61,214,40840,6,0,P|106:185|144:176,1,70
207,225,41126,2,0,P|172:268|145:275,1,70
204,353,41412,2,0,P|270:339|281:313,1,70
336,271,41697,2,0,P|376:284|391:317,1,70
470,185,41983,5,0,0:0:0:0:
440,121,42126,1,0,0:0:0:0:
385,77,42269,1,0,0:0:0:0:
322,45,42412,1,0,0:0:0:0:
253,39,42554,2,0,P|176:36|95:72,1,140
55,164,43126,5,0,0:0:0:0:
111,205,43269,1,0,0:0:0:0:
178,221,43412,1,0,0:0:0:0:
248,223,43555,1,0,0:0:0:0:
310,191,43697,2,0,P|389:192|461:214,1,140
430,285,44269,5,0,0:0:0:0:
374,326,44412,1,0,0:0:0:0:
307,342,44555,1,0,0:0:0:0:
237,344,44698,1,0,0:0:0:0:
169,327,44840,2,0,P|105:298|60:234,1,140
50,127,45412,5,0,0:0:0:0:
93,52,45554,1,0,0:0:0:0:
122,175,45697,1,0,0:0:0:0:
205,40,45840,1,0,0:0:0:0:
231,244,45983,1,0,0:0:0:0:
319,34,46126,1,0,0:0:0:0:
360,274,46269,2,0,P|372:231|352:182,1,70
415,34,46554,2,0,P|383:77|370:115,1,70
463,223,46840,2,0,P|450:168|414:151,1,70
367,102,47126,6,0,P|279:128|247:165,1,140
209,235,47554,1,0,0:0:0:0:
101,230,47697,2,0,L|52:166,1,70
57,74,47983,2,0,L|134:117,1,70
232,167,48269,1,0,0:0:0:0:
203,65,48412,1,0,0:0:0:0:
277,200,48554,1,0,0:0:0:0:
255,38,48697,1,0,0:0:0:0:
350,43,48840,6,0,P|389:67|396:107,1,70
474,132,49126,2,0,B|459:181|423:200,1,70
390,249,49412,6,0,P|427:279|449:315,1,70
357,357,49697,1,0,0:0:0:0:
284,263,49840,1,0,0:0:0:0:
314,343,49983,1,0,0:0:0:0:
295,223,50126,1,0,0:0:0:0:
212,219,50269,2,0,P|149:209|62:199,1,140
86,84,50697,1,0,0:0:0:0:
162,59,50840,6,0,P|216:39|255:40,1,70
249,123,51126,2,0,P|294:99|315:63,1,70
440,41,51412,6,0,L|383:107,1,70
116,38,51697,2,0,L|174:93,1,70
372,163,51983,2,0,L|301:216,1,70
138,157,52269,2,0,L|208:203,1,70
372,269,52554,2,0,L|297:303,1,70
201,333,52840,1,0,0:0:0:0:
38,171,53269,6,0,L|39:89,1,70
129,37,53554,2,0,L|216:40,1,70
276,149,53840,2,0,L|204:214,1,70
67,275,54269,6,0,L|180:273,1,105.000004005432
265,342,54554,2,0,P|203:344|133:345,1,122.500001168251
218,202,54840,2,0,P|287:200|359:200,1,140
231,118,55126,2,0,P|151:87|138:39,1,140
341,82,55697,5,0,0:0:0:0:
387,134,55840,1,0,0:0:0:0:
419,195,55983,1,0,0:0:0:0:
410,264,56126,1,0,0:0:0:0:
382,328,56269,1,0,0:0:0:0:
228,336,56554,6,0,L|145:321,1,70
42,194,57126,2,0,P|53:134|64:130,1,70
140,65,57412,2,0,P|175:60|213:66,1,70
241,186,57697,2,0,P|298:171|303:147,1,70
288,62,57983,2,0,P|351:55|364:68,1,70
443,102,58269,6,0,P|452:197|421:237,1,140
326,345,58840,2,0,P|274:349|245:345,1,70
99,289,59269,1,0,0:0:0:0:
64,213,59412,2,0,P|49:179|51:146,1,70
63,69,59697,1,0,0:0:0:0:
221,52,59983,1,0,0:0:0:0:
369,113,60269,1,0,0:0:0:0:
193,217,60554,2,0,P|264:253|336:261,1,140
409,318,61126,2,0,P|356:342|276:345,1,140
179,333,61697,2,0,P|130:278|108:201,1,140
69,95,62269,5,0,0:0:0:0:
130,62,62412,1,0,0:0:0:0:
199,55,62554,1,0,0:0:0:0:
422,90,62840,2,0,P|469:150|469:231,1,140
404,268,63412,5,0,0:0:0:0:
334,278,63555,1,0,0:0:0:0:
267,296,63697,1,0,0:0:0:0:
51,185,63983,1,0,0:0:0:0:
169,106,64269,5,0,0:0:0:0:
230,73,64412,1,0,0:0:0:0:
299,66,64554,1,0,0:0:0:0:
458,165,64840,1,0,0:0:0:0:
364,310,65126,1,0,0:0:0:0:
116,310,65412,5,0,0:0:0:0:
315,42,65554,1,0,0:0:0:0:
291,319,65697,1,0,0:0:0:0:
91,44,65840,1,0,0:0:0:0:
428,220,66126,2,0,P|438:188|426:156,1,70
81,167,66412,2,0,P|73:200|87:232,1,70
257,352,66697,2,0,L|258:277,1,70
255,184,66983,1,0,0:0:0:0:
198,121,67126,6,0,P|257:159|253:159,1,245
310,123,67697,1,0,0:0:0:0:
82,79,67982,5,0,0:0:0:0:
156,295,68125,1,0,0:0:0:0:
207,76,68268,1,0,0:0:0:0:
43,272,68411,1,0,0:0:0:0:
230,158,68554,1,0,0:0:0:0:
28,144,68697,1,0,0:0:0:0:
220,49,68839,2,0,P|158:78|136:142,1,140
136,232,69268,1,0,0:0:0:0:
191,316,69411,6,0,P|259:348|329:341,1,140
402,299,69839,1,0,0:0:0:0:
453,216,69982,2,0,P|481:169|416:110,1,140
347,103,70411,1,0,0:0:0:0:
193,179,70554,5,0,0:0:0:0:
294,36,70697,1,0,0:0:0:0:
334,184,70839,1,0,0:0:0:0:
414,35,70982,1,0,0:0:0:0:
459,184,71125,2,0,P|465:251|426:319,1,140
339,340,71554,1,0,0:0:0:0:
224,340,71697,6,0,P|151:342|93:310,1,140
33,224,72125,1,0,0:0:0:0:
54,121,72268,2,0,P|116:79|191:89,1,140
283,153,72697,1,0,0:0:0:0:
280,268,72839,6,0,P|354:266|430:231,1,140
479,165,73268,1,0,0:0:0:0:
415,90,73411,2,0,P|350:48|218:51,1,210
274,136,73982,1,0,0:0:0:0:
81,71,74125,1,0,0:0:0:0:
261,213,74268,1,0,0:0:0:0:
23,131,74411,1,0,0:0:0:0:
49,303,74554,6,0,P|101:337|129:335,1,70
222,342,74839,1,0,0:0:0:0:
291,331,74982,1,0,0:0:0:0:
358,313,75125,1,0,0:0:0:0:
471,218,75411,1,0,0:0:0:0:
471,218,75554,1,0,0:0:0:0:
446,116,75839,2,0,P|417:68|337:59,1,140
250,56,76268,5,0,0:0:0:0:
67,49,76411,1,0,0:0:0:0:
201,145,76554,1,0,0:0:0:0:
35,148,76697,1,0,0:0:0:0:
189,218,76839,6,0,P|265:256|321:301,1,140
354,353,77268,1,0,0:0:0:0:
226,349,77411,2,0,P|141:322|88:286,1,140
35,146,77839,1,0,0:0:0:0:
124,49,77982,2,0,P|191:45|264:51,1,140
394,47,78411,1,0,0:0:0:0:
475,141,78554,2,0,P|443:197|372:232,1,140
269,173,78982,1,0,0:0:0:0:
149,176,79125,2,0,P|91:253|180:341,1,210
278,307,79697,5,0,0:0:0:0:
422,332,79839,1,0,0:0:0:0:
255,241,79982,1,0,0:0:0:0:
481,294,80125,1,0,0:0:0:0:
313,188,80268,2,0,P|398:132|342:54,1,210
268,61,80839,6,0,L|192:66,1,70
51,72,81125,2,0,L|111:128,1,70
239,157,81411,2,0,L|181:210,1,70
51,239,81697,2,0,L|106:293,1,70
206,343,81982,2,0,L|273:300,1,70
200,249,82268,2,0,P|143:198|143:197,1,70
43,193,82554,2,0,P|51:113|163:51,1,210
239,42,83125,2,0,P|333:44|453:88,1,210
386,148,83697,5,0,0:0:0:0:
258,349,83839,1,0,0:0:0:0:
200,125,83982,1,0,0:0:0:0:
390,354,84125,1,0,0:0:0:0:
184,249,84268,1,0,0:0:0:0:
412,238,84411,1,0,0:0:0:0:
152,216,84554,1,0,0:0:0:0:
438,204,84697,1,0,0:0:0:0:
181,149,84839,2,0,P|230:101|319:72,1,140
429,43,85411,6,0,P|470:112|475:187,1,140
454,296,85839,1,0,0:0:0:0:
454,296,85911,1,0,0:0:0:0:
454,296,85982,2,0,P|372:334|293:327,1,140
284,218,86411,2,0,L|220:293,1,70
82,315,86839,1,0,0:0:0:0:
82,315,86982,2,0,P|76:266|95:227,1,70
35,120,87411,2,0,P|75:76|104:71,1,70
182,46,87697,2,0,P|259:39|329:61,1,140
439,85,88268,6,0,P|376:130|368:150,1,70
469,177,88554,2,0,P|446:218|417:230,1,70
336,195,88839,1,0,0:0:0:0:
417,336,88982,1,0,0:0:0:0:
231,268,89125,1,0,0:0:0:0:
321,195,89268,1,0,0:0:0:0:
338,350,89411,6,0,P|285:346|262:337,1,70
178,325,89697,2,0,P|142:269|142:238,1,70
54,195,89982,1,0,0:0:0:0:
59,32,90125,1,0,0:0:0:0:
202,130,90268,1,0,0:0:0:0:
53,188,90411,1,0,0:0:0:0:
183,39,90554,6,0,P|229:35|266:47,1,70
345,70,90839,2,0,L|420:110,1,70
459,166,91125,1,0,0:0:0:0:
446,307,91268,1,0,0:0:0:0:
284,172,91411,1,0,0:0:0:0:
449,170,91554,1,0,0:0:0:0:
350,327,91697,6,0,P|299:340|256:327,1,70
188,293,91982,2,0,P|150:266|137:230,1,70
123,142,92268,2,0,P|135:111|181:84,1,70
255,51,92554,2,0,P|312:38|346:49,1,70
447,127,92839,6,0,L|422:202,1,70
381,303,93125,2,0,L|327:231,1,70
324,144,93411,1,0,0:0:0:0:
144,212,93554,1,0,0:0:0:0:
179,32,93697,1,0,0:0:0:0:
327,154,93839,1,0,0:0:0:0:
121,232,93982,6,0,P|137:283|171:304,1,70
223,318,94268,2,0,L|281:253,1,70
370,240,94554,1,0,0:0:0:0:
356,36,94697,1,0,0:0:0:0:
200,142,94840,1,0,0:0:0:0:
374,223,94982,1,0,0:0:0:0:
301,41,95125,6,0,P|254:50|210:52,1,70
108,60,95411,2,0,P|80:99|106:135,1,70
112,239,95697,2,0,P|140:278|166:300,1,70
253,340,95982,2,0,L|266:252,1,70
238,140,96268,2,0,P|186:170|151:171,1,70
37,181,96554,2,0,P|38:233|46:257,1,70
145,320,96839,2,0,P|191:319|211:301,1,70
426,231,97125,5,0,0:0:0:0:
447,203,97196,1,0,0:0:0:0:
458,170,97267,1,0,0:0:0:0:
459,135,97339,1,0,0:0:0:0:
448,106,97411,2,0,P|384:66|240:49,1,210
174,72,97982,6,0,L|148:108,1,35
68,85,98125,2,0,L|76:123,1,35
153,178,98268,2,0,L|119:197,1,35
42,185,98411,2,0,L|48:225,1,35
126,333,98554,2,0,P|177:337|222:322,1,70
375,240,98839,5,0,0:0:0:0:
346,217,98910,1,0,0:0:0:0:
321,194,98981,1,0,0:0:0:0:
297,169,99053,1,0,0:0:0:0:
274,135,99125,2,0,P|271:86|294:52,1,70
367,39,99411,2,0,P|413:76|446:84,1,70
476,134,99697,2,0,P|474:182|481:217,1,70
476,291,99982,5,0,0:0:0:0:
447,311,100053,1,0,0:0:0:0:
416,326,100124,1,0,0:0:0:0:
382,335,100196,1,0,0:0:0:0:
348,342,100268,2,0,P|225:346|140:323,1,210
78,295,100839,2,0,P|47:278|55:249,1,70
40,175,101125,6,0,L|83:85,1,70
176,113,101411,2,0,L|125:48,1,70
44,42,101697,1,0,0:0:0:0:
164,260,101982,1,0,0:0:0:0:
276,51,102268,6,0,P|333:55|368:78,1,70
423,126,102554,2,0,P|380:140|327:144,1,70
276,206,102839,2,0,L|353:242,1,70
470,239,103125,2,0,L|417:292,1,70
365,345,103411,6,0,L|284:296,1,70
339,235,103697,2,0,L|393:191,1,70
335,108,103982,1,0,0:0:0:0:
66,90,104268,2,0,L|138:65,2,70
173,143,104697,2,0,L|242:107,2,70
272,199,105125,2,0,L|329:146,2,70
415,200,105554,2,0,L|432:124,2,70
358,294,105982,2,0,P|274:271|252:209,1,140
257,120,106411,5,0,0:0:0:0:
257,120,106554,5,0,0:0:0:0:
82,77,115697,5,0,0:0:0:0:
78,182,115982,1,0,0:0:0:0:
187,87,116268,1,0,0:0:0:0:
193,182,116554,2,0,P|196:245|201:257,1,70
319,326,116839,5,0,0:0:0:0:
442,329,117124,1,0,0:0:0:0:
329,224,117410,1,0,0:0:0:0:
411,193,117696,2,0,P|408:130|400:111,1,70
330,57,117982,5,0,0:0:0:0:
241,134,118267,1,0,0:0:0:0:
151,57,118553,1,0,0:0:0:0:
86,135,118839,2,0,P|110:179|147:202,1,70
176,251,119125,5,0,0:0:0:0:
186,343,119410,1,0,0:0:0:0:
295,335,119696,1,0,0:0:0:0:
416,327,119982,1,0,0:0:0:0:
423,260,120125,1,0,0:0:0:0:
409,195,120268,1,0,0:0:0:0:
422,107,120554,6,0,P|407:63|371:59,1,70
300,45,120839,2,0,L|260:103,1,70
231,181,121125,2,0,L|158:133,1,70
140,46,121411,2,0,P|87:67|68:95,1,70
54,188,121697,2,0,P|105:219|145:223,1,70
211,238,121982,2,0,P|180:276|136:285,1,70
207,347,122268,2,0,P|277:348|298:349,1,70
332,293,122554,6,0,P|366:303|397:320,1,70
415,240,122839,2,0,P|348:210|300:210,1,105.000004005432
283,126,123125,2,0,P|353:130|420:151,1,140
415,58,123411,2,0,P|328:45|241:44,1,175
47,93,123697,5,0,0:0:0:0:
116,100,123839,1,0,0:0:0:0:
182,123,123982,1,0,0:0:0:0:
279,199,124268,1,0,0:0:0:0:
210,212,124411,1,0,0:0:0:0:
144,236,124554,1,0,0:0:0:0:
93,284,124697,1,0,0:0:0:0:
55,342,124839,1,0,0:0:0:0:
144,352,125125,6,0,L|238:330,1,70
304,317,125411,1,0,0:0:0:0:
462,226,125697,2,0,L|398:172,1,70
345,124,125982,2,0,P|343:78|315:73,1,70
203,54,126269,1,0,0:0:0:0:
137,76,126411,1,0,0:0:0:0:
93,129,126554,1,0,0:0:0:0:
45,257,126839,6,0,P|133:301|199:286,1,140
242,261,127411,1,0,0:0:0:0:
311,257,127554,1,0,0:0:0:0:
378,276,127697,1,0,0:0:0:0:
459,194,127982,6,0,P|454:125|439:101,1,70
391,41,128268,2,0,L|321:48,1,70
212,46,128554,2,0,P|184:80|173:111,1,70
59,96,128839,1,0,0:0:0:0:
84,239,129125,1,0,0:0:0:0:
104,303,129268,1,0,0:0:0:0:
152,350,129411,1,0,0:0:0:0:
406,340,129697,6,0,L|350:294,1,70
287,240,129982,1,0,0:0:0:0:
385,215,130268,2,0,P|437:181|457:98,1,140
363,48,130697,2,0,P|307:48|290:58,1,70
301,137,130982,2,0,P|244:127|211:107,1,70
144,54,131411,1,0,0:0:0:0:
102,108,131554,1,0,0:0:0:0:
76,171,131697,1,0,0:0:0:0:
55,259,131982,6,0,L|139:281,1,70
74,354,132268,2,0,L|151:348,1,70
205,251,132554,2,0,L|272:271,1,70
230,352,132839,2,0,L|311:351,1,70
396,313,133125,1,0,0:0:0:0:
417,249,133268,1,0,0:0:0:0:
418,181,133411,1,0,0:0:0:0:
411,114,133554,1,0,0:0:0:0:
379,53,133697,1,0,0:0:0:0:
267,48,133982,6,0,P|284:83|279:119,1,70
128,82,134268,2,0,P|143:131|158:143,1,70
190,219,134554,1,0,0:0:0:0:
52,295,134696,1,0,0:0:0:0:
235,239,134839,1,0,0:0:0:0:
45,334,134982,1,0,0:0:0:0:
51,188,135268,6,0,P|42:136|63:106,1,70
109,60,135697,6,0,B|196:83|198:115|167:143|124:174|130:230|203:254,1,245
183,245,136268,1,0,0:0:0:0:
331,269,136554,1,0,0:0:0:0:
363,83,136697,1,0,0:0:0:0:
384,268,136839,1,0,0:0:0:0:
396,84,136982,1,0,0:0:0:0:
424,279,137125,1,0,0:0:0:0:
426,86,137268,1,0,0:0:0:0:
448,265,137411,2,0,P|476:293|465:338,1,70
416,343,137697,2,0,P|347:343|330:350,1,70
260,347,137982,2,0,P|220:303|217:281,1,70
253,200,138268,2,0,P|211:212|167:248,1,70
110,340,138554,6,0,P|59:334|20:310,1,70
56,228,138839,2,0,P|120:250|146:241,1,70
175,176,139125,1,0,0:0:0:0:
37,55,139268,1,0,0:0:0:0:
170,130,139411,1,0,0:0:0:0:
97,35,139554,1,0,0:0:0:0:
230,37,139697,2,0,P|302:36|383:42,1,140
470,50,140125,5,0,0:0:0:0:
484,144,140268,2,0,P|462:245|425:273,1,140
357,211,140697,1,0,0:0:0:0:
291,127,140839,2,0,P|226:128|158:194,1,140
152,266,141268,1,0,0:0:0:0:
242,281,141411,6,0,P|311:272|400:283,1,140
478,331,141839,1,0,0:0:0:0:
372,355,141982,2,0,P|318:358|272:356,1,70
231,290,142268,2,0,L|309:280,1,70
384,264,142554,1,0,0:0:0:0:
305,98,142697,1,0,0:0:0:0:
393,243,142839,1,0,0:0:0:0:
297,128,142982,1,0,0:0:0:0:
223,287,143125,2,0,P|239:220|212:134,1,140
55,48,143697,1,0,0:0:0:0:
251,45,143982,1,0,0:0:0:0:
251,45,144125,1,0,0:0:0:0:
379,76,144411,5,0,0:0:0:0:
408,139,144554,1,0,0:0:0:0:
390,206,144697,1,0,0:0:0:0:
338,284,144839,6,0,P|279:310|279:310,7,35
220,347,145411,6,0,P|159:344|89:302,1,140
33,251,145839,1,0,0:0:0:0:
60,169,145982,2,0,P|42:97|88:31,1,140
159,39,146411,1,0,0:0:0:0:
248,48,146554,2,0,P|325:45|425:147,1,210
447,203,147125,5,0,0:0:0:0:
300,232,147268,1,0,0:0:0:0:
476,236,147411,1,0,0:0:0:0:
286,273,147554,1,0,0:0:0:0:
466,309,147697,6,0,P|406:338|334:347,1,140
222,336,148125,1,0,0:0:0:0:
112,346,148268,2,0,P|53:283|51:215,1,140
118,138,148697,1,0,0:0:0:0:
173,224,148839,2,0,P|242:208|241:137,1,140
50,222,149411,6,0,P|36:152|45:134,1,70
56,43,149697,2,0,P|105:39|144:61,1,70
143,141,149982,2,0,P|207:134|229:113,1,70
271,37,150268,2,0,P|333:48|352:73,1,70
304,148,150554,2,0,P|357:147|394:134,1,70
472,130,150839,2,0,P|473:192|470:219,1,70
430,283,151125,2,0,P|359:322|296:321,1,140
224,331,151697,2,0,L|91:241,1,140
44,106,152268,6,0,P|94:67|114:72,1,70
212,60,152554,1,0,0:0:0:0:
152,239,152697,1,0,0:0:0:0:
309,212,152839,2,0,P|376:197|392:174,1,70
477,133,153125,1,0,0:0:0:0:
317,57,153268,1,0,0:0:0:0:
351,295,153411,2,0,P|281:306|205:305,1,140
60,97,153982,6,0,P|129:72|129:72,2,70
43,217,154554,1,0,0:0:0:0:
170,121,154982,5,0,0:0:0:0:
349,131,155125,1,0,0:0:0:0:
119,173,155268,1,0,0:0:0:0:
406,183,155411,1,0,0:0:0:0:
181,241,155554,2,0,P|240:274|256:278,1,70
386,269,155839,1,0,0:0:0:0:
313,335,155982,2,0,P|249:353|219:349,1,70
139,347,156268,1,0,0:0:0:0:
40,325,156411,2,0,L|73:254,3,70
309,191,157125,5,0,0:0:0:0:
145,167,157268,1,0,0:0:0:0:
351,208,157411,1,0,0:0:0:0:
98,149,157554,1,0,0:0:0:0:
394,220,157697,1,0,0:0:0:0:
57,136,157839,1,0,0:0:0:0:
135,49,157982,6,0,P|182:40|210:50,1,70
230,135,158268,2,0,P|285:119|342:61,1,140
456,83,158697,1,0,0:0:0:0:
438,150,158839,1,0,0:0:0:0:
403,210,158982,1,0,0:0:0:0:
343,246,159125,1,0,0:0:0:0:
161,324,159983,5,0,0:0:0:0:
302,319,160125,2,0,P|338:303|353:264,1,70
405,186,160411,1,0,0:0:0:0:
337,90,160554,2,0,B|312:141|291:153|290:153,1,70
236,55,160839,2,0,P|170:53|145:76,1,70
84,108,161125,2,0,P|86:160|101:173,1,70
162,244,161411,5,0,0:0:0:0:
354,130,161554,1,0,0:0:0:0:
322,352,161697,1,0,0:0:0:0:
205,130,161839,1,0,0:0:0:0:
421,256,161982,1,0,0:0:0:0:
183,322,162125,1,0,0:0:0:0:
374,198,162268,1,0,0:0:0:0:
160,208,162411,2,0,L|239:235,1,70
366,307,162697,1,0,0:0:0:0:
312,134,162839,2,0,B|293:101|255:95|255:95,1,70
126,51,163125,5,0,0:0:0:0:
47,269,163268,1,0,0:0:0:0:
59,49,163411,1,0,0:0:0:0:
153,269,163554,1,0,0:0:0:0:
194,66,163697,1,0,0:0:0:0:
31,192,163982,6,0,P|73:167|105:159,1,70
159,197,164268,2,0,P|205:194|234:178,1,70
201,109,164554,2,0,P|256:93|292:111,1,70
329,151,164839,2,0,P|361:104|357:70,1,70
418,37,165125,2,0,P|450:76|450:105,1,70
478,169,165411,2,0,L|462:256,1,70
385,285,165697,1,0,0:0:0:0:
329,326,165839,1,0,0:0:0:0:
259,323,165982,1,0,0:0:0:0:
101,297,166268,6,0,L|156:245,1,70
203,189,166554,2,0,L|132:154,1,70
62,69,166839,1,0,0:0:0:0:
62,69,166982,1,0,0:0:0:0:
194,53,167125,2,0,P|242:38|266:41,1,70
264,133,167411,2,0,L|329:89,1,70
407,84,167697,5,0,0:0:0:0:
371,143,167839,1,0,0:0:0:0:
319,189,167982,1,0,0:0:0:0:
257,217,168125,1,0,0:0:0:0:
191,235,168268,2,0,P|135:207|99:140,1,140
45,70,168839,2,0,P|107:55|190:54,1,140
266,79,169411,2,0,P|240:138|165:181,1,140
43,346,169982,5,0,0:0:0:0:
96,179,170125,1,0,0:0:0:0:
117,357,170268,1,0,0:0:0:0:
174,188,170411,1,0,0:0:0:0:
204,353,170554,2,0,P|240:300|339:288,1,140
356,348,171125,2,0,P|445:347|468:309,1,140
469,197,171697,2,0,P|464:108|428:69,1,140
312,64,172268,2,0,P|297:125|333:198,1,140
400,283,172839,1,0,0:0:0:0:
272,315,172982,6,0,L|271:242,2,70
85,272,173411,2,0,L|147:228,2,70
101,83,173839,2,0,L|160:133,2,70
254,43,174268,2,0,L|255:120,2,70
427,108,174697,2,0,L|361:157,2,70
403,310,175125,2,0,L|325:252,2,70
256,192,175697,12,0,177411,0:0:0:0:
63,64,179697,5,0,0:0:0:0:
129,76,179839,1,0,0:0:0:0:
194,96,179982,1,0,0:0:0:0:
375,169,180268,1,0,0:0:0:0:
432,207,180411,1,0,0:0:0:0:
481,257,180554,1,0,0:0:0:0:
257,340,180839,1,0,0:0:0:0:
86,295,181125,2,0,P|63:252|69:228,1,70
64,127,181411,1,0,0:0:0:0:
146,57,181554,2,0,P|195:42|219:46,1,70
367,84,181839,5,0,0:0:0:0:
367,84,181911,1,0,0:0:0:0:
367,84,181982,2,0,P|378:136|368:159,1,70
304,199,182268,2,0,P|301:252|321:274,1,70
411,325,182554,2,0,P|341:346|264:335,1,140
73,348,183125,2,0,L|112:287,1,70
42,243,183411,2,0,L|68:173,1,70
148,211,183697,2,0,L|151:132,1,70
70,77,183982,2,0,L|155:53,1,70
224,96,184268,2,0,P|289:66|358:97,1,140
431,182,184839,5,0,0:0:0:0:
325,330,185125,1,0,0:0:0:0:
325,330,185268,1,0,0:0:0:0:
200,133,185697,6,0,P|247:88|256:64,1,70
332,53,185982,2,0,P|375:63|395:110,1,70
464,120,186268,2,0,P|460:156|422:180,1,70
329,192,186554,2,0,P|296:227|316:268,1,70
369,345,186839,1,0,0:0:0:0:
438,245,186982,1,0,0:0:0:0:
393,147,187125,2,0,P|361:112|325:112,1,70
237,130,187411,1,0,0:0:0:0:
287,254,187554,1,0,0:0:0:0:
210,314,187697,2,0,P|166:335|118:336,1,70
58,222,187982,5,0,0:0:0:0:
105,72,188125,1,0,0:0:0:0:
207,185,188268,2,0,P|239:209|284:227,1,70
378,246,188554,1,0,0:0:0:0:
458,137,188697,1,0,0:0:0:0:
364,69,188839,2,0,P|328:93|298:126,1,70
239,186,189125,2,0,P|226:224|261:268,1,70
332,300,189411,2,0,P|307:331|256:353,1,70
187,351,189697,2,0,P|140:334|122:303,1,70
60,217,189982,5,0,0:0:0:0:
164,45,190125,1,0,0:0:0:0:
32,173,190268,1,0,0:0:0:0:
199,70,190411,1,0,0:0:0:0:
149,211,190554,2,0,L|98:136,1,70
192,146,190839,2,0,L|258:199,1,70
323,187,191125,2,0,L|331:105,1,70
331,42,191411,2,0,P|399:53|432:247,1,280
391,314,192268,2,0,B|325:316|292:321|244:252,1,140
309,198,192839,2,0,P|326:135|274:74,1,140
189,53,193411,5,0,0:0:0:0:
97,218,193554,1,0,0:0:0:0:
137,34,193697,1,0,0:0:0:0:
153,214,193839,1,0,0:0:0:0:
88,49,193982,1,0,0:0:0:0:
204,197,194125,1,0,0:0:0:0:
47,72,194268,1,0,0:0:0:0:
234,166,194411,1,0,0:0:0:0:
23,127,194554,6,0,L|105:131,1,70
101,209,194839,2,0,L|167:171,1,70
162,84,195125,2,0,P|213:64|293:91,1,140
371,53,195697,2,0,P|456:112|462:174,1,140
362,149,196268,2,0,P|399:230|453:254,1,140
465,331,196839,2,0,P|391:328|336:290,1,140
256,192,197411,12,0,199125,0:0:0:0:
69,44,199982,6,0,L|145:56,1,70
282,69,200268,1,0,0:0:0:0:
228,187,200411,1,0,0:0:0:0:
108,190,200554,6,0,P|62:200|39:244,1,70
116,346,200839,1,0,0:0:0:0:
280,267,200982,1,0,0:0:0:0:
376,191,201125,6,0,P|362:146|329:112,1,70
241,55,201411,1,0,0:0:0:0:
101,99,201554,1,0,0:0:0:0:
55,187,201697,6,0,P|73:222|97:247,1,70
212,296,201982,1,0,0:0:0:0:
234,145,202125,1,0,0:0:0:0:
189,46,202268,6,0,P|233:33|260:34,1,70
360,58,202554,5,0,0:0:0:0:
393,66,202625,1,0,0:0:0:0:
424,83,202696,1,0,0:0:0:0:
448,108,202768,1,0,0:0:0:0:
466,145,202839,2,0,P|463:197|455:214,1,70
371,293,203125,5,0,0:0:0:0:
343,314,203196,1,0,0:0:0:0:
310,325,203267,1,0,0:0:0:0:
276,324,203339,1,0,0:0:0:0:
232,308,203411,2,0,P|194:277|178:246,1,70
75,272,203697,6,0,P|76:210|86:188,1,70
186,160,203982,2,0,P|147:130|110:115,1,70
213,58,204268,2,0,P|264:52|286:58,1,70
372,121,204554,5,0,0:0:0:0:
389,151,204625,1,0,0:0:0:0:
395,185,204696,1,0,0:0:0:0:
391,220,204768,1,0,0:0:0:0:
376,258,204839,2,0,P|338:294|315:294,1,70
251,243,205125,2,0,P|209:244|180:272,1,70
152,340,205411,2,0,P|107:341|71:318,1,70
53,271,205697,2,0,P|44:205|57:190,1,70
147,178,205982,2,0,P|132:142|98:117,1,70
30,70,206268,6,0,P|72:41|113:33,1,70
217,65,206554,1,0,0:0:0:0:
323,210,206697,1,0,0:0:0:0:
268,33,206839,1,0,0:0:0:0:
263,247,206982,1,0,0:0:0:0:
325,102,207125,2,0,P|378:63|446:68,1,131.25000500679
447,151,207768,2,0,P|426:245|389:290,1,144.375005507469
258,296,208554,1,0,0:0:0:0:
256,192,208625,12,0,210554,0:0:0:0:
112,74,213411,5,0,0:0:0:0:
392,83,213697,1,0,0:0:0:0:
129,154,213982,2,0,P|187:215|243:236,1,140
375,209,214554,2,0,P|349:284|281:325,1,140
185,322,215125,2,0,P|180:248|229:195,1,140
332,197,215697,2,0,P|328:127|266:77,1,140
214,48,216268,5,0,0:0:0:0:
32,115,216411,1,0,0:0:0:0:
124,157,216554,2,0,P|182:170|205:159,1,70
311,190,216839,1,0,0:0:0:0:
438,305,216982,1,0,0:0:0:0:
308,317,217125,2,0,P|263:314|220:325,1,70
115,329,217411,1,0,0:0:0:0:
240,193,217554,1,0,0:0:0:0:
296,112,217697,2,0,P|309:58|284:37,1,70
205,49,217982,1,0,0:0:0:0:
51,142,218125,1,0,0:0:0:0:
99,212,218268,2,0,P|149:206|172:169,1,70
211,68,218554,5,0,0:0:0:0:
183,287,218697,1,0,0:0:0:0:
381,180,218839,1,0,0:0:0:0:
227,71,218982,1,0,0:0:0:0:
197,291,219125,1,0,0:0:0:0:
394,176,219268,1,0,0:0:0:0:
242,70,219411,1,0,0:0:0:0:
211,291,219554,1,0,0:0:0:0:
405,174,219697,1,0,0:0:0:0:
253,71,219839,1,0,0:0:0:0:
221,291,219982,1,0,0:0:0:0:
414,175,220125,1,0,0:0:0:0:
267,67,220268,1,0,0:0:0:0:
230,287,220411,1,0,0:0:0:0:
423,173,220554,1,0,0:0:0:0:
279,62,220697,1,0,0:0:0:0:
256,271,220839,6,0,P|262:234|285:209,1,70
339,76,221125,2,0,P|364:98|407:132,1,70
439,185,221411,2,0,P|413:208|371:228,1,70
295,236,221697,2,0,P|256:210|236:183,1,70
156,149,221982,6,0,L|70:174,1,70
29,221,222268,2,0,L|34:300,1,70
110,343,222554,2,0,L|108:250,1,70
180,252,222840,6,0,L|256:193,1,70
316,201,223125,2,0,L|268:132,1,70
206,78,223411,2,0,L|149:130,1,70
90,192,223697,2,0,L|155:240,1,70
230,284,223982,2,0,L|292:241,1,70
334,162,224268,2,0,L|277:102,1,70
210,47,224554,2,0,L|149:101,1,70
68,159,224839,2,0,L|129:221,1,70
210,292,225125,2,0,L|266:236,1,70
353,164,225411,2,0,L|284:122,1,70
204,57,225697,6,0,L|144:109,1,70
57,186,225982,2,0,L|105:199,1,35
94,306,226125,2,0,L|122:273,1,35
216,327,226268,2,0,L|241:259,1,70
308,216,226554,6,0,P|337:247|353:273,1,70
433,288,226839,2,0,L|430:243,1,35
477,186,226982,2,0,L|474:144,1,35
388,165,227125,2,0,L|392:93,1,70
326,47,227411,6,0,P|275:43|250:58,1,70
186,96,227697,2,0,P|144:63|117:63,1,70
95,167,227983,2,0,L|76:197,1,35
173,260,228125,2,0,L|139:269,1,35
53,318,228268,2,0,P|96:346|128:352,1,70
236,352,228554,2,0,P|281:327|323:328,1,70
385,339,228839,2,0,P|433:327|443:300,1,70
440,208,229125,5,0,0:0:0:0:
269,40,229268,1,0,0:0:0:0:
282,256,229411,1,0,0:0:0:0:
423,60,229554,1,0,0:0:0:0:
183,159,229697,1,0,0:0:0:0:
45,136,229982,6,0,L|87:208,1,70
186,176,230268,2,0,L|148:244,1,70
36,266,230554,2,0,L|95:323,1,70
186,301,230839,2,0,L|246:347,1,70
332,335,231125,2,0,L|284:264,1,70
230,192,231411,2,0,L|157:228,1,70
89,256,231697,2,0,L|66:178,1,70
146,149,231982,2,0,L|81:103,1,70
65,37,232268,6,0,L|142:38,2,70
426,37,232697,2,0,L|338:36,2,70
61,131,233125,2,0,L|153:131,2,70
424,131,233554,2,0,L|333:132,2,70
111,234,233982,2,0,L|176:188,2,70
295,180,234554,5,0,0:0:0:0:
351,218,234697,1,0,0:0:0:0:
401,266,234839,1,0,0:0:0:0:
231,337,234982,1,0,0:0:0:0:
184,288,235125,1,0,0:0:0:0:
137,239,235268,1,0,0:0:0:0:
82,101,235411,1,0,0:0:0:0:
142,68,235554,1,0,0:0:0:0:
210,54,235697,1,0,0:0:0:0:
256,192,236411,12,0,240554,0:0:0:0:
