osu file format v14

[General]
AudioFilename: audio.mp3
AudioLeadIn: 0
PreviewTime: 63029
Countdown: 0
SampleSet: Soft
StackLeniency: 0.4
Mode: 0
LetterboxInBreaks: 0
WidescreenStoryboard: 1

[Editor]
Bookmarks: 17669,92549,153989
DistanceSpacing: 1.3
BeatDivisor: 4
GridSize: 32
TimelineZoom: 1.2

[Metadata]
Title:Dakara Boku wa Ongaku o Yameta
TitleUnicode:だから僕は音楽を辞めた
Artist:Yorushika
ArtistUnicode:ヨルシカ
Creator:Petal
Version:Wanpatha's Normal
Source:
Tags:japanese jpop j-pop pop full song version Moonlight n-buna nbuna suis 所以我放棄了音樂 that's that is why I gave up on music female 所以我放弃了音乐 album n-buna seolv [_L_u_k_a_s_] namki jazzberry shii wanpachi matha amateurre shizuku- Kazato asa shikibe mayu saggin
BeatmapID:2920653
BeatmapSetID:1392760

[Difficulty]
HPDrainRate:4
CircleSize:3
OverallDifficulty:4.4
ApproachRate:5
SliderMultiplier:1.3
SliderTickRate:1

[Events]
//Background and Video events
0,0,"BG.jpg",0,0
//Break Periods
2,161869,168149
2,177229,183509
//Storyboard Layer 0 (Background)
//Storyboard Layer 1 (Fail)
//Storyboard Layer 2 (Pass)
//Storyboard Layer 3 (Foreground)
//Storyboard Layer 4 (Overlay)
//Storyboard Sound Samples

[TimingPoints]
1349,480,4,2,1,20,1,0
2309,480,4,2,1,20,1,0
17669,-100,4,2,1,60,0,0
33509,-100,4,2,1,30,0,0
33989,-111.111111111111,4,2,1,30,0,0
56069,-111.111111111111,4,2,1,40,0,0
59909,-111.111111111111,4,2,1,50,0,0
61829,-111.111111111111,4,2,1,60,0,0
63269,-111.111111111111,4,2,1,50,0,0
63749,-90.9090909090909,4,2,3,70,0,1
63869,-90.9090909090909,4,2,1,70,0,1
68069,-90.9090909090909,4,2,1,60,0,1
68309,-90.9090909090909,4,2,1,70,0,1
71429,-90.9090909090909,4,2,3,70,0,1
71549,-90.9090909090909,4,2,1,70,0,1
75269,-90.9090909090909,4,2,1,70,0,0
75509,-90.9090909090909,4,2,1,60,0,0
76469,-90.9090909090909,4,2,1,50,0,0
76709,-100,4,2,1,50,0,0
76949,-100,4,2,1,40,0,0
77189,-100,4,2,1,60,0,0
93029,-100,4,2,1,35,0,0
93509,-111.111111111111,4,2,1,35,0,0
99749,-111.111111111111,4,2,1,20,0,0
100229,-111.111111111111,4,2,1,35,0,0
107909,-111.111111111111,4,2,1,40,0,0
114629,-111.111111111111,4,2,1,35,0,0
119429,-111.111111111111,4,2,1,40,0,0
123269,-111.111111111111,4,2,1,30,0,0
123988,-111.111111111111,4,2,1,40,0,0
124229,-111.111111111111,4,2,1,60,0,0
125189,-90.9090909090909,4,2,3,70,0,1
125309,-90.9090909090909,4,2,1,70,0,1
132869,-90.9090909090909,4,2,3,70,0,1
133049,-90.9090909090909,4,2,1,70,0,1
136709,-90.9090909090909,4,2,1,70,0,0
136949,-90.9090909090909,4,2,1,60,0,0
138149,-100,4,2,1,50,0,0
138629,-100,4,2,3,70,0,0
138749,-100,4,2,1,70,0,0
146309,-100,4,2,3,70,0,0
146429,-100,4,2,1,70,0,0
153989,-100,4,2,1,55,0,0
154469,-111.111111111111,4,2,1,40,0,0
161669,-111.111111111111,4,2,1,35,0,0
169349,-111.111111111111,4,2,1,25,0,0
184709,-100,4,2,1,60,0,0
192389,-100,4,2,1,45,0,0
192869,-100,4,2,1,60,0,0
194309,-90.9090909090909,4,2,3,70,0,1
194489,-90.9090909090909,4,2,1,70,0,1
198149,-90.9090909090909,4,2,3,70,0,1
198869,-90.9090909090909,4,2,1,70,0,1
201989,-90.9090909090909,4,2,1,60,0,0
202949,-100,4,2,1,60,0,0
203429,-100,4,2,1,50,0,0
203669,-100,4,2,1,60,0,0
206309,-95.2380952380952,4,2,1,60,0,0
221189,-95.2380952380952,4,2,1,70,0,0
228869,-95.2380952380952,4,2,1,60,0,0

[Colours]
Combo1 : 191,234,233
Combo2 : 208,181,216
Combo3 : 255,232,126
Combo4 : 235,121,105

[HitObjects]
53,63,17669,6,0,P|84:53|114:42,1,65,6|2,3:2|2:3,2:0:0:0:
190,80,18149,2,0,P|171:142|186:182,2,97.5,10|2|2,2:0|2:0|2:3,2:0:0:0:
259,31,19109,1,8,2:0:0:0:
381,147,19589,2,0,P|370:177|360:208,1,65,2|2,3:2|2:3,2:0:0:0:
391,287,20069,2,0,P|436:270|483:256,2,97.5,10|2|2,2:0|2:0|2:3,2:0:0:0:
334,349,21029,1,10,2:0:0:0:
260,307,21269,1,2,2:3:0:0:
190,354,21509,6,0,P|159:343|128:333,1,65,2|2,3:2|2:3,2:0:0:0:
50,301,21989,2,0,P|15:333|13:381,2,97.5,10|2|2,2:0|2:0|2:3,2:0:0:0:
86,224,22949,2,0,P|80:189|67:149,1,65,10|2,2:0|2:3,2:0:0:0:
98,80,23429,2,0,P|49:72|3:58,2,97.5,2|2|2,3:2|2:0|2:3,2:0:0:0:
176,48,24389,1,2,3:2:0:0:
253,80,24629,1,2,2:3:0:0:
313,20,24869,1,10,2:0:0:0:
438,129,25349,6,0,P|432:176|427:217,1,65,6|2,3:2|2:3,2:0:0:0:
382,263,25829,2,0,P|416:307|480:315,2,97.5,10|2|2,2:0|2:0|2:3,2:0:0:0:
343,187,26789,1,8,2:0:0:0:
264,37,27269,2,0,P|238:32|186:22,1,65,2|2,3:2|2:3,2:0:0:0:
115,29,27749,2,0,P|65:25|29:82,2,97.5,10|2|2,2:0|2:0|2:3,2:0:0:0:
134,111,28709,1,10,2:0:0:0:
83,178,28949,1,2,2:3:0:0:
150,229,29189,6,0,P|163:258|175:288,1,65,2|2,3:2|2:3,2:0:0:0:
153,370,29669,2,0,P|108:349|63:331,2,97.5,10|2|2,2:0|2:0|2:3,2:0:0:0:
237,380,30629,2,0,P|278:365|320:362,1,65,10|2,2:0|2:3,2:0:0:0:
370,316,31109,2,0,P|429:349|472:344,2,97.5,2|2|2,3:2|2:0|2:3,2:0:0:0:
332,240,32069,1,2,3:2:0:0:
380,170,32309,1,8,2:0:0:0:
333,101,32549,2,0,P|326:86|321:70,1,32.5,10|8,2:0|2:0,2:0:0:0:
204,22,33029,6,0,P|173:72|186:169,1,130,6|2,3:2|3:2,2:0:0:0:
232,197,33749,1,2,2:0:0:0:
232,197,33989,2,0,P|275:183|308:181,2,58.4999982147217,2|2|10,3:2|2:3|2:0,2:0:0:0:
204,346,34949,2,0,P|152:308|101:293,1,116.999996429443,0|2,3:0|3:2,2:0:0:0:
30,291,35669,1,2,2:0:0:0:
30,291,35909,2,0,P|19:344|13:362,2,58.4999982147217,2|2|10,3:2|2:3|2:0,2:0:0:0:
2,141,36869,6,0,P|63:120|126:87,1,116.999996429443,0|2,3:0|3:2,2:0:0:0:
169,48,37589,1,2,2:3:0:0:
169,48,37829,2,0,P|234:52|271:115,1,116.999996429443,2|8,3:2|2:0,2:0:0:0:
394,169,38789,2,0,P|438:167|463:165,1,58.4999982147217,2|2,3:2|2:3,2:0:0:0:
507,219,39269,2,0,P|509:263|511:288,1,58.4999982147217,2|2,3:2|2:3,2:0:0:0:
458,333,39749,2,0,P|394:337|337:371,1,116.999996429443,2|10,3:2|2:0,2:0:0:0:
239,255,40709,6,0,P|220:193|256:137,1,116.999996429443,6|2,3:0|3:2,2:0:0:0:
299,98,41429,1,2,2:3:0:0:
299,98,41669,2,0,P|345:113|375:117,2,58.4999982147217,0|2|10,3:0|2:3|2:0,2:0:0:0:
163,29,42629,2,0,P|96:42|62:96,1,116.999996429443,0|2,3:0|3:2,2:0:0:0:
58,157,43349,1,2,2:3:0:0:
58,157,43589,2,0,P|29:165|-5:177,2,58.4999982147217,2|2|10,3:2|2:3|2:0,2:0:0:0:
167,262,44549,6,0,P|228:305|258:351,1,116.999996429443,0|0,3:0|3:0,2:0:0:0:
325,359,45269,1,2,2:3:0:0:
325,359,45509,2,0,P|392:327|387:283,1,116.999996429443,0|8,3:0|2:0,2:0:0:0:
504,190,46469,2,0,P|492:155|483:128,1,58.4999982147217,2|2,3:2|2:3,2:0:0:0:
497,63,46949,1,2,3:2:0:0:
497,63,47189,2,0,P|462:31|375:43,1,116.999996429443,2|8,2:3|2:0,2:0:0:0:
326,63,47909,1,8,2:0:0:0:
217,169,48389,6,0,P|200:112|176:59,2,116.999996429443,6|0|0,3:2|3:0|3:0,2:0:0:0:
359,222,49829,2,0,P|350:250|338:276,1,58.4999982147217,8|2,2:0|2:3,2:0:0:0:
375,343,50309,2,0,P|440:324|510:346,2,116.999996429443,0|0|0,3:0|3:0|3:0,2:0:0:0:
224,366,51749,2,0,P|187:354|152:347,1,58.4999982147217,8|2,2:0|2:3,2:0:0:0:
125,286,52229,6,0,P|73:337|30:332,2,116.999996429443,0|0|0,3:0|3:0|3:0,2:0:0:0:
159,220,53429,1,2,2:3:0:0:
159,220,53669,2,0,P|137:181|132:158,1,58.4999982147217,8|2,2:0|2:3,2:0:0:0:
86,108,54149,2,0,P|49:83|8:69,2,87.7499973220826,0|2|2,3:0|2:0|2:3,2:0:0:0:
152,71,55109,1,0,3:0:0:0:
301,40,55589,1,8,2:0:0:0:
303,192,56069,6,0,P|293:229|286:260,1,58.4999982147217,6|2,3:2|2:3,2:0:0:0:
228,296,56549,2,0,P|238:333|245:364,1,58.4999982147217,2|2,3:2|2:3,2:0:0:0:
315,375,57029,2,0,P|370:354|443:368,1,116.999996429443,2|8,3:2|2:0,2:0:0:0:
439,208,57989,2,0,P|477:198|515:187,2,58.4999982147217,2|2|2,3:2|2:3|3:2,2:0:0:0:
369,190,58709,1,2,2:3:0:0:
369,190,58949,2,0,P|337:225|287:224,2,87.7499973220826,2|2|2,3:2|2:0|2:3,2:0:0:0:
390,117,59909,6,0,P|337:66|306:18,1,116.999996429443,6|8,3:2|2:0,2:0:0:0:
238,10,60629,2,0,P|185:55|129:44,1,116.999996429443,0|2,3:0|2:3,2:0:0:0:
76,10,61349,1,8,2:0:0:0:
23,152,61829,1,14,3:2:0:0:
93,241,62189,1,10,3:2:0:0:
37,340,62549,1,10,3:2:0:0:
264,355,63269,2,0,P|277:308|284:285,1,58.4999982147217,8|4,2:0|3:0,2:0:0:0:
280,205,63749,6,0,P|340:221|402:230,2,107.25000327301,14|2|2,3:2|2:0|2:3,2:0:0:0:
225,129,64709,2,0,P|165:145|103:154,2,107.25000327301,2|2|2,3:2|2:0|2:3,2:0:0:0:
279,52,65669,2,0,P|318:38|357:37,1,71.5000021820069,2|2,3:2|2:3,2:0:0:0:
441,64,66149,1,10,2:0:0:0:
441,64,66389,2,0,P|415:130|409:201,1,143.000004364014,2|2,2:3|2:3,2:0:0:0:
468,273,67109,1,10,2:0:0:0:
305,363,67589,6,0,P|276:353|234:345,1,71.5000021820069,2|2,3:2|2:3,2:0:0:0:
183,268,68069,2,0,P|154:278|112:286,1,71.5000021820069,10|2,2:0|2:3,2:0:0:0:
25,314,68549,2,0,P|15:343|7:385,2,71.5000021820069,2|2|10,3:2|2:3|2:0,2:0:0:0:
11,222,69269,1,2,2:3:0:0:
11,222,69509,1,6,3:2:0:0:
88,53,69989,1,10,2:0:0:0:
172,92,70229,1,10,2:0:0:0:
251,44,70469,2,0,P|289:54|324:70,2,71.5000021820069,2|2|10,2:0|3:0|2:0,2:0:0:0:
103,157,71429,6,0,P|64:138|-15:138,2,107.25000327301,6|2|2,3:2|2:0|2:3,2:0:0:0:
167,223,72389,2,0,P|206:204|285:204,2,107.25000327301,2|2|2,3:2|2:0|2:3,2:0:0:0:
101,288,73349,2,0,P|123:321|139:359,1,71.5000021820069,2|2,3:2|2:3,2:0:0:0:
224,377,73829,1,10,2:0:0:0:
224,377,74069,2,0,P|277:335|357:368,1,143.000004364014,2|2,2:3|2:3,2:0:0:0:
436,371,74789,1,8,3:0:0:0:
486,209,75269,5,14,3:2:0:0:
486,209,75509,1,14,3:2:0:0:
308,27,76229,1,10,2:0:0:0:
241,79,76469,1,10,2:0:0:0:
274,156,76709,2,0,P|267:203|263:239,1,65,2|2,2:0|2:3,2:0:0:0:
204,280,77189,6,0,P|157:287|121:291,1,65,6|2,3:2|2:3,2:0:0:0:
56,270,77669,2,0,P|49:339|15:380,2,97.5,10|2|2,2:0|2:0|2:3,2:0:0:0:
34,188,78629,1,8,2:0:0:0:
146,61,79109,2,0,P|180:72|220:79,1,65,2|2,3:2|2:3,2:0:0:0:
280,122,79589,2,0,P|305:184|313:227,2,97.5,10|2|2,2:0|2:0|2:3,2:0:0:0:
341,64,80549,1,10,2:0:0:0:
425,57,80789,1,2,2:3:0:0:
489,111,81029,6,0,P|484:155|476:193,1,65,2|2,3:2|2:3,2:0:0:0:
444,251,81509,2,0,P|452:299|457:347,2,97.5,10|2|2,2:0|2:0|2:3,2:0:0:0:
360,235,82469,2,0,P|316:230|278:222,1,65,10|2,2:0|2:3,2:0:0:0:
220,264,82949,2,0,P|258:319|264:367,2,97.5,2|2|2,3:2|2:0|2:3,2:0:0:0:
140,235,83909,1,2,3:2:0:0:
59,259,84149,1,2,2:3:0:0:
6,193,84389,1,10,2:0:0:0:
133,81,84869,6,0,P|175:91|210:94,1,65,6|2,3:2|2:3,2:0:0:0:
281,97,85349,2,0,P|340:135|396:131,2,97.5,10|2|2,2:0|2:0|2:3,2:0:0:0:
289,12,86309,1,8,2:0:0:0:
133,81,86789,2,0,P|123:123|120:158,1,65,2|2,3:2|2:3,2:0:0:0:
87,222,87269,2,0,P|44:241|23:309,2,97.5,10|2|2,2:0|2:0|2:3,2:0:0:0:
157,269,88229,1,10,2:0:0:0:
240,253,88469,1,2,2:3:0:0:
304,307,88709,6,0,P|346:294|391:292,1,65,2|2,3:2|2:3,2:0:0:0:
416,223,89189,2,0,P|462:238|510:246,2,97.5,10|2|2,2:0|2:0|2:3,2:0:0:0:
338,188,90149,2,0,P|333:155|322:125,1,65,10|2,2:0|2:3,2:0:0:0:
357,48,90629,2,0,P|420:51|437:87,2,97.5,2|2|2,3:2|2:0|2:3,2:0:0:0:
277,18,91589,1,10,2:0:0:0:
201,56,91829,1,4,3:0:0:0:
121,26,92069,2,0,P|104:33|85:39,1,32.5,10|8,3:0|3:0,2:0:0:0:
29,148,92549,6,0,P|90:164|129:215,1,130,6|10,3:2|2:0,2:0:0:0:
205,244,93269,1,2,2:3:0:0:
205,243,93509,2,0,P|211:272|219:300,2,58.4999982147217,2|2|10,3:2|2:3|2:0,2:0:0:0:
259,102,94469,2,0,P|317:93|373:75,1,116.999996429443,0|2,3:0|3:2,2:0:0:0:
449,75,95189,1,2,2:3:0:0:
449,75,95429,2,0,P|457:47|462:18,2,58.4999982147217,10|2|2,2:0|2:0|3:2,2:0:0:0:
493,220,96389,6,0,P|454:249|402:302,1,116.999996429443,0|8,3:0|2:0,2:0:0:0:
375,369,97109,1,2,2:3:0:0:
375,369,97349,2,0,P|310:313|271:328,1,116.999996429443,2|8,3:2|2:0,2:0:0:0:
149,383,98309,1,14,2:0:0:0:
28,104,99749,2,0,P|55:94|82:82,1,58.4999982147217,2|6,2:3|3:0,2:0:0:0:
158,85,100229,6,0,P|228:130|222:171,1,116.999996429443,6|10,3:2|2:0,2:0:0:0:
187,220,100949,1,2,2:3:0:0:
187,220,101189,2,0,P|160:207|132:198,2,58.4999982147217,0|2|10,3:0|2:3|2:0,2:0:0:0:
300,321,102149,2,0,P|365:287|420:278,1,116.999996429443,0|10,3:0|2:0,2:0:0:0:
458,221,102869,1,2,2:3:0:0:
458,221,103109,2,0,P|490:238|518:242,2,58.4999982147217,2|2|8,3:2|2:3|2:0,2:0:0:0:
379,90,104069,6,0,P|294:88|282:118,1,116.999996429443,0|8,3:0|2:0,2:0:0:0:
243,170,104789,1,2,2:3:0:0:
243,170,105029,2,0,P|191:146|115:130,1,116.999996429443,0|8,3:0|2:0,2:0:0:0:
40,252,105989,2,0,P|54:289|64:320,1,58.4999982147217,0|2,3:0|2:3,2:0:0:0:
126,344,106469,2,0,P|163:330|194:320,1,58.4999982147217,10|2,2:0|2:3,2:0:0:0:
251,352,106949,1,0,3:0:0:0:
287,204,107429,2,0,P|276:173|270:135,1,58.4999982147217,10|2,2:0|3:2,2:0:0:0:
201,116,107909,6,0,P|129:129|114:186,2,116.999996429443,6|8|0,3:2|2:0|3:0,2:0:0:0:
304,3,109349,2,0,P|332:17|364:23,1,58.4999982147217,10|2,2:0|2:3,2:0:0:0:
398,87,109829,2,0,P|449:60|506:47,2,116.999996429443,0|8|0,3:0|2:0|3:0,2:0:0:0:
322,219,111269,2,0,P|335:254|346:279,1,58.4999982147217,10|2,2:0|2:3,2:0:0:0:
392,331,111749,6,0,P|467:337|503:382,2,116.999996429443,0|8|0,3:0|2:0|3:0,2:0:0:0:
325,363,112949,1,2,2:3:0:0:
325,363,113189,2,0,P|281:379|256:391,1,58.4999982147217,10|2,2:0|2:3,2:0:0:0:
211,336,113669,2,0,P|169:321|129:304,2,87.7499973220826,2|2|2,3:2|2:0|2:3,2:0:0:0:
259,277,114629,1,2,3:2:0:0:
331,143,115109,1,10,2:0:0:0:
236,23,115589,6,0,P|200:32|159:39,1,58.4999982147217,6|2,3:2|2:3,2:0:0:0:
118,82,116069,2,0,P|82:73|41:66,1,58.4999982147217,10|2,2:0|2:3,2:0:0:0:
6,110,116549,2,0,P|42:164|56:238,1,116.999996429443,2|8,3:2|2:0,2:0:0:0:
165,318,117509,2,0,P|148:341|140:369,2,58.4999982147217,2|2|10,3:2|2:3|2:0,2:0:0:0:
221,267,118229,1,2,2:3:0:0:
221,267,118469,2,0,L|208:198,2,58.4999982147217,2|2|8,3:2|2:3|2:0,2:0:0:0:
319,382,119429,6,0,P|374:362|432:354,1,116.999996429443,6|8,3:2|2:0,2:0:0:0:
496,312,120149,1,2,2:3:0:0:
496,312,120389,2,0,P|467:254|519:212,1,116.999996429443,0|8,3:0|2:0,2:0:0:0:
454,76,121349,1,6,3:2:0:0:
454,76,121589,2,0,P|487:62|524:50,2,58.4999982147217,2|10|2,2:3|2:0|3:0,2:0:0:0:
378,63,122309,2,0,P|350:53|323:41,1,58.4999982147217,2|2,2:0|3:0,2:0:0:0:
257,79,122789,1,10,2:0:0:0:
309,221,123269,6,0,P|351:188|400:190,2,87.7499973220826,14|0|6,2:0|3:0|3:0,2:0:0:0:
280,291,124229,1,14,2:0:0:0:
180,354,124589,1,14,2:0:0:0:
116,265,124949,1,14,2:0:0:0:
116,265,125189,6,0,P|70:285|12:283,2,107.25000327301,14|2|2,3:2|2:0|2:3,2:0:0:0:
167,187,126149,2,0,P|213:207|271:205,2,107.25000327301,2|2|2,3:2|2:0|2:3,2:0:0:0:
114,109,127109,2,0,P|138:70|150:35,1,71.5000021820069,2|2,3:2|2:3,2:0:0:0:
228,1,127589,1,10,2:0:0:0:
228,1,127829,2,0,P|288:57|357:43,1,143.000004364014,2|2,2:3|2:3,2:0:0:0:
422,0,128549,1,10,2:0:0:0:
487,174,129029,6,0,P|478:206|471:249,1,71.5000021820069,2|2,3:2|2:3,2:0:0:0:
412,316,129509,2,0,P|380:325|337:332,1,71.5000021820069,10|2,2:0|2:3,2:0:0:0:
280,262,129989,2,0,P|285:226|295:192,2,71.5000021820069,2|2|10,3:2|2:3|2:0,2:0:0:0:
202,310,130709,1,2,2:3:0:0:
202,310,130949,1,6,3:2:0:0:
49,204,131429,1,10,2:0:0:0:
108,132,131669,1,10,2:0:0:0:
72,46,131909,2,0,P|37:36|-3:17,2,71.5000021820069,2|6|10,2:0|3:0|2:0,2:0:0:0:
159,12,132629,1,6,3:0:0:0:
218,83,132869,6,0,P|276:91|350:123,2,107.25000327301,6|2|2,3:2|2:0|2:3,2:0:0:0:
157,153,133829,2,0,P|99:161|25:193,2,107.25000327301,2|2|2,3:2|2:0|2:3,2:0:0:0:
223,218,134789,2,0,L|202:309,1,71.5000021820069,2|2,3:2|2:3,2:0:0:0:
259,363,135269,1,10,2:0:0:0:
338,314,135509,2,0,P|398:329|494:383,1,143.000004364014,2|2,2:3|2:3,2:0:0:0:
506,279,136229,1,8,3:0:0:0:
423,137,136709,5,14,3:2:0:0:
423,137,136949,1,14,3:2:0:0:
186,227,137669,1,10,2:0:0:0:
186,227,137909,1,10,2:0:0:0:
118,176,138149,2,0,L|102:104,1,65,8|4,3:0|3:0,2:0:0:0:
132,32,138629,6,0,P|182:36|207:61,1,65,6|2,3:2|2:3,2:0:0:0:
245,110,139109,1,10,2:0:0:0:
356,49,139469,2,0,L|345:158,1,97.5,2|2,2:0|2:3,2:0:0:0:
386,220,140069,1,10,2:0:0:0:
282,353,140549,6,0,L|210:342,1,65,2|2,3:2|2:3,2:0:0:0:
149,293,141029,2,0,L|79:280,1,65,10|2,2:0|2:3,2:0:0:0:
25,220,141509,1,2,3:2:0:0:
113,75,141989,2,0,P|142:79|176:112,1,65,10|2,2:0|2:3,2:0:0:0:
278,165,142589,6,0,L|350:150,2,65,2|2|2,2:0|2:0|2:0,2:0:0:0:
224,230,143309,1,2,2:0:0:0:
180,302,143549,2,0,L|203:390,2,65,2|2|2,2:0|2:0|2:0,2:0:0:0:
102,267,144269,1,2,2:0:0:0:
26,229,144509,6,0,L|42:166,2,65,2|2|2,2:0|2:0|2:0,2:0:0:0:
102,267,145229,1,10,2:0:0:0:
167,213,145469,2,0,L|249:230,1,65,10|2,2:0|3:2,2:0:0:0:
296,279,145949,2,0,L|336:287,1,32.5,2|10,3:2|3:0,2:0:0:0:
405,251,146309,6,0,P|430:210|408:144,2,97.5,6|2|2,3:2|2:0|2:3,2:0:0:0:
327,285,147269,2,0,P|302:326|324:392,2,97.5,2|2|2,3:2|2:0|2:3,2:0:0:0:
405,251,148229,1,2,3:2:0:0:
473,299,148469,1,2,2:3:0:0:
510,223,148709,2,0,L|496:135,1,65,10|2,2:0|2:3,2:0:0:0:
445,94,149189,2,0,P|356:89|329:118,1,130,0|10,3:0|2:0,2:0:0:0:
274,176,149909,1,2,2:3:0:0:
200,135,150149,6,0,L|187:88,1,32.5,2|2,3:2|2:0,2:0:0:0:
129,46,150509,1,2,2:0:0:0:
51,80,150749,1,2,2:0:0:0:
95,198,151109,2,0,L|81:306,1,97.5,2|2,3:2|2:0,2:0:0:0:
29,360,151709,1,2,2:0:0:0:
154,342,152069,6,0,L|267:362,2,97.5,2|2|10,3:2|2:0|2:0,2:0:0:0:
82,294,153029,1,2,3:2:0:0:
168,201,153389,1,2,3:0:0:0:
88,102,153749,2,0,L|107:28,1,65,4|6,3:0|3:2,2:0:0:0:
254,16,154469,6,0,P|307:16|354:82,1,116.999996429443,10|2,2:0|3:2,2:0:0:0:
325,128,155189,1,2,2:0:0:0:
325,128,155429,2,0,L|340:201,1,58.4999982147217,10|2,2:0|2:0,2:0:0:0:
387,233,155909,1,0,3:0:0:0:
299,343,156389,2,0,L|172:327,1,116.999996429443,10|2,2:0|3:2,2:0:0:0:
46,353,157349,2,0,P|38:323|56:298,1,58.4999982147217,10|2,2:0|2:0,2:0:0:0:
103,253,157829,5,0,3:0:0:0:
8,149,158309,2,0,P|66:145|113:95,1,116.999996429443,10|2,2:0|3:2,2:0:0:0:
131,43,159029,1,2,2:0:0:0:
131,43,159269,2,0,L|246:64,1,116.999996429443,10|0,2:0|3:0,2:0:0:0:
322,181,160229,1,10,2:0:0:0:
430,91,160709,2,0,P|453:137|441:206,1,116.999996429443,2|10,3:2|2:0,2:0:0:0:
402,257,161429,1,2,2:0:0:0:
402,257,161669,5,6,3:2:0:0:
350,61,169349,6,0,L|484:76,2,116.999996429443,6|0|0,3:2|3:0|3:0,2:0:0:0:
247,5,170789,1,0,3:0:0:0:
179,100,171269,2,0,B|160:142|160:142|179:214,2,116.999996429443,0|0|0,3:0|3:0|3:0,2:0:0:0:
247,5,172709,1,0,3:0:0:0:
350,61,173189,6,0,L|328:181,1,116.999996429443,0|0,3:0|3:0,2:0:0:0:
280,282,174149,2,0,L|159:303,1,116.999996429443,0|0,3:0|3:0,2:0:0:0:
72,229,175109,2,0,P|60:175|115:122,2,116.999996429443,0|0|2,3:0|3:0|3:0,2:0:0:0:
164,302,176549,1,2,3:0:0:0:
230,205,177029,5,6,3:2:0:0:
36,65,184709,6,0,L|142:86,1,97.5,6|6,3:2|3:2,2:0:0:0:
210,170,185429,1,14,2:0:0:0:
294,88,185789,1,6,3:2:0:0:
393,149,186149,2,0,L|379:227,1,65,2|2,3:0|3:0,2:0:0:0:
325,267,186629,6,0,P|381:268|445:343,1,130,6|8,3:2|2:0,2:0:0:0:
382,372,187349,2,0,L|245:354,1,130,2|0,3:0|3:0,2:0:0:0:
178,377,188069,1,8,2:0:0:0:
76,266,188549,5,14,2:0:0:0:
76,266,188789,1,14,2:0:0:0:
252,182,189389,2,0,L|226:3,1,162.5,14|10,3:2|2:0,2:0:0:0:
72,9,190469,5,6,3:2:0:0:
186,256,191309,2,0,B|252:242|252:242|278:251|278:251|365:233,1,162.5,12|8,2:0|2:0,2:0:0:0:
454,126,192389,2,0,L|463:45,1,65,2|2,3:0|2:0,2:0:0:0:
398,13,192869,5,14,3:2:0:0:
296,71,193229,2,0,P|257:43|197:62,1,97.5,14|2,3:2|3:0,2:0:0:0:
157,108,193829,2,0,L|170:192,1,65,10|4,2:0|3:0,2:0:0:0:
225,244,194309,6,0,L|321:231,1,71.5000021820069,14|2,3:2|3:0,2:0:0:0:
367,174,194789,1,10,2:0:0:0:
367,174,195029,1,2,2:3:0:0:
441,229,195269,2,0,L|448:307,1,71.5000021820069,2|2,2:3|3:0,2:0:0:0:
391,374,195749,1,10,2:0:0:0:
231,278,196229,6,0,L|145:267,1,71.5000021820069,6|6,3:2|3:2,2:0:0:0:
82,217,196709,2,0,P|65:147|119:91,1,143.000004364014,10|2,2:0|2:0,2:0:0:0:
165,23,197429,1,2,3:0:0:0:
255,43,197669,2,0,P|238:88|233:124,1,71.5000021820069,10|4,2:0|3:0,2:0:0:0:
313,160,198149,5,6,3:2:0:0:
446,121,198509,2,0,P|465:172|462:246,1,107.25000327301,2|2,2:0|2:3,2:0:0:0:
407,296,199109,1,2,3:2:0:0:
272,259,199469,2,0,L|160:278,1,107.25000327301,2|2,2:0|2:3,2:0:0:0:
84,232,200069,2,0,L|74:147,1,71.5000021820069,2|2,3:2|2:3,2:0:0:0:
20,85,200549,1,10,2:0:0:0:
89,23,200789,2,0,L|234:52,1,143.000004364014,2|2,2:3|2:3,2:0:0:0:
281,128,201509,1,8,3:0:0:0:
413,23,201989,5,6,3:2:0:0:
496,34,202229,1,10,2:0:0:0:
412,273,202949,6,0,L|320:288,1,65,8|10,2:0|2:0,2:0:0:0:
300,220,203429,1,2,2:0:0:0:
300,220,203669,2,0,B|117:219|232:350|14:343|-8:249|36:210|36:210|88:230|131:175,1,455,14|10,2:0|2:0,2:0:0:0:
167,32,205829,6,0,L|238:49,1,65,6|2,3:2|3:0,2:0:0:0:
302,98,206309,2,0,P|346:97|407:47,2,102.374996875763,10|10|2,2:0|2:0|2:3,2:0:0:0:
228,148,207269,1,8,2:0:0:0:
182,319,207749,2,0,L|109:306,1,68.2499979171754,2|2,3:2|2:3,2:0:0:0:
52,243,208229,2,0,L|78:128,2,102.374996875763,10|10|2,2:0|2:0|2:3,2:0:0:0:
114,307,209189,1,10,2:0:0:0:
186,255,209429,1,2,2:3:0:0:
238,326,209669,6,0,L|326:342,1,68.2499979171754,2|2,3:2|2:3,2:0:0:0:
376,285,210149,2,0,P|398:317|388:383,2,102.374996875763,10|10|2,2:0|2:0|2:3,2:0:0:0:
296,246,211109,1,10,2:0:0:0:
415,114,211589,2,0,L|396:2,2,102.374996875763,2|2|2,3:2|2:0|2:3,2:0:0:0:
334,152,212549,2,0,L|253:141,1,68.2499979171754,2|2,3:2|2:3,2:0:0:0:
203,79,213029,2,0,L|121:70,1,68.2499979171754,10|2,2:0|3:2,2:0:0:0:
57,114,213509,6,0,P|55:154|71:187,1,68.2499979171754,6|2,3:2|2:3,2:0:0:0:
91,264,213989,2,0,P|35:294|-19:278,2,102.374996875763,10|10|2,2:0|2:0|2:3,2:0:0:0:
157,204,214949,1,8,2:0:0:0:
316,282,215429,2,0,P|335:232|355:210,1,68.2499979171754,2|2,3:2|2:3,2:0:0:0:
414,167,215909,2,0,P|463:190|523:204,2,102.374996875763,10|10|2,2:0|2:0|2:3,2:0:0:0:
374,87,216869,1,10,2:0:0:0:
310,25,217109,1,2,2:3:0:0:
237,76,217349,6,0,L|248:150,1,68.2499979171754,2|2,3:2|2:3,2:0:0:0:
191,213,217829,2,0,P|139:202|108:157,2,102.374996875763,10|10|2,2:0|2:0|2:3,2:0:0:0:
258,270,218789,1,10,2:0:0:0:
107,364,219269,2,0,L|-17:340,2,102.374996875763,2|2|2,3:2|2:0|2:3,2:0:0:0:
176,308,220229,1,2,3:2:0:0:
341,370,220709,2,0,P|380:365|408:338,1,68.2499979171754,10|4,2:0|3:0,2:0:0:0:
476,299,221189,6,0,L|461:209,1,68.2499979171754,6|2,3:2|2:3,2:0:0:0:
398,172,221669,1,10,2:0:0:0:
418,40,222029,2,0,L|495:57,2,68.2499979171754,2|10|2,2:0|2:0|2:0,2:0:0:0:
292,83,222869,1,2,2:3:0:0:
122,29,223349,2,0,L|111:116,1,68.2499979171754,2|10,2:3|2:0,2:0:0:0:
62,169,223829,1,2,2:3:0:0:
123,232,224069,2,0,P|163:237|201:213,2,68.2499979171754,2|2|10,3:2|2:3|2:0,2:0:0:0:
62,169,224789,1,2,2:3:0:0:
7,337,225269,5,2,2:3:0:0:
94,352,225509,2,0,L|168:365,1,68.2499979171754,10|2,2:0|2:3,2:0:0:0:
241,325,225989,2,0,L|325:339,2,68.2499979171754,2|2|10,3:2|2:3|2:0,2:0:0:0:
166,164,226949,2,0,P|163:97|236:62,1,136.499995834351,2|10,3:2|2:0,2:0:0:0:
300,87,227669,1,2,2:3:0:0:
382,53,227909,2,0,L|460:82,1,68.2499979171754,2|2,3:2|2:3,2:0:0:0:
503,144,228389,2,0,P|506:189|482:225,1,68.2499979171754,10|2,2:0|3:0,2:0:0:0:
410,231,228869,6,0,L|333:238,1,68.2499979171754,6|2,3:2|2:3,2:0:0:0:
254,254,229349,2,0,P|229:303|264:362,2,102.374996875763,10|10|2,2:0|2:0|2:3,2:0:0:0:
280,169,230309,1,10,2:0:0:0:
103,183,230789,2,0,L|88:105,1,68.2499979171754,2|2,3:2|2:3,2:0:0:0:
115,30,231269,2,0,P|67:52|7:54,2,102.374996875763,10|2|2,2:0|2:0|2:3,2:0:0:0:
189,78,232229,2,0,P|227:86|254:118,1,68.2499979171754,10|2,2:0|2:3,2:0:0:0:
257,193,232709,5,0,3:0:0:0:
327,139,232949,2,0,L|416:159,1,68.2499979171754,2|10,2:3|2:0,2:0:0:0:
463,218,233429,1,2,2:3:0:0:
463,218,233669,2,0,P|464:266|436:291,1,68.2499979171754,0|2,3:0|2:3,2:0:0:0:
378,328,234149,2,0,P|271:339|240:370,1,136.499995834351,8|0,2:0|3:0,2:0:0:0:
157,204,235109,2,0,L|169:123,1,68.2499979171754,8|2,2:0|2:3,2:0:0:0:
121,60,235589,2,0,P|73:55|11:123,1,136.499995834351,0|8,3:0|2:0,2:0:0:0:
19,289,236549,6,0,P|64:293|97:318,1,68.2499979171754,6|2,3:2|2:3,2:0:0:0:
156,253,237029,2,0,L|145:137,2,102.374996875763,10|10|2,2:0|2:0|2:3,2:0:0:0:
207,325,237989,1,8,2:0:0:0:
320,188,238469,2,0,L|395:204,1,68.2499979171754,2|2,3:2|2:3,2:0:0:0:
456,257,238949,2,0,P|465:301|430:349,2,102.374996875763,10|2|2,2:0|2:0|2:3,2:0:0:0:
468,168,239909,1,10,2:0:0:0:
486,81,240149,1,4,3:0:0:0:
408,37,240389,6,0,L|323:51,1,68.2499979171754,6|10,3:2|2:0,2:0:0:0:
77,87,241349,5,10,2:0:0:0:
333,332,242309,5,14,3:2:0:0:
