osu file format v14

[General]
AudioFilename: audio.mp3
AudioLeadIn: 0
PreviewTime: 63029
Countdown: 0
SampleSet: Soft
StackLeniency: 0.4
Mode: 0
LetterboxInBreaks: 0
WidescreenStoryboard: 1

[Editor]
DistanceSpacing: 1.2
BeatDivisor: 4
GridSize: 16
TimelineZoom: 1.2

[Metadata]
Title:Dakara Boku wa Ongaku o Yameta
TitleUnicode:だから僕は音楽を辞めた
Artist:Yorushika
ArtistUnicode:ヨルシカ
Creator:Petal
Version:Shii's Hard
Source:
Tags:japanese jpop j-pop pop full song version Moonlight n-buna nbuna suis 所以我放棄了音樂 that's that is why I gave up on music female 所以我放弃了音乐 album n-buna seolv [_L_u_k_a_s_] namki jazzberry shii wanpachi matha amateurre shizuku- Kazato asa shikibe mayu saggin
BeatmapID:2884298
BeatmapSetID:1392760

[Difficulty]
HPDrainRate:4.5
CircleSize:3.5
OverallDifficulty:6
ApproachRate:8
SliderMultiplier:1.7
SliderTickRate:1

[Events]
//Background and Video events
0,0,"BG.jpg",0,0
//Break Periods
2,177949,183719
//Storyboard Layer 0 (Background)
//Storyboard Layer 1 (Fail)
//Storyboard Layer 2 (Pass)
//Storyboard Layer 3 (Foreground)
//Storyboard Layer 4 (Overlay)
//Storyboard Sound Samples

[TimingPoints]
1349,480,4,2,1,20,1,0
2309,480,4,2,1,20,1,0
17429,-100,4,2,1,40,0,0
17669,-100,4,2,1,60,0,0
24089,-100,4,2,1,5,0,0
24149,-100,4,2,1,60,0,0
31769,-100,4,2,1,5,0,0
31829,-100,4,2,1,60,0,0
33269,-117.647058823529,4,2,1,30,0,0
33509,-117.647058823529,4,2,1,30,0,0
56069,-100,4,2,1,40,0,0
59909,-100,4,2,1,50,0,0
61829,-100,4,2,1,60,0,0
63029,-100,4,2,1,50,0,0
63749,-100,4,2,3,70,0,1
63989,-100,4,2,1,70,0,1
64109,-80,4,2,1,70,0,1
67409,-80,4,2,1,5,0,1
67469,-80,4,2,1,70,0,1
67529,-80,4,2,1,5,0,1
67589,-80,4,2,1,70,0,1
68069,-80,4,2,1,60,0,1
68309,-80,4,2,1,70,0,1
69689,-80,4,2,1,5,0,1
69749,-80,4,2,1,70,0,1
71429,-80,4,2,3,70,0,1
71669,-80,4,2,1,70,0,1
75269,-80,4,2,1,70,0,0
75509,-80,4,2,1,60,0,0
76469,-80,4,2,1,50,0,0
76949,-125,4,2,1,40,0,0
77009,-125,4,2,1,5,0,0
77069,-125,4,2,1,40,0,0
77189,-125,4,2,1,60,0,0
77669,-100,4,2,1,60,0,0
83609,-100,4,2,1,5,0,0
83669,-100,4,2,1,60,0,0
90809,-100,4,2,1,5,0,0
90869,-100,4,2,1,60,0,0
91289,-100,4,2,1,5,0,0
91349,-100,4,2,1,60,0,0
92789,-117.647058823529,4,2,1,35,0,0
93029,-117.647058823529,4,2,1,35,0,0
99989,-117.647058823529,4,2,1,20,0,0
100229,-117.647058823529,4,2,1,35,0,0
107909,-100,4,2,1,40,0,0
114629,-100,4,2,1,35,0,0
119429,-100,4,2,1,40,0,0
123269,-100,4,2,1,30,0,0
123989,-100,4,2,1,40,0,0
124229,-100,4,2,1,60,0,0
124289,-100,4,2,1,5,0,0
124349,-100,4,2,1,60,0,0
124649,-100,4,2,1,5,0,0
124709,-100,4,2,1,60,0,0
125009,-100,4,2,1,5,0,0
125069,-100,4,2,1,60,0,0
125189,-100,4,2,3,70,0,1
125429,-100,4,2,1,70,0,1
125549,-80,4,2,1,70,0,1
131129,-80,4,2,1,5,0,1
131189,-80,4,2,1,70,0,1
132869,-80,4,2,3,70,0,1
133109,-80,4,2,1,70,0,1
136709,-80,4,2,1,70,0,0
136949,-80,4,2,1,60,0,0
138149,-80,4,2,1,50,0,0
138629,-100,4,2,3,70,0,0
138869,-100,4,2,1,70,0,0
146309,-100,4,2,3,70,0,0
146549,-100,4,2,1,70,0,0
153989,-100,4,2,1,55,0,0
154229,-117.647058823529,4,2,1,40,0,0
154469,-117.647058823529,4,2,1,40,0,0
161669,-117.647058823529,4,2,1,35,0,0
169349,-117.647058823529,4,2,1,25,0,0
177269,-117.647058823529,4,2,1,15,0,0
184469,-117.647058823529,4,2,1,40,0,0
184709,-76.9230769230769,4,2,1,60,0,1
186629,-100,4,2,1,60,0,0
189389,-83.3333333333333,4,2,1,60,0,0
189569,-83.3333333333333,4,2,1,5,0,0
189629,-83.3333333333333,4,2,1,60,0,0
192389,-83.3333333333333,4,2,1,45,0,0
192869,-83.3333333333333,4,2,1,60,0,0
194309,-83.3333333333333,4,2,3,70,0,1
194549,-83.3333333333333,4,2,1,70,0,1
195029,-76.9230769230769,4,2,1,70,0,1
196409,-76.9230769230769,4,2,1,5,0,1
196468,-76.9230769230769,4,2,1,70,0,1
196769,-76.9230769230769,4,2,1,5,0,1
196828,-76.9230769230769,4,2,1,70,0,1
198149,-76.9230769230769,4,2,3,70,0,1
198389,-76.9230769230769,4,2,1,70,0,1
201989,-76.9230769230769,4,2,1,60,0,0
203669,-100,4,2,1,60,0,0
206309,-86.9565217391304,4,2,1,60,0,0
212249,-86.9565217391304,4,2,1,5,0,0
212309,-86.9565217391304,4,2,1,60,0,0
219449,-86.9565217391304,4,2,1,5,0,0
219509,-86.9565217391304,4,2,1,60,0,0
221189,-86.9565217391304,4,2,1,70,0,0
222809,-86.9565217391304,4,2,1,5,0,0
222869,-86.9565217391304,4,2,1,70,0,0
228869,-86.9565217391304,4,2,1,60,0,0
232889,-86.9565217391304,4,2,1,5,0,0
232949,-86.9565217391304,4,2,1,60,0,0
234809,-86.9565217391304,4,2,1,5,0,0
234869,-86.9565217391304,4,2,1,60,0,0

[Colours]
Combo1 : 191,234,233
Combo2 : 208,181,216
Combo3 : 255,232,126
Combo4 : 235,121,105

[HitObjects]
0,18,17429,5,2,2:3:0:0:
0,18,17549,1,2,2:3:0:0:
0,18,17669,1,6,3:2:0:0:
96,2,17909,1,2,2:3:0:0:
177,85,18149,2,0,P|240:91|275:90,1,85,10|2,2:0|2:3,2:0:0:0:
268,99,18509,1,2,2:0:0:0:
268,99,18629,2,0,P|262:162|263:197,1,85,0|2,3:0|2:3,2:0:0:0:
337,275,19109,2,0,P|400:281|435:280,1,85,8|2,2:0|2:3,2:0:0:0:
289,359,19589,5,2,3:2:0:0:
209,296,19829,1,2,2:3:0:0:
108,367,20069,2,0,P|62:371|12:352,1,85,10|2,2:0|2:3,2:0:0:0:
21,355,20429,1,2,2:0:0:0:
17,351,20549,2,0,L|7:232,1,85,0|2,3:0|2:3,2:0:0:0:
0,146,21029,1,10,2:0:0:0:
0,146,21149,1,2,2:0:0:0:
0,146,21269,1,2,2:3:0:0:
111,191,21509,5,2,3:2:0:0:
202,150,21749,1,2,2:3:0:0:
290,236,21989,2,0,L|297:340,1,85,10|2,2:0|2:3,2:0:0:0:
297,329,22349,1,2,2:0:0:0:
298,337,22469,2,0,P|349:323|406:327,1,85,0|2,3:0|2:3,2:0:0:0:
481,257,22949,2,0,P|438:255|398:242,1,85,10|2,2:0|2:3,2:0:0:0:
309,154,23429,6,0,L|294:20,2,127.5,2|2|2,3:2|2:0|2:3,2:0:0:0:
327,292,24389,1,2,3:2:0:0:
312,163,24629,1,2,2:3:0:0:
224,237,24869,1,10,2:0:0:0:
224,237,24989,1,8,0:0:0:0:
224,237,25109,1,2,3:2:0:0:
112,159,25349,5,6,3:2:0:0:
5,180,25589,1,2,2:3:0:0:
52,288,25829,2,0,L|148:277,1,85,10|2,2:0|2:3,2:0:0:0:
144,277,26189,1,2,2:0:0:0:
152,276,26309,2,0,L|163:372,1,85,0|2,3:0|2:3,2:0:0:0:
270,384,26789,2,0,L|279:299,1,85,8|2,2:0|2:3,2:0:0:0:
290,165,27269,5,2,3:2:0:0:
382,224,27509,1,2,2:3:0:0:
482,144,27749,2,0,P|508:105|493:39,1,85,10|2,2:0|2:3,2:0:0:0:
504,60,28109,1,2,2:0:0:0:
499,55,28229,2,0,P|460:29|394:44,1,85,0|2,3:0|2:3,2:0:0:0:
327,120,28709,2,0,L|322:183,1,42.5,10|2,2:0|2:0,2:0:0:0:
302,190,28949,2,0,L|307:253,1,42.5,2|2,2:3|2:0,2:0:0:0:
322,260,29189,5,2,3:2:0:0:
239,339,29429,1,2,2:3:0:0:
147,264,29669,2,0,P|81:252|45:268,1,85,10|2,2:0|2:3,2:0:0:0:
61,260,30029,1,2,2:0:0:0:
57,264,30149,2,0,P|69:198|53:162,1,85,0|2,3:0|2:3,2:0:0:0:
137,63,30629,2,0,P|130:104|144:144,1,85,10|2,2:0|2:3,2:0:0:0:
260,203,31109,6,0,B|343:189|343:189|400:198,2,127.5,2|2|2,3:2|2:0|2:3,2:0:0:0:
245,227,31949,1,8,2:0:0:0:
245,227,32069,2,0,L|233:344,1,85,2|8,3:2|2:0,2:0:0:0:
131,373,32549,2,0,P|98:379|76:370,1,42.5,10|8,2:0|2:0,2:0:0:0:
61,352,32789,2,0,P|55:319|64:297,1,42.5,8|4,3:0|3:0,2:0:0:0:
81,286,33029,5,6,3:2:0:0:
20,204,33269,2,0,P|10:162|22:115,1,72.2500013780594,2|2,2:0|3:2,2:0:0:0:
61,60,33749,1,2,2:0:0:0:
131,110,33989,2,0,P|157:106|184:111,1,36.1250006890297,2|2,3:2|2:0,2:0:0:0:
202,130,34229,2,0,P|228:134|255:129,1,36.1250006890297,2|2,2:3|2:0,2:0:0:0:
270,104,34469,2,0,P|332:95|353:96,1,72.2500013780594,10|2,2:0|2:0,2:0:0:0:
410,147,34949,5,0,3:0:0:0:
488,109,35189,2,0,L|496:195,1,72.2500013780594,2|2,2:0|3:2,2:0:0:0:
500,267,35669,1,2,2:0:0:0:
455,341,35909,2,0,L|403:336,1,36.1250006890297,2|2,3:2|2:0,2:0:0:0:
383,313,36149,2,0,L|331:318,1,36.1250006890297,2|2,2:3|2:0,2:0:0:0:
314,344,36389,2,0,B|302:303|302:303|262:267,1,72.2500013780594,10|2,2:0|2:0,2:0:0:0:
202,245,36869,5,0,3:0:0:0:
141,307,37109,2,0,L|130:356,1,36.1250006890297,2|2,2:3|2:0,2:0:0:0:
115,382,37349,2,0,L|107:277,1,72.2500013780594,2|2,3:2|2:3,2:0:0:0:
78,279,37709,1,2,2:0:0:0:
78,279,37829,2,0,L|85:217,1,36.1250006890297,2|2,3:2|2:0,2:0:0:0:
103,205,38069,2,0,L|95:100,1,72.2500013780594,2|8,2:3|2:0,2:0:0:0:
208,266,38789,6,0,L|213:220,1,36.1250006890297,2|2,3:2|2:0,2:0:0:0:
262,159,39149,2,0,L|249:99,1,36.1250006890297,2|2,2:0|3:2,2:0:0:0:
222,94,39389,1,2,2:0:0:0:
222,94,39509,2,0,L|225:40,1,36.1250006890297,2|2,2:3|2:0,2:0:0:0:
253,25,39749,2,0,L|307:28,2,36.1250006890297,2|2|2,3:2|2:0|2:3,2:0:0:0:
155,13,40229,2,0,P|105:0|93:3,1,36.1250006890297,10|2,2:0|2:0,2:0:0:0:
80,8,40469,1,2,2:3:0:0:
33,80,40709,5,6,3:0:0:0:
82,151,40949,2,0,B|101:189|101:189|101:224,1,72.2500013780594,2|2,2:0|3:2,2:0:0:0:
102,305,41429,2,0,L|101:361,1,36.1250006890297,2|2,2:3|2:0,2:0:0:0:
188,342,41789,2,0,L|188:305,1,36.1250006890297,2|2,2:0|2:3,2:0:0:0:
214,270,42029,1,2,2:0:0:0:
214,270,42149,2,0,L|314:267,1,72.2500013780594,10|2,2:0|2:3,2:0:0:0:
344,332,42629,5,0,3:0:0:0:
408,273,42869,1,2,2:3:0:0:
378,191,43109,2,0,P|374:159|381:135,1,36.1250006890297,2|2,3:2|2:0,2:0:0:0:
401,120,43349,1,2,2:3:0:0:
359,43,43589,2,0,L|295:29,1,36.1250006890297,2|2,3:2|2:0,2:0:0:0:
241,6,43949,1,2,2:0:0:0:
241,6,44069,2,0,L|141:21,1,72.2500013780594,10|2,2:0|2:3,2:0:0:0:
84,34,44549,5,0,3:0:0:0:
17,194,45029,1,0,3:0:0:0:
122,333,45509,1,0,3:0:0:0:
294,311,45989,1,8,2:0:0:0:
121,325,46469,6,0,P|109:305|108:279,1,36.1250006890297,2|2,3:2|2:0,2:0:0:0:
123,252,46709,2,0,P|143:240|169:239,1,36.1250006890297,2|2,2:3|2:0,2:0:0:0:
198,246,46949,2,0,P|218:258|244:259,1,36.1250006890297,2|2,3:2|2:0,2:0:0:0:
268,239,47189,2,0,L|283:139,1,72.2500013780594,2|8,2:3|2:0,2:0:0:0:
294,81,47669,1,8,2:0:0:0:
358,138,47909,2,0,L|366:197,1,36.1250006890297,8|8,2:0|2:0,2:0:0:0:
395,202,48149,2,0,L|387:261,1,36.1250006890297,8|8,3:0|3:0,2:0:0:0:
365,274,48389,6,0,L|373:355,1,72.2500013780594,6|0,3:2|2:0,2:0:0:0:
278,270,48869,2,0,L|270:351,1,72.2500013780594,0|0,3:0|2:0,2:0:0:0:
170,278,49349,2,0,L|178:359,1,72.2500013780594,0|0,3:0|2:0,2:0:0:0:
80,306,49829,1,8,2:0:0:0:
1,346,50069,1,0,2:0:0:0:
74,300,50309,6,0,P|64:257|48:217,1,72.2500013780594,0|0,3:0|2:0,2:0:0:0:
156,258,50789,2,0,P|166:215|182:175,1,72.2500013780594,0|0,3:0|2:0,2:0:0:0:
276,291,51269,2,0,P|266:248|250:208,1,72.2500013780594,0|2,3:0|2:3,2:0:0:0:
357,260,51749,1,8,2:0:0:0:
425,201,51989,1,0,2:0:0:0:
368,266,52229,6,0,L|384:347,1,72.2500013780594,0|0,3:0|2:0,2:0:0:0:
272,296,52709,2,0,L|256:377,1,72.2500013780594,0|0,3:0|2:0,2:0:0:0:
188,281,53189,1,0,3:0:0:0:
108,314,53429,1,0,2:0:0:0:
39,261,53669,1,8,2:0:0:0:
50,174,53909,1,2,2:3:0:0:
139,200,54149,6,0,B|177:203|202:174|202:174|221:193|254:196,2,108.375002067089,0|2|2,3:0|2:0|2:3,2:0:0:0:
55,169,55109,1,0,3:0:0:0:
60,81,55349,1,2,2:0:0:0:
154,60,55589,1,8,2:0:0:0:
154,60,55709,1,8,2:0:0:0:
154,60,55829,2,0,L|203:72,1,36.1250006890297,8|0,3:0|2:0,2:0:0:0:
225,104,56069,6,0,P|266:78|358:74,1,127.5,6|2,3:2|2:0,2:0:0:0:
368,93,56549,2,0,P|378:117|381:145,1,42.5,2|2,3:2|2:0,2:0:0:0:
408,167,56789,2,0,P|398:191|395:219,1,42.5,2|2,2:3|2:0,2:0:0:0:
420,253,57029,2,0,L|520:245,1,85,2|2,3:2|2:3,2:0:0:0:
477,335,57509,1,8,2:0:0:0:
477,335,57629,1,2,2:0:0:0:
477,335,57749,1,2,2:0:0:0:
364,384,57989,6,0,P|338:372|316:352,1,42.5,2|2,3:2|2:0,2:0:0:0:
309,324,58229,2,0,P|286:307|258:298,1,42.5,2|2,2:3|2:0,2:0:0:0:
226,309,58469,1,2,3:2:0:0:
129,260,58709,1,2,2:3:0:0:
129,260,58829,1,2,2:0:0:0:
129,260,58949,2,0,L|100:397,2,127.5,2|2|2,3:2|2:0|2:3,2:0:0:0:
0,200,59909,6,0,P|55:184|44:111,1,127.5,6|0,3:2|3:0,2:0:0:0:
30,131,60389,1,8,2:0:0:0:
144,183,60629,2,0,L|321:163,1,170,0|2,3:0|2:3,2:0:0:0:
468,207,61349,5,8,2:0:0:0:
483,232,61469,1,8,3:0:0:0:
463,266,61589,5,8,3:0:0:0:
472,281,61709,1,4,3:0:0:0:
447,305,61829,6,0,L|432:345,1,42.5,14|0,3:2|2:0,2:0:0:0:
305,230,62189,6,0,L|323:268,1,42.5,10|0,3:2|2:0,2:0:0:0:
151,277,62549,6,0,L|191:291,1,42.5,10|0,3:2|2:0,2:0:0:0:
83,378,62909,5,8,2:0:0:0:
83,378,63029,1,8,3:0:0:0:
146,269,63269,2,0,L|165:218,1,42.5,8|8,2:0|3:0,2:0:0:0:
225,184,63509,2,0,L|202:134,1,42.5,4|4,3:0|3:0,2:0:0:0:
138,93,63749,5,14,3:2:0:0:
236,201,63989,1,2,2:3:0:0:
236,201,64109,2,0,L|307:190,1,53.125,2|8,2:0|2:0,2:0:0:0:
340,129,64349,1,2,2:0:0:0:
340,129,64469,2,0,L|411:140,1,53.125,2|0,2:3|2:0,2:0:0:0:
472,157,64709,5,2,3:2:0:0:
508,301,64949,1,2,2:3:0:0:
508,301,65069,2,0,P|482:333|445:342,1,53.125,2|8,2:0|2:0,2:0:0:0:
391,345,65309,1,2,2:0:0:0:
391,345,65429,2,0,P|359:319|350:282,1,53.125,2|0,2:3|2:0,2:0:0:0:
363,226,65669,5,2,3:2:0:0:
363,226,65789,1,2,2:0:0:0:
363,226,65909,1,2,2:3:0:0:
253,304,66149,1,10,2:0:0:0:
134,225,66389,1,2,2:3:0:0:
30,274,66629,2,0,L|11:386,1,106.25,0|2,3:0|2:3,2:0:0:0:
127,235,67109,2,0,L|117:149,1,53.125,10|0,2:0|2:0,2:0:0:0:
109,96,67349,6,0,L|99:10,2,53.125,2|2|2,2:3|2:0|3:2,2:0:0:0:
206,189,67829,1,2,2:3:0:0:
206,189,67949,1,2,2:0:0:0:
206,189,68069,1,10,2:0:0:0:
280,79,68309,2,0,L|290:-7,2,53.125,2|2|2,2:3|2:0|3:2,2:0:0:0:
371,178,68789,1,2,2:3:0:0:
371,178,68909,1,2,2:0:0:0:
371,178,69029,1,10,2:0:0:0:
491,138,69269,1,2,2:3:0:0:
375,198,69509,6,0,P|370:254|387:318,1,106.25,6|2,3:2|3:0,2:0:0:0:
269,240,69989,2,0,P|243:243|214:260,1,53.125,10|10,2:0|2:0,2:0:0:0:
178,332,70229,1,10,2:0:0:0:
178,332,70349,1,6,3:2:0:0:
178,332,70469,1,2,2:0:0:0:
52,291,70709,1,2,3:0:0:0:
151,212,70949,2,0,P|163:177|159:144,1,53.125,10|8,2:0|3:0,2:0:0:0:
209,94,71189,2,0,P|184:66|154:53,1,53.125,4|4,3:0|3:0,2:0:0:0:
88,72,71429,5,6,3:2:0:0:
216,108,71669,1,2,2:3:0:0:
216,108,71789,2,0,L|289:95,1,53.125,2|8,2:0|2:0,2:0:0:0:
326,36,72029,1,2,2:0:0:0:
326,36,72149,1,2,2:3:0:0:
326,36,72269,1,2,2:0:0:0:
326,36,72389,5,2,3:2:0:0:
419,137,72629,1,2,2:3:0:0:
419,137,72749,2,0,L|492:124,1,53.125,2|8,2:0|2:0,2:0:0:0:
512,211,72989,1,2,2:0:0:0:
512,211,73109,6,0,P|484:225|459:228,1,53.125,2|0,2:3|2:0,2:0:0:0:
424,299,73349,2,0,P|401:287|381:261,1,53.125,2|0,3:2|2:0,2:0:0:0:
302,276,73589,2,0,P|300:252|312:221,1,53.125,2|0,2:3|2:0,2:0:0:0:
263,152,73829,2,0,P|283:139|314:135,1,53.125,10|0,2:0|2:0,2:0:0:0:
364,61,74069,2,0,P|337:57|314:44,1,53.125,2|10,2:3|2:0,2:0:0:0:
232,57,74309,2,0,P|216:35|209:10,2,53.125,0|8|2,2:0|2:0|2:3,2:0:0:0:
316,144,74789,6,0,P|285:149|263:166,1,53.125,8|8,3:0|2:0,2:0:0:0:
186,160,75029,2,0,P|167:185|164:213,1,53.125,8|4,2:0|3:0,2:0:0:0:
200,283,75269,5,14,3:2:0:0:
68,343,75509,1,14,3:2:0:0:
163,206,76229,5,10,2:0:0:0:
295,266,76469,1,10,2:0:0:0:
163,192,76949,2,0,L|166:158,1,34,2|2,2:3|2:3,2:0:0:0:
171,128,77189,5,6,3:2:0:0:
236,32,77429,1,2,2:3:0:0:
347,100,77669,2,0,P|390:110|432:94,1,85,10|2,2:0|2:3,2:0:0:0:
431,93,78029,1,2,2:0:0:0:
435,89,78149,2,0,P|425:132|441:174,1,85,0|2,3:0|2:3,2:0:0:0:
500,272,78629,2,0,P|510:315|494:357,1,85,8|2,2:0|2:3,2:0:0:0:
382,381,79109,5,2,3:2:0:0:
330,274,79349,1,2,2:3:0:0:
224,355,79589,2,0,L|120:351,1,85,10|2,2:0|2:3,2:0:0:0:
135,347,79949,1,2,2:0:0:0:
131,343,80069,2,0,L|135:239,1,85,0|2,3:0|0:3,0:0:0:0:
141,155,80549,1,10,2:0:0:0:
141,155,80669,1,2,2:0:0:0:
141,155,80789,1,2,2:3:0:0:
35,216,81029,5,2,3:2:0:0:
13,111,81269,1,2,2:3:0:0:
127,28,81509,2,0,L|229:20,1,85,10|2,2:0|2:3,2:0:0:0:
220,19,81869,1,2,2:0:0:0:
227,18,81989,2,0,P|241:68|271:93,1,85,0|2,3:0|2:3,2:0:0:0:
371,55,82469,1,10,2:0:0:0:
463,112,82709,1,2,2:3:0:0:
407,232,82949,6,0,B|449:250|489:234|489:234|505:203|543:179,2,127.5,2|2|2,3:2|2:0|2:3,2:0:0:0:
295,158,83909,1,2,3:2:0:0:
397,237,84149,1,2,2:3:0:0:
320,320,84389,1,10,2:0:0:0:
320,320,84509,1,8,2:0:0:0:
320,320,84629,1,8,3:0:0:0:
211,235,84869,5,6,3:2:0:0:
100,263,85109,1,2,2:3:0:0:
29,169,85349,2,0,P|20:126|27:82,1,85,10|2,2:0|2:3,2:0:0:0:
29,81,85709,1,2,2:0:0:0:
33,77,85829,2,0,L|135:70,1,85,0|2,3:0|2:3,2:0:0:0:
225,9,86309,2,0,L|327:16,1,85,8|2,2:0|2:3,2:0:0:0:
353,138,86789,5,2,3:2:0:0:
262,97,87029,1,2,2:3:0:0:
174,183,87269,2,0,L|167:287,1,85,10|2,2:0|2:3,2:0:0:0:
167,276,87629,1,2,2:0:0:0:
166,284,87749,2,0,P|115:270|58:274,1,85,0|2,3:0|2:3,2:0:0:0:
23,366,88229,2,0,P|49:371|76:369,1,42.5,10|2,2:0|2:0,2:0:0:0:
108,384,88469,2,0,P|134:379|161:381,1,42.5,2|2,2:3|2:0,2:0:0:0:
198,384,88709,5,2,3:2:0:0:
246,276,88949,1,2,2:3:0:0:
347,364,89189,2,0,P|410:358|445:359,1,85,10|2,2:0|2:3,2:0:0:0:
442,367,89549,1,2,2:0:0:0:
442,367,89669,2,0,P|436:304|437:269,1,85,0|2,3:0|2:3,2:0:0:0:
501,177,90149,1,10,2:0:0:0:
464,78,90389,1,2,2:3:0:0:
346,34,90629,6,0,B|256:62|256:62|219:37,2,127.5,2|2|2,3:2|2:0|2:3,2:0:0:0:
379,0,91469,1,8,2:0:0:0:
379,0,91589,2,0,L|374:105,1,85,10|4,2:0|3:0,2:0:0:0:
323,190,92069,2,0,L|332:234,1,42.5,10|8,3:0|3:0,2:0:0:0:
362,250,92309,2,0,L|353:294,1,42.5,4|4,3:0|3:0,2:0:0:0:
361,320,92549,5,6,3:2:0:0:
298,380,92789,2,0,P|259:353|227:350,1,72.2500013780594,2|10,2:0|2:0,2:0:0:0:
154,380,93269,1,2,2:0:0:0:
71,354,93509,2,0,P|58:331|55:304,1,36.1250006890297,2|2,3:2|2:0,2:0:0:0:
91,297,93749,2,0,P|104:274|107:247,1,36.1250006890297,2|2,2:3|2:0,2:0:0:0:
77,232,93989,2,0,P|45:196|35:151,1,72.2500013780594,10|2,2:0|2:0,2:0:0:0:
34,86,94469,5,0,3:0:0:0:
105,37,94709,1,2,2:0:0:0:
170,94,94949,2,0,P|197:98|212:105,1,36.1250006890297,2|2,3:2|2:0,2:0:0:0:
245,85,95189,2,0,P|272:81|287:74,1,36.1250006890297,2|2,2:3|2:0,2:0:0:0:
307,44,95429,2,0,L|365:49,1,36.1250006890297,10|0,2:0|2:0,2:0:0:0:
369,81,95669,2,0,L|364:139,1,36.1250006890297,2|2,2:0|2:0,2:0:0:0:
342,153,95909,2,0,L|352:257,1,72.2500013780594,2|10,3:2|2:0,2:0:0:0:
359,271,96269,1,10,2:0:0:0:
359,271,96389,5,0,3:0:0:0:
416,335,96629,1,2,2:0:0:0:
487,286,96869,2,0,L|502:237,1,36.1250006890297,8|2,2:0|2:0,2:0:0:0:
437,189,97229,2,0,L|422:140,1,36.1250006890297,2|2,2:0|3:2,2:0:0:0:
481,87,97589,2,0,P|487:31|475:3,1,72.2500013780594,2|8,2:3|2:0,2:0:0:0:
398,40,98069,2,0,P|356:47|340:45,1,36.1250006890297,2|0,2:0|2:0,2:0:0:0:
321,32,98309,5,14,2:0:0:0:
55,0,99989,5,6,3:0:0:0:
55,0,100109,1,10,3:0:0:0:
55,0,100229,5,6,3:2:0:0:
23,80,100469,2,0,P|65:109|79:132,1,72.2500013780594,2|10,2:3|2:0,2:0:0:0:
144,180,100949,2,0,P|124:193|116:206,1,36.1250006890297,2|2,2:3|2:0,2:0:0:0:
80,281,101309,2,0,P|100:294|108:307,1,36.1250006890297,2|2,2:0|2:3,2:0:0:0:
114,346,101549,1,2,2:0:0:0:
114,346,101669,2,0,L|214:333,1,72.2500013780594,10|2,2:0|2:3,2:0:0:0:
271,323,102149,5,0,3:0:0:0:
342,371,102389,2,0,P|364:380|388:379,1,36.1250006890297,2|2,2:3|2:0,2:0:0:0:
413,359,102629,2,0,P|422:337|421:313,1,36.1250006890297,10|2,2:0|2:0,2:0:0:0:
405,284,102869,1,2,2:3:0:0:
321,259,103109,2,0,L|310:206,1,36.1250006890297,2|2,3:2|2:0,2:0:0:0:
351,201,103349,2,0,L|362:148,1,36.1250006890297,2|2,2:3|2:0,2:0:0:0:
323,139,103589,2,0,L|312:86,1,36.1250006890297,8|2,2:0|2:0,2:0:0:0:
339,67,103829,1,2,2:3:0:0:
260,30,104069,6,0,B|187:4|189:39|109:11,1,144.500002756119,0|8,3:0|2:0,2:0:0:0:
40,169,105029,2,0,B|113:143|111:178|191:150,1,144.500002756119,0|8,3:0|2:0,2:0:0:0:
355,169,105989,6,0,P|321:189|302:227,1,72.2500013780594,0|2,3:0|2:3,2:0:0:0:
300,303,106469,2,0,P|312:326|324:335,1,36.1250006890297,10|2,2:0|2:0,2:0:0:0:
411,356,106829,1,2,2:0:0:0:
411,356,106949,1,0,3:0:0:0:
483,292,107189,1,8,2:0:0:0:
411,229,107429,2,0,P|399:195|401:176,1,36.1250006890297,10|8,2:0|2:0,2:0:0:0:
429,169,107669,2,0,P|441:135|439:116,1,36.1250006890297,2|2,3:2|2:0,2:0:0:0:
414,96,107909,6,0,L|310:80,1,85,6|2,3:2|2:3,2:0:0:0:
258,7,108389,2,0,L|154:23,1,85,8|2,2:0|2:3,2:0:0:0:
94,81,108869,2,0,L|46:74,2,42.5,0|2|2,3:0|2:3|2:3,2:0:0:0:
178,139,109349,1,10,2:0:0:0:
102,205,109589,2,0,P|93:229|91:255,1,42.5,2|0,2:3|2:0,2:0:0:0:
100,283,109829,6,0,P|146:272|198:279,1,85,0|2,3:0|0:3,2:0:0:0:
246,357,110309,2,0,P|292:368|344:361,1,85,8|2,2:0|2:3,2:0:0:0:
405,295,110789,2,0,P|416:249|409:197,1,85,0|2,3:0|2:3,2:0:0:0:
355,129,111269,1,10,2:0:0:0:
424,55,111509,2,0,P|448:56|466:62,1,42.5,2|0,0:3|2:0,2:0:0:0:
496,89,111749,6,0,L|489:181,1,85,0|2,3:0|2:3,2:0:0:0:
406,233,112229,2,0,L|314:226,1,85,8|2,2:0|0:3,2:0:0:0:
219,218,112709,1,0,3:0:0:0:
201,319,112949,1,2,2:3:0:0:
104,353,113189,1,10,2:0:0:0:
26,285,113429,1,2,2:3:0:0:
45,183,113669,6,0,P|57:142|53:25,1,127.5,2|2,3:2|2:0,2:0:0:0:
143,132,114269,1,2,2:0:0:0:
143,132,114389,1,2,2:3:0:0:
218,64,114629,1,2,3:2:0:0:
305,117,114869,1,2,2:3:0:0:
387,53,115109,2,0,P|441:49|479:61,1,85,10|2,2:0|2:3,2:0:0:0:
507,160,115589,5,6,3:2:0:0:
453,248,115829,2,0,L|408:244,1,42.5,2|2,2:3|2:0,2:0:0:0:
360,236,116069,1,10,2:0:0:0:
307,325,116309,2,0,L|241:328,1,42.5,2|2,2:3|2:0,2:0:0:0:
213,331,116549,2,0,P|189:287|145:264,1,85,2|2,3:2|2:3,2:0:0:0:
72,324,117029,2,0,L|68:369,2,42.5,8|0|2,2:0|2:0|2:3,2:0:0:0:
75,213,117509,6,0,P|81:173|97:150,1,42.5,2|2,3:2|2:0,2:0:0:0:
125,142,117749,2,0,P|165:148|188:164,1,42.5,2|2,2:3|2:0,2:0:0:0:
209,178,117989,2,0,P|249:172|272:156,1,42.5,10|0,2:0|2:0,2:0:0:0:
286,136,118229,1,2,2:3:0:0:
372,193,118469,2,0,L|385:103,1,85,2|2,3:2|2:3,2:0:0:0:
318,31,118949,2,0,L|228:18,1,85,8|2,2:0|2:3,2:0:0:0:
137,88,119429,6,0,P|66:113|30:207,1,170,6|8,3:2|2:0,2:0:0:0:
69,296,120149,1,2,2:3:0:0:
69,296,120389,2,0,L|170:284,1,85,0|2,3:0|2:3,2:0:0:0:
226,215,120869,2,0,L|327:227,1,85,8|2,2:0|2:3,2:0:0:0:
410,245,121349,5,6,3:2:0:0:
449,342,121589,1,2,2:3:0:0:
402,254,121829,1,10,2:0:0:0:
469,177,122069,1,2,3:0:0:0:
378,125,122309,1,2,2:0:0:0:
470,86,122549,1,2,3:0:0:0:
372,47,122789,2,0,L|322:54,1,42.5,10|8,2:0|3:0,2:0:0:0:
301,92,123029,2,0,L|251:85,1,42.5,4|0,3:0|2:0,2:0:0:0:
182,73,123269,5,14,2:0:0:0:
99,209,123629,5,0,3:0:0:0:
149,337,123989,5,6,3:0:0:0:
42,343,124229,6,0,L|-9:347,1,42.5,14|14,2:0|2:0,2:0:0:0:
191,209,124589,6,0,L|242:213,1,42.5,14|14,2:0|2:0,2:0:0:0:
80,72,124949,6,0,L|29:76,1,42.5,14|12,2:0|2:0,2:0:0:0:
0,148,125189,5,14,3:2:0:0:
162,65,125429,1,2,2:3:0:0:
162,65,125549,2,0,L|224:77,1,53.125,2|8,2:0|2:0,2:0:0:0:
272,141,125789,1,2,2:0:0:0:
272,141,125909,2,0,L|334:129,1,53.125,2|0,2:3|2:0,2:0:0:0:
402,115,126149,1,2,3:2:0:0:
512,201,126389,1,2,2:3:0:0:
512,201,126509,2,0,P|505:235|490:257,1,53.125,2|8,2:0|2:0,2:0:0:0:
431,299,126749,2,0,L|310:297,1,106.25,2|0,2:0|2:0,2:0:0:0:
246,297,127109,5,2,3:2:0:0:
246,297,127229,1,2,2:0:0:0:
246,297,127349,1,2,2:3:0:0:
372,217,127589,1,10,2:0:0:0:
391,376,127829,1,2,2:3:0:0:
507,267,128069,2,0,L|513:150,1,106.25,0|2,3:0|2:3,2:0:0:0:
464,32,128549,1,10,2:0:0:0:
329,63,128789,1,2,2:3:0:0:
208,0,129029,6,0,P|174:-1|146:8,1,53.125,2|0,3:2|2:0,2:0:0:0:
98,67,129269,2,0,P|97:101|106:129,1,53.125,2|2,2:3|2:0,2:0:0:0:
145,192,129509,1,10,2:0:0:0:
65,292,129749,2,0,L|7:288,2,53.125,2|2|2,2:3|2:0|3:2,2:0:0:0:
170,384,130229,1,2,2:3:0:0:
170,384,130349,1,2,2:0:0:0:
170,384,130469,1,10,2:0:0:0:
76,284,130709,1,2,2:3:0:0:
229,205,130949,6,0,P|278:211|331:230,1,106.25,6|2,3:2|3:0,2:0:0:0:
283,134,131429,1,10,2:0:0:0:
283,134,131549,1,10,2:0:0:0:
283,134,131669,2,0,P|274:101|275:73,1,53.125,10|6,2:0|3:2,2:0:0:0:
331,22,131909,2,0,P|364:13|392:14,1,53.125,2|0,2:0|2:0,2:0:0:0:
455,44,132149,1,6,3:0:0:0:
486,189,132389,2,0,P|456:199|415:197,1,53.125,10|8,2:0|3:0,2:0:0:0:
372,253,132629,2,0,P|348:232|329:195,1,53.125,4|4,3:0|3:0,2:0:0:0:
336,130,132869,5,6,3:2:0:0:
272,273,133109,1,2,2:3:0:0:
272,273,133229,2,0,L|210:286,1,53.125,2|8,2:0|2:0,2:0:0:0:
169,348,133469,1,2,2:0:0:0:
169,348,133589,2,0,L|107:335,1,53.125,2|2,2:3|2:0,2:0:0:0:
39,315,133829,1,2,3:2:0:0:
165,211,134069,1,2,2:3:0:0:
165,211,134189,2,0,L|227:198,1,53.125,2|8,2:0|2:0,2:0:0:0:
259,131,134429,1,2,2:0:0:0:
259,131,134549,2,0,P|295:138|314:147,1,53.125,2|0,2:3|2:0,2:0:0:0:
390,133,134789,6,0,P|401:167|403:188,1,53.125,2|0,3:2|2:0,2:0:0:0:
453,247,135029,2,0,P|428:274|411:286,1,53.125,2|0,2:3|2:0,2:0:0:0:
385,358,135269,2,0,P|349:350|330:342,1,53.125,10|0,2:0|2:0,2:0:0:0:
259,301,135509,2,0,P|223:308|204:317,1,53.125,2|2,2:3|2:0,2:0:0:0:
130,302,135749,2,0,P|118:336|116:357,2,53.125,0|8|2,3:0|2:0|2:3,2:0:0:0:
213,219,136229,2,0,P|209:192|199:168,1,53.125,8|8,3:0|2:0,2:0:0:0:
217,90,136469,2,0,P|192:80|166:76,1,53.125,10|8,2:0|3:0,2:0:0:0:
100,124,136709,5,14,3:2:0:0:
229,5,136949,1,14,3:2:0:0:
135,198,137669,5,10,2:0:0:0:
6,79,137909,1,10,2:0:0:0:
47,190,138149,5,8,3:0:0:0:
64,227,138269,1,8,3:0:0:0:
45,247,138389,5,4,3:0:0:0:
55,267,138509,1,8,3:0:0:0:
47,324,138629,6,0,P|72:316|106:315,1,42.5,6|2,3:2|2:0,2:0:0:0:
143,373,138869,2,0,P|168:381|202:382,1,42.5,2|2,2:3|2:0,2:0:0:0:
241,327,139109,2,0,P|266:319|300:318,1,42.5,10|2,2:0|2:0,2:0:0:0:
349,360,139349,2,0,P|374:368|408:369,1,42.5,2|2,2:3|2:0,2:0:0:0:
461,320,139589,1,0,3:0:0:0:
355,237,139829,2,0,L|308:242,2,42.5,2|2|10,2:3|2:0|2:0,2:0:0:0:
459,173,140309,2,0,L|505:180,1,42.5,2|2,2:3|2:0,2:0:0:0:
509,99,140549,6,0,P|493:72|479:60,1,42.5,2|2,3:2|2:0,2:0:0:0:
406,51,140789,2,0,P|379:67|367:81,1,42.5,2|2,2:3|2:0,2:0:0:0:
333,146,141029,2,0,P|317:160|298:169,1,42.5,10|2,2:0|2:0,2:0:0:0:
219,156,141269,2,0,P|204:140|195:121,1,42.5,2|2,2:3|2:0,2:0:0:0:
114,90,141509,2,0,P|113:141|107:160,1,42.5,2|2,3:2|2:0,2:0:0:0:
71,198,141749,2,0,P|72:249|78:268,1,42.5,2|2,2:3|2:0,2:0:0:0:
137,286,141989,2,0,L|185:283,2,42.5,10|2|2,2:0|2:0|2:3,2:0:0:0:
19,361,142469,5,0,3:0:0:0:
19,361,142589,1,2,2:0:0:0:
127,366,142829,1,2,2:0:0:0:
235,371,143069,1,2,2:0:0:0:
316,297,143309,5,2,2:0:0:0:
425,312,143549,1,2,2:0:0:0:
493,225,143789,1,2,2:0:0:0:
451,122,144029,1,2,2:0:0:0:
352,184,144269,5,2,2:0:0:0:
244,179,144509,1,2,2:0:0:0:
136,174,144749,1,2,2:0:0:0:
62,71,144989,1,2,2:0:0:0:
16,170,145229,5,10,2:0:0:0:
62,269,145469,1,10,2:0:0:0:
16,368,145709,1,2,3:2:0:0:
130,338,145949,1,2,3:2:0:0:
130,338,146069,1,10,3:0:0:0:
226,377,146309,6,0,P|234:353|232:327,1,42.5,6|0,3:2|2:0,2:0:0:0:
187,272,146549,2,0,P|179:248|181:222,1,42.5,2|2,2:3|2:0,2:0:0:0:
240,175,146789,2,0,P|248:151|246:125,1,42.5,10|0,2:0|2:0,2:0:0:0:
201,70,147029,2,0,P|193:46|195:20,1,42.5,2|0,2:3|2:0,2:0:0:0:
270,0,147269,2,0,L|317:7,1,42.5,2|0,3:2|3:0,2:0:0:0:
379,64,147509,2,0,L|426:57,1,42.5,2|2,2:3|2:0,2:0:0:0:
432,141,147749,2,0,L|385:148,1,42.5,8|0,2:0|2:0,2:0:0:0:
323,205,147989,2,0,L|276:198,1,42.5,2|0,2:3|2:0,2:0:0:0:
231,135,148229,5,2,3:2:0:0:
129,199,148469,1,2,2:3:0:0:
227,264,148709,1,10,2:0:0:0:
125,328,148949,1,2,2:3:0:0:
207,379,149189,2,0,L|253:373,1,42.5,0|0,3:0|3:0,2:0:0:0:
283,334,149429,2,0,L|329:340,1,42.5,2|0,2:3|2:0,2:0:0:0:
400,378,149669,2,0,L|431:372,3,28.3333333333333,10|2|2|2,2:0|2:0|2:0|2:3,2:0:0:0:
506,295,150149,5,2,3:2:0:0:
506,295,150269,1,2,2:0:0:0:
484,192,150509,1,2,2:0:0:0:
462,89,150749,1,2,2:0:0:0:
366,203,151109,5,2,3:2:0:0:
254,189,151349,1,2,2:3:0:0:
254,189,151469,1,2,2:0:0:0:
142,175,151709,1,2,2:0:0:0:
29,278,152069,5,2,3:2:0:0:
143,189,152429,1,2,2:0:0:0:
163,332,152789,1,10,2:0:0:0:
298,377,153029,2,0,L|348:385,2,42.5,2|8|2,3:2|2:0|3:0,2:0:0:0:
266,306,153389,1,2,3:0:0:0:
266,306,153509,2,0,P|284:276|306:265,1,42.5,10|8,2:0|3:0,2:0:0:0:
309,196,153749,2,0,P|343:196|364:210,1,42.5,4|4,3:0|3:0,2:0:0:0:
403,263,153989,5,6,3:2:0:0:
484,211,154229,2,0,L|490:128,1,72.2500013780594,2|10,2:0|2:0,2:0:0:0:
499,47,154709,1,2,2:0:0:0:
413,85,154949,2,0,P|392:88|373:85,1,36.1250006890297,2|2,3:2|2:0,2:0:0:0:
337,59,155189,2,0,P|316:56|297:59,1,36.1250006890297,2|2,2:0|2:0,2:0:0:0:
269,93,155429,2,0,L|256:180,1,72.2500013780594,10|2,2:0|2:0,2:0:0:0:
246,258,155909,5,0,3:0:0:0:
163,302,156149,2,0,P|143:315|122:317,1,36.1250006890297,2|2,2:0|2:0,2:0:0:0:
85,306,156389,2,0,P|72:286|70:265,1,36.1250006890297,10|2,2:0|2:0,2:0:0:0:
88,231,156629,2,0,P|93:196|88:164,1,36.1250006890297,2|2,2:0|2:0,2:0:0:0:
78,150,156869,2,0,P|73:115|78:83,1,36.1250006890297,2|2,3:2|2:0,2:0:0:0:
101,76,157109,2,0,P|136:71|168:76,1,36.1250006890297,2|2,2:0|2:0,2:0:0:0:
174,99,157349,2,0,L|271:87,1,72.2500013780594,10|2,2:0|2:0,2:0:0:0:
338,73,157829,5,0,3:0:0:0:
415,19,158069,2,0,P|440:78|464:97,1,72.2500013780594,2|10,2:0|2:0,2:0:0:0:
502,157,158549,2,0,P|479:165|456:179,1,36.1250006890297,2|2,2:0|2:0,2:0:0:0:
437,206,158789,1,2,3:2:0:0:
350,243,159029,2,0,P|327:235|304:221,1,36.1250006890297,2|2,2:0|2:0,2:0:0:0:
285,194,159269,2,0,P|282:252|278:292,1,72.2500013780594,10|2,2:0|2:0,2:0:0:0:
250,354,159749,5,0,3:0:0:0:
161,323,159989,1,2,2:0:0:0:
70,347,160229,2,0,P|30:340|17:330,1,36.1250006890297,10|2,2:0|2:0,2:0:0:0:
4,305,160469,2,0,P|11:265|21:252,1,36.1250006890297,2|2,2:0|2:0,2:0:0:0:
46,240,160709,1,2,3:2:0:0:
8,154,160949,2,0,P|-1:116|2:95,1,36.1250006890297,2|2,2:0|2:0,2:0:0:0:
11,74,161189,2,0,P|46:40|87:35,1,72.2500013780594,10|2,2:0|2:0,2:0:0:0:
144,88,161669,6,0,B|217:98|195:32|272:41,1,144.500002756119,6|8,3:2|2:0,2:0:0:0:
455,85,162629,2,0,P|412:70|379:63,1,72.2500013780594,0|2,3:0|2:0,2:0:0:0:
312,122,163109,1,8,2:0:0:0:
477,211,163589,2,0,P|477:259|389:321,1,144.500002756119,0|8,3:0|2:0,2:0:0:0:
236,244,164549,2,0,P|292:255|315:268,1,72.2500013780594,0|2,3:0|2:0,2:0:0:0:
324,354,165029,1,8,2:0:0:0:
234,383,165269,2,0,P|197:368|183:363,1,36.1250006890297,2|0,2:0|2:0,2:0:0:0:
153,372,165509,6,0,P|134:324|107:284,1,72.2500013780594,0|0,3:0|2:0,2:0:0:0:
47,251,165989,1,8,2:0:0:0:
231,288,166469,2,0,P|250:240|277:200,1,72.2500013780594,0|2,3:0|2:0,2:0:0:0:
337,167,166949,1,8,2:0:0:0:
480,45,167429,2,0,B|393:38|428:107|324:90,1,144.500002756119,2|10,3:2|2:0,2:0:0:0:
181,8,168389,2,0,L|171:56,1,36.1250006890297,2|2,3:2|2:0,2:0:0:0:
163,89,168629,1,2,2:0:0:0:
73,60,168869,2,0,L|83:145,1,72.2500013780594,8|4,2:0|3:0,2:0:0:0:
97,224,169349,5,6,3:2:0:0:
167,162,169589,1,2,2:0:0:0:
167,162,169709,2,0,P|203:166|219:177,1,36.1250006890297,2|0,2:0|3:0,2:0:0:0:
236,198,169949,1,2,2:0:0:0:
236,198,170069,2,0,P|272:194|288:183,1,36.1250006890297,2|0,2:0|2:0,2:0:0:0:
504,15,172949,6,0,L|498:61,1,36.1250006890297,2|2,2:0|2:0,2:0:0:0:
494,96,173189,1,0,3:0:0:0:
407,58,173429,1,2,2:0:0:0:
407,58,173549,1,2,2:0:0:0:
339,119,173789,1,2,2:0:0:0:
339,119,173909,1,2,2:0:0:0:
19,190,176789,6,0,L|25:236,1,36.1250006890297,2|2,2:0|2:0,2:0:0:0:
29,271,177029,1,6,3:2:0:0:
139,244,177269,2,0,L|121:286,1,36.1250006890297,2|2,2:0|2:0,2:0:0:0:
215,324,177629,2,0,L|178:352,1,36.1250006890297,2|2,2:0|2:0,2:0:0:0:
13,245,184469,5,2,2:3:0:0:
11,366,184709,6,0,L|27:223,1,110.499994941712,6|0,3:2|2:0,2:0:0:0:
111,219,185069,2,0,L|123:328,1,110.499994941712,6|0,3:2|2:0,2:0:0:0:
208,372,185429,2,0,L|224:229,1,110.499994941712,14|0,2:0|2:0,2:0:0:0:
308,225,185789,2,0,L|320:334,1,110.499994941712,6|0,3:2|2:0,2:0:0:0:
410,362,186149,2,0,P|446:362|478:342,1,55.2499974708558,2|0,3:0|2:0,2:0:0:0:
512,280,186389,2,0,P|512:244|492:212,1,55.2499974708558,2|0,3:0|2:0,2:0:0:0:
444,163,186629,6,0,L|306:134,1,127.5,6|0,3:2|3:0,2:0:0:0:
241,168,187109,1,8,2:0:0:0:
270,53,187349,2,0,L|135:96,1,127.5,2|8,3:0|2:0,2:0:0:0:
96,158,187829,1,0,3:0:0:0:
14,55,188069,5,8,2:0:0:0:
29,88,188189,1,8,3:0:0:0:
12,114,188309,5,4,3:0:0:0:
24,133,188429,1,4,3:0:0:0:
0,181,188549,5,14,2:0:0:0:
52,294,188789,1,14,2:0:0:0:
166,48,189389,6,0,P|226:24|325:34,1,152.999995330811,14|2,3:2|3:0,2:0:0:0:
386,148,189989,1,10,2:0:0:0:
365,173,190109,1,8,3:0:0:0:
378,198,190229,5,4,3:0:0:0:
368,215,190349,1,4,3:0:0:0:
376,227,190469,5,6,3:2:0:0:
491,17,191309,5,12,2:0:0:0:
458,194,191669,2,0,P|431:184|403:179,1,50.9999984436036,8|4,3:0|3:0,2:0:0:0:
348,128,191909,2,0,P|325:146|307:168,1,50.9999984436036,8|8,2:0|3:0,2:0:0:0:
235,190,192149,2,0,P|239:218|249:245,1,50.9999984436036,4|4,3:0|3:0,2:0:0:0:
313,297,192389,2,0,L|368:307,2,50.9999984436036,2|2|2,3:0|2:0|2:0,2:0:0:0:
214,378,192869,5,14,3:2:0:0:
309,173,193229,5,14,3:2:0:0:
249,17,193589,5,2,3:0:0:0:
294,166,193829,2,0,L|358:150,1,50.9999984436036,10|8,2:0|3:0,2:0:0:0:
389,84,194069,2,0,L|453:100,1,50.9999984436036,4|4,3:0|3:0,2:0:0:0:
512,132,194309,5,14,3:2:0:0:
405,234,194549,1,2,3:0:0:0:
496,354,194789,1,10,2:0:0:0:
349,317,195029,2,0,P|313:318|267:327,1,55.2499974708558,2|2,2:3|3:2,2:0:0:0:
231,377,195269,2,0,P|195:376|149:367,1,55.2499974708558,2|0,2:3|2:0,2:0:0:0:
138,299,195509,1,2,3:0:0:0:
138,299,195629,1,2,2:0:0:0:
138,299,195749,1,10,2:0:0:0:
7,384,195989,1,2,3:0:0:0:
66,234,196229,6,0,P|78:161|72:99,1,110.499994941712,6|6,3:2|3:2,2:0:0:0:
168,212,196709,2,0,P|187:223|231:231,1,55.2499974708558,10|8,2:0|2:0,2:0:0:0:
277,171,196949,1,10,2:0:0:0:
277,171,197069,1,6,3:2:0:0:
277,171,197189,1,2,2:0:0:0:
272,313,197429,1,2,3:0:0:0:
398,377,197669,2,0,P|428:359|443:321,1,55.2499974708558,10|8,2:0|3:0,2:0:0:0:
512,306,197909,2,0,P|511:271|486:239,1,55.2499974708558,4|4,3:0|3:0,2:0:0:0:
423,225,198149,5,6,3:2:0:0:
510,88,198389,1,2,2:3:0:0:
510,88,198509,2,0,L|442:67,1,55.2499974708558,2|8,2:0|2:0,2:0:0:0:
394,14,198749,1,2,2:0:0:0:
394,14,198869,2,0,L|326:35,1,55.2499974708558,2|2,2:3|2:0,2:0:0:0:
266,61,199109,1,2,3:2:0:0:
117,0,199349,1,2,2:3:0:0:
117,0,199469,2,0,L|55:17,1,55.2499974708558,2|8,2:0|2:0,2:0:0:0:
8,79,199709,1,2,2:0:0:0:
8,79,199829,2,0,P|40:90|60:111,1,55.2499974708558,2|0,2:3|2:0,2:0:0:0:
137,101,200069,6,0,P|143:134|135:162,1,55.2499974708558,2|0,3:2|2:0,2:0:0:0:
182,223,200309,2,0,P|156:245|128:252,1,55.2499974708558,2|0,2:3|2:0,2:0:0:0:
98,322,200549,2,0,P|65:310|45:289,1,55.2499974708558,10|0,2:0|2:0,2:0:0:0:
3,222,200789,2,0,P|7:194|1:168,1,55.2499974708558,2|2,2:3|2:0,2:0:0:0:
8,79,201029,2,0,P|7:48|14:17,2,55.2499974708558,0|8|2,3:0|2:0|2:3,2:0:0:0:
146,154,201509,2,0,P|176:170|214:167,1,55.2499974708558,8|8,3:0|2:0,2:0:0:0:
267,211,201749,2,0,P|295:193|312:158,1,55.2499974708558,10|4,2:0|3:0,2:0:0:0:
316,98,201989,5,6,3:2:0:0:
464,185,202229,1,10,2:0:0:0:
312,14,202949,5,8,2:0:0:0:
164,101,203189,1,10,2:0:0:0:
262,369,203669,6,0,P|274:308|445:280,1,255,14|2,2:0|2:0,2:0:0:0:
472,349,204509,1,10,2:0:0:0:
510,228,204749,1,10,2:0:0:0:
472,107,204989,1,10,2:0:0:0:
472,107,205109,1,10,2:0:0:0:
374,174,205349,2,0,P|338:172|317:157,1,42.5,10|4,2:0|3:0,2:0:0:0:
277,108,205589,2,0,P|241:110|220:125,1,42.5,4|2,3:0|2:0,2:0:0:0:
181,173,205829,5,6,3:2:0:0:
89,107,206069,1,2,3:0:0:0:
4,207,206309,2,0,P|-2:270|8:310,1,97.7500018644333,10|2,2:0|2:3,2:0:0:0:
13,311,206669,1,10,2:0:0:0:
13,311,206789,2,0,P|76:305|111:306,1,97.7500018644333,0|2,3:0|2:3,2:0:0:0:
218,376,207269,2,0,P|281:382|316:381,1,97.7500018644333,8|2,2:0|2:3,2:0:0:0:
371,284,207749,5,2,3:2:0:0:
333,185,207989,1,2,2:3:0:0:
232,265,208229,2,0,L|127:259,1,97.7500018644333,10|2,2:0|2:3,2:0:0:0:
129,256,208589,1,10,2:0:0:0:
125,251,208709,2,0,L|131:146,1,97.7500018644333,0|2,3:0|2:3,2:0:0:0:
142,38,209189,1,10,2:0:0:0:
142,38,209309,1,2,2:0:0:0:
142,38,209429,1,2,2:3:0:0:
22,68,209669,5,2,3:2:0:0:
70,157,209909,1,2,2:3:0:0:
4,281,210149,2,0,P|-6:339|18:376,1,97.7500018644333,10|2,2:0|2:3,2:0:0:0:
19,376,210509,1,10,2:0:0:0:
24,381,210629,2,0,L|125:369,1,97.7500018644333,0|2,3:0|2:3,2:0:0:0:
233,297,211109,2,0,L|132:285,1,97.7500018644333,10|2,2:0|2:3,2:0:0:0:
58,204,211589,6,0,L|75:34,2,146.62500279665,2|2|2,3:2|2:0|2:3,2:0:0:0:
130,276,212549,1,2,3:2:0:0:
222,220,212789,1,2,2:3:0:0:
318,295,213029,1,10,2:0:0:0:
318,295,213149,1,8,2:0:0:0:
318,295,213269,1,2,3:2:0:0:
341,176,213509,5,6,3:2:0:0:
430,117,213749,1,2,2:3:0:0:
512,211,213989,2,0,L|501:316,1,97.7500018644333,10|2,2:0|2:3,2:0:0:0:
506,314,214349,1,10,2:0:0:0:
510,320,214469,2,0,P|451:312|398:327,1,97.7500018644333,0|2,3:0|2:3,2:0:0:0:
323,377,214949,2,0,P|264:385|211:370,1,97.7500018644333,8|2,2:0|2:3,2:0:0:0:
184,276,215429,5,2,3:2:0:0:
263,201,215669,1,2,2:3:0:0:
136,149,215909,2,0,L|37:143,1,97.7500018644333,10|2,2:0|2:3,2:0:0:0:
34,138,216269,1,10,2:0:0:0:
30,133,216389,2,0,L|35:35,1,97.7500018644333,0|2,3:0|2:3,2:0:0:0:
164,0,216869,2,0,L|232:3,2,48.8750009322167,10|2|2,2:0|2:0|2:3,2:0:0:0:
217,138,217349,5,2,3:2:0:0:
298,76,217589,1,2,2:3:0:0:
406,152,217829,2,0,L|423:266,1,97.7500018644333,10|2,2:0|2:3,2:0:0:0:
422,255,218189,1,10,2:0:0:0:
425,260,218309,2,0,P|465:229|516:227,1,97.7500018644333,0|2,3:0|2:3,2:0:0:0:
444,349,218789,1,10,2:0:0:0:
444,349,218909,1,2,2:0:0:0:
444,349,219029,1,2,2:3:0:0:
343,291,219269,6,0,P|271:268|233:269,1,97.7500018644333,2|2,3:2|2:3,2:0:0:0:
139,331,219749,2,0,P|100:340|75:334,1,48.8750009322167,8|2,2:0|2:0,2:0:0:0:
27,295,219989,2,0,P|18:256|24:231,1,48.8750009322167,2|10,2:3|2:0,2:0:0:0:
53,178,220229,1,2,3:2:0:0:
53,178,220349,1,8,2:0:0:0:
53,178,220469,1,4,3:0:0:0:
180,221,220709,2,0,L|194:162,1,48.8750009322167,10|8,2:0|3:0,2:0:0:0:
266,147,220949,2,0,L|280:88,1,48.8750009322167,4|4,3:0|3:0,2:0:0:0:
346,59,221189,5,6,3:2:0:0:
504,90,221429,2,0,P|463:99|441:113,1,48.8750009322167,2|2,2:3|2:0,2:0:0:0:
415,171,221669,1,10,2:0:0:0:
500,282,221909,1,2,2:3:0:0:
500,282,222029,2,0,L|397:310,1,97.7500018644333,2|10,2:0|2:0,2:0:0:0:
280,384,222509,1,2,2:0:0:0:
280,384,222629,2,0,L|177:356,1,97.7500018644333,10|2,2:0|2:3,2:0:0:0:
70,327,223109,5,0,3:0:0:0:
120,212,223349,2,0,P|146:204|178:208,1,48.8750009322167,2|2,2:3|2:0,2:0:0:0:
232,256,223589,2,0,P|258:264|290:260,1,48.8750009322167,10|2,2:0|2:0,2:0:0:0:
336,200,223829,2,0,P|362:192|394:196,1,48.8750009322167,2|10,2:3|2:0,2:0:0:0:
461,224,224069,2,0,L|473:123,1,97.7500018644333,2|2,3:2|2:3,2:0:0:0:
382,23,224549,2,0,L|281:11,1,97.7500018644333,10|2,2:0|2:3,2:0:0:0:
157,0,225029,5,2,3:2:0:0:
72,100,225269,1,2,2:3:0:0:
113,221,225509,2,0,L|169:220,1,48.8750009322167,10|2,2:0|2:0,2:0:0:0:
158,300,225749,2,0,L|102:299,1,48.8750009322167,2|10,2:3|2:0,2:0:0:0:
109,382,225989,2,0,L|165:381,1,48.8750009322167,2|2,3:2|2:0,2:0:0:0:
231,337,226229,1,2,2:3:0:0:
254,212,226469,1,10,2:0:0:0:
325,315,226709,2,0,P|358:321|397:320,1,48.8750009322167,2|2,2:3|2:0,2:0:0:0:
451,295,226949,5,2,3:2:0:0:
495,166,227189,2,0,P|478:133|447:112,1,48.8750009322167,2|2,2:3|2:0,2:0:0:0:
403,83,227429,2,0,P|365:81|332:97,1,48.8750009322167,10|2,2:0|2:0,2:0:0:0:
292,133,227669,2,0,P|254:134|221:118,1,48.8750009322167,2|2,2:3|2:0,2:0:0:0:
189,74,227909,1,2,3:2:0:0:
96,162,228149,2,0,L|94:210,1,48.8750009322167,2|10,2:3|2:0,2:0:0:0:
95,300,228389,1,10,2:0:0:0:
95,300,228509,1,10,2:0:0:0:
95,300,228629,1,2,3:0:0:0:
1,229,228869,5,6,3:2:0:0:
3,117,229109,1,2,2:3:0:0:
113,192,229349,2,0,P|186:215|237:204,1,97.7500018644333,10|2,2:0|2:3,2:0:0:0:
213,207,229709,1,10,2:0:0:0:
220,200,229829,2,0,L|224:82,1,97.7500018644333,0|2,3:0|2:3,2:0:0:0:
306,196,230309,1,10,2:0:0:0:
421,152,230549,1,2,2:3:0:0:
465,267,230789,5,2,3:2:0:0:
350,311,231029,2,0,L|250:306,1,97.7500018644333,2|10,2:3|2:0,2:0:0:0:
150,383,231509,1,2,2:3:0:0:
40,340,231749,1,2,3:2:0:0:
33,214,231989,1,2,2:3:0:0:
145,143,232229,2,0,L|256:159,1,97.7500018644333,10|2,2:0|2:3,2:0:0:0:
357,173,232709,6,0,P|344:123|366:62,1,97.7500018644333,0|2,3:0|2:3,2:0:0:0:
490,81,233189,2,0,P|503:131|481:192,1,97.7500018644333,10|2,2:0|2:3,2:0:0:0:
486,181,233549,1,2,2:0:0:0:
482,188,233669,2,0,P|495:238|473:299,1,97.7500018644333,0|2,3:0|2:3,2:0:0:0:
386,380,234149,2,0,L|245:349,1,97.7500018644333,8|2,2:0|2:3,2:0:0:0:
207,273,234629,6,0,B|123:261|123:261|91:276,1,97.7500018644333,0|2,3:0|2:3,2:0:0:0:
121,138,235109,2,0,B|205:126|205:126|237:141,1,97.7500018644333,8|2,2:0|2:3,2:0:0:0:
273,195,235469,1,0,2:0:0:0:
273,195,235589,2,0,L|325:182,2,48.8750009322167,0|8|2,3:0|2:0|2:3,2:0:0:0:
240,349,236069,2,0,P|272:367|316:371,1,48.8750009322167,8|10,2:0|2:0,2:0:0:0:
366,356,236309,2,0,P|384:324|388:280,1,48.8750009322167,2|0,2:3|2:0,2:0:0:0:
394,233,236549,5,6,3:2:0:0:
394,233,236669,1,2,2:0:0:0:
394,233,236789,1,2,2:3:0:0:
499,274,237029,2,0,L|514:165,1,97.7500018644333,10|2,2:0|2:3,2:0:0:0:
506,168,237389,1,10,2:0:0:0:
500,161,237509,2,0,L|391:146,1,97.7500018644333,0|2,3:0|2:3,2:0:0:0:
326,63,237989,2,0,L|217:78,1,97.7500018644333,8|2,2:0|2:3,2:0:0:0:
148,179,238469,5,2,3:2:0:0:
29,156,238709,1,2,2:3:0:0:
66,283,238949,2,0,P|128:267|182:280,1,97.7500018644333,10|2,2:0|2:3,2:0:0:0:
230,333,239429,1,0,3:0:0:0:
230,333,239549,1,8,2:0:0:0:
230,333,239669,1,2,2:3:0:0:
351,215,239909,2,0,L|362:276,1,48.8750009322167,10|8,2:0|2:0,2:0:0:0:
440,295,240149,2,0,L|429:356,1,48.8750009322167,4|2,3:0|2:0,2:0:0:0:
362,384,240389,5,6,3:2:0:0:
435,200,240629,1,10,2:0:0:0:
232,337,241349,5,10,2:0:0:0:
176,148,241589,1,10,2:0:0:0:
20,344,242309,5,14,3:2:0:0:
