osu file format v14

[General]
AudioFilename: audio.mp3
AudioLeadIn: 0
PreviewTime: 63029
Countdown: 0
SampleSet: Soft
StackLeniency: 0.7
Mode: 0
LetterboxInBreaks: 0
WidescreenStoryboard: 1

[Editor]
DistanceSpacing: 1.1
BeatDivisor: 8
GridSize: 32
TimelineZoom: 2

[Metadata]
Title:Dakara Boku wa Ongaku o Yameta
TitleUnicode:だから僕は音楽を辞めた
Artist:Yorushika
ArtistUnicode:ヨルシカ
Creator:Petal
Version:Seolv's Insane
Source:
Tags:japanese jpop j-pop pop full song version Moonlight n-buna nbuna suis 所以我放棄了音樂 that's that is why I gave up on music female 所以我放弃了音乐 album n-buna seolv [_L_u_k_a_s_] namki jazzberry shii wanpachi matha amateurre shizuku- Kazato asa shikibe mayu saggin
BeatmapID:2943114
BeatmapSetID:1392760

[Difficulty]
HPDrainRate:4.6
CircleSize:4
OverallDifficulty:8
ApproachRate:9.2
SliderMultiplier:2.1
SliderTickRate:1

[Events]
//Background and Video events
0,0,"BG.jpg",0,0
//Break Periods
2,33509,46859
2,92749,97739
2,154188,168779
//Storyboard Layer 0 (Background)
//Storyboard Layer 1 (Fail)
//Storyboard Layer 2 (Pass)
//Storyboard Layer 3 (Foreground)
//Storyboard Layer 4 (Overlay)
//Storyboard Sound Samples

[TimingPoints]
1349,480,4,2,1,20,1,0
2309,480,4,2,1,60,1,0
2309,-100,4,2,1,25,0,0
3269,-166.666666666667,4,2,1,25,0,0
4229,-100,4,2,1,25,0,0
4709,-166.666666666667,4,2,1,25,0,0
5189,-125,4,2,1,25,0,0
9269,-100,4,2,1,25,0,0
10949,-125,4,2,1,25,0,0
12389,-250.000000000001,4,2,1,25,0,0
13349,-125,4,2,1,25,0,0
14069,-250,4,2,1,25,0,0
17429,-83.3333333333333,4,2,1,40,0,0
17489,-83.3333333333333,4,2,1,5,0,0
17548,-83.3333333333333,4,2,1,40,0,0
17669,-55.5555555555556,4,2,1,60,0,0
17848,-55.5555555555556,4,2,1,5,0,0
17909,-66.6666666666667,4,2,1,60,0,0
19589,-55.5555555555556,4,2,1,60,0,0
19768,-55.5555555555556,4,2,1,5,0,0
19829,-66.6666666666667,4,2,1,60,0,0
21509,-55.5555555555556,4,2,1,60,0,0
21688,-55.5555555555556,4,2,1,5,0,0
21749,-66.6666666666667,4,2,1,60,0,0
23429,-55.5555555555556,4,2,1,60,0,0
24389,-66.6666666666667,4,2,1,60,0,0
25349,-55.5555555555556,4,2,1,60,0,0
25528,-55.5555555555556,4,2,1,5,0,0
25589,-66.6666666666667,4,2,1,60,0,0
27269,-55.5555555555556,4,2,1,60,0,0
27448,-55.5555555555556,4,2,1,5,0,0
27509,-66.6666666666667,4,2,1,60,0,0
29189,-55.5555555555556,4,2,1,60,0,0
29368,-55.5555555555556,4,2,1,5,0,0
29429,-66.6666666666667,4,2,1,60,0,0
31109,-55.5555555555556,4,2,1,60,0,0
32069,-66.6666666666667,4,2,1,60,0,0
47429,-125,4,2,1,30,0,0
48389,-142.857142857143,4,2,1,30,0,0
54149,-125,4,2,1,30,0,0
56069,-83.3333333333333,4,2,1,40,0,0
59909,-71.4285714285714,4,2,1,50,0,0
61829,-55.5555555555556,4,2,1,60,0,0
63029,-55.5555555555559,4,2,1,50,0,0
63749,-62.5000000000004,4,2,3,70,0,1
63869,-62.5000000000004,4,2,1,70,0,1
64469,-55.5555555555559,4,2,1,70,0,1
64709,-62.5000000000004,4,2,1,70,0,1
65429,-55.5555555555559,4,2,1,70,0,1
66509,-62.5000000000004,4,2,1,70,0,1
68069,-62.5000000000004,4,2,1,60,0,1
68309,-62.5000000000004,4,2,1,70,0,1
69029,-55.5555555555559,4,2,1,70,0,1
69269,-62.5000000000004,4,2,1,70,0,1
69509,-50.0000000000002,4,2,1,70,0,1
69689,-50.0000000000002,4,2,1,5,0,1
69749,-50.0000000000002,4,2,1,70,0,1
70649,-50.0000000000002,4,2,1,5,0,1
70709,-50.0000000000002,4,2,1,70,0,1
71069,-62.5,4,2,1,70,0,1
71429,-62.5,4,2,3,70,0,1
71549,-62.5,4,2,1,70,0,1
71789,-55.5555555555556,4,2,1,70,0,1
71969,-55.5555555555556,4,2,1,5,0,1
72028,-55.5555555555556,4,2,1,70,0,1
72389,-62.5,4,2,1,70,0,1
73109,-55.5555555555556,4,2,1,70,0,1
73288,-55.5555555555556,4,2,1,5,0,1
73349,-62.5,4,2,1,70,0,1
73829,-55.5555555555556,4,2,1,70,0,1
74189,-62.5,4,2,1,70,0,1
75269,-62.5,4,2,1,70,0,0
75509,-62.5,4,2,1,60,0,0
76469,-166.666666666667,4,2,1,50,0,0
76949,-83.3333333333334,4,2,1,40,0,0
77008,-83.3333333333334,4,2,1,5,0,0
77068,-83.3333333333334,4,2,1,40,0,0
77189,-55.5555555555556,4,2,1,60,0,0
77368,-55.5555555555556,4,2,1,5,0,0
77429,-66.6666666666667,4,2,1,60,0,0
79109,-55.5555555555556,4,2,1,60,0,0
79288,-55.5555555555556,4,2,1,5,0,0
79349,-66.6666666666667,4,2,1,60,0,0
81029,-55.5555555555556,4,2,1,60,0,0
81208,-55.5555555555556,4,2,1,5,0,0
81269,-66.6666666666667,4,2,1,60,0,0
82949,-55.5555555555556,4,2,1,60,0,0
84149,-66.6666666666667,4,2,1,60,0,0
84869,-55.5555555555556,4,2,1,60,0,0
85048,-55.5555555555556,4,2,1,5,0,0
85109,-66.6666666666667,4,2,1,60,0,0
86789,-55.5555555555556,4,2,1,60,0,0
86968,-55.5555555555556,4,2,1,5,0,0
87029,-66.6666666666667,4,2,1,60,0,0
88709,-55.5555555555556,4,2,1,60,0,0
88888,-55.5555555555556,4,2,1,5,0,0
88949,-66.6666666666667,4,2,1,60,0,0
90629,-55.5555555555556,4,2,1,60,0,0
90809,-55.5555555555556,4,2,1,5,0,0
90868,-55.5555555555556,4,2,1,60,0,0
91589,-66.6666666666667,4,2,1,60,0,0
98309,-100,4,2,1,35,0,0
99509,-100,4,2,1,25,0,0
100229,-100,4,2,1,35,0,0
106949,-83.3333333333333,4,2,1,35,0,0
107909,-83.3333333333333,4,2,1,40,0,0
109349,-125,4,2,1,40,0,0
114629,-125,4,2,1,35,0,0
115109,-83.3333333333333,4,2,1,35,0,0
119429,-71.4285714285714,4,2,1,40,0,0
120149,-83.3333333333333,4,2,1,40,0,0
122069,-71.4285714285714,4,2,1,40,0,0
123269,-55.5555555555556,4,2,1,30,0,0
123989,-55.5555555555556,4,2,1,40,0,0
124229,-55.5555555555556,4,2,1,60,0,0
124289,-55.5555555555556,4,2,1,5,0,0
124349,-55.5555555555556,4,2,1,60,0,0
124949,-71.4285714285714,4,2,1,60,0,0
125009,-71.4285714285714,4,2,1,5,0,0
125068,-71.4285714285714,4,2,1,60,0,0
125189,-62.5,4,2,3,70,0,1
125309,-62.5,4,2,1,70,0,1
125909,-55.5555555555556,4,2,1,70,0,1
126149,-62.5,4,2,1,70,0,1
129029,-55.5555555555556,4,2,1,70,0,1
130469,-50,4,2,1,70,0,1
130709,-62.5,4,2,1,70,0,1
130949,-45.4545454545455,4,2,1,70,0,1
131129,-45.4545454545455,4,2,1,5,0,1
131189,-45.4545454545455,4,2,1,70,0,1
131909,-50,4,2,1,70,0,1
132089,-50,4,2,1,5,0,1
132149,-50,4,2,1,70,0,1
132509,-62.5,4,2,1,70,0,1
132869,-66.6666666666667,4,2,3,70,0,1
133049,-66.6666666666667,4,2,1,5,0,1
133109,-66.6666666666667,4,2,1,70,0,1
133229,-62.5,4,2,1,70,0,1
134549,-55.5555555555556,4,2,1,70,0,1
134728,-55.5555555555556,4,2,1,5,0,1
134789,-62.5,4,2,1,70,0,1
136709,-62.5,4,2,1,70,0,0
136949,-62.5,4,2,1,60,0,0
137909,-50,4,2,1,60,0,0
138149,-71.4285714285714,4,2,1,50,0,0
138389,-125,4,2,1,50,0,0
138629,-125,4,2,3,70,0,1
138869,-125,4,2,1,70,0,1
139709,-55.5555555555556,4,2,1,70,0,1
146309,-62.5,4,2,3,70,0,1
146429,-62.5,4,2,1,70,0,1
147989,-50,4,2,1,70,0,1
148229,-62.5,4,2,1,70,0,1
148949,-50,4,2,1,70,0,1
150269,-62.5,4,2,1,70,0,1
152069,-50,4,2,1,70,0,1
152429,-58.8235294117647,4,2,1,70,0,1
153989,-58.8235294117647,4,2,1,55,0,0
169349,-58.8235294117647,4,2,1,25,0,0
176069,-166.666666666667,4,2,1,25,0,0
180869,-166.666666666667,4,2,1,20,0,0
184469,-83.3333333333334,4,2,1,40,0,0
184529,-83.3333333333334,4,2,1,5,0,0
184588,-83.3333333333334,4,2,1,40,0,0
184709,-50,4,2,1,60,0,1
189029,-133.333333333333,4,2,1,35,0,0
189389,-66.6666666666667,4,2,1,60,0,1
189569,-66.6666666666667,4,2,1,5,0,1
189629,-66.6666666666667,4,2,1,60,0,1
190469,-66.6666666666667,4,2,1,60,0,0
191309,-50,4,2,1,60,0,1
192389,-166.666666666667,4,2,1,45,0,0
192869,-45.4545454545455,4,2,1,60,0,0
192909,-45.4545454545455,4,2,1,5,0,0
193229,-50,4,2,1,60,0,1
194309,-50,4,2,3,70,0,1
194489,-50,4,2,1,5,0,1
194549,-50,4,2,1,70,0,1
195029,-66.6666666666667,4,2,1,70,0,1
195449,-66.6666666666667,4,2,1,5,0,1
195509,-66.6666666666667,4,2,1,70,0,1
196769,-66.6666666666667,4,2,1,5,0,1
196829,-66.6666666666667,4,2,1,70,0,1
196889,-66.6666666666667,4,2,1,5,0,1
196949,-66.6666666666667,4,2,1,70,0,1
197129,-66.6666666666667,4,2,1,5,0,1
197189,-66.6666666666667,4,2,1,70,0,1
198149,-66.6666666666667,4,2,3,70,0,1
198329,-66.6666666666667,4,2,1,5,0,1
198389,-66.6666666666667,4,2,1,70,0,1
198509,-62.5,4,2,1,70,0,1
199469,-50,4,2,1,70,0,1
199829,-55.5555555555556,4,2,1,70,0,1
200008,-55.5555555555556,4,2,1,5,0,1
200069,-62.5,4,2,1,70,0,1
200549,-55.5555555555556,4,2,1,70,0,1
200728,-55.5555555555556,4,2,1,5,0,1
200789,-55.5555555555556,4,2,1,70,0,1
200909,-62.5,4,2,1,70,0,1
201989,-62.5,4,2,1,60,0,0
202949,-50,4,2,1,60,0,0
203669,-40,4,2,1,60,0,0
205829,-55.5555555555556,4,2,1,60,0,0
206008,-55.5555555555556,4,2,1,5,0,0
206069,-66.6666666666667,4,2,1,60,0,0
207749,-55.5555555555556,4,2,1,60,0,0
207928,-55.5555555555556,4,2,1,5,0,0
207989,-66.6666666666667,4,2,1,60,0,0
209669,-55.5555555555556,4,2,1,60,0,0
209848,-55.5555555555556,4,2,1,5,0,0
209909,-66.6666666666667,4,2,1,60,0,0
211589,-55.5555555555556,4,2,1,60,0,0
212549,-66.6666666666667,4,2,1,60,0,0
213509,-55.5555555555556,4,2,1,60,0,0
213688,-55.5555555555556,4,2,1,5,0,0
213749,-66.6666666666667,4,2,1,60,0,0
215429,-55.5555555555556,4,2,1,60,0,0
215608,-55.5555555555556,4,2,1,5,0,0
215669,-66.6666666666667,4,2,1,60,0,0
217349,-55.5555555555556,4,2,1,60,0,0
217528,-55.5555555555556,4,2,1,5,0,0
217589,-66.6666666666667,4,2,1,60,0,0
219509,-55.5555555555556,4,2,1,60,0,0
219989,-66.6666666666667,4,2,1,60,0,0
221189,-66.6666666666667,4,2,1,70,0,0
221669,-100,4,2,1,70,0,0
222809,-100,4,2,1,5,0,0
222869,-100,4,2,1,70,0,0
227129,-100,4,2,1,5,0,0
227189,-100,4,2,1,70,0,0
227429,-125,4,2,1,70,0,0
228869,-125,4,2,1,60,0,0
229049,-125,4,2,1,5,0,0
229109,-125,4,2,1,60,0,0
229709,-100,4,2,1,60,0,0
231269,-125,4,2,1,60,0,0
231749,-100,4,2,1,60,0,0
231929,-100,4,2,1,5,0,0
231989,-100,4,2,1,60,0,0
234629,-125,4,2,1,60,0,0
234809,-125,4,2,1,5,0,0
234869,-125,4,2,1,60,0,0
236549,-142.857142857143,4,2,1,60,0,0
236729,-142.857142857143,4,2,1,5,0,0
236788,-142.857142857143,4,2,1,60,0,0
241708,-142.857142857143,4,2,1,45,0,0
242309,-125,4,2,1,60,0,0

[Colours]
Combo1 : 191,234,233
Combo2 : 208,181,216
Combo3 : 255,232,126
Combo4 : 235,121,105

[HitObjects]
41,356,1349,6,0,P|74:331|149:328,1,105,0|0,3:0|2:0,2:0:0:0:
38,346,1829,2,0,P|71:321|146:318,1,105,0|0,3:0|2:0,2:0:0:0:
268,217,2309,5,0,3:0:0:0:
222,363,2549,2,0,L|198:252,2,105,2|2|2,2:0|3:2|2:0,2:0:0:0:
114,160,3269,6,0,L|178:177,1,62.9999980773926,2|2,3:2|2:0,2:0:0:0:
201,250,3629,2,0,L|184:314,1,62.9999980773926,2|0,2:0|2:0,2:0:0:0:
179,310,3989,1,2,2:0:0:0:
228,105,4229,6,0,P|267:66|330:75,1,105,0|2,3:0|2:0,2:0:0:0:
392,24,4589,1,2,2:0:0:0:
410,29,4709,2,0,L|417:64,2,31.4999990386963,2|2|2,3:2|2:0|2:0,2:0:0:0:
370,137,5189,6,0,L|359:193,3,42,2|2|2|2,3:2|2:0|2:0|2:0,2:0:0:0:
366,195,5669,2,0,L|274:166,1,84,2|2,3:2|2:0,2:0:0:0:
467,216,6149,5,0,3:0:0:0:
463,231,6269,2,0,L|474:289,2,42,2|2|2,2:0|2:0|2:0,2:0:0:0:
486,342,6629,2,0,L|497:400,3,42,2|2|2|2,3:2|2:0|2:0|2:0,2:0:0:0:
505,378,7109,1,2,3:2:0:0:
394,286,7349,5,2,2:0:0:0:
354,275,7469,1,2,2:0:0:0:
298,373,7709,1,2,2:0:0:0:
258,384,7829,1,2,2:0:0:0:
135,267,8069,6,0,P|143:251|142:226,3,42,2|2|2|2,3:2|2:0|2:0|2:0,2:0:0:0:
164,195,8549,2,0,P|162:177|149:155,3,42,2|2|2|0,3:2|2:0|2:0|2:0,2:0:0:0:
132,144,9029,1,2,3:2:0:0:
135,267,9269,6,0,P|143:161|200:78,1,210,2|2,2:0|2:0,2:0:0:0:
215,71,9869,1,0,2:0:0:0:
230,71,9989,1,0,3:0:0:0:
357,190,10229,6,0,L|296:206,1,52.5,2|2,2:0|2:0,2:0:0:0:
337,116,10469,2,0,L|276:132,2,52.5,2|2|2,3:2|2:0|2:0,2:0:0:0:
205,302,10949,6,0,L|222:212,1,84,2|0,3:2|2:0,2:0:0:0:
283,331,11309,1,2,2:0:0:0:
285,326,11429,2,0,L|293:281,1,42,2|0,3:2|2:0,2:0:0:0:
306,203,11669,1,2,2:0:0:0:
123,353,11909,5,0,3:0:0:0:
16,296,12149,1,2,2:0:0:0:
16,296,12269,1,2,2:0:0:0:
16,296,12389,2,0,P|34:298|39:307,2,21,2|2|2,3:2|2:0|2:0,2:0:0:0:
123,353,12869,5,2,3:2:0:0:
141,354,12989,1,2,2:0:0:0:
176,326,13109,1,2,2:0:0:0:
178,279,13229,1,2,2:0:0:0:
148,240,13349,2,0,L|46:256,1,84,2|2,3:2|2:0,2:0:0:0:
188,120,13829,5,0,3:0:0:0:
240,234,14069,2,0,P|244:226|242:215,2,21,2|2|2,2:0|2:0|3:2,2:0:0:0:
188,120,14549,2,0,P|183:112|172:108,2,21,2|2|2,2:0|2:0|3:2,2:0:0:0:
81,84,15029,5,2,2:0:0:0:
81,84,15149,2,0,P|54:77|32:82,1,42,2|2,2:0|2:0,2:0:0:0:
35,91,15509,1,2,2:0:0:0:
234,9,15749,5,2,3:2:0:0:
239,15,17429,2,0,L|227:84,1,62.9999980773926,2|2,2:3|2:3,2:0:0:0:
367,148,17669,6,0,P|254:170|222:212,1,141.749995674133,6|0,3:2|2:0,2:0:0:0:
236,179,17909,2,0,P|214:235|226:291,1,118.125004506111,2|0,2:3|2:0,2:0:0:0:
202,305,18149,6,0,B|162:296|133:334|133:334|143:292|96:263,1,157.500006008148,10|2,2:0|2:3,2:0:0:0:
227,172,18509,2,0,B|266:147|256:105|256:105|285:143|325:134,1,157.500006008148,2|0,2:0|2:0,2:0:0:0:
452,284,18869,5,2,2:3:0:0:
452,284,18989,1,2,2:0:0:0:
452,284,19109,2,0,B|465:323|465:323|444:359,3,78.7500030040742,8|0|2|0,2:0|2:0|2:3|2:0,2:0:0:0:
350,323,19589,6,0,L|505:290,1,141.749995674133,2|0,3:2|2:0,2:0:0:0:
500,292,19829,2,0,L|395:236,1,118.125004506111,2|0,2:3|2:0,2:0:0:0:
385,232,20069,6,0,P|388:271|361:308,1,78.7500030040742,10|0,2:0|2:0,2:0:0:0:
242,172,20309,1,2,2:3:0:0:
242,172,20429,2,0,B|265:131|313:140|313:140|266:152|260:194,1,157.500006008148,2|0,2:0|2:0,2:0:0:0:
310,250,20789,1,2,2:3:0:0:
409,74,21029,5,10,2:0:0:0:
410,60,21149,1,2,2:0:0:0:
400,33,21269,1,2,2:3:0:0:
365,7,21389,1,2,2:0:0:0:
311,0,21509,6,0,P|261:57|194:58,1,141.749995674133,2|0,3:2|2:0,2:0:0:0:
192,64,21749,2,0,P|249:69|291:108,1,118.125004506111,2|0,2:3|2:0,2:0:0:0:
301,101,21989,6,0,L|279:272,1,157.500006008148,10|2,2:0|2:3,2:0:0:0:
156,351,22349,2,0,B|128:322|102:310|102:310|127:272|136:226,1,157.500006008148,2|0,2:0|2:0,2:0:0:0:
283,273,22709,6,0,P|244:273|215:247,1,78.7500030040742,2|0,2:3|2:0,2:0:0:0:
333,149,22949,2,0,P|352:182|344:219,1,78.7500030040742,10|0,2:0|2:0,2:0:0:0:
199,161,23189,2,0,P|218:127|254:115,1,78.7500030040742,2|0,2:3|2:0,2:0:0:0:
288,274,23429,6,0,L|101:307,1,188.999994232178,2|2,3:2|2:3,2:0:0:0:
24,246,23789,1,2,2:0:0:0:
24,246,23909,2,0,B|-4:281|-4:281|38:336,1,94.499997116089,10|0,2:0|2:0,2:0:0:0:
101,299,24149,1,2,2:3:0:0:
218,37,24389,6,0,P|242:69|247:107,1,78.7500030040742,2|0,3:2|2:0,2:0:0:0:
152,141,24629,2,0,P|128:109|123:71,1,78.7500030040742,2|0,2:3|2:0,2:0:0:0:
293,174,24869,1,10,2:0:0:0:
290,191,24989,1,2,2:0:0:0:
288,207,25109,1,2,3:2:0:0:
434,31,25349,6,0,P|321:53|289:95,1,141.749995674133,6|0,3:2|2:0,2:0:0:0:
303,62,25589,2,0,P|281:118|293:174,1,118.125004506111,2|0,2:3|2:0,2:0:0:0:
297,178,25829,6,0,B|247:169|223:205|223:205|197:246|143:231,1,157.500006008148,10|2,2:0|2:3,2:0:0:0:
73,253,26189,2,0,B|123:244|146:280|146:280|173:321|227:306,1,157.500006008148,2|0,2:0|2:0,2:0:0:0:
309,343,26549,5,2,2:3:0:0:
309,343,26669,1,2,2:0:0:0:
309,343,26789,2,0,B|348:330|348:330|384:351,2,78.7500030040742,8|0|2,2:0|2:0|2:3,2:0:0:0:
309,343,27269,6,0,L|279:204,1,141.749995674133,2|0,3:2|2:0,2:0:0:0:
293,199,27509,2,0,L|317:83,1,118.125004506111,2|0,2:3|2:0,2:0:0:0:
321,51,27749,6,0,P|288:30|249:33,1,78.7500030040742,10|0,2:0|2:0,2:0:0:0:
166,112,27989,1,2,2:3:0:0:
166,112,28109,2,0,P|100:57|30:69,1,157.500006008148,2|0,2:0|2:0,2:0:0:0:
1,132,28469,1,2,2:3:0:0:
63,334,28709,5,10,2:0:0:0:
77,335,28829,1,2,2:0:0:0:
104,325,28949,1,2,2:3:0:0:
130,290,29069,1,2,2:0:0:0:
145,251,29189,6,0,P|231:230|271:278,1,141.749995674133,2|0,3:2|2:0,2:0:0:0:
267,267,29429,2,0,P|329:294|374:273,1,118.125004506111,2|0,2:3|2:0,2:0:0:0:
375,267,29669,6,0,L|395:110,1,157.500006008148,10|2,2:0|2:3,2:0:0:0:
264,261,30029,2,0,L|284:104,1,157.500006008148,2|0,2:0|2:0,2:0:0:0:
133,42,30389,6,0,P|94:42|65:68,1,78.7500030040742,2|0,2:3|2:0,2:0:0:0:
183,166,30629,2,0,P|202:133|194:96,1,78.7500030040742,10|0,2:0|2:0,2:0:0:0:
49,154,30869,2,0,P|68:188|104:200,1,78.7500030040742,2|0,2:3|2:0,2:0:0:0:
193,94,31109,6,0,L|167:281,1,188.999994232178,2|2,3:2|2:3,2:0:0:0:
161,369,31469,1,2,2:0:0:0:
161,369,31589,2,0,B|133:334|133:334|175:279,1,94.499997116089,10|0,2:0|2:0,2:0:0:0:
309,282,31829,5,2,2:3:0:0:
309,282,31949,1,8,2:0:0:0:
309,282,32069,2,0,L|392:302,1,78.7500030040742,2|0,3:2|2:0,2:0:0:0:
326,188,32309,2,0,L|409:208,1,78.7500030040742,8|0,2:0|2:0,2:0:0:0:
479,90,32549,5,10,2:0:0:0:
476,73,32669,1,8,2:0:0:0:
474,57,32789,1,8,3:0:0:0:
500,260,33029,5,6,3:2:0:0:
102,139,47429,6,0,L|157:157,1,42,8|0,2:0|2:0,2:0:0:0:
79,214,47669,2,0,L|134:232,1,42,8|0,2:0|2:0,2:0:0:0:
209,286,47909,1,8,2:0:0:0:
209,286,48029,2,0,L|195:246,1,42,8|8,2:0|3:0,2:0:0:0:
310,40,48389,6,0,B|354:26|354:26|411:55|392:110,1,146.999995513916,6|0,3:2|3:0,2:0:0:0:
292,201,49109,2,0,P|365:205|432:233,1,146.999995513916,2|0,2:3|2:3,2:0:0:0:
310,40,49829,6,0,L|301:91,1,36.749998878479,10|0,2:0|2:0,2:0:0:0:
292,201,50069,1,2,2:3:0:0:
229,20,50309,6,0,B|131:-5|119:67|121:67|113:173|2:152,1,293.999991027832,0|0,3:0|3:0,2:0:0:0:
10,142,51509,1,2,2:3:0:0:
181,247,51749,6,0,P|198:275|196:291,1,36.749998878479,8|0,2:0|2:0,2:0:0:0:
165,346,51989,1,2,2:3:0:0:
167,228,52229,6,0,B|217:160|304:208|304:208|261:283|317:344,1,293.999991027832,0|0,3:0|3:0,2:0:0:0:
375,277,53429,1,2,2:3:0:0:
222,153,53669,1,8,2:0:0:0:
304,72,53909,1,2,2:3:0:0:
243,246,54149,6,0,L|220:380,2,126,0|2|2,3:0|2:0|2:3,2:0:0:0:
306,326,55109,1,0,3:0:0:0:
306,326,55349,1,2,2:3:0:0:
162,204,55589,6,0,L|172:253,1,42,8|8,2:0|2:0,2:0:0:0:
234,192,55829,2,0,L|244:241,1,42,10|0,3:0|2:0,2:0:0:0:
48,133,56069,6,0,B|10:97|10:97|144:73,1,188.999994232178,6|2,3:2|2:0,2:0:0:0:
222,60,56549,2,0,P|234:20|227:-6,3,62.9999980773926,2|2|2|2,3:2|2:0|2:3|2:0,2:0:0:0:
222,69,57029,1,2,3:2:0:0:
145,46,57269,1,2,2:3:0:0:
307,153,57509,5,10,2:0:0:0:
309,163,57629,1,2,2:0:0:0:
312,173,57749,1,2,2:0:0:0:
171,320,57989,6,0,L|236:304,4,62.9999980773926,2|2|2|2|2,3:2|2:0|2:3|2:0|3:2,2:0:0:0:
152,236,58709,2,0,L|217:220,1,62.9999980773926,2|2,2:3|2:0,2:0:0:0:
94,294,58949,6,0,L|114:149,1,125.999996154785,2|2,3:2|2:3,2:0:0:0:
176,71,59309,1,2,2:0:0:0:
184,77,59429,2,0,L|192:139,1,62.9999980773926,10|0,2:0|2:0,2:0:0:0:
86,74,59669,2,0,L|94:11,1,62.9999980773926,2|0,2:3|2:0,2:0:0:0:
272,185,59909,6,0,P|167:189|123:284,1,220.499993270874,6|0,3:2|3:0,2:0:0:0:
195,320,60389,1,8,2:0:0:0:
153,105,60629,6,0,P|174:162|193:350,1,220.499993270874,0|0,3:0|2:0,2:0:0:0:
195,337,61109,2,0,P|211:302|250:286,1,73.4999977569581,2|0,2:3|2:0,2:0:0:0:
369,273,61349,1,8,2:0:0:0:
378,280,61469,1,8,3:0:0:0:
382,292,61589,1,8,3:0:0:0:
389,304,61709,1,4,3:0:0:0:
362,376,61829,6,0,B|406:347|458:343|458:343|493:289|451:260,1,188.999994232178,14|2,3:2|2:3,2:0:0:0:
408,139,62189,2,0,B|374:99|313:126|314:181|334:230|392:235,1,188.999994232178,10|2,3:2|2:3,2:0:0:0:
458,256,62549,1,10,3:2:0:0:
318,46,62909,5,8,2:0:0:0:
318,46,63029,2,0,P|335:34|317:50,1,94.499997116089,8|0,3:0|2:0,2:0:0:0:
189,10,63269,1,8,2:0:0:0:
201,27,63389,1,8,3:0:0:0:
201,54,63509,2,0,P|184:66|202:50,1,94.499997116089,4|4,3:0|3:0,2:0:0:0:
301,166,63749,6,0,P|202:183|154:240,1,168,14|2,3:2|2:3,2:0:0:0:
22,108,64109,2,0,P|52:136|69:174,1,84,2|8,2:0|2:0,2:0:0:0:
124,304,64349,1,2,2:0:0:0:
124,304,64469,2,0,P|133:257|157:217,1,94.499997116089,2|0,2:3|2:0,2:0:0:0:
424,325,64709,6,0,P|337:335|263:382,1,168,2|2,3:2|2:3,2:0:0:0:
315,212,65069,2,0,P|402:202|476:155,1,168,2|2,2:0|2:0,2:0:0:0:
435,330,65429,2,0,P|413:285|431:244,1,94.499997116089,2|0,2:3|2:0,2:0:0:0:
501,55,65669,5,2,3:2:0:0:
466,24,65789,1,2,2:0:0:0:
423,35,65909,1,2,2:3:0:0:
315,212,66149,1,10,2:0:0:0:
501,384,66389,1,2,2:3:0:0:
500,369,66509,2,0,L|297:322,1,168,2|0,2:0|2:0,2:0:0:0:
328,335,66869,2,0,L|422:359,1,84,2|0,2:3|2:0,2:0:0:0:
311,202,67109,6,0,B|257:191|238:238|239:238|222:290|165:282,1,168,10|2,2:0|2:3,2:0:0:0:
69,221,67469,1,2,2:0:0:0:
57,231,67589,2,0,P|80:295|82:318,1,84,2|0,3:2|2:0,2:0:0:0:
165,177,67829,2,0,P|172:135|189:97,1,84,2|2,2:3|2:0,2:0:0:0:
28,0,68069,5,10,2:0:0:0:
0,43,68189,1,2,2:0:0:0:
7,94,68309,1,2,2:3:0:0:
43,122,68429,1,2,2:0:0:0:
94,118,68549,1,2,3:2:0:0:
291,202,68789,5,2,2:3:0:0:
291,202,68909,1,2,2:0:0:0:
291,202,69029,2,0,P|239:213|194:234,1,94.499997116089,10|0,2:0|2:0,2:0:0:0:
264,120,69269,2,0,P|212:131|172:149,1,84,2|0,2:3|2:0,2:0:0:0:
329,289,69509,6,0,P|330:210|363:139,1,157.5,6|0,3:2|2:0,2:0:0:0:
368,137,69749,1,2,3:0:0:0:
150,342,69989,5,10,2:0:0:0:
168,359,70109,1,10,2:0:0:0:
212,374,70229,1,10,2:0:0:0:
259,348,70349,1,6,3:2:0:0:
263,290,70469,2,0,L|35:254,2,210,2|2|10,2:0|3:0|2:0,2:0:0:0:
256,206,71069,2,0,L|277:287,1,84,8|4,3:0|3:0,2:0:0:0:
506,2,71429,6,0,P|419:69|342:62,1,168,6|2,3:2|2:3,2:0:0:0:
315,131,71789,2,0,P|329:239|264:290,1,188.999994232178,2|2,2:0|2:0,2:0:0:0:
300,366,72149,2,0,P|256:332|218:348,1,94.499997116089,2|2,2:3|2:0,2:0:0:0:
42,190,72389,6,0,P|74:267|87:350,1,168,2|2,3:2|2:3,2:0:0:0:
113,236,72749,2,0,P|119:194|135:155,1,84,2|8,2:0|2:0,2:0:0:0:
46,44,72989,1,2,2:0:0:0:
46,44,73109,2,0,P|115:55|181:80,1,141.749995674133,2|0,2:3|2:0,2:0:0:0:
192,95,73349,6,0,P|245:98|274:78,1,84,2|0,3:2|2:0,2:0:0:0:
385,45,73589,2,0,P|355:89|358:124,1,84,2|0,2:3|2:0,2:0:0:0:
339,248,73829,2,0,P|315:200|269:182,1,94.499997116089,10|0,2:0|2:0,2:0:0:0:
228,323,74069,5,2,2:3:0:0:
228,323,74189,2,0,P|339:276|408:268,1,168,10|8,2:0|2:0,2:0:0:0:
476,338,74549,2,0,B|465:340|441:362|441:362|447:333|485:315,1,84,2|0,2:3|2:0,2:0:0:0:
402,183,74789,5,8,3:0:0:0:
370,227,74909,1,8,2:0:0:0:
385,269,75029,1,8,2:0:0:0:
328,61,75269,5,14,3:2:0:0:
433,372,75509,1,14,3:2:0:0:
414,8,76229,5,10,2:0:0:0:
309,319,76469,2,0,L|304:280,2,31.4999990386963,10|2|2,2:0|2:0|2:0,2:0:0:0:
318,320,76949,6,0,L|313:281,2,31.4999990386963,2|0|2,2:3|2:0|2:3,2:0:0:0:
257,368,77189,6,0,L|412:335,1,141.749995674133,6|0,3:2|2:0,2:0:0:0:
380,333,77429,2,0,L|264:357,1,118.125004506111,2|0,2:3|2:0,2:0:0:0:
241,363,77669,6,0,P|220:330|223:291,1,78.7500030040742,10|0,2:0|2:0,2:0:0:0:
119,224,77909,1,2,2:3:0:0:
119,224,78029,2,0,B|142:183|190:192|190:192|143:204|137:246,1,157.500006008148,2|0,2:0|2:0,2:0:0:0:
47,175,78389,1,2,2:3:0:0:
47,175,78509,1,2,2:0:0:0:
47,175,78629,2,0,P|70:147|70:88,3,78.7500030040742,8|0|2|0,2:0|2:0|2:3|2:0,2:0:0:0:
48,186,79109,6,0,P|107:147|177:149,1,141.749995674133,2|0,3:2|2:0,2:0:0:0:
181,175,79349,2,0,P|159:231|171:287,1,118.125004506111,2|0,2:3|2:0,2:0:0:0:
172,303,79589,6,0,B|195:346|241:337|241:337|272:306|249:266,1,157.500006008148,10|2,2:0|2:3,2:0:0:0:
351,178,79949,2,0,B|372:140|341:109|341:109|295:100|276:146,1,157.500006008148,2|0,2:0|2:0,2:0:0:0:
388,277,80309,2,0,P|424:261|463:267,1,78.7500030040742,2|0,2:3|2:0,2:0:0:0:
510,89,80549,5,10,2:0:0:0:
511,75,80669,1,2,2:0:0:0:
501,48,80789,1,2,2:3:0:0:
466,22,80909,1,2,2:0:0:0:
412,15,81029,6,0,B|404:57|370:68|370:68|336:47|297:53,1,141.749995674133,2|0,3:2|2:0,2:0:0:0:
295,66,81269,2,0,P|253:106|195:111,1,118.125004506111,2|0,2:3|2:0,2:0:0:0:
197,103,81509,6,0,L|175:274,1,157.500006008148,10|2,2:0|2:3,2:0:0:0:
258,308,81869,2,0,L|278:151,1,157.500006008148,2|0,2:0|2:0,2:0:0:0:
209,25,82229,6,0,P|170:25|141:51,1,78.7500030040742,2|0,2:3|2:0,2:0:0:0:
259,149,82469,2,0,P|278:116|270:79,1,78.7500030040742,10|0,2:0|2:0,2:0:0:0:
125,137,82709,2,0,P|144:171|180:183,1,78.7500030040742,2|0,2:3|2:0,2:0:0:0:
218,27,82949,6,0,L|31:60,1,188.999994232178,2|2,3:2|2:3,2:0:0:0:
38,143,83309,1,2,2:0:0:0:
38,143,83429,2,0,B|10:108|10:108|52:53,1,94.499997116089,10|0,2:0|2:0,2:0:0:0:
100,12,83669,1,2,2:3:0:0:
141,292,83909,5,2,3:2:0:0:
141,292,84029,1,8,2:0:0:0:
141,292,84149,2,0,P|146:330|170:361,1,78.7500030040742,2|0,2:3|2:0,2:0:0:0:
267,270,84389,1,10,2:0:0:0:
264,287,84509,1,8,2:0:0:0:
262,303,84629,1,8,3:0:0:0:
512,366,84869,6,0,P|399:344|367:302,1,141.749995674133,6|0,3:2|2:0,2:0:0:0:
373,312,85109,2,0,P|361:254|383:200,1,118.125004506111,2|0,2:3|2:0,2:0:0:0:
392,185,85349,6,0,B|342:176|318:212|318:212|292:253|238:238,1,157.500006008148,10|2,2:0|2:3,2:0:0:0:
177,119,85709,2,0,B|227:110|250:146|250:146|277:187|331:172,1,157.500006008148,2|0,2:0|2:0,2:0:0:0:
405,105,86069,5,2,2:3:0:0:
405,105,86189,1,2,2:0:0:0:
405,105,86309,2,0,B|418:66|418:66|397:30,2,78.7500030040742,8|0|2,2:0|2:0|2:3,2:0:0:0:
235,179,86789,6,0,L|96:209,1,141.749995674133,2|0,3:2|2:0,2:0:0:0:
105,217,87029,2,0,L|132:86,1,118.125004506111,2|0,2:3|2:0,2:0:0:0:
130,88,87269,6,0,P|168:90|201:69,1,78.7500030040742,10|0,2:0|2:0,2:0:0:0:
155,295,87509,1,2,2:3:0:0:
155,295,87629,2,0,P|89:240|19:252,1,157.500006008148,2|0,2:0|2:0,2:0:0:0:
69,322,87989,1,2,2:3:0:0:
278,377,88229,5,10,2:0:0:0:
277,363,88349,1,2,2:0:0:0:
287,336,88469,1,2,2:3:0:0:
322,310,88589,1,2,2:0:0:0:
361,295,88709,6,0,P|382:209|334:169,1,141.749995674133,2|0,3:2|2:0,2:0:0:0:
347,181,88949,2,0,P|404:212|437:190,1,78.7500030040742,2|0,2:3|2:0,2:0:0:0:
276,82,89189,6,0,L|296:239,1,157.500006008148,10|2,2:0|2:3,2:0:0:0:
406,127,89549,2,0,B|415:83|436:55|436:55|408:30|378:-2,1,157.500006008148,2|0,2:0|2:0,2:0:0:0:
202,8,89909,6,0,P|163:8|134:34,1,78.7500030040742,2|0,2:3|2:0,2:0:0:0:
146,187,90149,2,0,P|165:154|157:117,1,78.7500030040742,10|0,2:0|2:0,2:0:0:0:
18,41,90389,2,0,P|37:75|73:87,1,78.7500030040742,2|0,2:3|2:0,2:0:0:0:
238,246,90629,6,0,L|51:220,1,188.999994232178,2|2,3:2|2:3,2:0:0:0:
143,356,90989,1,2,2:0:0:0:
143,356,91109,2,0,B|115:321|115:321|157:266,1,94.499997116089,8|0,2:0|2:0,2:0:0:0:
365,256,91349,5,2,2:3:0:0:
365,256,91469,1,8,2:0:0:0:
365,256,91589,2,0,L|345:339,1,78.7500030040742,10|8,2:0|3:0,2:0:0:0:
250,236,91829,2,0,L|232:160,1,78.7500030040742,4|8,3:0|2:0,2:0:0:0:
324,66,92069,5,10,3:0:0:0:
340,78,92189,1,8,3:0:0:0:
343,95,92309,1,4,3:0:0:0:
143,356,92549,5,6,3:2:0:0:
400,330,98309,5,14,2:0:0:0:
400,330,99509,2,0,L|412:269,2,52.5,2|2|2,0:3|0:3|0:3,0:0:0:0:
239,182,99989,5,4,3:0:0:0:
239,182,100109,1,4,3:0:0:0:
239,182,100229,1,6,3:2:0:0:
169,334,100469,2,0,P|218:309|230:308,1,52.5,2|0,0:0|0:0,0:0:0:0:
297,140,100709,6,0,P|286:191|282:243,1,105,10|2,0:0|0:0,0:0:0:0:
214,309,101069,2,0,P|162:298|110:294,1,105,2|2,0:0|0:0,0:0:0:0:
49,246,101429,2,0,P|67:229|93:223,1,52.5,2|2,0:0|0:0,0:0:0:0:
300,332,101669,2,0,P|334:372|385:375,2,105,10|2|0,0:0|0:0|3:0,0:0:0:0:
193,131,102389,5,2,0:0:0:0:
193,131,102509,1,2,0:0:0:0:
193,131,102629,2,0,P|188:102|173:78,2,52.5,10|2|2,0:0|0:0|0:0,0:0:0:0:
110,294,103109,2,0,P|115:323|130:347,2,52.5,2|2|2,3:2|0:0|0:0,0:0:0:0:
110,294,103469,1,2,0:0:0:0:
123,277,103589,2,0,L|173:264,2,52.5,8|2|2,0:0|0:0|0:0,0:0:0:0:
176,81,104069,6,0,P|215:50|266:57,1,105,0|0,3:0|0:0,0:0:0:0:
294,86,104429,1,0,0:0:0:0:
294,86,104549,2,0,L|283:148,1,52.5,8|0,0:0|0:0,0:0:0:0:
173,263,104789,6,0,L|154:159,2,105,0|0|0,0:0|3:0|0:0,0:0:0:0:
173,263,105389,1,0,0:0:0:0:
161,309,105509,2,0,P|144:332|112:335,2,52.5,8|0|0,0:0|0:0|0:0,0:0:0:0:
284,137,105989,5,2,3:2:0:0:
222,95,106229,1,2,0:0:0:0:
358,357,106469,5,10,0:0:0:0:
360,366,106589,1,2,0:0:0:0:
362,373,106709,1,2,0:0:0:0:
364,380,106829,1,10,0:0:0:0:
369,327,106949,6,0,L|439:347,1,62.9999980773926,0|0,3:2|2:0,2:0:0:0:
395,247,107189,2,0,L|465:267,1,62.9999980773926,8|0,0:0|2:0,2:0:0:0:
280,349,107429,1,10,2:0:0:0:
282,356,107549,2,0,L|264:295,1,62.9999980773926,8|2,2:0|3:2,2:0:0:0:
123,35,107909,6,0,B|130:70|130:70|118:124|118:124|125:158,1,125.999996154785,6|2,3:2|2:3,2:0:0:0:
266,110,108389,1,8,2:0:0:0:
225,280,108629,2,0,P|157:180|37:190,1,251.999992309571,2|2,2:3|2:3,2:0:0:0:
266,110,109349,6,0,L|259:166,1,42,10|0,2:0|2:0,2:0:0:0:
243,280,109589,2,0,L|248:238,1,42,2|0,2:3|2:0,2:0:0:0:
267,101,109829,6,0,L|186:120,1,84,0|0,3:0|3:0,2:0:0:0:
328,44,110309,1,8,2:0:0:0:
445,184,110549,6,0,P|443:245|399:288,1,126,2|0,2:3|2:0,2:0:0:0:
396,294,111029,1,2,2:3:0:0:
235,381,111269,2,0,P|235:339|216:303,1,84,10|2,2:0|2:3,2:0:0:0:
209,296,111629,1,2,2:0:0:0:
201,292,111749,1,0,3:0:0:0:
71,168,111989,6,0,L|82:113,1,42,2|2,2:3|2:3,2:0:0:0:
95,55,112229,1,8,2:0:0:0:
236,214,112469,2,0,P|173:216|122:251,1,126,2|2,2:3|2:0,2:0:0:0:
108,272,112949,1,2,2:3:0:0:
240,210,113189,1,10,2:0:0:0:
355,280,113429,1,2,2:3:0:0:
218,370,113669,6,0,L|240:246,1,126,2|2,3:2|2:0,2:0:0:0:
329,141,114149,2,0,L|344:189,2,42,8|2|2,2:0|2:0|2:3,2:0:0:0:
245,261,114629,1,2,3:2:0:0:
245,261,114869,1,2,2:3:0:0:
332,128,115109,2,0,P|241:145|223:181,1,125.999996154785,10|2,2:0|2:3,2:0:0:0:
361,298,115589,6,0,L|486:268,1,125.999996154785,6|2,3:2|2:3,2:0:0:0:
483,268,115949,1,2,2:0:0:0:
483,268,116069,1,10,2:0:0:0:
259,137,116309,2,0,L|245:215,2,62.9999980773926,2|2|2,2:3|2:0|3:2,2:0:0:0:
259,137,116789,1,2,2:3:0:0:
128,313,117029,5,10,2:0:0:0:
130,323,117149,1,2,2:0:0:0:
133,333,117269,1,2,2:3:0:0:
269,128,117509,6,0,L|334:112,4,62.9999980773926,2|2|2|2|10,3:2|2:0|2:3|2:0|2:0,2:0:0:0:
275,139,118229,2,0,L|340:123,1,62.9999980773926,2|2,2:3|2:0,2:0:0:0:
412,249,118469,6,0,P|413:170|442:122,1,125.999996154785,2|2,3:2|2:3,2:0:0:0:
258,141,118949,2,0,L|266:203,1,62.9999980773926,8|0,2:0|2:0,2:0:0:0:
338,79,119189,2,0,L|346:16,1,62.9999980773926,2|0,2:0|2:0,2:0:0:0:
277,212,119429,6,0,P|172:216|128:311,1,220.499993270874,6|0,3:2|2:0,2:0:0:0:
110,242,119909,1,8,2:0:0:0:
288,370,120149,6,0,P|345:349|426:340,1,125.999996154785,2|0,2:3|3:0,2:0:0:0:
285,384,120629,1,2,2:3:0:0:
474,276,120869,1,8,2:0:0:0:
482,282,120989,1,2,2:0:0:0:
486,292,121109,1,2,2:3:0:0:
491,302,121229,1,2,2:0:0:0:
480,334,121349,5,6,3:2:0:0:
373,235,121589,2,0,L|355:174,1,62.9999980773926,2|0,2:3|3:0,2:0:0:0:
333,106,121829,1,10,2:0:0:0:
196,295,122069,6,0,L|354:331,1,146.999995513916,2|2,3:0|2:0,2:0:0:0:
378,335,122429,1,8,2:0:0:0:
382,339,122549,1,2,3:0:0:0:
307,94,122789,5,10,2:0:0:0:
303,117,122909,1,8,3:0:0:0:
303,138,123029,1,4,3:0:0:0:
308,164,123149,1,0,2:0:0:0:
339,198,123269,6,0,P|231:162|151:164,1,188.999994232178,14|0,2:0|3:0,2:0:0:0:
77,256,123629,1,0,3:0:0:0:
73,270,123749,1,0,3:0:0:0:
85,273,123869,1,0,3:0:0:0:
91,262,123989,2,0,L|69:161,1,94.499997116089,6|0,3:0|3:0,2:0:0:0:
53,353,124229,6,0,P|88:305|241:297,1,188.999994232178,14|0,2:0|2:0,2:0:0:0:
229,308,124589,1,10,2:0:0:0:
229,308,124709,1,14,2:0:0:0:
350,81,124949,2,0,L|336:166,1,73.4999977569581,14|8,2:0|2:0,2:0:0:0:
418,178,125189,6,0,P|319:195|271:252,1,168,14|2,3:2|2:3,2:0:0:0:
264,370,125549,2,0,P|247:331|216:303,1,84,2|8,2:0|2:0,2:0:0:0:
170,200,125789,1,2,2:0:0:0:
170,200,125909,2,0,P|128:195|75:217,1,94.499997116089,2|0,2:3|2:0,2:0:0:0:
175,378,126149,6,0,P|246:335|329:327,1,168,2|2,3:2|2:3,2:0:0:0:
437,217,126509,2,0,P|354:208|282:166,1,168,2|2,2:0|2:0,2:0:0:0:
341,330,126869,2,0,P|319:285|337:244,1,84,2|0,2:3|2:0,2:0:0:0:
484,161,127109,5,2,3:2:0:0:
511,201,127229,1,2,2:0:0:0:
503,241,127349,1,2,2:3:0:0:
366,87,127589,1,10,2:0:0:0:
170,299,127829,5,2,2:3:0:0:
171,284,127949,2,0,L|374:237,1,168,2|0,2:0|2:0,2:0:0:0:
350,333,128309,2,0,L|269:313,1,84,2|0,2:3|2:0,2:0:0:0:
79,177,128549,6,0,B|137:149|137:149|212:162|179:228,1,168,10|2,2:0|2:3,2:0:0:0:
72,172,128909,1,0,2:0:0:0:
68,163,129029,2,0,P|61:122|41:68,1,94.499997116089,2|0,3:2|2:0,2:0:0:0:
222,30,129269,2,0,P|205:74|196:120,1,94.499997116089,2|2,2:3|2:0,2:0:0:0:
126,280,129509,5,10,2:0:0:0:
83,252,129629,1,2,2:0:0:0:
32,259,129749,1,2,2:3:0:0:
4,295,129869,1,2,2:0:0:0:
8,346,129989,1,2,3:2:0:0:
274,337,130229,5,2,2:3:0:0:
274,337,130349,1,2,2:0:0:0:
274,337,130469,2,0,P|325:347|373:369,1,105,10|0,2:0|2:0,2:0:0:0:
469,265,130709,2,0,P|417:276|377:294,1,84,2|0,2:3|2:0,2:0:0:0:
267,57,130949,6,0,P|301:135|299:221,1,173.250005287171,6|0,3:2|2:0,2:0:0:0:
300,222,131189,1,2,3:0:0:0:
36,155,131429,5,10,2:0:0:0:
48,169,131549,1,10,2:0:0:0:
91,164,131669,1,10,2:0:0:0:
137,198,131789,1,6,3:2:0:0:
192,170,131909,2,0,P|80:214|12:314,2,210,2|6|10,2:0|3:0|2:0,2:0:0:0:
200,251,132509,2,0,P|148:217|119:230,1,84,8|4,3:0|3:0,2:0:0:0:
512,382,132869,6,0,P|445:295|456:230,1,157.500006008148,6|2,3:2|2:3,2:0:0:0:
379,228,133229,2,0,P|291:295|226:284,1,168,2|2,2:0|2:0,2:0:0:0:
194,346,133589,2,0,P|234:344|262:374,1,84,2|2,2:3|2:0,2:0:0:0:
379,228,133829,5,2,3:2:0:0:
360,214,133949,1,2,2:0:0:0:
348,188,134069,1,2,2:3:0:0:
341,142,134189,2,0,P|383:148|422:164,1,84,2|8,2:0|2:0,2:0:0:0:
252,109,134429,1,2,2:0:0:0:
252,109,134549,2,0,P|321:98|387:73,1,141.749995674133,2|0,2:3|2:0,2:0:0:0:
396,79,134789,6,0,P|377:42|383:1,1,84,2|0,3:2|2:0,2:0:0:0:
261,198,135029,2,0,P|279:234|273:275,1,84,2|0,2:3|2:0,2:0:0:0:
172,108,135269,6,0,P|256:121|337:152,1,168,10|2,2:0|2:3,2:0:0:0:
294,361,135629,2,0,P|209:347|128:316,1,168,2|8,2:0|2:0,2:0:0:0:
99,232,135989,2,0,B|97:221|75:197|75:197|104:203|122:241,1,84,2|0,2:3|2:0,2:0:0:0:
180,108,136229,5,8,3:0:0:0:
136,76,136349,1,8,2:0:0:0:
94,91,136469,1,10,2:0:0:0:
294,361,136709,5,14,3:2:0:0:
350,55,136949,1,14,3:2:0:0:
432,40,137669,5,10,2:0:0:0:
381,345,137909,2,0,L|360:242,1,105,10|2,2:0|2:0,2:0:0:0:
237,152,138149,6,0,L|222:224,1,73.4999977569581,8|8,3:0|3:0,2:0:0:0:
151,320,138389,6,0,L|142:278,1,42,4|8,3:0|3:0,2:0:0:0:
78,225,138629,5,6,3:2:0:0:
76,216,138749,1,2,2:0:0:0:
78,186,138869,1,2,2:3:0:0:
118,162,138989,1,2,2:0:0:0:
173,168,139109,1,10,2:0:0:0:
204,202,139229,1,2,2:0:0:0:
262,216,139349,1,2,2:3:0:0:
302,189,139469,1,2,2:0:0:0:
437,78,139709,6,0,P|401:27|363:18,2,94.499997116089,2|2|2,3:2|2:3|2:0,2:0:0:0:
491,213,140069,2,0,P|517:156|505:118,1,94.499997116089,10|2,2:0|2:0,2:0:0:0:
359,101,140309,2,0,P|332:157|344:195,1,94.499997116089,2|2,2:3|2:0,2:0:0:0:
354,344,140549,5,2,3:2:0:0:
311,314,140669,1,2,2:0:0:0:
253,339,140789,1,2,2:3:0:0:
220,314,140909,1,2,2:0:0:0:
187,326,141029,6,0,P|148:298|94:305,1,94.499997116089,10|2,2:0|2:0,2:0:0:0:
19,214,141269,2,0,P|65:216|102:189,1,94.499997116089,2|2,2:3|2:0,2:0:0:0:
189,341,141509,6,0,P|150:313|96:320,1,94.499997116089,2|2,3:2|2:0,2:0:0:0:
21,229,141749,2,0,P|67:231|104:204,1,94.499997116089,2|2,2:3|2:0,2:0:0:0:
240,106,141989,5,10,2:0:0:0:
268,131,142109,1,2,2:0:0:0:
268,169,142229,1,2,2:3:0:0:
481,328,142469,5,0,3:0:0:0:
481,328,142589,2,0,B|490:360|470:373|470:373|446:364|445:339,1,94.499997116089,2|2,2:0|2:3,2:0:0:0:
399,181,142829,2,0,B|422:157|443:168|443:168|447:193|426:206,1,94.499997116089,2|8,2:0|2:0,2:0:0:0:
310,345,143069,2,0,B|277:336|276:312|276:312|296:296|318:308,1,94.499997116089,2|2,2:0|2:3,2:0:0:0:
399,280,143309,1,2,2:0:0:0:
318,308,143549,6,0,B|296:296|276:312|276:312|277:336|310:345,1,94.499997116089,2|2,2:0|2:3,2:0:0:0:
426,206,143789,2,0,B|447:193|443:168|443:168|422:157|399:181,1,94.499997116089,2|8,2:0|2:0,2:0:0:0:
445,339,144029,2,0,B|446:364|470:373|470:373|490:360|481:328,1,94.499997116089,2|2,2:0|2:3,2:0:0:0:
399,280,144269,1,2,2:0:0:0:
167,153,144509,6,0,P|222:171|243:211,1,94.499997116089,2|2,2:0|2:3,2:0:0:0:
248,33,144749,2,0,P|204:71|159:69,1,94.499997116089,2|8,2:0|2:0,2:0:0:0:
318,167,144989,2,0,P|306:110|330:72,1,94.499997116089,2|2,2:0|2:3,2:0:0:0:
263,326,145229,6,0,P|184:301|108:320,1,141.749995674133,10|0,2:0|2:0,2:0:0:0:
119,325,145469,1,10,2:0:0:0:
43,269,145589,2,0,P|26:226|44:183,1,94.499997116089,10|2,3:0|3:2,2:0:0:0:
225,370,145829,5,10,2:0:0:0:
243,355,145949,1,2,3:2:0:0:
256,326,146069,1,10,3:0:0:0:
299,79,146309,6,0,P|405:103|438:161,1,168,6|2,3:2|2:3,2:0:0:0:
285,219,146669,2,0,P|203:227|157:294,1,168,2|0,2:0|2:0,2:0:0:0:
372,298,147029,1,2,2:3:0:0:
372,298,147149,1,2,2:0:0:0:
372,298,147269,2,0,P|387:276|393:217,2,84,2|0|2,3:2|3:0|2:3,2:0:0:0:
351,148,147629,2,0,P|339:124|291:89,2,84,2|8|0,2:0|2:0|2:0,2:0:0:0:
372,298,147989,2,0,P|317:270|198:257,1,157.5,2|0,2:3|2:0,2:0:0:0:
216,268,148229,6,0,P|190:209|189:172,1,84,2|0,3:2|2:0,2:0:0:0:
113,32,148469,2,0,P|105:73|85:109,1,84,2|0,2:3|2:0,2:0:0:0:
221,271,148709,1,10,2:0:0:0:
0,150,148949,2,0,L|223:100,1,210,2|0,2:3|3:0,2:0:0:0:
211,95,149309,1,0,3:0:0:0:
241,121,149429,6,0,L|212:207,2,70,2|2|2,2:3|2:0|2:0,2:0:0:0:
355,66,149669,2,0,L|326:-20,2,70,10|2|2,2:0|2:0|2:0,2:0:0:0:
402,190,149909,1,2,2:3:0:0:
182,365,150149,5,2,3:2:0:0:
188,381,150269,2,0,P|270:346|288:345,1,84,2|2,2:0|2:3,2:0:0:0:
323,241,150509,2,0,P|282:229|247:206,1,84,2|8,2:0|2:0,2:0:0:0:
434,384,150749,2,0,P|425:288|465:213,1,168,2|0,2:0|2:0,2:0:0:0:
275,41,151109,6,0,L|243:230,1,168,2|2,3:2|2:3,2:0:0:0:
84,227,151469,2,0,L|1:241,1,84,2|8,2:0|2:0,2:0:0:0:
246,206,151709,2,0,L|163:220,2,84,2|2|2,2:0|2:3|2:0,2:0:0:0:
219,366,152069,6,0,P|189:289|54:225,1,210,2|2,3:2|2:3,2:0:0:0:
69,384,152429,2,0,P|197:346|330:336,1,267.750005106926,2|10,2:0|2:0,2:0:0:0:
359,243,152909,1,8,2:0:0:0:
371,230,153029,6,0,P|278:257|225:327,1,178.500003404617,2|2,3:2|3:0,2:0:0:0:
234,331,153389,1,2,3:0:0:0:
223,330,153509,2,0,P|187:290|182:251,1,89.2500017023087,10|8,2:0|3:0,2:0:0:0:
130,203,153749,2,0,P|132:125|239:81,1,178.500003404617,4|6,3:0|3:2,2:0:0:0:
49,284,169349,5,6,3:2:0:0:
91,345,169829,1,0,3:0:0:0:
163,359,170309,1,0,3:0:0:0:
215,295,170789,1,0,3:0:0:0:
199,211,171269,1,0,3:0:0:0:
241,150,171749,1,0,3:0:0:0:
313,136,172229,1,0,3:0:0:0:
365,200,172709,1,0,3:0:0:0:
437,311,173189,5,0,3:0:0:0:
430,323,173669,1,0,3:0:0:0:
412,325,174149,1,0,3:0:0:0:
392,318,174629,1,0,3:0:0:0:
358,237,175109,5,0,3:0:0:0:
311,143,175589,5,0,3:0:0:0:
180,162,176069,6,0,P|130:177|81:199,1,94.499997116089,2|0,3:0|2:0,2:0:0:0:
192,153,176549,1,2,3:0:0:0:
260,294,176789,6,0,L|265:262,1,31.4999990386963,2|0,2:3|2:0,2:0:0:0:
249,368,177029,1,6,3:2:0:0:
55,190,180869,6,0,P|80:148|98:141,1,62.9999980773926,2|2,2:0|2:0,2:0:0:0:
147,237,181229,2,0,L|136:333,1,94.499997116089,2|2,2:0|2:0,2:0:0:0:
140,339,181829,1,2,2:0:0:0:
142,326,182069,5,2,2:0:0:0:
188,373,182189,5,2,2:0:0:0:
234,381,182309,5,2,2:0:0:0:
273,374,182429,5,2,2:0:0:0:
307,355,182549,5,2,2:0:0:0:
321,329,182669,5,2,2:0:0:0:
328,294,182789,6,0,B|387:193|314:210|335:88|335:88|303:148|221:127|252:220,1,377.999988464356,2|0,2:0|2:0,2:0:0:0:
259,222,184469,2,0,L|332:207,1,62.9999980773926,2|2,2:3|2:3,2:0:0:0:
365,312,184709,6,0,P|236:265|140:262,1,210,6|0,3:2|2:0,2:0:0:0:
157,267,185069,2,0,P|261:278|357:318,1,210,6|0,3:2|2:0,2:0:0:0:
238,138,185429,6,0,P|134:149|38:189,1,210,14|0,2:0|2:0,2:0:0:0:
45,197,185788,2,0,P|141:157|245:146,1,210,6|0,3:2|2:0,2:0:0:0:
383,97,186149,6,0,P|319:56|270:67,1,105,2|0,3:0|2:0,2:0:0:0:
238,0,186389,2,0,P|170:34|155:82,1,105,2|0,3:0|2:0,2:0:0:0:
103,188,186629,6,0,B|-36:210|27:85|188:168|163:326,1,315,6|0,3:2|3:0,2:0:0:0:
88,351,187109,2,0,B|61:340|61:340|39:311|55:262,1,105,8|0,2:0|2:0,2:0:0:0:
344,305,187349,6,0,P|276:265|126:244,1,210,2|0,3:0|2:0,2:0:0:0:
148,242,187709,1,8,2:0:0:0:
148,242,187829,1,0,3:0:0:0:
336,52,188069,1,8,2:0:0:0:
360,67,188189,1,8,3:0:0:0:
365,92,188309,1,4,3:0:0:0:
358,120,188429,1,4,3:0:0:0:
329,146,188549,5,14,2:0:0:0:
86,92,188789,1,14,2:0:0:0:
99,102,189029,2,0,L|89:49,2,39.3750015020371,2|2|2,2:0|2:0|2:0,2:0:0:0:
86,205,189389,6,0,P|146:125|208:122,1,157.500006008148,14|2,3:2|2:0,2:0:0:0:
364,46,189749,2,0,P|343:110|341:149,1,78.7500030040742,2|2,3:0|2:0,2:0:0:0:
288,325,189989,2,0,P|280:286|265:250,1,78.7500030040742,10|8,2:0|3:0,2:0:0:0:
423,355,190229,5,4,3:0:0:0:
423,355,190349,1,4,3:0:0:0:
423,355,190469,1,6,3:2:0:0:
73,257,191309,6,0,P|148:205|274:195,1,210,12|0,2:0|2:0,2:0:0:0:
312,98,191669,2,0,P|354:149|352:205,1,105,8|4,3:0|3:0,2:0:0:0:
287,354,191909,1,8,2:0:0:0:
278,333,192029,1,8,3:0:0:0:
265,303,192149,1,4,3:0:0:0:
265,279,192269,1,4,3:0:0:0:
297,240,192389,6,0,L|335:250,3,31.4999990386963,2|2|2|2,3:0|2:0|2:0|2:0,2:0:0:0:
432,256,192869,6,0,P|354:252|267:388,1,231.000007049561,14|0,3:2|2:0,2:0:0:0:
163,250,193229,2,0,P|259:282|461:381,1,315,14|2,3:2|3:0,2:0:0:0:
473,68,193829,1,10,2:0:0:0:
452,70,193949,1,8,3:0:0:0:
440,84,194069,1,4,3:0:0:0:
439,111,194189,1,4,3:0:0:0:
469,151,194309,6,0,P|395:117|253:121,2,210,14|2|10,3:2|3:0|2:0,2:0:0:0:
429,342,195029,2,0,P|402:304|412:265,1,78.7500030040742,2|2,2:3|3:2,2:0:0:0:
413,263,195269,2,0,L|255:306,1,157.500006008148,2|2,2:3|3:0,2:0:0:0:
265,321,195629,1,2,2:0:0:0:
267,337,195749,1,10,2:0:0:0:
414,182,195989,1,2,3:0:0:0:
129,80,196229,6,0,P|119:122|146:172,1,78.7500030040742,6|0,3:2|2:0,2:0:0:0:
206,79,196469,2,0,P|217:116|207:153,1,78.7500030040742,6|0,3:2|2:0,2:0:0:0:
75,229,196709,6,0,P|131:175|206:153,1,157.500006008148,10|10,2:0|2:0,2:0:0:0:
141,329,197069,2,0,P|215:307|272:253,1,157.500006008148,6|0,3:2|2:0,2:0:0:0:
317,155,197429,1,2,3:0:0:0:
139,337,197669,5,10,2:0:0:0:
133,360,197789,1,8,3:0:0:0:
141,384,197909,1,4,3:0:0:0:
354,63,198149,6,0,P|267:130|190:123,1,157.500006008148,6|2,3:2|2:3,2:0:0:0:
317,155,198509,2,0,P|398:168|460:224,1,168,2|2,2:0|2:0,2:0:0:0:
397,268,198869,2,0,P|365:240|325:233,1,84,2|2,2:3|2:0,2:0:0:0:
67,322,199109,6,0,P|150:335|228:368,1,168,2|2,3:2|2:3,2:0:0:0:
175,307,199469,2,0,P|154:258|148:206,1,105,2|8,2:0|2:0,2:0:0:0:
77,161,199709,1,2,2:0:0:0:
77,161,199829,2,0,P|88:92|113:26,1,141.749995674133,2|0,2:3|2:0,2:0:0:0:
121,29,200069,6,0,P|174:32|203:12,1,84,2|0,3:2|2:0,2:0:0:0:
278,89,200309,2,0,P|307:44|304:9,1,84,2|0,2:3|2:0,2:0:0:0:
171,143,200549,6,0,P|258:138|314:197,1,141.749995674133,10|0,2:0|2:0,2:0:0:0:
303,182,200789,1,2,2:3:0:0:
304,269,200909,2,0,B|321:183|357:222|375:115,1,168,2|8,2:0|2:0,2:0:0:0:
419,260,201269,2,0,B|408:262|384:284|384:284|390:255|428:237,1,84,2|0,2:3|2:0,2:0:0:0:
302,384,201509,5,8,3:0:0:0:
267,341,201629,1,8,2:0:0:0:
223,345,201749,1,10,2:0:0:0:
406,250,201989,5,6,3:2:0:0:
139,347,202229,1,10,2:0:0:0:
406,250,202469,1,2,2:0:0:0:
179,110,202949,6,0,P|199:178|204:253,1,105,8|0,2:0|2:0,2:0:0:0:
333,273,203189,2,0,P|313:205|308:130,1,105,10|2,2:0|2:0,2:0:0:0:
82,343,203669,6,0,B|10:364|-51:262|56:163|208:219|236:346,1,393.75,14|0,2:0|2:0,2:0:0:0:
237,355,204149,1,2,3:2:0:0:
223,344,204269,1,2,3:2:0:0:
211,323,204389,1,2,2:0:0:0:
166,291,204509,5,10,2:0:0:0:
171,283,204629,1,2,2:0:0:0:
143,243,204749,5,10,2:0:0:0:
149,197,204869,1,2,2:0:0:0:
115,149,204989,5,10,2:0:0:0:
96,93,205109,5,10,2:0:0:0:
139,46,205229,5,10,2:0:0:0:
196,49,205349,5,10,2:0:0:0:
195,61,205469,1,4,3:0:0:0:
194,74,205589,1,4,3:0:0:0:
372,200,205829,6,0,P|313:161|243:162,1,141.749995674133,6|0,3:2|2:0,2:0:0:0:
237,177,206069,2,0,P|215:233|227:289,1,118.125004506111,2|0,3:0|2:0,2:0:0:0:
228,306,206309,6,0,B|268:297|297:335|297:335|287:293|334:264,1,157.500006008148,10|2,2:0|2:3,2:0:0:0:
175,221,206669,2,0,B|135:230|106:192|106:192|116:234|77:259,1,157.500006008148,10|0,2:0|2:0,2:0:0:0:
19,361,207029,5,2,2:3:0:0:
19,361,207149,1,2,2:0:0:0:
19,361,207269,2,0,B|58:348|58:348|94:369,3,78.7500030040742,8|0|2|0,2:0|2:0|2:3|2:0,2:0:0:0:
89,374,207749,6,0,L|59:235,1,141.749995674133,2|0,3:2|2:0,2:0:0:0:
53,229,207989,2,0,P|108:209|123:153,1,118.125004506111,2|0,2:3|2:0,2:0:0:0:
229,28,208229,6,0,P|208:60|211:99,1,78.7500030040742,10|0,2:0|2:0,2:0:0:0:
328,162,208469,1,2,2:3:0:0:
328,162,208589,2,0,B|351:121|399:130|399:130|425:176|472:168,1,157.500006008148,10|0,2:0|2:0,2:0:0:0:
470,93,208949,1,2,2:3:0:0:
268,243,209189,5,10,2:0:0:0:
267,257,209309,1,2,2:0:0:0:
277,284,209429,1,2,2:3:0:0:
312,310,209549,1,2,2:0:0:0:
366,317,209669,6,0,P|416:260|483:259,1,141.749995674133,2|0,3:2|2:0,2:0:0:0:
491,271,209909,2,0,P|449:231|392:226,1,118.125004506111,2|0,2:3|2:0,2:0:0:0:
387,231,210149,6,0,L|408:75,1,157.500006008148,10|2,2:0|2:3,2:0:0:0:
312,3,210509,2,0,B|216:29|271:69|183:94,1,157.500006008148,10|0,2:0|2:0,2:0:0:0:
88,170,210869,6,0,P|49:170|20:144,1,78.7500030040742,2|0,2:3|2:0,2:0:0:0:
199,234,211109,2,0,P|218:267|210:304,1,78.7500030040742,10|0,2:0|2:0,2:0:0:0:
188,92,211349,2,0,P|207:58|243:46,1,78.7500030040742,2|0,2:3|2:0,2:0:0:0:
274,202,211589,6,0,L|87:169,1,188.999994232178,2|2,3:2|2:3,2:0:0:0:
184,297,211949,1,2,2:0:0:0:
184,297,212069,2,0,B|212:262|212:262|170:207,1,94.499997116089,10|0,2:0|2:0,2:0:0:0:
106,340,212309,5,2,2:3:0:0:
106,340,212429,1,8,2:0:0:0:
106,340,212549,2,0,P|74:364|36:369,1,78.7500030040742,2|8,3:2|2:0,2:0:0:0:
0,279,212789,2,0,P|32:255|70:250,1,78.7500030040742,2|0,2:3|2:0,2:0:0:0:
253,334,213029,5,10,2:0:0:0:
250,351,213149,1,0,3:0:0:0:
248,367,213269,1,2,3:2:0:0:
246,384,213389,1,4,3:0:0:0:
230,363,213509,6,0,P|288:324|358:325,1,141.749995674133,6|0,3:2|2:0,2:0:0:0:
370,340,213749,2,0,P|358:282|399:238,1,118.125004506111,2|0,2:3|2:0,2:0:0:0:
411,242,213989,6,0,B|420:192|384:168|384:168|343:142|358:88,1,157.500006008148,10|2,2:0|2:3,2:0:0:0:
490,25,214349,2,0,B|499:75|463:98|463:98|422:125|437:179,1,157.500006008148,10|0,2:0|2:0,2:0:0:0:
512,305,214709,5,2,2:3:0:0:
512,305,214829,1,2,2:0:0:0:
512,305,214949,2,0,B|525:344|525:344|504:380,3,78.7500030040742,8|0|2|2,2:0|2:0|2:3|2:0,2:0:0:0:
411,242,215429,6,0,L|272:272,1,141.749995674133,2|0,3:2|2:0,2:0:0:0:
263,280,215669,2,0,L|290:152,1,118.125004506111,2|0,2:3|2:0,2:0:0:0:
289,131,215909,6,0,P|256:110|217:113,1,78.7500030040742,10|0,2:0|2:0,2:0:0:0:
177,206,216149,1,2,2:3:0:0:
177,206,216269,2,0,P|111:261|41:249,1,157.500006008148,10|0,2:0|2:0,2:0:0:0:
86,155,216629,1,2,2:3:0:0:
226,372,216869,5,10,2:0:0:0:
240,373,216989,1,2,2:0:0:0:
267,363,217109,1,2,2:3:0:0:
293,328,217229,1,2,2:0:0:0:
308,288,217349,6,0,P|394:267|434:315,1,141.749995674133,2|0,3:2|2:0,2:0:0:0:
434,311,217589,2,0,P|415:256|442:206,1,118.125004506111,2|0,2:3|2:0,2:0:0:0:
454,208,217829,6,0,L|474:51,1,157.500006008148,10|2,2:0|2:3,2:0:0:0:
337,189,218189,2,0,L|357:32,1,157.500006008148,10|0,2:0|2:0,2:0:0:0:
215,0,218549,6,0,P|176:0|147:26,1,78.7500030040742,2|0,2:3|2:0,2:0:0:0:
132,178,218789,2,0,P|151:145|143:108,1,78.7500030040742,10|0,2:0|2:0,2:0:0:0:
17,12,219029,2,0,P|36:46|72:58,1,78.7500030040742,2|0,2:3|2:0,2:0:0:0:
241,141,219269,5,2,3:2:0:0:
241,141,219389,1,2,2:0:0:0:
241,141,219509,2,0,P|214:191|212:238,1,94.499997116089,2|0,2:3|2:0,2:0:0:0:
182,325,219749,1,8,2:0:0:0:
182,325,219869,1,2,2:0:0:0:
182,325,219989,2,0,P|152:276|112:251,1,78.7500030040742,2|10,2:3|2:0,2:0:0:0:
55,187,220229,2,0,P|111:185|153:163,2,78.7500030040742,2|8|4,3:2|2:0|3:0,2:0:0:0:
481,105,220709,5,10,2:0:0:0:
478,88,220829,1,8,3:0:0:0:
476,72,220949,1,4,3:0:0:0:
474,57,221069,1,4,3:0:0:0:
472,41,221189,1,6,3:2:0:0:
382,384,221429,6,0,P|418:360|459:357,1,78.7500030040742,2|2,2:3|2:0,2:0:0:0:
488,254,221669,2,0,L|464:356,1,105,10|2,2:0|2:3,2:0:0:0:
347,283,222029,2,0,L|323:180,1,105,2|10,2:0|2:0,2:0:0:0:
368,115,222389,2,0,P|392:142|397:173,1,52.5,2|2,2:3|2:0,2:0:0:0:
282,268,222629,6,0,B|223:258|241:301|183:295,1,105,10|2,2:0|2:3,2:0:0:0:
184,295,222989,1,0,2:0:0:0:
184,295,223109,1,0,3:0:0:0:
52,57,223349,6,0,P|99:72|106:90,1,52.5,2|2,2:3|2:0,2:0:0:0:
174,90,223589,2,0,P|184:138|172:153,1,52.5,10|2,2:0|2:0,2:0:0:0:
137,202,223829,1,2,2:3:0:0:
137,202,223949,1,10,2:0:0:0:
137,202,224069,2,0,L|123:259,2,52.5,2|0|2,3:2|2:0|2:3,2:0:0:0:
109,331,224549,6,0,L|95:388,1,52.5,10|0,2:0|2:0,2:0:0:0:
124,252,224789,1,2,2:3:0:0:
318,371,225029,5,2,3:2:0:0:
478,355,225269,1,2,2:3:0:0:
318,371,225509,2,0,P|340:345|374:341,1,52.5,10|2,2:0|2:0,2:0:0:0:
431,325,225749,2,0,P|464:331|484:358,1,52.5,2|10,2:3|2:0,2:0:0:0:
399,208,225989,5,2,3:2:0:0:
415,211,226109,1,2,2:0:0:0:
430,221,226229,1,2,2:3:0:0:
439,236,226349,1,2,2:0:0:0:
444,252,226469,1,10,2:0:0:0:
297,120,226709,5,2,2:3:0:0:
297,120,226829,1,2,2:0:0:0:
297,120,226949,2,0,L|279:-5,1,105,2|2,3:2|2:3,2:0:0:0:
213,140,227309,1,2,2:0:0:0:
213,140,227429,2,0,L|206:80,2,42,10|2|2,2:0|2:0|2:3,2:0:0:0:
297,254,227789,6,0,P|266:226|225:225,1,84,2|10,2:0|2:0,2:0:0:0:
150,298,228149,1,2,2:3:0:0:
150,298,228269,1,10,2:0:0:0:
150,298,228389,2,0,L|159:359,1,42,10|10,2:0|2:0,2:0:0:0:
236,218,228629,1,2,3:0:0:0:
19,122,228869,6,0,L|106:93,1,84,6|2,3:2|2:3,2:0:0:0:
315,244,229349,2,0,L|228:215,1,84,10|2,2:0|2:3,2:0:0:0:
250,129,229709,2,0,P|314:168|314:243,1,157.5,10|2,2:0|2:3,2:0:0:0:
297,272,230189,1,2,2:0:0:0:
297,272,230309,2,0,L|304:332,2,52.5,10|0|2,2:0|2:0|2:3,2:0:0:0:
51,261,230789,5,2,3:2:0:0:
51,261,231029,1,2,2:3:0:0:
206,379,231269,2,0,P|161:353|124:349,1,84,10|2,2:0|2:3,2:0:0:0:
59,315,231629,1,2,2:0:0:0:
59,315,231749,2,0,P|63:294|60:257,2,52.5,2|0|2,3:2|2:0|2:3,2:0:0:0:
213,180,232229,5,10,2:0:0:0:
213,180,232469,1,2,2:3:0:0:
333,355,232709,6,0,L|379:325,1,52.5,0|0,3:0|2:0,2:0:0:0:
495,331,232949,1,2,2:3:0:0:
495,331,233069,1,2,2:0:0:0:
495,331,233189,1,10,2:0:0:0:
350,79,233429,6,0,P|385:114|390:140,1,52.5,2|2,2:3|2:0,2:0:0:0:
361,192,233669,2,0,P|313:204|288:196,1,52.5,0|8,3:0|2:0,2:0:0:0:
255,153,233909,1,2,2:3:0:0:
259,148,234029,2,0,P|271:100|291:82,1,52.5,2|8,2:0|2:0,2:0:0:0:
350,79,234269,2,0,P|385:114|390:140,1,52.5,2|2,2:0|2:3,2:0:0:0:
338,279,234509,5,2,2:0:0:0:
348,295,234629,2,0,L|332:387,1,84,0|2,3:0|2:3,2:0:0:0:
173,198,235109,2,0,L|189:290,1,84,8|2,2:0|2:3,2:0:0:0:
142,346,235469,2,0,P|118:333|94:331,1,42,2|0,2:0|3:0,2:0:0:0:
30,357,235709,1,8,2:0:0:0:
30,357,235829,1,2,2:3:0:0:
6,146,236069,5,8,2:0:0:0:
27,149,236189,1,10,2:0:0:0:
46,170,236309,1,2,2:3:0:0:
54,195,236429,1,0,2:0:0:0:
39,218,236549,6,0,L|50:145,1,73.4999977569581,6|2,3:2|2:3,2:0:0:0:
173,18,237029,2,0,L|184:90,1,73.4999977569581,10|2,2:0|2:3,2:0:0:0:
199,164,237389,2,0,P|224:116|276:104,1,110.249996635437,10|2,2:0|2:3,2:0:0:0:
344,136,237869,1,0,2:0:0:0:
349,147,237989,2,0,L|340:189,2,36.749998878479,8|0|2,2:0|2:0|2:3,2:0:0:0:
381,338,238469,5,2,3:2:0:0:
189,296,238709,1,2,2:3:0:0:
381,338,238949,2,0,P|328:368|306:378,1,73.4999977569581,10|2,2:0|2:3,2:0:0:0:
267,311,239309,1,2,2:0:0:0:
80,370,239549,5,8,2:0:0:0:
76,359,239669,1,2,2:3:0:0:
191,116,239909,1,10,2:0:0:0:
187,127,240029,1,8,2:0:0:0:
194,129,240149,1,4,3:0:0:0:
198,118,240269,1,2,2:0:0:0:
154,144,240389,5,6,3:2:0:0:
421,93,240629,1,10,2:0:0:0:
154,144,240869,1,2,2:0:0:0:
407,351,241349,6,0,L|393:302,1,36.749998878479,10|0,2:0|2:0,2:0:0:0:
274,162,241589,2,0,L|263:197,1,36.749998878479,10|2,2:0|2:0,2:0:0:0:
145,345,241829,2,0,P|212:307|255:306,1,110.249996635437,2|0,2:0|2:0,2:0:0:0:
402,194,242309,6,0,L|394:152,1,42,14|0,3:2|2:0,2:0:0:0:
