osu file format v14

[General]
AudioFilename: audio.mp3
AudioLeadIn: 0
PreviewTime: 63029
Countdown: 0
SampleSet: Soft
StackLeniency: 0.5
Mode: 0
LetterboxInBreaks: 0
WidescreenStoryboard: 1

[Editor]
Bookmarks: 33029,48389,63749,77189,92549,107909,125189,138629,153989,169349,182789,184709,190469,192389,203909,221189,242309
DistanceSpacing: 0.4
BeatDivisor: 4
GridSize: 32
TimelineZoom: 1.9

[Metadata]
Title:Dakara Boku wa Ongaku o Yameta
TitleUnicode:だから僕は音楽を辞めた
Artist:Yorushika
ArtistUnicode:ヨルシカ
Creator:Petal
Version:Namki's Expert
Source:
Tags:japanese jpop j-pop pop full song version Moonlight n-buna nbuna suis 所以我放棄了音樂 that's that is why I gave up on music female 所以我放弃了音乐 album n-buna seolv [_L_u_k_a_s_] namki jazzberry shii wanpachi matha amateurre shizuku- Kazato asa shikibe mayu saggin
BeatmapID:2895487
BeatmapSetID:1392760

[Difficulty]
HPDrainRate:4.8
CircleSize:4.5
OverallDifficulty:8.2
ApproachRate:9
SliderMultiplier:1.92
SliderTickRate:1

[Events]
//Background and Video events
0,0,"BG.jpg",0,0
//Break Periods
2,177229,182189
//Storyboard Layer 0 (Background)
//Storyboard Layer 1 (Fail)
//Storyboard Layer 2 (Pass)
//Storyboard Layer 3 (Foreground)
//Storyboard Layer 4 (Overlay)
//Storyboard Sound Samples

[TimingPoints]
1349,480,4,2,1,20,1,0
1349,-111.111111111111,4,2,1,20,0,0
2309,480,4,2,1,60,1,0
2309,-111.111111111111,4,2,1,25,0,0
17429,-111.111111111111,4,2,1,40,0,0
17669,-83.3333333333333,4,2,1,60,0,0
17849,-83.3333333333333,4,2,1,5,0,0
17908,-83.3333333333333,4,2,1,60,0,0
24389,-66.6666666666667,4,2,1,60,0,0
24629,-55.5555555555556,4,2,1,60,0,0
24869,-47.6190476190476,4,2,1,60,0,0
25109,-44.4444444444445,4,2,1,60,0,0
25349,-83.3333333333333,4,2,1,60,0,0
25529,-83.3333333333333,4,2,1,5,0,0
25588,-83.3333333333333,4,2,1,60,0,0
33269,-111.111111111111,4,2,1,30,0,0
56069,-95.2380952380952,4,2,1,40,0,0
59909,-86.9565217391304,4,2,1,50,0,0
61829,-86.9565217391304,4,2,1,60,0,0
63029,-86.9565217391304,4,2,1,50,0,0
63209,-86.9565217391304,4,2,1,5,0,0
63269,-86.9565217391304,4,2,1,50,0,0
63749,-66.6666666666667,4,2,3,70,0,0
63869,-66.6666666666667,4,2,1,70,0,0
67409,-66.6666666666667,4,2,1,5,0,0
67469,-66.6666666666667,4,2,1,70,0,0
68069,-66.6666666666667,4,2,1,60,0,0
68309,-66.6666666666667,4,2,1,70,0,0
70649,-66.6666666666667,4,2,1,5,0,0
70709,-66.6666666666667,4,2,1,70,0,0
71429,-66.6666666666667,4,2,3,70,0,0
71549,-66.6666666666667,4,2,1,70,0,0
75509,-66.6666666666667,4,2,1,60,0,0
76469,-66.6666666666667,4,2,1,50,0,0
76949,-100,4,2,1,40,0,0
77009,-100,4,2,1,5,0,0
77069,-100,4,2,1,40,0,0
77189,-83.3333333333333,4,2,1,60,0,0
83609,-83.3333333333333,4,2,1,5,0,0
83668,-83.3333333333333,4,2,1,60,0,0
83909,-71.4285714285714,4,2,1,60,0,0
84149,-62.5,4,2,1,60,0,0
84389,-55.5555555555556,4,2,1,60,0,0
84629,-50,4,2,1,60,0,0
84869,-83.3333333333333,4,2,1,60,0,0
85049,-83.3333333333333,4,2,1,5,0,0
85108,-83.3333333333333,4,2,1,60,0,0
88889,-83.3333333333333,4,2,1,5,0,0
88948,-83.3333333333333,4,2,1,60,0,0
90809,-83.3333333333333,4,2,1,5,0,0
90868,-83.3333333333333,4,2,1,60,0,0
92789,-100,4,2,1,35,0,0
98429,-100,4,2,1,20,0,0
100229,-83.3333333333333,4,2,1,35,0,0
107909,-100,4,2,1,40,0,0
114629,-100,4,2,1,35,0,0
119429,-100,4,2,1,40,0,0
123269,-166.666666666667,4,2,1,30,0,0
123989,-166.666666666667,4,2,1,40,0,0
124229,-66.6666666666667,4,2,1,60,0,0
124289,-66.6666666666667,4,2,1,5,0,0
124349,-66.6666666666667,4,2,1,60,0,0
124649,-66.6666666666667,4,2,1,5,0,0
124709,-66.6666666666667,4,2,1,60,0,0
125189,-62.5,4,2,3,70,0,0
125309,-62.5,4,2,1,70,0,0
132869,-62.5,4,2,3,70,0,0
133049,-62.5,4,2,1,5,0,0
133109,-62.5,4,2,1,70,0,0
136709,-83.3333333333333,4,2,1,70,0,0
136948,-83.3333333333333,4,2,1,60,0,0
138149,-83.3333333333333,4,2,1,50,0,0
138629,-83.3333333333333,4,2,3,70,0,0
138869,-66.6666666666667,4,2,1,70,0,0
139649,-66.6666666666667,4,2,1,5,0,0
139709,-66.6666666666667,4,2,1,70,0,0
142769,-66.6666666666667,4,2,1,5,0,0
142829,-66.6666666666667,4,2,1,70,0,0
146309,-66.6666666666667,4,2,3,70,0,0
146549,-66.6666666666667,4,2,1,70,0,0
153989,-66.6666666666667,4,2,1,55,0,0
154229,-111.111111111111,4,2,1,40,0,0
161669,-111.111111111111,4,2,1,35,0,0
169349,-125,4,2,1,25,0,0
184469,-125,4,2,1,40,0,0
184709,-100,4,2,1,60,0,0
185069,-83.3333333333333,4,2,1,60,0,0
185429,-71.4285714285714,4,2,1,60,0,0
185789,-62.5,4,2,1,60,0,0
186629,-83.3333333333333,4,2,1,60,0,0
188549,-71.4285714285714,4,2,1,60,0,0
189029,-71.4285714285714,4,2,1,35,0,0
189389,-71.4285714285714,4,2,1,60,0,0
189569,-71.4285714285714,4,2,1,5,0,0
189628,-71.4285714285714,4,2,1,60,0,0
191069,-71.4285714285714,4,2,1,45,0,0
191429,-71.4285714285714,4,2,1,60,0,0
192389,-71.4285714285714,4,2,1,45,0,0
192869,-71.4285714285714,4,2,1,60,0,0
192909,-71.4285714285714,4,2,1,5,0,0
193229,-71.4285714285714,4,2,1,60,0,0
194309,-66.6666666666667,4,2,3,70,0,0
194489,-66.6666666666667,4,2,1,5,0,0
194549,-66.6666666666667,4,2,1,70,0,0
196409,-66.6666666666667,4,2,1,5,0,0
196469,-66.6666666666667,4,2,1,70,0,0
197129,-66.6666666666667,4,2,1,5,0,0
197189,-66.6666666666667,4,2,1,70,0,0
198149,-66.6666666666667,4,2,3,70,0,0
198329,-66.6666666666667,4,2,1,5,0,0
198389,-66.6666666666667,4,2,1,70,0,0
201989,-66.6666666666667,4,2,1,60,0,0
203429,-66.6666666666667,4,2,1,50,0,0
203669,-66.6666666666667,4,2,1,60,0,0
213689,-66.6666666666667,4,2,1,5,0,0
213749,-66.6666666666667,4,2,1,60,0,0
221189,-66.6666666666667,4,2,1,70,0,0
221369,-66.6666666666667,4,2,1,5,0,0
221429,-66.6666666666667,4,2,1,70,0,0
227129,-66.6666666666667,4,2,1,5,0,0
227189,-66.6666666666667,4,2,1,70,0,0
228869,-66.6666666666667,4,2,1,60,0,0
229049,-66.6666666666667,4,2,1,5,0,0
229109,-66.6666666666667,4,2,1,60,0,0
232889,-66.6666666666667,4,2,1,5,0,0
232949,-66.6666666666667,4,2,1,60,0,0
236729,-66.6666666666667,4,2,1,5,0,0
236789,-66.6666666666667,4,2,1,60,0,0
241829,-125,4,2,1,45,0,0
242309,-125,4,2,1,60,0,0
243029,-125,4,2,1,5,0,0

[Colours]
Combo1 : 191,234,233
Combo2 : 208,181,216
Combo3 : 255,232,126
Combo4 : 235,121,105

[HitObjects]
164,147,1349,6,0,P|99:120|5:180,2,172.799994726563,0|0|0,3:0|3:0|3:0,2:0:0:0:
158,135,2429,1,2,2:0:0:0:
150,124,2549,2,0,P|151:97|168:62,1,43.1999986816407,2|0,2:0|2:0,2:0:0:0:
227,45,2789,1,2,3:2:0:0:
283,164,3029,2,0,L|342:176,1,43.1999986816407,2|0,2:0|2:0,2:0:0:0:
417,185,3269,1,2,3:2:0:0:
402,181,3389,5,2,2:0:0:0:
394,151,3509,1,2,2:0:0:0:
386,121,3629,1,2,2:0:0:0:
366,45,3749,6,0,P|391:38|423:39,1,43.1999986816407,2|0,3:2|2:0,2:0:0:0:
512,128,3989,2,0,P|486:134|455:134,1,43.1999986816407,2|0,2:0|2:0,2:0:0:0:
292,94,4229,1,0,3:0:0:0:
476,247,4469,6,0,L|406:232,1,43.1999986816407,2|2,2:0|2:0,2:0:0:0:
364,209,4709,1,2,3:2:0:0:
361,221,4829,1,2,2:0:0:0:
249,187,4949,2,0,L|291:196,1,43.1999986816407,2|0,2:0|2:0,2:0:0:0:
476,247,5189,5,2,3:2:0:0:
457,235,5309,5,2,2:0:0:0:
460,269,5429,1,2,2:0:0:0:
463,303,5549,1,2,2:0:0:0:
468,381,5669,5,2,3:2:0:0:
373,255,5909,2,0,P|327:263|269:237,1,86.3999973632813,2|0,2:0|3:0,2:0:0:0:
174,198,6389,1,2,2:0:0:0:
187,181,6509,1,2,2:0:0:0:
233,119,6629,2,0,L|222:67,1,43.1999986816407,2|2,3:2|2:0,2:0:0:0:
302,58,6869,1,2,2:0:0:0:
315,41,6989,1,2,2:0:0:0:
224,76,7109,6,0,L|125:60,1,86.3999973632813,2|2,3:2|2:0,2:0:0:0:
125,61,7469,1,2,2:0:0:0:
112,60,7589,1,0,3:0:0:0:
190,165,7829,2,0,L|197:220,1,43.1999986816407,2|2,2:0|2:0,2:0:0:0:
28,128,8069,2,0,L|33:85,1,43.1999986816407,2|2,3:2|2:0,2:0:0:0:
106,239,8309,5,2,2:0:0:0:
157,230,8429,1,2,2:0:0:0:
208,221,8549,1,2,3:2:0:0:
259,213,8669,1,2,2:0:0:0:
310,205,8789,1,2,2:0:0:0:
361,198,8909,1,0,2:0:0:0:
439,185,9029,6,0,P|442:164|442:119,1,43.1999986816407,2|0,3:2|2:0,2:0:0:0:
454,22,9269,2,0,P|450:43|449:64,1,43.1999986816407,2|0,2:0|2:0,2:0:0:0:
439,185,9509,2,0,P|371:192|348:169,1,86.3999973632813,0|2,3:0|2:0,2:0:0:0:
327,111,9869,1,2,2:0:0:0:
257,134,9989,1,0,3:0:0:0:
153,182,10229,5,2,2:0:0:0:
135,180,10349,1,2,2:0:0:0:
46,232,10469,5,2,3:2:0:0:
64,230,10589,1,2,2:0:0:0:
168,187,10709,2,0,P|176:206|183:231,1,43.1999986816407,2|0,2:0|2:0,2:0:0:0:
257,317,10949,1,2,3:2:0:0:
270,316,11069,2,0,P|308:262|312:218,1,86.3999973632813,2|2,2:0|2:0,2:0:0:0:
307,147,11429,2,0,L|364:154,1,43.1999986816407,2|0,3:2|2:0,2:0:0:0:
237,120,11669,1,2,2:0:0:0:
233,141,11789,1,2,2:0:0:0:
156,117,11909,6,0,P|108:107|64:151,1,86.3999973632813,0|2,3:0|2:0,2:0:0:0:
27,187,12269,1,2,2:0:0:0:
58,260,12389,2,0,L|67:317,1,43.1999986816407,2|2,3:2|2:0,2:0:0:0:
146,321,12629,2,0,L|139:278,1,43.1999986816407,2|0,2:0|2:0,2:0:0:0:
234,315,12869,5,2,3:2:0:0:
234,315,12989,2,0,L|300:324,1,43.1999986816407,2|2,2:0|2:0,2:0:0:0:
352,333,13229,1,2,2:0:0:0:
368,333,13349,2,0,P|380:312|390:281,1,43.1999986816407,2|2,3:2|2:0,2:0:0:0:
445,131,13589,2,0,L|461:231,1,86.3999973632813,2|0,2:0|3:0,2:0:0:0:
488,368,13949,1,2,2:0:0:0:
488,368,14069,1,2,2:0:0:0:
488,368,14189,1,2,2:0:0:0:
488,368,14309,6,0,L|430:363,1,43.1999986816407,2|2,3:2|2:0,2:0:0:0:
303,315,14549,2,0,L|260:322,1,43.1999986816407,2|2,2:0|2:0,2:0:0:0:
89,327,14789,1,2,3:2:0:0:
69,317,14909,1,2,2:0:0:0:
51,304,15029,2,0,P|102:274|137:278,1,86.3999973632813,2|0,2:0|3:0,2:0:0:0:
199,245,15389,1,2,2:0:0:0:
217,255,15509,1,2,2:0:0:0:
419,332,15749,6,0,L|371:326,2,43.1999986816407,2|2|2,3:2|2:0|2:0,2:0:0:0:
314,275,16109,1,2,2:0:0:0:
314,275,16229,1,2,2:0:0:0:
314,275,16349,1,2,2:0:0:0:
390,244,16469,2,0,P|404:224|410:196,1,43.1999986816407,2|2,2:0|2:0,2:0:0:0:
403,87,16709,5,2,2:0:0:0:
406,108,16829,1,2,2:0:0:0:
422,229,16949,5,2,2:0:0:0:
419,208,17069,1,2,2:0:0:0:
406,124,17189,6,0,L|359:117,1,43.1999986816407,2|2,2:0|2:0,2:0:0:0:
235,138,17429,1,2,2:3:0:0:
278,46,17549,1,2,2:3:0:0:
235,138,17669,6,0,P|186:103|122:125,1,115.199996484375,6|2,3:2|2:3,2:0:0:0:
126,120,18149,1,10,2:0:0:0:
118,128,18389,2,0,L|39:123,1,57.5999982421876,2|2,2:3|2:0,2:0:0:0:
72,319,18629,2,0,P|95:273|83:208,1,115.199996484375,0|2,3:0|2:3,2:0:0:0:
139,259,18989,1,2,2:0:0:0:
150,263,19109,2,0,L|222:256,1,57.5999982421876,8|0,2:0|2:0,2:0:0:0:
283,250,19349,1,2,2:3:0:0:
294,250,19469,1,2,2:0:0:0:
374,247,19589,6,0,P|384:220|392:188,1,57.5999982421876,2|0,3:2|2:0,2:0:0:0:
464,129,19829,2,0,P|474:155|482:188,1,57.5999982421876,2|0,2:3|2:0,2:0:0:0:
298,169,20069,2,0,L|176:143,1,115.199996484375,10|2,2:0|2:3,2:0:0:0:
114,127,20429,1,2,2:0:0:0:
193,158,20549,2,0,P|194:219|160:264,1,115.199996484375,0|2,3:0|2:3,2:0:0:0:
378,343,21029,1,10,2:0:0:0:
337,310,21149,1,2,2:0:0:0:
345,258,21269,1,2,2:3:0:0:
396,259,21389,1,2,2:0:0:0:
423,302,21509,6,0,P|448:317|488:318,1,57.5999982421876,2|0,3:2|2:0,2:0:0:0:
301,192,21749,1,2,2:3:0:0:
186,292,21989,1,10,2:0:0:0:
186,292,22229,6,0,P|182:264|205:223,1,57.5999982421876,2|2,2:3|2:0,2:0:0:0:
301,192,22469,2,0,L|422:210,1,115.199996484375,0|2,3:0|2:3,2:0:0:0:
344,116,22949,5,10,2:0:0:0:
345,127,23069,1,2,2:0:0:0:
361,278,23189,1,2,2:3:0:0:
362,289,23309,1,2,2:0:0:0:
414,208,23429,6,0,P|446:160|427:107,1,115.199996484375,2|2,3:2|2:3,2:0:0:0:
395,40,23789,1,2,2:0:0:0:
428,109,23909,2,0,L|501:118,1,57.5999982421876,10|0,2:0|2:0,2:0:0:0:
254,47,24149,2,0,L|311:39,1,57.5999982421876,2|0,2:3|2:0,2:0:0:0:
321,42,24389,6,0,P|326:85|299:148,1,72.0000027465821,2|0,3:2|2:0,2:0:0:0:
242,169,24629,6,0,L|143:160,1,86.3999973632813,2|0,2:3|2:0,2:0:0:0:
143,11,24869,6,0,P|202:2|258:33,1,100.799996923828,10|0,2:0|2:0,2:0:0:0:
239,182,25109,6,0,L|120:171,1,108.000004119873,2|0,3:2|2:0,2:0:0:0:
302,342,25349,6,0,P|322:281|294:223,1,115.199996484375,6|2,3:2|2:3,2:0:0:0:
310,224,25829,1,10,2:0:0:0:
314,213,26069,2,0,L|384:207,1,57.5999982421876,2|2,2:3|2:0,2:0:0:0:
507,119,26309,2,0,P|443:105|397:136,1,115.199996484375,0|2,3:0|2:3,2:0:0:0:
371,208,26669,1,2,2:0:0:0:
374,224,26789,2,0,L|385:311,1,57.5999982421876,8|0,2:0|2:0,2:0:0:0:
408,355,27029,1,2,2:3:0:0:
390,358,27149,1,2,2:0:0:0:
311,309,27269,6,0,P|276:310|245:324,1,57.5999982421876,2|0,3:2|2:0,2:0:0:0:
457,291,27509,2,0,P|485:291|512:282,1,57.5999982421876,2|0,2:3|2:0,2:0:0:0:
381,281,27749,6,0,L|391:138,1,115.199996484375,10|2,2:0|2:3,2:0:0:0:
385,72,28109,1,2,2:0:0:0:
384,84,28229,2,0,P|351:99|315:101,1,57.5999982421876,0|0,3:0|2:0,2:0:0:0:
258,72,28469,1,2,2:3:0:0:
341,12,28709,5,10,2:0:0:0:
336,57,28829,1,2,2:0:0:0:
331,102,28949,1,2,2:3:0:0:
326,147,29069,1,2,2:0:0:0:
321,192,29189,1,2,3:2:0:0:
310,188,29429,5,2,2:3:0:0:
298,186,29669,2,0,P|371:159|417:167,1,115.199996484375,10|2,2:0|2:3,2:0:0:0:
479,134,30029,1,2,2:0:0:0:
391,174,30149,2,0,L|402:253,1,57.5999982421876,0|0,3:0|2:0,2:0:0:0:
416,364,30389,2,0,L|408:306,1,57.5999982421876,2|0,2:3|2:0,2:0:0:0:
308,277,30629,5,10,2:0:0:0:
290,276,30749,1,2,2:0:0:0:
205,263,30869,5,2,2:3:0:0:
187,262,30989,1,2,2:0:0:0:
97,248,31109,6,0,P|84:188|112:128,1,115.199996484375,2|2,3:2|2:3,2:0:0:0:
118,131,31469,1,2,2:0:0:0:
134,125,31589,1,10,2:0:0:0:
261,104,31829,5,2,2:3:0:0:
209,22,31949,1,8,2:0:0:0:
261,104,32069,2,0,P|308:133|382:118,1,115.199996484375,2|8,3:2|2:0,2:0:0:0:
512,96,32549,5,10,2:0:0:0:
440,112,32669,2,0,P|396:147|382:202,1,115.199996484375,8|4,2:0|3:0,2:0:0:0:
382,202,33029,5,6,3:2:0:0:
302,305,33269,2,0,L|288:184,1,86.3999973632813,2|2,2:0|3:2,2:0:0:0:
285,143,33629,1,2,2:0:0:0:
283,130,33749,1,2,2:0:0:0:
272,34,33989,1,2,3:2:0:0:
197,48,34109,5,2,2:0:0:0:
184,52,34229,1,2,2:3:0:0:
171,56,34349,1,2,2:0:0:0:
158,60,34469,2,0,P|141:146|157:161,2,86.3999973632813,10|2|0,2:0|2:0|3:0,2:0:0:0:
38,223,35189,6,0,L|138:235,1,86.3999973632813,2|2,2:0|3:2,2:0:0:0:
198,243,35549,1,2,2:0:0:0:
210,245,35669,1,2,2:0:0:0:
287,257,35909,1,2,3:2:0:0:
312,181,36029,5,2,2:0:0:0:
316,169,36149,1,2,2:3:0:0:
320,158,36269,1,2,2:0:0:0:
325,147,36389,2,0,P|285:117|235:130,1,86.3999973632813,10|2,2:0|2:0,2:0:0:0:
326,289,36869,5,0,3:0:0:0:
231,350,37109,2,0,L|181:357,2,43.1999986816407,2|2|2,2:3|2:0|3:2,2:0:0:0:
179,268,37469,1,2,2:0:0:0:
165,277,37589,2,0,L|122:271,1,43.1999986816407,2|2,2:3|2:0,2:0:0:0:
80,347,37829,1,2,3:2:0:0:
62,350,37949,1,2,2:0:0:0:
45,353,38069,1,2,2:3:0:0:
33,275,38189,5,0,2:0:0:0:
42,203,38309,2,0,L|57:81,1,86.3999973632813,8|2,2:0|2:3,2:0:0:0:
55,107,38669,1,0,2:0:0:0:
66,28,38789,6,0,L|122:24,2,43.1999986816407,2|2|2,3:2|2:0|2:3,2:0:0:0:
179,59,39149,2,0,L|222:62,1,43.1999986816407,2|2,2:0|3:2,2:0:0:0:
310,25,39389,1,2,2:0:0:0:
322,24,39509,1,2,2:3:0:0:
334,24,39629,1,2,2:0:0:0:
346,24,39749,1,2,3:2:0:0:
413,55,39869,5,2,2:0:0:0:
425,57,39989,1,2,2:3:0:0:
484,9,40109,5,2,2:0:0:0:
509,97,40229,2,0,P|508:151|475:188,1,86.3999973632813,10|2,2:0|2:3,2:0:0:0:
423,242,40709,1,6,3:0:0:0:
328,194,40949,6,0,L|226:209,1,86.3999973632813,2|2,2:0|3:2,2:0:0:0:
138,309,41429,2,0,L|146:260,1,43.1999986816407,2|2,2:3|2:0,2:0:0:0:
93,210,41669,1,0,3:0:0:0:
159,169,41789,1,2,2:0:0:0:
161,156,41909,1,2,2:3:0:0:
163,143,42029,1,2,2:0:0:0:
169,68,42149,2,0,P|106:55|75:88,2,86.3999973632813,10|2|0,2:0|2:3|3:0,2:0:0:0:
309,40,42869,5,2,2:3:0:0:
309,40,43109,2,0,L|294:94,1,43.1999986816407,2|2,3:2|2:0,2:0:0:0:
266,163,43349,1,2,2:3:0:0:
278,163,43469,1,0,2:0:0:0:
290,163,43589,2,0,L|349:159,1,43.1999986816407,2|2,3:2|2:0,2:0:0:0:
379,243,43829,2,0,L|320:239,1,43.1999986816407,2|2,2:3|2:0,2:0:0:0:
343,329,44069,2,0,P|408:342|436:318,1,86.3999973632813,10|2,2:0|2:3,2:0:0:0:
255,353,44549,6,0,L|133:359,1,86.3999973632813,0|2,3:0|2:3,2:0:0:0:
170,348,44909,1,2,2:0:0:0:
172,339,45029,1,8,0:0:0:0:
193,237,45269,1,2,2:3:0:0:
93,298,45509,2,0,P|77:251|103:199,1,86.3999973632813,0|2,3:0|2:3,2:0:0:0:
193,237,45869,1,2,2:0:0:0:
204,245,45989,2,0,L|251:250,1,43.1999986816407,8|2,2:0|2:0,2:0:0:0:
321,259,46229,1,2,2:3:0:0:
490,187,46469,5,2,3:2:0:0:
477,139,46589,1,2,2:0:0:0:
438,198,46709,5,2,2:3:0:0:
425,150,46829,1,2,2:0:0:0:
490,187,46949,5,2,3:2:0:0:
438,198,47069,1,2,2:0:0:0:
425,150,47189,1,2,2:3:0:0:
477,139,47309,1,2,2:0:0:0:
490,187,47429,6,0,P|470:253|485:284,1,86.3999973632813,8|8,2:0|2:0,2:0:0:0:
326,364,47909,1,8,2:0:0:0:
297,296,48029,1,8,2:0:0:0:
297,296,48149,1,8,3:0:0:0:
182,229,48389,6,0,L|-2:216,1,172.799994726563,6|0,3:2|3:0,2:0:0:0:
9,216,49109,1,2,2:3:0:0:
125,170,49349,2,0,P|145:125|131:71,1,86.3999973632813,0|2,3:0|2:3,2:0:0:0:
137,80,49709,1,2,2:0:0:0:
132,72,49829,2,0,L|235:86,1,86.3999973632813,8|2,2:0|2:3,2:0:0:0:
361,114,50309,6,0,P|374:165|323:281,1,172.799994726563,0|0,3:0|3:0,2:0:0:0:
331,273,51029,1,2,2:3:0:0:
443,235,51269,1,0,3:0:0:0:
492,314,51509,1,2,2:3:0:0:
492,314,51629,1,2,2:0:0:0:
492,314,51749,2,0,P|450:347|387:330,1,86.3999973632813,8|2,2:0|2:3,2:0:0:0:
212,273,52229,6,0,P|204:220|250:174,1,86.3999973632813,0|2,3:0|2:3,2:0:0:0:
135,128,52709,2,0,P|177:95|240:112,1,86.3999973632813,0|2,3:0|2:3,2:0:0:0:
259,17,53189,2,0,P|308:36|325:99,1,86.3999973632813,0|2,3:0|2:3,2:0:0:0:
319,75,53549,1,2,2:0:0:0:
314,87,53669,1,8,2:0:0:0:
427,78,53909,1,2,2:3:0:0:
383,243,54149,5,0,3:0:0:0:
393,158,54389,2,0,L|382:258,1,86.3999973632813,2|0,2:3|3:0,2:0:0:0:
462,326,54869,2,0,P|381:281|288:284,1,172.799994726563,2|2,2:3|2:3,2:0:0:0:
292,288,55469,1,2,2:0:0:0:
233,332,55589,5,8,2:0:0:0:
129,308,55709,1,8,2:0:0:0:
129,308,55829,1,8,3:0:0:0:
190,233,56069,6,0,P|189:182|87:163,1,151.199995385742,6|2,3:2|2:0,2:0:0:0:
96,159,56549,1,2,3:2:0:0:
186,147,56669,5,2,2:0:0:0:
236,150,56789,1,2,2:3:0:0:
286,153,56909,1,2,2:0:0:0:
366,163,57029,2,0,P|390:111|365:57,1,100.799996923828,2|2,3:2|2:3,2:0:0:0:
378,71,57509,6,0,L|310:67,1,50.3999984619141,8|2,2:0|2:0,2:0:0:0:
452,180,57749,2,0,L|520:175,1,50.3999984619141,2|0,2:0|2:0,2:0:0:0:
371,264,57989,5,2,3:2:0:0:
365,244,58109,1,2,2:0:0:0:
296,212,58229,1,2,2:3:0:0:
289,231,58349,1,2,2:0:0:0:
218,326,58469,2,0,P|265:298|326:318,1,100.799996923828,2|2,3:2|2:3,2:0:0:0:
138,339,58829,5,2,2:0:0:0:
63,345,58949,2,0,P|48:294|88:240,1,100.799996923828,2|2,3:2|2:3,2:0:0:0:
41,71,59309,2,0,P|56:117|35:162,1,100.799996923828,2|0,2:0|2:0,2:0:0:0:
68,253,59669,1,2,2:3:0:0:
163,160,59909,6,0,L|334:178,1,165.600003158569,6|0,3:2|3:0,2:0:0:0:
476,190,60389,1,8,2:0:0:0:
476,190,60629,2,0,P|491:129|443:74,1,110.400002105713,0|0,3:0|2:0,2:0:0:0:
393,266,61109,1,2,2:3:0:0:
289,97,61349,5,8,2:0:0:0:
175,177,61469,5,8,3:0:0:0:
218,45,61589,5,8,3:0:0:0:
260,177,61709,5,4,3:0:0:0:
140,86,61829,6,0,P|53:44|19:57,1,110.400002105713,14|2,3:2|2:3,2:0:0:0:
289,97,62189,2,0,L|450:88,1,110.400002105713,10|2,3:2|2:3,2:0:0:0:
235,222,62549,1,10,3:2:0:0:
178,314,62789,5,2,2:3:0:0:
306,278,62909,1,8,2:0:0:0:
235,222,63029,2,0,P|199:170|211:90,1,110.400002105713,8|8,3:0|2:0,2:0:0:0:
285,49,63389,5,8,3:0:0:0:
187,116,63509,1,4,3:0:0:0:
275,126,63629,1,4,3:0:0:0:
199,30,63749,6,0,L|17:58,1,144.000005493164,14|2,3:2|2:3,2:0:0:0:
56,51,64109,2,0,P|46:85|70:153,1,72.0000027465821,2|8,2:0|2:0,2:0:0:0:
74,191,64349,1,2,2:0:0:0:
128,123,64469,2,0,P|163:118|197:128,1,72.0000027465821,2|0,2:3|2:0,2:0:0:0:
341,311,64709,6,0,L|371:132,1,144.000005493164,2|2,3:2|2:3,2:0:0:0:
364,168,65069,2,0,P|399:180|448:181,1,72.0000027465821,2|8,2:0|2:0,2:0:0:0:
501,146,65309,1,2,2:0:0:0:
436,101,65429,2,0,P|447:66|448:17,1,72.0000027465821,2|0,2:3|2:0,2:0:0:0:
282,64,65669,5,2,3:2:0:0:
204,78,65789,1,2,2:0:0:0:
126,93,65909,2,0,L|36:82,1,72.0000027465821,2|0,2:3|2:0,2:0:0:0:
282,64,66149,6,0,P|338:103|435:83,1,144.000005493164,10|2,2:0|2:3,2:0:0:0:
406,119,66509,1,2,2:0:0:0:
401,140,66629,1,0,3:0:0:0:
506,191,66869,1,2,2:3:0:0:
394,158,67109,2,0,P|360:164|320:207,1,72.0000027465821,10|0,2:0|2:0,2:0:0:0:
406,325,67349,2,0,P|440:319|480:276,1,72.0000027465821,2|2,2:3|2:0,2:0:0:0:
233,347,67589,6,0,L|214:252,1,72.0000027465821,2|0,3:2|2:0,2:0:0:0:
158,182,67829,1,2,2:3:0:0:
200,159,67949,1,2,2:0:0:0:
248,169,68069,1,10,2:0:0:0:
125,114,68309,5,2,2:3:0:0:
188,79,68429,1,2,2:0:0:0:
260,94,68549,1,2,3:2:0:0:
89,51,68789,5,2,2:3:0:0:
176,3,68909,1,2,2:0:0:0:
278,22,69029,1,10,2:0:0:0:
109,279,69269,6,0,L|21:297,1,72.0000027465821,2|0,2:3|2:0,2:0:0:0:
157,179,69509,1,6,3:2:0:0:
148,368,69749,1,2,3:0:0:0:
232,247,69989,5,10,2:0:0:0:
259,318,70109,1,10,2:0:0:0:
322,186,70229,5,10,2:0:0:0:
313,261,70349,1,6,3:2:0:0:
242,164,70469,6,0,P|179:125|103:137,1,144.000005493164,2|2,2:0|3:0,2:0:0:0:
386,348,70949,5,10,2:0:0:0:
391,313,71069,1,8,3:0:0:0:
405,240,71189,1,4,3:0:0:0:
412,205,71309,1,4,3:0:0:0:
435,133,71429,6,0,P|471:93|446:8,1,144.000005493164,6|2,3:2|2:3,2:0:0:0:
450,11,71789,2,0,L|369:21,1,72.0000027465821,2|8,2:0|2:0,2:0:0:0:
274,126,72029,1,2,2:0:0:0:
198,102,72149,1,2,2:3:0:0:
279,114,72269,1,2,2:0:0:0:
194,111,72389,6,0,P|145:167|161:234,1,144.000005493164,2|2,3:2|2:3,2:0:0:0:
158,230,72749,2,0,P|196:220|237:227,1,72.0000027465821,2|8,2:0|2:0,2:0:0:0:
293,271,72989,1,2,2:0:0:0:
219,306,73109,2,0,P|210:336|218:382,1,72.0000027465821,2|0,2:3|2:0,2:0:0:0:
386,225,73349,6,0,L|463:214,1,72.0000027465821,2|0,3:2|2:0,2:0:0:0:
460,199,73589,2,0,L|388:209,1,72.0000027465821,2|0,2:3|2:0,2:0:0:0:
300,128,73829,6,0,L|223:117,1,72.0000027465821,10|0,2:0|2:0,2:0:0:0:
226,102,74069,2,0,L|297:112,1,72.0000027465821,2|10,2:3|2:0,2:0:0:0:
228,267,74309,5,0,3:0:0:0:
186,278,74429,1,8,2:0:0:0:
145,261,74549,1,2,2:3:0:0:
8,355,74789,5,8,3:0:0:0:
56,292,74909,1,8,2:0:0:0:
74,215,75029,1,8,2:0:0:0:
57,137,75149,1,4,3:0:0:0:
9,74,75269,6,0,P|74:27|136:28,1,144.000005493164,14|14,3:2|3:2,2:0:0:0:
492,358,76229,2,0,P|427:311|365:312,1,144.000005493164,10|10,2:0|2:0,2:0:0:0:
203,343,76709,5,2,2:0:0:0:
203,343,76949,2,0,L|191:284,1,48,2|2,2:3|2:3,2:0:0:0:
145,186,77189,6,0,P|132:224|138:263,1,57.5999982421876,6|0,3:2|2:0,2:0:0:0:
276,153,77429,2,0,L|210:143,1,57.5999982421876,2|0,2:3|2:0,2:0:0:0:
145,186,77669,2,0,L|25:161,1,115.199996484375,10|2,2:0|2:3,2:0:0:0:
108,100,78029,1,2,2:0:0:0:
103,83,78149,1,0,3:0:0:0:
199,64,78389,1,2,2:3:0:0:
293,40,78629,1,8,2:0:0:0:
309,45,78749,1,2,2:0:0:0:
325,50,78869,1,2,2:3:0:0:
341,55,78989,1,2,2:0:0:0:
416,81,79109,6,0,P|429:118|431:160,1,57.5999982421876,2|0,3:2|2:0,2:0:0:0:
281,171,79349,2,0,L|358:177,1,57.5999982421876,2|0,2:3|2:0,2:0:0:0:
484,199,79589,1,10,2:0:0:0:
371,341,79829,1,2,2:3:0:0:
367,324,79949,1,2,2:0:0:0:
352,276,80069,2,0,P|415:263|442:309,1,115.199996484375,0|2,3:0|2:3,2:0:0:0:
232,319,80549,5,10,2:0:0:0:
211,271,80669,1,2,2:0:0:0:
159,272,80789,1,2,2:3:0:0:
141,320,80909,1,2,2:0:0:0:
182,350,81029,6,0,P|214:351|243:368,1,57.5999982421876,2|0,3:2|2:0,2:0:0:0:
53,353,81269,1,2,2:3:0:0:
111,199,81509,1,10,2:0:0:0:
111,199,81749,2,0,L|16:186,1,57.5999982421876,2|2,2:3|2:0,2:0:0:0:
178,255,81989,2,0,P|200:197|171:138,1,115.199996484375,0|2,3:0|2:3,2:0:0:0:
182,149,82469,6,0,L|265:157,1,57.5999982421876,10|0,2:0|2:0,2:0:0:0:
210,46,82709,2,0,L|127:54,1,57.5999982421876,2|0,2:3|2:0,2:0:0:0:
324,163,82949,2,0,P|366:127|359:52,1,115.199996484375,2|2,3:2|2:3,2:0:0:0:
300,94,83309,1,2,2:0:0:0:
336,238,83429,2,0,L|359:358,1,115.199996484375,10|2,2:0|2:3,2:0:0:0:
234,282,83789,5,2,2:0:0:0:
234,282,83909,2,0,P|192:289|142:255,1,67.1999979492188,2|0,3:2|2:0,2:0:0:0:
95,187,84149,6,0,L|111:106,1,76.8,2|0,2:3|2:0,2:0:0:0:
316,96,84389,6,0,P|324:146|283:206,1,86.3999973632813,10|0,2:0|2:0,2:0:0:0:
234,298,84629,6,0,L|135:304,1,96,8|0,3:0|2:0,2:0:0:0:
126,298,84869,6,0,P|69:279|53:328,1,115.199996484375,6|2,3:2|2:3,2:0:0:0:
55,201,85349,1,10,2:0:0:0:
144,169,85589,1,2,2:3:0:0:
144,169,85709,1,2,2:0:0:0:
55,201,85829,2,0,P|22:147|47:94,1,115.199996484375,0|2,3:0|2:3,2:0:0:0:
144,169,86309,1,8,2:0:0:0:
172,171,86429,1,2,2:0:0:0:
200,173,86549,1,2,2:3:0:0:
228,175,86669,1,2,2:0:0:0:
305,184,86789,6,0,L|319:117,1,57.5999982421876,2|0,3:2|2:0,2:0:0:0:
453,169,87029,2,0,P|421:162|362:170,1,57.5999982421876,2|0,2:3|2:0,2:0:0:0:
277,265,87269,2,0,L|413:242,1,115.199996484375,10|2,2:0|2:3,2:0:0:0:
481,255,87629,1,2,2:0:0:0:
453,169,87749,2,0,P|434:100|476:61,1,115.199996484375,0|2,3:0|2:3,2:0:0:0:
231,39,88229,5,10,2:0:0:0:
218,96,88349,1,2,2:0:0:0:
267,125,88469,1,2,2:3:0:0:
313,90,88589,1,2,2:0:0:0:
291,36,88709,2,0,P|243:60|158:25,1,115.199996484375,2|2,3:2|2:3,2:0:0:0:
22,124,89189,1,10,2:0:0:0:
22,124,89429,2,0,L|87:115,1,57.5999982421876,2|2,2:3|2:0,2:0:0:0:
199,234,89669,2,0,P|163:193|175:102,1,115.199996484375,0|2,3:0|2:3,2:0:0:0:
181,138,90029,1,2,2:0:0:0:
259,154,90149,5,10,2:0:0:0:
281,159,90269,1,2,2:0:0:0:
361,180,90389,1,2,2:3:0:0:
383,185,90509,1,2,2:0:0:0:
460,208,90629,2,0,P|476:269|443:335,1,115.199996484375,2|2,3:2|2:3,2:0:0:0:
385,329,90989,1,2,2:0:0:0:
464,336,91109,1,8,2:0:0:0:
222,271,91349,5,2,2:3:0:0:
306,279,91469,1,8,2:0:0:0:
222,271,91589,2,0,L|93:286,1,115.199996484375,10|4,2:0|3:0,2:0:0:0:
170,155,92069,1,10,3:0:0:0:
166,177,92189,1,8,3:0:0:0:
163,199,92309,1,4,3:0:0:0:
82,155,92549,5,6,3:2:0:0:
241,252,92789,2,0,L|310:249,1,48,2|0,2:0|2:0,2:0:0:0:
367,241,93029,1,10,2:0:0:0:
381,242,93149,1,2,2:0:0:0:
458,233,93269,2,0,P|477:182|444:139,1,96,2|2,2:0|3:2,2:0:0:0:
320,81,93629,5,2,2:0:0:0:
258,71,93749,1,2,2:3:0:0:
196,62,93869,1,2,2:0:0:0:
135,50,93989,1,10,2:0:0:0:
47,109,94229,2,0,L|13:124,4,24,2|2|2|2|2,2:0|2:0|2:0|2:0|3:2,2:0:0:0:
124,312,94709,6,0,L|147:241,1,48,2|0,2:0|2:0,2:0:0:0:
149,244,94949,1,2,3:2:0:0:
219,299,95069,5,2,2:0:0:0:
261,293,95189,1,2,2:3:0:0:
303,287,95309,1,2,2:0:0:0:
382,274,95429,6,0,L|440:283,1,48,10|0,2:0|2:0,2:0:0:0:
433,203,95669,1,2,2:0:0:0:
418,200,95789,1,2,2:0:0:0:
398,118,95909,2,0,P|463:115|489:144,1,96,2|10,3:2|2:0,2:0:0:0:
288,144,96269,1,10,2:0:0:0:
314,59,96389,1,0,3:0:0:0:
288,144,96629,6,0,L|299:205,1,48,2|2,2:0|2:0,2:0:0:0:
315,322,96869,1,8,2:0:0:0:
390,321,96989,2,0,P|396:269|345:238,1,96,2|2,2:0|2:0,2:0:0:0:
296,191,97349,2,0,L|173:214,1,96,2|2,3:2|2:3,2:0:0:0:
112,222,97709,2,0,L|123:162,1,48,2|8,2:0|2:0,2:0:0:0:
99,45,97949,1,2,2:0:0:0:
151,41,98069,1,2,2:0:0:0:
203,38,98189,1,0,2:0:0:0:
281,80,98309,5,14,2:0:0:0:
332,183,99389,6,0,L|273:195,1,48,2|2,2:0|2:3,2:0:0:0:
278,176,99629,1,2,2:3:0:0:
317,262,99749,2,0,L|356:357,1,96,2|6,2:3|3:0,2:0:0:0:
231,251,100109,5,10,3:0:0:0:
403,280,100229,2,0,P|456:289|522:239,1,115.199996484375,6|2,3:2|2:3,2:0:0:0:
462,171,100589,1,2,2:0:0:0:
476,94,100709,2,0,L|487:29,1,57.5999982421876,10|0,2:0|2:0,2:0:0:0:
384,122,100949,1,2,2:3:0:0:
366,125,101069,1,2,2:0:0:0:
290,135,101189,2,0,P|266:106|266:73,1,57.5999982421876,0|2,3:0|2:0,2:0:0:0:
313,258,101429,5,2,2:3:0:0:
331,261,101549,1,2,2:0:0:0:
407,271,101669,2,0,P|430:242|431:209,1,57.5999982421876,10|0,2:0|2:0,2:0:0:0:
506,192,101909,2,0,P|492:157|464:140,1,57.5999982421876,2|0,2:3|2:0,2:0:0:0:
481,64,102149,1,0,3:0:0:0:
236,176,102389,5,2,2:3:0:0:
218,174,102509,1,2,2:0:0:0:
138,158,102629,5,10,2:0:0:0:
120,155,102749,1,2,2:0:0:0:
103,151,102869,2,0,P|80:99|110:32,1,115.199996484375,2|2,2:3|3:2,2:0:0:0:
312,93,103229,5,2,2:0:0:0:
321,126,103349,1,2,2:3:0:0:
348,205,103469,2,0,L|332:329,1,115.199996484375,2|2,2:0|2:0,2:0:0:0:
471,299,103829,2,0,L|412:311,1,57.5999982421876,2|0,2:3|2:0,2:0:0:0:
251,340,104069,5,0,3:0:0:0:
228,263,104189,2,0,P|255:260|288:268,1,57.5999982421876,2|2,2:0|2:3,2:0:0:0:
251,340,104429,2,0,L|124:346,1,115.199996484375,2|0,2:0|2:0,2:0:0:0:
59,349,104789,1,2,2:3:0:0:
31,173,105029,5,0,3:0:0:0:
31,173,105269,2,0,P|12:142|10:112,1,57.5999982421876,2|2,2:3|2:0,2:0:0:0:
128,33,105509,1,8,2:0:0:0:
128,33,105749,2,0,P|147:64|149:94,1,57.5999982421876,2|0,2:3|2:0,2:0:0:0:
140,102,105989,6,0,L|286:125,1,115.199996484375,0|2,3:0|2:3,2:0:0:0:
175,191,106349,1,2,2:0:0:0:
158,227,106469,1,10,2:0:0:0:
155,267,106589,1,2,2:0:0:0:
168,305,106709,1,2,2:3:0:0:
239,274,106829,5,2,2:0:0:0:
90,343,106949,2,0,P|56:350|5:328,1,57.5999982421876,0|0,3:0|2:0,2:0:0:0:
56,214,107189,2,0,P|63:248|41:299,1,57.5999982421876,8|0,2:0|2:0,2:0:0:0:
239,274,107429,5,10,2:0:0:0:
317,291,107549,1,8,2:0:0:0:
397,255,107669,1,2,3:2:0:0:
475,272,107789,1,2,2:0:0:0:
447,193,107909,6,0,B|440:139|440:139|417:121|417:121|408:45,1,144,6|2,3:2|2:0,2:0:0:0:
412,40,108389,1,8,2:0:0:0:
332,153,108629,1,2,2:3:0:0:
275,74,108869,1,0,3:0:0:0:
277,59,108989,1,2,2:3:0:0:
279,44,109109,1,2,2:3:0:0:
195,136,109349,5,10,2:0:0:0:
126,75,109589,2,0,L|71:80,1,48,2|0,2:3|2:0,2:0:0:0:
21,137,109829,1,0,3:0:0:0:
120,190,110069,1,2,2:3:0:0:
26,256,110309,1,8,2:0:0:0:
289,167,110549,6,0,P|279:111|229:117,2,96,2|0|2,2:3|3:0|2:3,2:0:0:0:
321,33,111269,5,10,2:0:0:0:
380,172,111509,2,0,L|449:195,1,48,2|0,2:3|2:0,2:0:0:0:
369,267,111749,1,0,3:0:0:0:
301,221,111989,2,0,P|287:192|286:160,1,48,2|2,2:3|2:3,2:0:0:0:
324,66,112229,1,8,2:0:0:0:
365,163,112469,6,0,L|210:170,1,144,2|2,2:3|2:0,2:0:0:0:
152,129,112949,5,2,2:3:0:0:
302,91,113189,1,10,2:0:0:0:
197,241,113429,2,0,P|197:265|213:308,1,48,2|0,2:3|2:0,2:0:0:0:
329,171,113669,2,0,L|361:5,1,144,2|2,3:2|2:0,2:0:0:0:
368,44,114149,1,8,2:0:0:0:
257,103,114269,5,2,2:0:0:0:
184,115,114389,2,0,L|100:130,1,48,2|0,2:3|2:0,2:0:0:0:
112,117,114629,6,0,P|116:89|139:66,1,48,2|0,3:2|2:0,2:0:0:0:
213,26,114869,2,0,P|239:15|270:23,1,48,2|0,2:3|2:0,2:0:0:0:
370,80,115109,2,0,P|392:97|400:128,1,48,10|0,2:0|2:0,2:0:0:0:
419,256,115349,2,0,P|415:284|392:307,1,48,2|0,2:3|2:0,2:0:0:0:
338,182,115589,5,6,3:2:0:0:
297,102,115829,1,2,2:3:0:0:
254,106,115949,1,2,2:0:0:0:
211,111,116069,1,10,2:0:0:0:
179,222,116309,1,2,2:3:0:0:
136,215,116429,1,2,2:0:0:0:
61,202,116549,2,0,P|27:147|42:93,1,96,2|2,3:2|2:3,2:0:0:0:
255,205,117029,5,8,2:0:0:0:
276,278,117149,1,2,2:0:0:0:
266,201,117269,1,2,2:3:0:0:
487,183,117509,5,2,3:2:0:0:
441,197,117629,1,2,2:0:0:0:
393,196,117749,1,2,2:3:0:0:
354,167,117869,1,2,2:0:0:0:
324,128,117989,2,0,L|346:49,1,48,10|0,2:0|2:0,2:0:0:0:
361,12,118229,1,2,2:3:0:0:
361,12,118349,1,2,2:0:0:0:
268,54,118469,5,2,3:2:0:0:
434,46,118589,1,8,2:0:0:0:
268,54,118709,2,0,L|151:68,1,96,2|8,2:3|2:0,2:0:0:0:
172,65,119189,2,0,L|178:129,1,48,2|0,2:0|2:0,2:0:0:0:
62,324,119429,6,0,L|214:341,1,144,6|0,3:2|2:0,2:0:0:0:
205,340,119909,2,0,L|212:284,1,48,8|0,2:0|2:0,2:0:0:0:
288,191,120149,2,0,L|293:238,1,48,2|0,2:3|2:0,2:0:0:0:
314,320,120389,2,0,P|364:332|409:309,1,96,0|2,3:0|2:3,2:0:0:0:
210,292,120869,2,0,P|159:279|114:302,1,96,8|2,2:0|2:3,2:0:0:0:
336,204,121349,1,6,3:2:0:0:
336,204,121589,6,0,L|268:194,1,48,2|0,2:3|3:0,2:0:0:0:
164,79,121829,2,0,L|189:142,1,48,10|0,2:0|2:0,2:0:0:0:
138,286,122069,2,0,L|180:232,1,48,2|0,3:0|2:0,2:0:0:0:
288,197,122309,5,2,2:0:0:0:
169,235,122429,1,8,2:0:0:0:
317,283,122549,2,0,L|374:278,1,48,2|0,3:0|2:0,2:0:0:0:
295,180,122789,5,10,2:0:0:0:
147,238,122909,5,8,3:0:0:0:
325,301,123029,5,4,3:0:0:0:
199,161,123149,5,4,3:0:0:0:
208,326,123269,6,0,P|164:346|137:348,1,57.5999982421876,14|0,2:0|3:0,2:0:0:0:
73,366,123629,2,0,P|77:317|89:293,1,57.5999982421876,0|0,3:0|3:0,2:0:0:0:
144,255,123989,1,6,3:0:0:0:
150,267,124109,1,0,3:0:0:0:
210,326,124229,6,0,L|365:348,1,144.000005493164,14|0,2:0|2:0,2:0:0:0:
366,148,124589,2,0,P|299:204|305:270,1,144.000005493164,14|0,2:0|2:0,2:0:0:0:
352,346,124949,1,14,2:0:0:0:
222,194,125069,1,8,2:0:0:0:
299,256,125189,6,0,L|320:48,1,153.6,14|2,3:2|2:3,2:0:0:0:
271,39,125549,2,0,P|233:34|185:48,1,76.8,2|8,2:0|2:0,2:0:0:0:
125,85,125789,1,2,2:0:0:0:
197,190,125909,2,0,P|205:152|200:114,1,76.8,2|0,2:3|2:0,2:0:0:0:
60,276,126149,6,0,L|235:317,1,153.6,2|2,3:2|2:3,2:0:0:0:
277,264,126509,2,0,P|309:287|358:298,1,76.8,2|8,2:0|2:0,2:0:0:0:
412,319,126749,1,2,2:0:0:0:
466,211,126869,2,0,P|434:234|385:245,1,76.8,2|0,2:3|2:0,2:0:0:0:
232,115,127109,5,2,3:2:0:0:
158,92,127229,1,2,2:0:0:0:
83,72,127349,2,0,P|57:103|58:159,1,76.8,2|0,2:3|2:0,2:0:0:0:
204,247,127589,2,0,L|371:229,1,153.6,10|2,2:0|2:3,2:0:0:0:
319,202,127949,1,2,2:0:0:0:
307,157,128069,1,0,3:0:0:0:
324,114,128189,1,8,2:0:0:0:
361,87,128309,1,2,2:3:0:0:
470,170,128549,6,0,L|353:157,1,76.8,10|0,2:0|2:0,2:0:0:0:
256,82,128789,2,0,L|179:90,1,76.8,2|0,2:3|2:0,2:0:0:0:
32,163,129029,2,0,P|18:194|20:275,1,76.8,2|0,3:2|2:0,2:0:0:0:
165,329,129269,5,2,2:3:0:0:
225,318,129389,1,2,2:0:0:0:
285,310,129509,1,10,2:0:0:0:
134,260,129749,5,2,2:3:0:0:
212,245,129869,1,2,2:0:0:0:
290,235,129989,1,2,3:2:0:0:
96,191,130229,5,2,2:3:0:0:
197,171,130349,1,2,2:0:0:0:
298,158,130469,1,10,2:0:0:0:
496,98,130709,6,0,P|466:73|425:69,1,76.8,2|0,2:3|2:0,2:0:0:0:
429,68,130949,6,0,L|522:50,1,76.8,6|0,3:2|2:0,2:0:0:0:
234,70,131189,2,0,L|326:51,1,76.8,2|0,3:0|2:0,2:0:0:0:
135,112,131429,5,10,2:0:0:0:
118,186,131549,1,10,2:0:0:0:
190,159,131669,1,10,2:0:0:0:
135,112,131789,5,6,3:2:0:0:
60,134,131909,2,0,P|34:135|10:81,1,76.8,2|0,2:0|2:0,2:0:0:0:
189,241,132149,2,0,L|331:231,1,76.8,6|0,3:0|2:0,2:0:0:0:
409,216,132389,5,10,2:0:0:0:
396,171,132509,1,8,3:0:0:0:
438,195,132629,5,4,3:0:0:0:
425,150,132749,1,4,3:0:0:0:
468,175,132869,6,0,L|299:156,1,153.6,6|2,3:2|2:3,2:0:0:0:
240,143,133229,2,0,P|222:106|230:54,1,76.8,2|8,2:0|2:0,2:0:0:0:
384,200,133469,1,2,2:0:0:0:
371,244,133589,1,2,2:3:0:0:
360,288,133709,2,0,P|435:305|456:280,1,76.8,2|2,2:0|3:2,2:0:0:0:
442,296,133949,1,2,2:0:0:0:
275,324,134069,2,0,L|104:331,1,153.6,2|8,2:3|2:0,2:0:0:0:
42,331,134429,1,2,2:0:0:0:
42,331,134549,1,2,2:3:0:0:
183,163,134789,6,0,P|218:187|237:242,1,76.8,2|0,3:2|2:0,2:0:0:0:
99,175,135029,2,0,P|102:132|140:88,1,76.8,2|0,2:3|2:0,2:0:0:0:
156,238,135269,2,0,P|117:256|60:245,1,76.8,10|0,2:0|2:0,2:0:0:0:
236,332,135509,1,2,2:3:0:0:
230,317,135629,1,2,2:0:0:0:
223,303,135749,2,0,P|319:290|362:332,1,153.6,0|2,3:0|2:3,2:0:0:0:
330,240,136109,1,2,2:0:0:0:
339,248,136229,5,8,3:0:0:0:
351,172,136349,1,8,2:0:0:0:
362,96,136469,1,10,2:0:0:0:
374,20,136589,1,8,3:0:0:0:
374,20,136709,6,0,P|455:42|495:1,1,115.199996484375,14|14,3:2|3:2,2:0:0:0:
116,295,137669,2,0,P|35:317|-5:276,1,115.199996484375,10|10,2:0|2:0,2:0:0:0:
116,209,138149,5,8,3:0:0:0:
144,214,138269,1,8,3:0:0:0:
212,249,138389,5,4,3:0:0:0:
240,244,138509,1,8,3:0:0:0:
317,206,138629,5,6,3:2:0:0:
338,209,138749,1,2,2:0:0:0:
358,214,138869,2,0,P|381:237|377:287,1,72.0000027465821,2|2,2:3|2:0,2:0:0:0:
326,339,139109,2,0,P|294:347|253:318,1,72.0000027465821,10|2,2:0|2:0,2:0:0:0:
177,328,139349,1,2,2:3:0:0:
175,315,139469,2,0,P|183:283|228:262,2,72.0000027465821,2|0|2,2:0|3:0|3:2,2:0:0:0:
269,204,139829,2,0,P|292:227|287:277,1,72.0000027465821,2|2,2:3|2:0,2:0:0:0:
88,255,140069,5,10,2:0:0:0:
95,216,140189,1,2,2:0:0:0:
102,178,140309,1,2,2:3:0:0:
109,139,140429,1,2,2:0:0:0:
115,103,140549,5,2,3:2:0:0:
173,145,140669,1,2,2:0:0:0:
244,151,140789,1,2,2:3:0:0:
313,131,140909,1,2,2:0:0:0:
364,83,141029,5,10,2:0:0:0:
394,77,141149,1,2,2:0:0:0:
423,77,141269,1,2,2:3:0:0:
450,86,141389,1,2,2:0:0:0:
500,145,141509,6,0,L|487:227,1,72.0000027465821,2|2,3:2|2:0,2:0:0:0:
471,313,141749,1,2,2:3:0:0:
473,298,141869,1,2,2:0:0:0:
409,240,141989,2,0,P|339:212|317:233,1,72.0000027465821,10|2,2:0|2:0,2:0:0:0:
323,277,142229,2,0,P|345:303|380:309,1,72.0000027465821,2|0,2:3|2:0,2:0:0:0:
251,224,142469,5,0,3:0:0:0:
224,224,142589,2,0,P|174:141|191:67,1,144.000005493164,2|2,2:0|2:0,2:0:0:0:
193,21,142949,1,8,2:0:0:0:
177,97,143069,2,0,L|51:112,1,72.0000027465821,2|2,2:0|2:3,2:0:0:0:
276,32,143309,6,0,L|402:47,1,72.0000027465821,2|0,2:0|3:0,2:0:0:0:
351,145,143549,2,0,L|477:160,1,72.0000027465821,2|2,2:0|2:3,2:0:0:0:
512,69,143789,6,0,L|386:84,1,72.0000027465821,2|8,2:0|2:0,2:0:0:0:
419,233,144029,2,0,L|293:248,1,72.0000027465821,2|2,2:0|2:3,2:0:0:0:
333,242,144269,1,2,2:0:0:0:
256,243,144389,5,0,3:0:0:0:
240,240,144509,2,0,P|225:211|221:166,1,72.0000027465821,2|2,2:0|2:3,2:0:0:0:
212,77,144749,2,0,P|244:78|285:97,1,72.0000027465821,2|8,2:0|2:0,2:0:0:0:
368,121,144989,2,0,P|350:148|313:174,1,72.0000027465821,2|2,2:0|2:3,2:0:0:0:
154,222,145229,1,10,2:0:0:0:
132,220,145349,1,0,3:0:0:0:
154,298,145469,5,10,2:0:0:0:
176,296,145589,1,10,3:0:0:0:
253,285,145709,5,2,3:2:0:0:
275,283,145829,1,10,2:0:0:0:
352,274,145949,5,2,3:2:0:0:
424,259,146069,2,0,P|447:233|460:179,1,72.0000027465821,10|0,3:0|2:0,2:0:0:0:
451,198,146309,6,0,P|419:192|384:157,2,72.0000027465821,6|2|2,3:2|2:0|2:3,2:0:0:0:
384,76,146669,2,0,P|352:82|317:117,2,72.0000027465821,2|10|2,2:0|2:0|2:0,2:0:0:0:
310,198,147029,5,2,2:3:0:0:
281,197,147149,1,2,2:0:0:0:
200,186,147269,2,0,P|168:180|133:145,2,72.0000027465821,2|0|2,3:2|3:0|2:3,2:0:0:0:
129,61,147629,2,0,P|97:67|62:102,2,72.0000027465821,2|8|2,2:0|2:0|2:0,2:0:0:0:
56,178,147989,1,2,2:3:0:0:
246,76,148229,6,0,L|337:69,1,72.0000027465821,2|0,3:2|2:0,2:0:0:0:
480,61,148469,2,0,L|408:66,1,72.0000027465821,2|0,2:3|2:0,2:0:0:0:
240,88,148709,6,0,L|149:81,1,72.0000027465821,10|0,2:0|2:0,2:0:0:0:
6,73,148949,2,0,L|77:78,1,72.0000027465821,2|0,2:3|2:0,2:0:0:0:
203,184,149189,5,0,3:0:0:0:
229,226,149309,1,0,3:0:0:0:
199,266,149429,1,2,2:3:0:0:
151,249,149549,1,2,2:0:0:0:
146,198,149669,2,0,P|123:185|102:185,4,36.0000013732911,10|2|2|2|2,2:0|2:0|2:0|2:0|2:3,2:0:0:0:
333,219,150149,5,2,3:2:0:0:
354,144,150269,2,0,L|373:71,1,72.0000027465821,2|2,2:0|2:3,2:0:0:0:
333,219,150509,2,0,P|417:231|479:198,1,144.000005493164,2|2,2:0|2:0,2:0:0:0:
490,138,150869,1,2,2:3:0:0:
495,124,150989,1,2,2:0:0:0:
468,206,151109,6,0,L|445:296,1,72.0000027465821,2|0,3:2|2:0,2:0:0:0:
333,219,151349,1,2,2:3:0:0:
268,183,151469,2,0,P|181:188|149:254,1,144.000005493164,2|2,2:0|2:0,2:0:0:0:
158,308,151829,1,2,2:3:0:0:
160,322,151949,1,2,2:0:0:0:
152,229,152069,6,0,P|123:164|50:136,1,144.000005493164,2|2,3:2|2:3,2:0:0:0:
3,74,152429,2,0,P|73:81|134:32,1,144.000005493164,2|0,2:0|2:0,2:0:0:0:
208,4,152789,1,10,2:0:0:0:
233,77,152909,1,8,2:0:0:0:
208,4,153029,2,0,P|166:61|178:138,1,144.000005493164,2|2,3:2|3:0,2:0:0:0:
351,335,153509,5,10,2:0:0:0:
401,331,153629,1,8,3:0:0:0:
432,291,153749,1,4,3:0:0:0:
382,295,153869,1,4,3:0:0:0:
351,335,153989,5,6,3:2:0:0:
247,308,154229,2,0,P|185:291|180:256,1,86.3999973632813,2|10,2:0|2:0,2:0:0:0:
137,244,154589,1,2,2:0:0:0:
159,207,154709,2,0,P|176:145|211:140,1,86.3999973632813,2|2,2:0|3:2,2:0:0:0:
265,163,155069,1,2,2:0:0:0:
290,159,155189,1,2,2:0:0:0:
315,155,155309,1,2,2:0:0:0:
340,150,155429,1,10,2:0:0:0:
419,102,155669,1,2,2:0:0:0:
419,102,155909,6,0,P|400:44|360:38,1,86.3999973632813,0|2,3:0|2:0,2:0:0:0:
305,33,156269,1,2,2:0:0:0:
310,50,156389,5,10,2:0:0:0:
275,47,156509,1,2,2:0:0:0:
202,36,156629,5,2,2:0:0:0:
166,33,156749,1,2,2:0:0:0:
89,24,156869,6,0,L|83:86,1,43.1999986816407,2|2,3:2|2:0,2:0:0:0:
77,191,157109,2,0,L|81:148,1,43.1999986816407,2|2,2:0|2:0,2:0:0:0:
69,290,157349,2,0,P|143:300|158:289,1,86.3999973632813,10|2,2:0|2:0,2:0:0:0:
315,348,157829,5,0,3:0:0:0:
328,262,158069,2,0,L|310:378,1,86.3999973632813,2|10,2:0|2:0,2:0:0:0:
239,314,158429,1,2,2:0:0:0:
225,316,158549,2,0,L|178:319,1,43.1999986816407,2|2,2:0|2:0,2:0:0:0:
404,292,158789,2,0,P|448:279|490:295,1,86.3999973632813,2|2,3:2|2:0,2:0:0:0:
482,316,159149,1,2,2:0:0:0:
476,279,159269,2,0,L|470:176,2,86.3999973632813,10|2|0,2:0|2:0|3:0,2:0:0:0:
321,193,159989,5,2,2:0:0:0:
321,193,160109,1,2,2:0:0:0:
321,193,160229,2,0,L|248:200,1,43.1999986816407,10|2,2:0|2:0,2:0:0:0:
108,212,160469,2,0,L|151:207,1,43.1999986816407,2|2,2:0|2:0,2:0:0:0:
321,193,160709,6,0,P|338:134|313:102,1,86.3999973632813,2|2,3:2|2:0,2:0:0:0:
286,57,161069,1,2,2:0:0:0:
351,121,161189,1,10,2:0:0:0:
372,123,161309,1,2,2:0:0:0:
393,125,161429,1,2,2:0:0:0:
286,57,161669,6,0,L|174:66,1,86.3999973632813,6|0,3:2|2:0,2:0:0:0:
48,118,162149,2,0,L|160:109,2,86.3999973632813,8|0|0,2:0|2:0|3:0,2:0:0:0:
157,231,162869,6,0,P|186:184|274:188,1,129.599996044922,2|2,2:0|2:0,2:0:0:0:
309,233,163349,1,2,2:0:0:0:
305,254,163469,1,2,2:0:0:0:
292,326,163589,6,0,L|410:320,1,86.3999973632813,0|0,3:0|2:0,2:0:0:0:
483,178,164069,2,0,L|396:182,1,86.3999973632813,8|2,2:0|2:0,2:0:0:0:
396,182,164429,1,2,2:0:0:0:
396,182,164549,1,0,3:0:0:0:
250,108,164789,6,0,P|313:85|379:127,1,129.599996044922,2|2,2:0|2:0,2:0:0:0:
403,188,165269,1,2,2:0:0:0:
401,205,165389,1,0,2:0:0:0:
386,281,165509,6,0,L|287:290,1,86.3999973632813,0|0,3:0|2:0,2:0:0:0:
220,295,165869,1,2,2:0:0:0:
314,211,166109,5,2,2:0:0:0:
242,196,166229,1,2,2:0:0:0:
334,126,166469,5,0,3:2:0:0:
262,111,166589,1,2,2:0:0:0:
358,40,166829,5,2,2:0:0:0:
286,25,166949,1,8,2:0:0:0:
269,29,167069,1,2,2:0:0:0:
252,33,167189,1,2,2:0:0:0:
235,38,167309,1,2,2:0:0:0:
160,58,167429,6,0,P|139:94|143:169,1,86.3999973632813,2|2,3:2|2:0,2:0:0:0:
144,161,167789,1,2,2:0:0:0:
214,232,167909,5,10,2:0:0:0:
248,227,168029,1,2,2:0:0:0:
324,201,168149,5,2,2:0:0:0:
358,206,168269,1,2,2:0:0:0:
420,252,168389,6,0,P|428:280|430:319,1,43.1999986816407,2|2,3:2|2:0,2:0:0:0:
354,125,168629,1,2,2:0:0:0:
280,228,168869,2,0,L|226:224,1,43.1999986816407,8|8,2:0|3:0,2:0:0:0:
445,119,169109,2,0,L|499:115,1,43.1999986816407,4|4,3:0|3:0,2:0:0:0:
354,125,169349,6,0,P|317:91|209:82,2,153.6,6|0|0,3:2|3:0|3:0,2:0:0:0:
424,220,170549,5,2,2:0:0:0:
424,220,170669,2,0,L|403:319,1,76.8,2|2,2:0|2:0,2:0:0:0:
403,319,171029,1,2,2:0:0:0:
158,267,171269,6,0,B|219:256|219:256|236:270|236:270|323:255,2,153.6,0|0|0,3:0|3:0|3:0,2:0:0:0:
208,180,172349,5,2,2:0:0:0:
216,150,172469,1,2,2:0:0:0:
219,119,172589,1,2,2:0:0:0:
252,33,172709,5,2,3:2:0:0:
244,63,172829,1,2,2:0:0:0:
241,94,172949,1,2,2:0:0:0:
387,227,173189,6,0,P|380:172|291:155,2,153.6,0|0|0,3:0|3:0|3:0,2:0:0:0:
262,319,174389,5,2,2:0:0:0:
262,319,174509,2,0,L|184:304,1,76.8,2|2,2:0|2:0,2:0:0:0:
169,302,174869,1,2,2:0:0:0:
56,201,175109,5,0,3:0:0:0:
213,200,175349,5,2,2:0:0:0:
216,184,175469,1,2,2:0:0:0:
226,107,175589,5,0,3:0:0:0:
229,91,175709,1,2,2:0:0:0:
238,12,175829,5,2,2:0:0:0:
161,33,175949,1,2,2:0:0:0:
238,12,176069,6,0,L|293:27,1,38.4,2|2,3:0|2:0,2:0:0:0:
358,47,176309,2,0,L|413:62,1,38.4,2|2,2:0|2:0,2:0:0:0:
479,85,176549,2,0,P|493:120|481:175,2,76.8,2|0|6,3:0|2:0|3:2,2:0:0:0:
256,192,182789,12,2,184469,2:3:0:0:
137,103,184709,6,0,B|108:127|108:127|96:202,1,96,6|0,3:2|2:0,2:0:0:0:
210,343,185069,6,0,B|175:314|175:314|164:245,1,115.199996484375,6|0,3:2|2:0,2:0:0:0:
323,75,185429,6,0,B|285:100|285:100|263:189,1,134.399995898438,14|0,2:0|2:0,2:0:0:0:
433,326,185789,6,0,B|378:294|378:294|346:202,1,153.6,6|0,3:2|2:0,2:0:0:0:
349,210,186149,6,0,L|434:217,1,76.8,2|0,3:0|2:0,2:0:0:0:
182,271,186389,2,0,L|267:278,1,76.8,2|0,3:0|2:0,2:0:0:0:
349,210,186629,6,0,P|370:125|340:86,1,115.199996484375,6|0,3:2|2:0,2:0:0:0:
273,173,186989,1,0,3:0:0:0:
364,209,187109,2,0,P|385:124|355:85,1,115.199996484375,8|2,2:0|3:0,2:0:0:0:
394,115,187469,2,0,L|469:121,1,57.5999982421876,2|0,2:0|2:0,2:0:0:0:
258,57,187829,5,0,3:0:0:0:
179,122,188069,1,8,2:0:0:0:
159,74,188189,1,8,3:0:0:0:
163,22,188309,1,4,3:0:0:0:
258,57,188549,6,0,L|353:72,1,67.1999979492188,14|0,2:0|2:0,2:0:0:0:
122,182,188789,2,0,L|27:197,1,67.1999979492188,14|0,2:0|2:0,2:0:0:0:
195,235,189029,5,2,2:0:0:0:
192,255,189149,1,2,2:0:0:0:
189,275,189269,1,2,2:0:0:0:
172,356,189389,6,0,P|256:364|291:312,1,134.399995898438,14|2,3:2|2:0,2:0:0:0:
358,258,189749,1,2,3:0:0:0:
378,330,189869,1,2,2:0:0:0:
449,191,189989,5,10,2:0:0:0:
440,230,190109,1,8,3:0:0:0:
363,81,190229,5,4,3:0:0:0:
372,120,190349,1,4,3:0:0:0:
458,21,190469,5,6,3:2:0:0:
301,160,191309,6,0,L|150:136,1,134.399995898438,14|0,0:0|0:0,0:0:0:0:
109,191,191669,1,8,3:0:0:0:
109,191,191789,2,0,L|127:268,1,67.1999979492188,4|8,3:0|0:0,0:0:0:0:
63,368,192029,2,0,P|129:345|174:403,1,134.399995898438,8|4,3:0|3:0,2:0:0:0:
283,342,192389,5,2,3:0:0:0:
332,278,192509,1,2,2:0:0:0:
283,342,192629,1,2,2:0:0:0:
332,278,192749,1,2,2:0:0:0:
249,262,192869,6,14,L|232:80|232:80,1,134.399995898438,14|0,3:2|2:0,3:2:0:0:
308,0,193229,2,0,P|337:83|312:121,1,134.399995898438,14|0,3:2|2:0,2:0:0:0:
237,129,193589,2,0,L|168:123,1,67.1999979492188,2|0,3:0|2:0,2:0:0:0:
83,153,193829,5,10,2:0:0:0:
150,109,193949,1,8,3:0:0:0:
77,72,194069,1,4,3:0:0:0:
67,63,194189,1,4,3:0:0:0:
142,227,194309,6,0,P|93:188|8:193,1,144.000005493164,14|2,3:2|3:0,2:0:0:0:
107,320,194789,1,10,2:0:0:0:
280,220,195029,1,2,2:3:0:0:
220,159,195149,1,2,3:2:0:0:
280,220,195269,2,0,L|394:205,1,72.0000027465821,2|0,2:3|2:0,2:0:0:0:
431,207,195509,2,0,L|545:192,1,72.0000027465821,2|2,3:0|2:0,2:0:0:0:
354,180,195749,5,10,2:0:0:0:
270,160,195869,1,2,2:0:0:0:
365,103,195989,5,2,3:0:0:0:
458,93,196109,1,2,2:0:0:0:
316,37,196229,6,0,P|219:41|171:88,1,144.000005493164,6|6,3:2|3:2,2:0:0:0:
128,306,196709,5,10,2:0:0:0:
102,238,196829,1,8,2:0:0:0:
137,307,196949,1,10,2:0:0:0:
207,323,197069,2,0,P|269:275|339:273,1,144.000005493164,6|0,3:2|2:0,2:0:0:0:
332,271,197429,2,0,L|312:200,1,72.0000027465821,2|0,3:0|2:0,2:0:0:0:
361,340,197669,5,10,2:0:0:0:
366,353,197789,1,8,3:0:0:0:
402,220,197909,2,0,P|443:220|474:243,1,72.0000027465821,4|4,3:0|3:0,2:0:0:0:
332,271,198149,6,0,L|173:251,1,144.000005493164,6|2,3:2|2:3,2:0:0:0:
249,212,198509,2,0,P|276:185|294:145,1,72.0000027465821,2|8,2:0|2:0,2:0:0:0:
287,79,198749,1,2,2:0:0:0:
284,64,198869,1,2,2:3:0:0:
277,51,198989,1,2,2:0:0:0:
431,34,199109,6,0,L|400:211,1,144.000005493164,2|2,3:2|2:3,2:0:0:0:
491,237,199469,2,0,P|497:196|480:157,1,72.0000027465821,2|8,2:0|2:0,2:0:0:0:
406,175,199709,1,2,2:0:0:0:
411,265,199829,2,0,P|370:258|331:275,1,72.0000027465821,2|0,2:3|2:0,2:0:0:0:
76,337,200069,6,0,L|109:175,1,144.000005493164,2|2,3:2|2:3,2:0:0:0:
116,123,200429,1,2,2:0:0:0:
120,112,200549,2,0,P|81:100|41:115,1,72.0000027465821,10|0,2:0|2:0,2:0:0:0:
191,153,200789,1,2,2:3:0:0:
200,133,200909,1,2,2:0:0:0:
261,202,201029,5,0,3:0:0:0:
281,156,201149,1,10,2:0:0:0:
344,207,201269,6,0,L|426:193,1,72.0000027465821,2|0,2:3|2:0,2:0:0:0:
296,300,201509,5,8,3:0:0:0:
261,202,201629,1,8,2:0:0:0:
296,300,201749,2,0,L|214:286,1,72.0000027465821,10|4,2:0|3:0,2:0:0:0:
22,117,201989,6,0,P|94:74|142:101,1,144.000005493164,6|10,3:2|2:0,2:0:0:0:
509,57,202949,2,0,P|444:81|390:39,1,144.000005493164,8|10,2:0|2:0,2:0:0:0:
396,113,203309,1,2,2:0:0:0:
399,126,203429,2,0,L|414:218,1,72.0000027465821,2|0,2:0|2:0,2:0:0:0:
101,127,203669,6,0,B|183:137|183:137|205:164|205:164|312:180,1,216.000008239746,14|0,2:0|2:0,2:0:0:0:
389,193,204149,1,2,3:2:0:0:
410,197,204269,1,2,3:2:0:0:
489,215,204389,5,2,2:0:0:0:
441,110,204509,2,0,P|440:76|462:42,1,72.0000027465821,10|2,2:0|2:0,2:0:0:0:
343,183,204749,2,0,P|313:166|294:130,1,72.0000027465821,10|2,2:0|2:0,2:0:0:0:
314,50,204989,5,10,2:0:0:0:
199,196,205109,2,0,L|364:181,1,144.000005493164,10|10,2:0|2:0,2:0:0:0:
269,331,205469,5,4,3:0:0:0:
233,323,205589,1,4,3:0:0:0:
197,315,205709,1,4,3:0:0:0:
117,295,205829,5,6,3:2:0:0:
301,205,206069,1,2,3:0:0:0:
51,149,206309,1,10,2:0:0:0:
173,81,206549,5,2,2:3:0:0:
160,90,206669,2,0,L|173:244,1,144.000005493164,10|0,2:0|2:0,2:0:0:0:
70,344,207029,2,0,P|79:310|118:278,1,72.0000027465821,2|2,2:3|2:0,2:0:0:0:
172,233,207269,2,0,L|350:252,1,144.000005493164,8|2,2:0|2:3,2:0:0:0:
406,128,207749,5,2,3:2:0:0:
444,349,207989,1,2,2:3:0:0:
225,155,208229,1,10,2:0:0:0:
342,219,208469,5,2,2:3:0:0:
346,208,208589,2,0,L|370:44,1,144.000005493164,10|0,2:0|2:0,2:0:0:0:
499,156,208949,2,0,P|462:157|426:139,1,72.0000027465821,2|0,2:3|2:0,2:0:0:0:
282,66,209189,1,10,2:0:0:0:
257,40,209309,1,2,2:0:0:0:
137,102,209429,2,0,L|223:97,1,72.0000027465821,2|2,2:3|2:0,2:0:0:0:
171,16,209669,5,2,3:2:0:0:
197,252,209909,2,0,P|173:212|186:160,1,72.0000027465821,2|0,2:3|2:0,2:0:0:0:
304,120,210149,2,0,L|457:142,1,144.000005493164,10|2,2:0|2:3,2:0:0:0:
355,279,210509,5,10,2:0:0:0:
345,208,210629,2,0,L|356:284,1,72.0000027465821,0|0,3:0|2:0,2:0:0:0:
212,141,210869,2,0,L|222:69,1,72.0000027465821,2|0,2:3|2:0,2:0:0:0:
227,268,211109,2,0,P|153:252|89:320,1,144.000005493164,10|2,2:0|2:3,2:0:0:0:
361,227,211589,6,0,B|391:194|391:194|405:61,1,144.000005493164,2|2,3:2|2:3,2:0:0:0:
313,296,211949,2,0,B|283:263|283:263|269:130,1,144.000005493164,2|0,2:0|2:0,2:0:0:0:
297,91,212309,2,0,P|258:86|214:127,1,72.0000027465821,2|0,2:3|2:0,2:0:0:0:
165,174,212549,5,2,3:2:0:0:
157,138,212669,1,8,2:0:0:0:
54,235,212789,5,2,2:3:0:0:
62,199,212909,1,8,2:0:0:0:
172,205,213029,5,10,2:0:0:0:
47,271,213149,1,8,2:0:0:0:
113,316,213269,2,0,L|210:325,1,72.0000027465821,2|4,3:2|3:0,2:0:0:0:
362,341,213509,6,0,P|409:283|396:210,1,144.000005493164,6|2,3:2|2:3,2:0:0:0:
392,206,213989,1,10,2:0:0:0:
381,195,214229,2,0,L|473:205,1,72.0000027465821,2|10,2:3|2:0,2:0:0:0:
317,101,214469,1,0,3:0:0:0:
262,251,214709,1,2,2:3:0:0:
195,150,214949,1,8,2:0:0:0:
159,146,215069,1,2,2:0:0:0:
123,141,215189,2,0,P|99:112|93:69,1,72.0000027465821,2|2,2:3|2:0,2:0:0:0:
98,67,215429,6,0,L|2:56,1,72.0000027465821,2|0,3:2|2:0,2:0:0:0:
244,235,215669,2,0,L|148:224,1,72.0000027465821,2|0,2:3|2:0,2:0:0:0:
317,94,215909,1,10,2:0:0:0:
347,256,216149,5,2,2:3:0:0:
342,278,216269,2,0,P|407:311|481:265,1,144.000005493164,10|0,2:0|2:0,2:0:0:0:
448,203,216629,2,0,L|462:117,1,72.0000027465821,2|0,2:3|2:0,2:0:0:0:
282,163,216869,1,10,2:0:0:0:
270,99,216989,1,2,2:0:0:0:
255,35,217109,1,2,2:3:0:0:
136,186,217349,6,0,P|176:184|230:226,1,72.0000027465821,2|0,3:2|2:0,2:0:0:0:
434,190,217589,2,0,P|394:192|340:150,1,72.0000027465821,2|0,2:3|2:0,2:0:0:0:
158,256,217829,1,10,2:0:0:0:
286,134,218069,1,2,2:3:0:0:
284,119,218189,1,10,2:0:0:0:
280,212,218309,2,0,B|271:253|284:284|284:284|300:317|282:373,1,144.000005493164,0|2,3:0|2:3,2:0:0:0:
220,313,218669,1,0,2:0:0:0:
323,285,218789,5,10,2:0:0:0:
358,291,218909,1,2,2:0:0:0:
393,298,219029,1,2,2:3:0:0:
151,188,219269,5,2,3:2:0:0:
151,188,219509,2,0,L|234:178,1,72.0000027465821,2|0,2:3|2:0,2:0:0:0:
319,131,219749,5,8,2:0:0:0:
301,206,219869,1,2,2:0:0:0:
310,123,219989,5,2,2:3:0:0:
360,257,220109,1,10,2:0:0:0:
429,64,220229,5,2,3:2:0:0:
423,91,220349,1,8,2:0:0:0:
405,156,220469,2,0,P|431:190|477:213,1,72.0000027465821,4|0,3:0|2:0,2:0:0:0:
345,357,220709,5,10,2:0:0:0:
351,330,220829,1,8,3:0:0:0:
360,257,220949,2,0,P|333:222|287:199,1,72.0000027465821,4|4,3:0|3:0,2:0:0:0:
301,205,221189,6,0,L|116:218,1,144.000005493164,6|2,3:2|2:3,2:0:0:0:
99,165,221549,1,2,2:0:0:0:
172,141,221669,2,0,P|191:114|195:68,1,72.0000027465821,10|0,2:0|2:0,2:0:0:0:
145,9,221909,1,2,2:3:0:0:
245,169,222029,6,0,L|261:290,1,72.0000027465821,2|0,2:0|3:0,2:0:0:0:
270,314,222269,1,10,2:0:0:0:
270,314,222509,2,0,P|343:319|393:254,1,144.000005493164,2|0,2:0|2:0,2:0:0:0:
400,199,222869,1,2,2:3:0:0:
401,184,222989,1,0,2:0:0:0:
411,112,223109,1,0,3:0:0:0:
484,252,223349,5,2,2:3:0:0:
469,254,223469,1,2,2:0:0:0:
395,258,223589,5,10,2:0:0:0:
380,260,223709,1,2,2:0:0:0:
304,268,223829,5,2,2:3:0:0:
289,270,223949,1,10,2:0:0:0:
209,276,224069,6,0,P|186:199|234:131,1,144.000005493164,2|2,3:2|2:3,2:0:0:0:
460,175,224549,2,0,P|483:252|435:320,1,144.000005493164,10|2,2:0|2:3,2:0:0:0:
395,338,224909,1,2,2:0:0:0:
381,333,225029,1,2,3:2:0:0:
286,196,225269,5,2,2:3:0:0:
347,128,225509,1,10,2:0:0:0:
371,163,225629,1,2,2:0:0:0:
372,206,225749,2,0,P|403:232|455:233,1,72.0000027465821,2|10,2:3|2:0,2:0:0:0:
286,196,225989,2,0,L|137:206,1,144.000005493164,2|2,3:2|2:3,2:0:0:0:
3,117,226469,2,0,P|39:110|76:134,1,72.0000027465821,10|0,2:0|2:0,2:0:0:0:
35,191,226709,1,2,2:3:0:0:
13,187,226829,1,2,2:0:0:0:
102,50,226949,6,0,L|245:40,1,144.000005493164,2|2,3:2|2:3,2:0:0:0:
314,71,227309,1,2,2:0:0:0:
270,132,227429,5,10,2:0:0:0:
263,167,227549,1,2,2:0:0:0:
294,239,227669,2,0,P|328:254|368:255,1,72.0000027465821,2|2,2:3|2:0,2:0:0:0:
384,239,227909,1,2,3:2:0:0:
276,308,228029,5,10,2:0:0:0:
240,316,228149,1,2,2:3:0:0:
205,324,228269,1,10,2:0:0:0:
135,337,228389,6,0,P|125:300|136:239,2,72.0000027465821,10|10|2,2:0|2:0|3:0,2:0:0:0:
54,275,228749,1,2,2:0:0:0:
199,236,228869,6,0,P|109:222|62:158,1,144.000005493164,6|2,3:2|2:3,2:0:0:0:
375,221,229349,2,0,P|465:235|512:299,1,144.000005493164,10|2,2:0|2:3,2:0:0:0:
409,307,229709,1,10,2:0:0:0:
375,221,229829,2,0,L|342:134,1,72.0000027465821,0|0,3:0|2:0,2:0:0:0:
415,39,230069,2,0,P|425:81|395:129,1,72.0000027465821,2|0,2:3|2:0,2:0:0:0:
349,153,230309,2,0,L|197:138,1,144.000005493164,10|2,2:0|2:3,2:0:0:0:
131,126,230669,5,2,2:0:0:0:
114,123,230789,2,0,P|101:154|109:204,1,72.0000027465821,2|0,3:2|2:0,2:0:0:0:
273,164,231029,2,0,P|276:128|262:95,1,72.0000027465821,2|0,2:3|2:0,2:0:0:0:
188,253,231269,2,0,L|356:280,1,144.000005493164,10|2,2:0|2:3,2:0:0:0:
444,299,231629,1,2,2:0:0:0:
458,302,231749,2,0,P|474:271|475:224,1,72.0000027465821,2|0,3:2|2:0,2:0:0:0:
253,259,231989,2,0,P|255:294|271:326,1,72.0000027465821,2|0,2:3|2:0,2:0:0:0:
289,181,232229,1,10,2:0:0:0:
190,340,232469,5,2,2:3:0:0:
201,347,232589,1,2,2:0:0:0:
270,324,232709,2,0,L|293:155,1,144.000005493164,0|2,3:0|2:3,2:0:0:0:
213,2,233189,2,0,L|193:144,1,144.000005493164,10|2,2:0|2:3,2:0:0:0:
181,218,233549,1,2,2:0:0:0:
123,281,233669,1,0,3:0:0:0:
162,298,233789,1,8,2:0:0:0:
205,301,233909,1,2,2:3:0:0:
181,218,234029,6,0,L|30:223,1,144.000005493164,2|2,2:0|2:0,2:0:0:0:
77,78,234389,2,0,P|89:113|80:165,1,72.0000027465821,2|2,2:3|2:0,2:0:0:0:
63,311,234629,5,0,3:0:0:0:
186,124,234869,1,2,2:3:0:0:
269,298,235109,1,8,2:0:0:0:
152,196,235349,5,2,2:3:0:0:
152,196,235469,1,2,2:0:0:0:
219,235,235589,1,2,3:0:0:0:
297,224,235709,1,8,2:0:0:0:
314,219,235829,2,0,P|331:193|336:149,1,72.0000027465821,2|2,2:3|2:0,2:0:0:0:
335,53,236069,5,8,2:0:0:0:
262,130,236189,1,10,2:0:0:0:
335,53,236309,2,0,L|428:71,1,72.0000027465821,2|0,2:3|2:0,2:0:0:0:
189,169,236549,6,0,P|110:88|68:101,2,144.000005493164,6|2|10,3:2|2:3|2:0,2:0:0:0:
245,337,237269,2,0,L|257:241,1,72.0000027465821,2|10,2:3|2:0,2:0:0:0:
263,187,237509,2,0,P|371:156|401:188,1,144.000005493164,0|2,3:0|2:3,2:0:0:0:
385,166,237869,6,0,L|372:85,2,72.0000027465821,2|8|0,2:0|2:0|2:0,2:0:0:0:
405,246,238229,1,2,2:3:0:0:
311,60,238469,6,0,L|204:48,1,72.0000027465821,2|0,3:2|2:0,2:0:0:0:
512,40,238709,2,0,L|405:28,1,72.0000027465821,2|0,2:3|2:0,2:0:0:0:
311,60,238949,1,10,2:0:0:0:
397,175,239189,5,2,2:3:0:0:
397,175,239309,1,2,2:0:0:0:
467,140,239429,5,0,3:0:0:0:
343,122,239549,1,8,2:0:0:0:
406,255,239669,2,0,L|425:336,1,72.0000027465821,2|0,2:3|2:0,2:0:0:0:
301,288,239909,5,10,2:0:0:0:
314,195,240029,1,8,2:0:0:0:
301,288,240149,2,0,P|263:301|227:292,1,72.0000027465821,4|0,3:0|2:0,2:0:0:0:
26,229,240389,6,0,P|72:152|47:78,1,144.000005493164,6|10,3:2|2:0,2:0:0:0:
418,216,241349,2,0,P|412:286|454:342,1,144.000005493164,10|10,2:0|2:0,2:0:0:0:
454,342,241829,6,0,L|323:320,1,115.2,2|0,2:0|2:0,2:0:0:0:
275,310,242309,1,14,3:2:0:0:
