osu file format v14

[General]
AudioFilename: audio.mp3
AudioLeadIn: 0
PreviewTime: 63029
Countdown: 0
SampleSet: Soft
StackLeniency: 0.7
Mode: 0
LetterboxInBreaks: 0
WidescreenStoryboard: 1

[Editor]
Bookmarks: 2309,17669,33029,48389,63749,77189,92549,107909,125189,138629,153989,169349,184709,190469,205829,221189,240389
DistanceSpacing: 1.1
BeatDivisor: 8
GridSize: 32
TimelineZoom: 1.3

[Metadata]
Title:Dakara Boku wa Ongaku o Yameta
TitleUnicode:だから僕は音楽を辞めた
Artist:Yorushika
ArtistUnicode:ヨルシカ
Creator:Petal
Version:Jazz's Another
Source:
Tags:japanese jpop j-pop pop full song version Moonlight n-buna nbuna suis 所以我放棄了音樂 that's that is why I gave up on music female 所以我放弃了音乐 album n-buna seolv [_L_u_k_a_s_] namki jazzberry shii wanpachi matha amateurre shizuku- Kazato asa shikibe mayu saggin
BeatmapID:2920652
BeatmapSetID:1392760

[Difficulty]
HPDrainRate:4.7
CircleSize:4
OverallDifficulty:8
ApproachRate:9.2
SliderMultiplier:2.4
SliderTickRate:1

[Events]
//Background and Video events
0,0,"BG.jpg",0,0
//Break Periods
2,15948,16859
2,182989,183899
//Storyboard Layer 0 (Background)
//Storyboard Layer 1 (Fail)
//Storyboard Layer 2 (Pass)
//Storyboard Layer 3 (Foreground)
//Storyboard Layer 4 (Overlay)
//Storyboard Sound Samples

[TimingPoints]
1349,480,4,2,1,20,1,0
2309,480,4,2,1,25,1,0
2309,-125,4,2,1,25,0,0
17429,-125,4,2,1,40,0,0
17489,-125,4,2,1,5,0,0
17549,-125,4,2,1,40,0,0
17609,-125,4,2,1,5,0,0
17669,-66.6666666666667,4,2,1,60,0,0
17849,-66.6666666666667,4,2,1,5,0,0
17909,-66.6666666666667,4,2,1,60,0,0
19769,-66.6666666666667,4,2,1,5,0,0
19829,-66.6666666666667,4,2,1,60,0,0
21689,-66.6666666666667,4,2,1,5,0,0
21749,-66.6666666666667,4,2,1,60,0,0
25529,-66.6666666666667,4,2,1,5,0,0
25589,-66.6666666666667,4,2,1,60,0,0
27449,-66.6666666666667,4,2,1,5,0,0
27509,-66.6666666666667,4,2,1,60,0,0
29369,-66.6666666666667,4,2,1,5,0,0
29429,-66.6666666666667,4,2,1,60,0,0
31589,-50,4,2,1,60,0,0
33509,-100,4,2,1,30,0,0
48389,-142.857142857143,4,2,1,30,0,0
56069,-100,4,2,1,40,0,0
59909,-83.3333333333333,4,2,1,50,0,0
61829,-62.5,4,2,1,60,0,0
63029,-62.5,4,2,1,50,0,0
63749,-50,4,2,3,70,0,1
63989,-50,4,2,1,70,0,1
65909,-66.6666666666667,4,2,1,70,0,1
68069,-66.6666666666667,4,2,1,60,0,1
68309,-66.6666666666667,4,2,1,70,0,1
69509,-50,4,2,1,70,0,1
71429,-50,4,2,3,70,0,1
71669,-50,4,2,1,70,0,1
73349,-66.6666666666667,4,2,1,70,0,1
75509,-66.6666666666667,4,2,1,60,0,1
76469,-66.6666666666667,4,2,1,50,0,1
76949,-125,4,2,1,40,0,1
77009,-125,4,2,1,5,0,1
77069,-125,4,2,1,40,0,1
77129,-125,4,2,1,5,0,1
77189,-66.6666666666667,4,2,1,60,0,0
77369,-66.6666666666667,4,2,1,5,0,0
77429,-66.6666666666667,4,2,1,60,0,0
79289,-66.6666666666667,4,2,1,5,0,0
79349,-66.6666666666667,4,2,1,60,0,0
81209,-66.6666666666667,4,2,1,5,0,0
81269,-66.6666666666667,4,2,1,60,0,0
85049,-66.6666666666667,4,2,1,5,0,0
85109,-66.6666666666667,4,2,1,60,0,0
86969,-66.6666666666667,4,2,1,5,0,0
87029,-66.6666666666667,4,2,1,60,0,0
91109,-50,4,2,1,60,0,0
91589,-66.6666666666667,4,2,1,60,0,0
92549,-100,4,2,1,60,0,0
93029,-100,4,2,1,35,0,0
98309,-66.6666666666667,4,2,1,35,0,0
98429,-66.6666666666667,4,2,1,5,0,0
99509,-66.6666666666667,4,2,1,20,0,0
99749,-100,4,2,1,20,0,0
100229,-83.3333333333333,4,2,1,35,0,0
107909,-100,4,2,1,40,0,0
114629,-100,4,2,1,35,0,0
119429,-100,4,2,1,40,0,0
121349,-76.9230769230769,4,2,1,40,0,0
122069,-100,4,2,1,40,0,0
122789,-76.9230769230769,4,2,1,40,0,0
123029,-50,4,2,1,40,0,0
123269,-50,4,2,1,30,0,0
123989,-50,4,2,1,40,0,0
124229,-50,4,2,1,60,0,0
125189,-50,4,2,3,70,0,1
125429,-50,4,2,1,70,0,1
127349,-66.6666666666667,4,2,1,70,0,1
130949,-45.4545454545455,4,2,1,70,0,1
131129,-45.4545454545455,4,2,1,5,0,1
131189,-45.4545454545455,4,2,1,70,0,1
132869,-50,4,2,3,70,0,1
133109,-50,4,2,1,70,0,1
134789,-66.6666666666667,4,2,1,70,0,1
136949,-66.6666666666667,4,2,1,60,0,1
138149,-125,4,2,1,50,0,1
138629,-125,4,2,3,70,0,0
138869,-125,4,2,1,70,0,0
139469,-76.9230769230769,4,2,1,70,0,0
142589,-58.8235294117647,4,2,1,70,0,0
143549,-50,4,2,1,70,0,0
144509,-43.4782608695652,4,2,1,70,0,0
146309,-76.9230769230769,4,2,3,70,0,0
146548,-76.9230769230769,4,2,1,70,0,0
152549,-58.8235294117647,4,2,1,70,0,0
153029,-76.9230769230769,4,2,1,70,0,0
153989,-100,4,2,1,55,0,0
154469,-100,4,2,1,40,0,0
161669,-83.3333333333333,4,2,1,35,0,0
162869,-100,4,2,1,35,0,0
163589,-83.3333333333333,4,2,1,35,0,0
164789,-100,4,2,1,35,0,0
165509,-83.3333333333333,4,2,1,35,0,0
166709,-100,4,2,1,35,0,0
167429,-83.3333333333333,4,2,1,35,0,0
169349,-83.3333333333333,4,2,1,25,0,0
173189,-125,4,2,1,25,0,0
175109,-250,4,2,1,25,0,0
182789,-250,4,2,1,15,0,0
184469,-250,4,2,1,40,0,0
184649,-250,4,2,1,5,0,0
184709,-50,4,2,1,60,0,0
186629,-66.6666666666667,4,2,1,60,0,0
188549,-50,4,2,1,60,0,0
189029,-50,4,2,1,35,0,0
189389,-50,4,2,1,60,0,0
190949,-50,4,2,1,45,0,0
191309,-50,4,2,1,60,0,0
192389,-125,4,2,1,45,0,0
192869,-50,4,2,1,60,0,0
193109,-50,4,2,1,5,0,0
193229,-50,4,2,1,60,0,0
193589,-66.6666666666667,4,2,1,60,0,0
193829,-100,4,2,1,60,0,0
194309,-58.8235294117647,4,2,3,70,0,1
194549,-58.8235294117647,4,2,1,70,0,1
196229,-41.6666666666667,4,2,1,70,0,1
196408,-41.6666666666667,4,2,1,5,0,1
196469,-41.6666666666667,4,2,1,70,0,1
198149,-50,4,2,3,70,0,1
198389,-50,4,2,1,70,0,1
200069,-58.8235294117647,4,2,1,70,0,1
201989,-58.8235294117647,4,2,1,60,0,1
203669,-66.6666666666667,4,2,1,60,0,1
205829,-66.6666666666667,4,2,1,60,0,0
206009,-66.6666666666667,4,2,1,5,0,0
206069,-66.6666666666667,4,2,1,60,0,0
207929,-66.6666666666667,4,2,1,5,0,0
207989,-66.6666666666667,4,2,1,60,0,0
209849,-66.6666666666667,4,2,1,5,0,0
209909,-66.6666666666667,4,2,1,60,0,0
219749,-50,4,2,1,60,0,0
221189,-50,4,2,1,70,0,0
221669,-66.6666666666667,4,2,1,70,0,0
228869,-66.6666666666667,4,2,1,60,0,0
240629,-250,4,2,1,60,0,0
240869,-250,4,2,1,30,0,0
241349,-50,4,2,1,60,0,0
241589,-666.666666666667,4,2,1,60,0,0
242188,-666.666666666667,4,2,1,45,0,0
242309,-50,4,2,1,60,0,0

[Colours]
Combo1 : 191,234,233
Combo2 : 208,181,216
Combo3 : 255,232,126
Combo4 : 235,121,105

[HitObjects]
168,141,1349,5,0,3:0:0:0:
168,141,1829,1,0,3:0:0:0:
168,141,2309,6,0,P|179:172|142:186,1,48,0|0,3:0|2:0,2:0:0:0:
37,218,2549,2,0,P|100:234|127:267,1,96,2|2,2:0|3:2,2:0:0:0:
228,346,2909,1,0,2:0:0:0:
228,346,3029,2,0,P|203:299|204:253,1,96,2|2,2:0|3:2,2:0:0:0:
293,253,3389,1,2,2:0:0:0:
293,253,3509,2,0,P|306:290|303:320,1,48,2|2,2:0|2:0,2:0:0:0:
406,345,3749,2,0,P|393:308|396:278,1,48,2|0,3:2|2:0,2:0:0:0:
371,220,3989,2,0,P|407:189|454:182,1,96,2|0,2:0|3:0,2:0:0:0:
454,182,4469,6,0,L|398:172,1,48,2|2,2:0|2:0,2:0:0:0:
313,123,4709,1,2,3:2:0:0:
313,123,4829,1,2,2:0:0:0:
382,160,4949,2,0,P|317:172|289:195,1,96,2|2,2:0|3:2,2:0:0:0:
256,256,5309,1,2,2:0:0:0:
256,256,5429,2,0,L|262:313,1,48,2|2,2:0|2:0,2:0:0:0:
340,294,5669,2,0,L|334:246,1,48,2|0,3:2|2:0,2:0:0:0:
209,190,5909,1,2,2:0:0:0:
127,169,6029,1,2,2:0:0:0:
81,253,6149,5,0,3:0:0:0:
81,253,6389,2,0,P|104:255|136:244,1,48,2|2,2:0|2:0,2:0:0:0:
35,179,6629,1,2,3:2:0:0:
35,179,6749,2,0,P|45:153|67:133,1,48,2|2,2:0|2:0,2:0:0:0:
225,188,6989,1,2,2:0:0:0:
225,188,7109,2,0,P|164:181|134:148,1,96,2|2,3:2|2:0,2:0:0:0:
190,93,7469,2,0,P|215:93|233:107,1,48,0|0,2:0|3:0,2:0:0:0:
232,106,7829,2,0,P|257:105|275:91,1,48,2|2,2:0|2:0,2:0:0:0:
351,0,8069,6,0,P|339:22|342:44,1,48,2|2,3:2|2:0,2:0:0:0:
431,157,8309,1,2,2:0:0:0:
395,142,8429,1,2,2:0:0:0:
350,147,8549,1,2,3:2:0:0:
319,180,8669,1,2,2:0:0:0:
317,193,8789,2,0,L|327:247,1,48,2|0,2:0|2:0,2:0:0:0:
429,346,9029,5,2,3:2:0:0:
461,333,9149,1,2,2:0:0:0:
481,296,9269,1,2,2:0:0:0:
467,258,9389,1,2,2:0:0:0:
454,244,9509,2,0,L|397:252,1,48,0|0,3:0|2:0,2:0:0:0:
283,304,9749,1,2,2:0:0:0:
338,363,9869,1,2,2:0:0:0:
247,373,9989,6,0,P|241:309|262:276,1,96,0|2,3:0|2:0,2:0:0:0:
161,180,10349,1,2,2:0:0:0:
161,180,10469,2,0,P|179:223|169:269,1,96,2|2,3:2|2:0,2:0:0:0:
257,204,10829,2,0,P|284:192|312:193,1,48,2|2,2:0|3:2,2:0:0:0:
253,118,11069,2,0,P|189:97|163:64,1,96,2|2,2:0|2:0,2:0:0:0:
76,90,11429,2,0,P|92:114|74:152,1,48,2|0,3:2|2:0,2:0:0:0:
14,154,11669,2,0,P|-2:130|16:92,1,48,2|0,2:0|2:0,2:0:0:0:
75,209,11909,5,0,3:0:0:0:
75,209,12149,2,0,P|107:213|131:227,1,48,2|2,2:0|2:0,2:0:0:0:
202,215,12389,1,2,3:2:0:0:
202,215,12509,1,2,2:0:0:0:
202,215,12629,2,0,P|218:254|217:272,1,48,2|0,2:0|2:0,2:0:0:0:
131,338,12869,2,0,P|135:314|147:294,1,48,2|2,3:2|2:0,2:0:0:0:
259,341,13109,2,0,P|254:364|242:384,1,48,2|2,2:0|2:0,2:0:0:0:
275,177,13349,2,0,P|294:163|317:157,1,48,2|2,3:2|2:0,2:0:0:0:
363,269,13589,2,0,P|343:282|320:288,1,48,2|0,2:0|2:0,2:0:0:0:
440,205,13829,5,0,3:0:0:0:
440,205,14309,2,0,P|408:202|391:182,1,48,2|2,3:2|2:0,2:0:0:0:
384,117,14549,1,2,2:0:0:0:
384,117,14669,1,2,2:0:0:0:
317,157,14789,2,0,P|303:128|312:103,1,48,2|2,3:2|2:0,2:0:0:0:
435,60,15029,2,0,P|418:112|369:108,1,96,2|0,2:0|3:0,2:0:0:0:
276,24,15389,1,2,2:0:0:0:
276,24,15509,2,0,P|301:73|306:116,1,96,2|2,2:0|3:2,2:0:0:0:
24,306,17429,6,0,L|58:312,1,24,2|0,2:3|2:0,2:0:0:0:
36,319,17549,6,0,L|70:325,1,24,2|0,2:3|2:0,2:0:0:0:
124,275,17669,6,0,B|160:280|185:245|171:242|186:204|232:206,1,135.000005149841,6|0,3:2|2:0,2:0:0:0:
284,262,17909,2,0,B|304:293|269:324|251:282|282:263,1,90.0000034332277,2|0,2:3|2:0,2:0:0:0:
389,169,18149,2,0,P|351:162|292:218,1,90.0000034332277,10|0,2:0|2:0,2:0:0:0:
374,85,18389,1,2,2:3:0:0:
293,95,18509,2,0,P|311:147|448:187,1,180.000006866455,2|0,2:0|2:0,2:0:0:0:
284,13,18869,2,0,B|226:9|205:60|225:64|191:110|142:103,1,180.000006866455,2|8,2:3|2:0,2:0:0:0:
144,104,19229,1,0,2:0:0:0:
54,72,19349,1,2,2:3:0:0:
54,72,19589,6,0,P|70:178|71:225,1,135.000005149841,2|0,3:2|2:0,2:0:0:0:
44,278,19829,2,0,B|64:309|29:340|11:298|42:279,1,90.0000034332277,2|0,2:3|2:0,2:0:0:0:
206,301,20069,2,0,P|144:287|127:263,1,90.0000034332277,10|0,2:0|2:0,2:0:0:0:
259,234,20309,1,2,2:3:0:0:
276,344,20429,2,0,P|358:299|371:204,1,180.000006866455,2|0,2:0|2:0,2:0:0:0:
227,162,20789,2,0,P|250:208|290:216,1,90.0000034332277,2|0,2:3|2:0,2:0:0:0:
445,130,21029,5,10,2:0:0:0:
403,105,21149,5,2,2:0:0:0:
356,117,21269,5,2,2:3:0:0:
332,160,21389,5,2,2:0:0:0:
456,232,21509,6,0,P|467:141|483:93,1,135.000005149841,2|0,3:2|2:0,2:0:0:0:
435,34,21749,2,0,B|455:3|420:-28|402:14|433:33,1,90.0000034332277,2|0,2:3|2:0,2:0:0:0:
253,81,21989,2,0,P|286:127|324:134,1,90.0000034332277,10|0,2:0|2:0,2:0:0:0:
268,4,22229,1,2,2:3:0:0:
326,57,22349,2,0,P|261:60|178:157,1,180.000006866455,2|0,2:0|2:0,2:0:0:0:
318,287,22709,2,0,B|323:228|351:174|351:174|326:157|293:154,1,180.000006866455,2|10,2:3|2:0,2:0:0:0:
169,227,23069,2,0,P|189:269|240:297,1,90.0000034332277,2|2,2:0|2:3,2:0:0:0:
225,293,23429,6,0,P|192:232|66:246,1,180.000006866455,2|2,3:2|2:3,2:0:0:0:
27,292,23789,1,2,2:0:0:0:
63,144,23909,2,0,P|21:174|4:223,1,90.0000034332277,10|0,2:0|2:0,2:0:0:0:
116,305,24149,2,0,P|158:275|175:226,1,90.0000034332277,2|0,2:3|2:0,2:0:0:0:
147,113,24389,6,0,P|186:159|226:164,1,90.0000034332277,2|0,3:2|2:0,2:0:0:0:
375,95,24629,1,2,2:3:0:0:
375,95,24749,1,2,2:0:0:0:
296,56,24869,5,10,2:0:0:0:
302,147,24989,1,8,2:0:0:0:
376,203,25109,1,2,3:2:0:0:
459,200,25229,1,2,3:2:0:0:
449,185,25349,6,0,B|405:183|390:221|404:224|379:259|343:254,1,135.000005149841,6|0,3:2|2:0,2:0:0:0:
253,241,25589,2,0,B|205:243|250:180|297:238|254:241,1,90.0000034332277,2|0,2:3|2:0,2:0:0:0:
117,341,25829,2,0,P|124:296|143:256,1,90.0000034332277,10|0,2:0|2:0,2:0:0:0:
291,316,26069,1,2,2:3:0:0:
210,332,26189,2,0,P|153:274|46:276,1,180.000006866455,2|0,2:0|2:0,2:0:0:0:
264,88,26549,2,0,B|296:124|296:124|311:197|249:243,1,180.000006866455,2|8,2:3|2:0,2:0:0:0:
129,185,26909,2,0,P|175:148|210:148,1,90.0000034332277,2|2,2:0|2:3,2:0:0:0:
203,146,27269,6,0,B|247:148|262:110|248:107|273:72|309:77,1,135.000005149841,2|0,3:2|2:0,2:0:0:0:
384,127,27509,2,0,B|426:138|368:185|336:115|383:127,1,90.0000034332277,2|0,2:3|2:0,2:0:0:0:
326,286,27749,2,0,P|304:229|302:179,1,90.0000034332277,10|0,2:0|2:0,2:0:0:0:
405,270,27989,1,2,2:3:0:0:
301,200,28109,2,0,P|229:232|169:322,1,180.000006866455,2|0,2:0|2:0,2:0:0:0:
380,347,28469,2,0,P|410:300|400:261,1,90.0000034332277,2|0,2:3|2:0,2:0:0:0:
236,132,28709,5,10,2:0:0:0:
275,155,28829,5,2,2:0:0:0:
319,143,28949,5,2,2:3:0:0:
342,103,29069,5,2,2:0:0:0:
225,39,29189,6,0,P|243:105|251:185,1,135.000005149841,2|0,3:2|2:0,2:0:0:0:
231,246,29429,2,0,B|184:234|216:304|274:257|232:246,1,90.0000034332277,2|0,2:3|2:0,2:0:0:0:
57,175,29669,2,0,P|113:173|147:199,1,90.0000034332277,10|0,2:0|2:0,2:0:0:0:
9,245,29909,1,2,2:3:0:0:
142,295,30029,2,0,P|55:311|2:381,1,180.000006866455,2|0,2:0|2:0,2:0:0:0:
209,370,30389,2,0,B|236:332|287:327|287:327|243:301|233:261,1,180.000006866455,2|10,2:3|2:0,2:0:0:0:
84,247,30749,2,0,P|54:300|65:329,1,90.0000034332277,2|2,2:0|2:3,2:0:0:0:
61,324,31109,6,0,P|156:303|236:260,1,180.000006866455,2|2,3:2|2:3,2:0:0:0:
161,213,31469,1,2,2:0:0:0:
260,343,31589,2,0,P|274:207|289:101,1,240,10|2,2:0|2:3,2:0:0:0:
216,85,31949,1,8,2:0:0:0:
359,133,32069,5,2,3:2:0:0:
119,189,32309,1,8,2:0:0:0:
328,47,32549,5,10,2:0:0:0:
372,43,32669,1,8,2:0:0:0:
413,61,32789,1,8,3:0:0:0:
439,97,32909,1,4,3:0:0:0:
432,177,33029,5,6,3:2:0:0:
432,177,33509,2,0,P|375:188|326:244,1,120,2|2,3:2|2:0,2:0:0:0:
332,230,33989,2,0,P|339:264|339:307,1,60,2|2,3:2|2:0,2:0:0:0:
261,301,34229,2,0,P|254:271|252:241,1,60,2|2,2:3|2:0,2:0:0:0:
419,317,34469,1,10,2:0:0:0:
419,317,34709,2,0,P|371:312|355:296,1,60,2|0,2:0|2:0,2:0:0:0:
236,221,34949,6,0,B|168:229|195:262|125:276,1,120,0|2,3:0|2:0,2:0:0:0:
62,245,35309,1,2,2:0:0:0:
62,245,35429,2,0,P|58:211|33:123,1,120,2|0,3:2|2:0,2:0:0:0:
151,74,35789,1,2,2:0:0:0:
151,74,35909,2,0,P|138:123|135:148,1,60,2|2,3:2|2:0,2:0:0:0:
72,59,36149,1,2,2:3:0:0:
72,59,36269,1,2,2:0:0:0:
142,146,36389,2,0,L|209:134,1,60,10|0,2:0|2:0,2:0:0:0:
249,69,36629,2,0,L|316:81,1,60,2|0,2:0|2:0,2:0:0:0:
427,76,36869,5,0,3:0:0:0:
426,76,37109,2,0,P|409:120|402:155,1,60,2|2,2:3|2:0,2:0:0:0:
488,208,37349,2,0,P|402:213|369:233,1,120,2|2,3:2|2:3,2:0:0:0:
329,297,37709,1,2,2:0:0:0:
329,297,37829,2,0,P|360:308|396:307,1,60,2|2,3:2|2:0,2:0:0:0:
297,213,38069,2,0,P|267:214|239:225,1,60,2|0,2:3|2:0,2:0:0:0:
156,334,38309,1,8,2:0:0:0:
156,334,38549,2,0,L|147:265,1,60,2|0,2:3|2:0,2:0:0:0:
38,173,38789,6,0,P|92:196|151:193,1,120,2|2,3:2|2:3,2:0:0:0:
198,134,39149,1,2,2:0:0:0:
198,134,39269,1,2,3:2:0:0:
217,117,39389,1,2,2:0:0:0:
248,114,39509,1,2,2:3:0:0:
276,125,39629,1,2,2:0:0:0:
313,193,39749,1,2,3:2:0:0:
332,210,39869,1,2,2:0:0:0:
363,213,39989,1,2,2:3:0:0:
391,202,40109,1,2,2:0:0:0:
440,138,40229,5,10,2:0:0:0:
440,138,40349,1,2,2:0:0:0:
440,138,40469,1,2,2:3:0:0:
273,47,40709,6,0,B|226:43|191:67|191:67|190:84|205:103,1,120,6|2,3:0|2:0,2:0:0:0:
347,89,41069,1,2,2:0:0:0:
347,89,41189,2,0,B|373:50|370:7|370:7|356:-1|332:2,1,120,2|2,3:2|2:3,2:0:0:0:
273,129,41549,2,0,L|288:259,1,120,2|2,2:0|2:0,2:0:0:0:
396,296,41909,1,2,2:3:0:0:
366,283,42029,1,2,2:0:0:0:
285,330,42149,2,0,L|216:341,1,60,10|0,2:0|2:0,2:0:0:0:
141,220,42389,2,0,L|210:231,1,60,2|0,2:3|2:0,2:0:0:0:
67,324,42629,6,0,B|74:269|29:288|45:205,1,120,0|2,3:0|2:3,2:0:0:0:
95,153,42989,1,2,2:0:0:0:
95,153,43109,2,0,P|124:121|142:94,1,60,2|2,3:2|2:0,2:0:0:0:
0,84,43349,2,0,P|13:125|27:154,1,60,2|0,2:3|2:0,2:0:0:0:
141,220,43589,1,2,3:2:0:0:
141,220,43709,2,0,P|175:214|213:201,1,60,2|2,2:0|2:3,2:0:0:0:
300,76,43949,1,2,2:0:0:0:
373,115,44069,2,0,B|305:121|334:148|258:160,1,120,10|2,2:0|2:3,2:0:0:0:
214,101,44429,5,2,2:0:0:0:
214,101,44549,2,0,L|232:353,2,240,0|0|0,3:0|3:0|3:0,2:0:0:0:
84,234,45869,1,2,2:0:0:0:
148,274,45989,2,0,B|190:286|217:249|210:234|201:217|232:173|281:184,1,180,8|0,2:0|2:0,2:0:0:0:
331,248,46469,6,0,P|318:296|306:325,1,60,2|2,3:2|2:0,2:0:0:0:
202,272,46709,2,0,P|214:223|226:194,1,60,2|2,2:3|2:0,2:0:0:0:
414,103,46949,1,2,3:2:0:0:
410,132,47069,1,2,2:0:0:0:
389,153,47189,1,2,2:3:0:0:
360,158,47309,1,2,2:0:0:0:
303,107,47429,5,8,2:0:0:0:
486,174,47669,1,8,2:0:0:0:
486,174,47909,1,8,2:0:0:0:
425,226,48029,1,8,2:0:0:0:
389,153,48149,1,8,3:0:0:0:
496,304,48389,6,0,P|390:320|349:378,1,167.999994873047,6|0,3:2|3:0,2:0:0:0:
354,363,49349,2,0,P|296:384|265:331,1,125.999996154785,0|0,3:0|2:0,2:0:0:0:
327,282,49829,1,8,2:0:0:0:
123,338,50309,6,0,P|114:268|79:173,2,167.999994873047,0|0|0,3:0|3:0|3:0,2:0:0:0:
49,366,51509,1,2,2:3:0:0:
49,366,51749,1,8,2:0:0:0:
176,159,51989,5,2,2:3:0:0:
176,159,52229,2,0,P|244:166|350:204,2,167.999994873047,0|0|0,3:0|3:0|3:0,2:0:0:0:
347,224,53429,1,2,2:3:0:0:
347,224,53669,2,0,P|360:176|376:135,1,83.9999974365235,8|2,2:0|2:3,2:0:0:0:
179,73,54149,6,0,B|98:73|137:113|54:114,2,125.999996154785,0|2|2,3:0|2:0|2:3,2:0:0:0:
258,184,55109,2,0,P|217:165|167:153,1,83.9999974365235,0|2,3:0|2:3,2:0:0:0:
30,247,55589,1,8,2:0:0:0:
100,216,55709,1,8,2:0:0:0:
145,286,55829,1,8,3:0:0:0:
145,286,56069,6,0,B|202:262|260:317|248:323|238:329|276:386|352:366,1,240,6|2,3:2|3:2,2:0:0:0:
405,311,56669,2,0,P|411:272|419:239,1,60,2|2,2:0|2:3,2:0:0:0:
282,136,56909,1,2,2:0:0:0:
282,136,57029,2,0,P|299:231|303:261,1,120,2|2,3:2|2:3,2:0:0:0:
424,131,57509,5,8,2:0:0:0:
427,134,57989,2,0,B|362:155|362:155|298:137|255:87|269:12,1,240,2|2,3:2|3:2,2:0:0:0:
267,30,58589,2,0,P|299:24|307:52,1,60,2|2,2:0|2:3,2:0:0:0:
196,116,58829,1,2,2:0:0:0:
135,75,58949,2,0,P|64:74|25:119,1,120,2|2,3:2|2:3,2:0:0:0:
66,214,59309,1,2,2:0:0:0:
66,214,59429,2,0,P|137:215|176:170,1,120,8|2,2:0|2:3,2:0:0:0:
169,183,59789,1,0,2:0:0:0:
22,119,59909,6,0,P|124:129|229:193,1,215.999993408203,6|0,3:2|3:0,2:0:0:0:
263,246,60389,1,8,2:0:0:0:
22,119,60629,2,0,P|124:124|187:28,1,215.999993408203,0|0,3:0|2:0,2:0:0:0:
107,18,61109,2,0,P|74:19|47:51,1,71.9999978027344,2|0,2:3|2:0,2:0:0:0:
220,185,61349,1,8,2:0:0:0:
288,164,61469,1,8,3:0:0:0:
270,99,61589,1,8,3:0:0:0:
204,117,61709,1,4,3:0:0:0:
301,180,61829,6,0,B|349:218|430:197|391:155|444:127|502:141|502:141|528:168|528:168|517:216,2,288,14|10|10,3:2|3:2|3:2,2:0:0:0:
330,44,62669,2,0,B|355:48|355:48|362:66|362:66|349:123,1,96,2|2,2:0|2:3,2:0:0:0:
232,241,62909,1,8,2:0:0:0:
232,241,63029,2,0,B|137:218|137:218|157:105,1,192,8|8,3:0|2:0,2:0:0:0:
187,59,63389,5,8,3:0:0:0:
120,122,63509,5,4,3:0:0:0:
175,183,63629,5,4,3:0:0:0:
113,290,63749,6,0,B|90:309|114:343|114:343|152:331|148:300,1,120,14|0,3:2|2:0,2:0:0:0:
109,135,63989,1,2,2:3:0:0:
109,135,64109,2,0,B|104:105|62:109|62:109|53:148|82:160,1,120,2|8,2:0|2:0,2:0:0:0:
248,212,64349,1,2,2:0:0:0:
248,212,64469,2,0,B|275:222|293:184|293:184|264:157|239:176,1,120,2|0,2:3|2:0,2:0:0:0:
32,219,64709,6,0,B|4:208|-13:246|-13:246|15:273|40:254,1,120,2|0,3:2|2:0,2:0:0:0:
211,99,64949,1,2,2:3:0:0:
211,99,65069,2,0,B|234:80|210:45|210:45|171:58|176:88,1,120,2|8,2:0|2:0,2:0:0:0:
229,315,65309,1,2,2:0:0:0:
229,315,65429,2,0,B|233:344|275:340|275:340|284:301|255:289,1,120,2|0,2:3|2:0,2:0:0:0:
36,114,65669,5,2,3:2:0:0:
109,135,65789,1,2,2:0:0:0:
136,210,65909,2,0,P|128:276|102:306,1,90.0000034332277,2|0,2:3|2:0,2:0:0:0:
328,193,66149,2,0,P|336:127|362:97,1,90.0000034332277,10|0,2:0|2:0,2:0:0:0:
211,174,66389,1,2,2:3:0:0:
211,174,66509,1,2,2:0:0:0:
251,100,66629,2,0,P|225:252|219:308,1,180.000006866455,0|2,3:0|2:3,2:0:0:0:
280,340,66989,1,0,2:0:0:0:
280,340,67109,2,0,P|320:337|354:292,1,90.0000034332277,10|0,2:0|2:0,2:0:0:0:
298,172,67349,5,2,2:3:0:0:
298,172,67469,1,2,2:0:0:0:
413,228,67589,2,0,P|351:209|289:107,1,180.000006866455,2|2,3:2|2:3,2:0:0:0:
399,118,67949,1,2,2:0:0:0:
287,36,68069,2,0,P|225:55|163:157,1,180.000006866455,10|2,2:0|2:3,2:0:0:0:
298,172,68429,1,2,2:0:0:0:
177,261,68549,2,0,P|115:242|53:140,1,180.000006866455,2|2,3:2|2:3,2:0:0:0:
163,91,68909,1,2,2:0:0:0:
163,91,69029,2,0,P|197:109|225:158,1,90.0000034332277,10|0,2:0|2:0,2:0:0:0:
175,346,69269,1,2,2:3:0:0:
164,356,69509,6,0,B|238:371|238:371|300:306|300:306|344:316|344:316|353:328|353:328|347:362,2,240,6|2|10,3:2|3:0|2:0,2:0:0:0:
84,282,70109,5,10,2:0:0:0:
183,224,70229,5,10,2:0:0:0:
253,384,70349,6,0,P|273:222|315:104,1,240,6|0,3:2|2:0,2:0:0:0:
437,229,70709,6,0,P|431:289|419:353,1,120,2|0,3:0|2:0,2:0:0:0:
198,212,70949,5,10,2:0:0:0:
239,146,71069,5,8,3:0:0:0:
321,197,71189,5,4,3:0:0:0:
392,123,71309,5,4,3:0:0:0:
437,229,71429,6,0,B|453:253|489:233|489:233|481:194|450:195,1,120,6|0,3:2|2:0,2:0:0:0:
283,216,71669,1,2,2:3:0:0:
283,216,71789,2,0,B|252:217|252:260|252:260|290:273|305:245,1,120,2|8,2:0|2:0,2:0:0:0:
374,86,72029,2,0,B|386:60|350:38|350:38|320:64|337:91,2,120,2|2|2,2:0|2:3|2:0,2:0:0:0:
358,302,72389,6,0,B|344:328|380:349|380:349|409:324|393:297,1,120,2|0,3:2|2:0,2:0:0:0:
258,111,72629,1,2,2:3:0:0:
258,111,72749,2,0,B|241:86|204:106|204:106|213:146|243:144,1,120,2|8,2:0|2:0,2:0:0:0:
474,116,72989,1,2,2:0:0:0:
474,116,73109,2,0,B|503:115|503:72|503:72|465:59|450:87,1,120,2|0,2:3|2:0,2:0:0:0:
255,280,73349,6,0,P|193:217|101:205,1,180.000006866455,2|2,3:2|2:3,2:0:0:0:
43,249,73709,1,0,2:0:0:0:
189,319,73829,2,0,P|147:282|103:281,1,90.0000034332277,10|0,2:0|2:0,2:0:0:0:
334,277,74069,2,0,P|377:268|408:236,1,90.0000034332277,2|2,2:3|2:0,2:0:0:0:
217,172,74309,1,0,3:0:0:0:
217,172,74429,1,8,2:0:0:0:
247,100,74549,2,0,P|252:192|255:307,1,180.000006866455,2|8,2:3|3:0,2:0:0:0:
290,256,74909,5,8,2:0:0:0:
213,198,75029,5,8,2:0:0:0:
288,125,75149,5,4,3:0:0:0:
205,61,75269,5,14,3:2:0:0:
260,336,75509,1,14,3:2:0:0:
286,44,76229,5,10,2:0:0:0:
237,354,76469,1,10,2:0:0:0:
237,354,76949,6,0,L|190:348,1,24,2|0,2:3|2:0,2:0:0:0:
234,339,77069,6,0,L|187:333,1,24,2|0,2:3|2:0,2:0:0:0:
154,283,77189,6,0,B|232:296|187:334|269:343,1,135.000005149841,6|0,3:2|2:0,2:0:0:0:
339,290,77429,2,0,B|370:270|401:305|359:323|340:292,1,90.0000034332277,2|0,2:3|2:0,2:0:0:0:
252,214,77669,2,0,P|256:169|266:117,1,90.0000034332277,10|0,2:0|2:0,2:0:0:0:
278,52,77909,1,2,2:3:0:0:
182,103,78029,2,0,P|245:91|365:81,1,180.000006866455,2|0,2:0|2:0,2:0:0:0:
169,192,78389,2,0,P|79:198|-9:213,1,180.000006866455,2|8,2:3|2:0,2:0:0:0:
47,351,78749,2,0,P|91:347|136:340,1,90.0000034332277,2|2,2:0|2:3,2:0:0:0:
136,340,79109,6,0,B|152:306|127:271|119:285|88:258|100:216,1,135.000005149841,2|0,3:2|2:0,2:0:0:0:
115,145,79349,2,0,B|95:114|130:83|148:125|117:144,1,90.0000034332277,2|0,2:3|2:0,2:0:0:0:
184,221,79589,2,0,P|231:193|278:188,1,90.0000034332277,10|0,2:0|2:0,2:0:0:0:
325,240,79829,1,2,2:3:0:0:
223,108,79949,2,0,P|284:199|380:189,1,180.000006866455,2|0,2:0|2:0,2:0:0:0:
373,45,80309,2,0,P|325:97|321:120,1,90.0000034332277,2|0,2:3|2:0,2:0:0:0:
431,345,80549,5,10,2:0:0:0:
400,315,80669,5,2,2:0:0:0:
357,303,80789,5,2,2:3:0:0:
323,311,80909,5,2,2:0:0:0:
484,292,81029,6,0,P|406:316|355:357,1,135.000005149841,2|0,3:2|2:0,2:0:0:0:
281,364,81269,2,0,B|301:333|266:302|248:344|279:363,1,90.0000034332277,2|0,2:3|2:0,2:0:0:0:
336,262,81509,2,0,P|343:218|325:178,1,90.0000034332277,10|0,2:0|2:0,2:0:0:0:
152,224,81749,1,2,2:3:0:0:
95,176,81869,2,0,P|214:198|265:239,1,180.000006866455,2|0,2:0|2:0,2:0:0:0:
72,93,82229,2,0,P|27:123|11:154,1,90.0000034332277,2|0,2:3|2:0,2:0:0:0:
243,116,82469,2,0,P|228:54|210:26,1,90.0000034332277,10|0,2:0|2:0,2:0:0:0:
37,233,82709,2,0,P|52:295|70:323,1,90.0000034332277,2|0,2:3|2:0,2:0:0:0:
229,361,82949,6,0,P|248:281|294:190,1,180.000006866455,2|2,3:2|2:3,2:0:0:0:
360,159,83309,1,2,2:0:0:0:
340,284,83429,2,0,P|409:258|434:255,1,90.0000034332277,10|0,2:0|2:0,2:0:0:0:
300,115,83669,2,0,P|256:105|215:86,1,90.0000034332277,2|0,2:3|2:0,2:0:0:0:
20,263,83909,5,2,3:2:0:0:
41,258,84029,1,2,2:0:0:0:
44,274,84149,1,2,2:3:0:0:
24,280,84269,1,2,2:0:0:0:
41,178,84389,5,10,2:0:0:0:
114,196,84509,1,8,2:0:0:0:
142,274,84629,1,8,3:0:0:0:
116,346,84749,1,0,3:0:0:0:
102,338,84869,6,0,B|140:266|219:292|219:292,1,135.000005149841,6|0,3:2|2:0,2:0:0:0:
295,353,85109,2,0,B|247:355|292:292|339:350|296:353,1,90.0000034332277,2|0,2:3|2:0,2:0:0:0:
384,259,85349,2,0,B|326:280|298:232|298:232,1,90.0000034332277,10|0,2:0|2:0,2:0:0:0:
394,89,85589,1,2,2:3:0:0:
447,142,85709,2,0,B|402:217|388:315|388:315,1,180.000006866455,2|0,2:0|2:0,2:0:0:0:
283,161,86069,2,0,B|277:120|254:68|254:68,1,90.0000034332277,2|0,2:3|2:0,2:0:0:0:
479,44,86309,5,8,2:0:0:0:
427,102,86429,1,2,2:0:0:0:
367,66,86549,1,2,2:3:0:0:
342,84,86669,1,2,2:0:0:0:
322,69,86789,2,0,B|286:63|286:63|231:99|231:99|199:92,1,135.000005149841,2|0,3:2|2:0,2:0:0:0:
160,10,87029,2,0,B|167:89|167:89|165:93|165:93|174:189,1,180.000006866455,2|10,2:3|2:0,2:0:0:0:
86,258,87389,1,2,2:0:0:0:
86,258,87509,1,2,2:3:0:0:
71,174,87629,6,0,B|139:186|139:186|209:300|209:300|287:315,1,270.000010299683,2|2,2:0|2:3,2:0:0:0:
340,267,88109,1,2,2:0:0:0:
340,267,88229,2,0,B|347:226|347:226|350:225|350:225|361:172,1,90.0000034332277,10|2,2:0|2:0,2:0:0:0:
295,138,88469,2,0,B|281:99|281:99|283:96|283:96|266:45,1,90.0000034332277,2|2,2:3|2:0,2:0:0:0:
432,148,88709,2,0,B|351:151|351:151|349:154|349:154|250:159,1,180.000006866455,2|2,3:2|2:3,2:0:0:0:
183,128,89069,5,2,2:0:0:0:
148,206,89189,2,0,B|94:220|67:174|67:174,1,90.0000034332277,10|0,2:0|2:0,2:0:0:0:
127,16,89429,2,0,B|181:2|208:48|208:48,1,90.0000034332277,2|2,2:3|2:0,2:0:0:0:
201,298,89669,2,0,B|176:264|176:264|182:186|256:156,1,180.000006866455,0|2,3:0|2:3,2:0:0:0:
346,229,90029,1,0,2:0:0:0:
346,229,90149,2,0,B|309:273|260:246|260:246,1,90.0000034332277,10|0,2:0|2:0,2:0:0:0:
228,69,90389,2,0,B|265:25|314:52|314:52,1,90.0000034332277,2|0,2:3|2:0,2:0:0:0:
388,158,90629,6,0,B|375:236|375:236|378:240|378:240|364:336,1,180.000006866455,2|2,3:2|2:3,2:0:0:0:
137,370,90989,1,2,2:0:0:0:
137,370,91109,2,0,P|119:163|100:6,1,360,8|8,2:0|2:0,2:0:0:0:
140,96,91589,2,0,P|176:118|222:112,1,90.0000034332277,10|8,2:0|3:0,2:0:0:0:
339,0,91829,2,0,P|301:20|284:63,1,90.0000034332277,4|8,3:0|2:0,2:0:0:0:
387,141,92069,5,10,3:0:0:0:
342,134,92189,1,8,3:0:0:0:
300,147,92309,1,4,3:0:0:0:
268,178,92429,1,4,3:0:0:0:
283,263,92549,6,0,B|219:281|176:228|206:206|138:147|72:186,1,240,6|10,3:2|2:0,2:0:0:0:
29,242,93269,1,2,2:0:0:0:
307,335,93509,2,0,P|312:289|318:263,1,60,2|2,3:2|2:0,2:0:0:0:
385,243,93749,2,0,P|421:214|443:199,1,60,2|2,2:3|2:0,2:0:0:0:
504,231,93989,1,10,2:0:0:0:
322,163,94229,6,0,L|326:205,3,30,2|2|2|2,2:0|2:0|2:0|2:0,2:0:0:0:
317,87,94469,1,0,3:0:0:0:
505,121,94709,5,2,2:0:0:0:
505,121,94949,2,0,P|436:126|402:91,1,120,2|2,3:2|2:3,2:0:0:0:
365,25,95309,1,2,2:0:0:0:
317,87,95429,2,0,P|264:94|245:113,1,60,10|0,2:0|2:0,2:0:0:0:
274,175,95669,2,0,P|327:168|346:149,1,60,2|2,2:0|2:0,2:0:0:0:
193,50,95909,1,2,3:2:0:0:
178,47,96149,5,10,2:0:0:0:
185,123,96269,1,10,2:0:0:0:
191,200,96389,1,0,3:0:0:0:
324,307,96629,6,0,P|332:255|363:170,1,120,2|8,2:0|2:0,2:0:0:0:
442,212,96989,2,0,P|434:264|403:349,1,120,2|2,2:0|2:0,2:0:0:0:
252,351,97349,1,2,3:2:0:0:
252,351,97589,2,0,B|220:348|201:326|217:320|188:293|146:301,1,120,2|8,2:3|2:0,2:0:0:0:
77,345,97949,1,2,2:0:0:0:
66,233,98069,6,0,L|59:185,3,30,2|2|2|2,2:0|2:0|2:0|2:0,2:0:0:0:
154,187,98309,2,0,L|142:279,1,90.0000034332277,14|0,2:0|2:0,2:0:0:0:
31,69,99509,1,2,2:3:0:0:
31,69,99629,1,2,2:3:0:0:
31,69,99749,2,0,P|131:51|174:47,1,120,2|6,2:3|3:0,2:0:0:0:
149,49,100109,1,10,3:0:0:0:
220,201,100229,6,0,P|238:112|259:34,1,143.999995605469,6|2,3:2|2:3,2:0:0:0:
301,212,100589,1,0,2:0:0:0:
301,212,100709,2,0,P|347:232|385:221,1,71.9999978027344,10|0,2:0|2:0,2:0:0:0:
387,136,100949,1,2,2:3:0:0:
387,136,101069,2,0,P|341:116|303:127,1,71.9999978027344,2|0,2:0|3:0,2:0:0:0:
257,278,101309,1,2,2:0:0:0:
279,300,101429,1,2,2:3:0:0:
328,315,101549,1,2,2:0:0:0:
393,300,101669,1,10,2:0:0:0:
220,201,101909,2,0,P|177:208|126:224,1,71.9999978027344,2|0,2:3|2:0,2:0:0:0:
67,325,102149,5,0,3:0:0:0:
67,325,102389,2,0,P|56:274|45:233,1,71.9999978027344,2|2,2:3|2:0,2:0:0:0:
140,232,102629,2,0,P|151:283|162:324,2,71.9999978027344,10|2|2,2:0|2:0|2:3,2:0:0:0:
17,121,103109,1,2,3:2:0:0:
39,100,103229,1,2,2:0:0:0:
79,87,103349,1,2,2:3:0:0:
135,102,103469,1,2,2:0:0:0:
166,161,103589,2,0,P|210:150|248:121,1,71.9999978027344,8|2,2:0|2:0,2:0:0:0:
314,9,103829,2,0,P|296:40|289:75,1,71.9999978027344,2|0,2:3|2:0,2:0:0:0:
427,227,104069,6,0,P|328:178|306:118,1,143.999995605469,0|2,3:0|2:3,2:0:0:0:
488,163,104429,2,0,P|505:194|512:229,1,71.9999978027344,2|8,2:0|2:0,2:0:0:0:
364,287,104669,1,0,2:0:0:0:
364,287,104789,2,0,P|346:255|339:220,1,71.9999978027344,2|0,2:3|2:0,2:0:0:0:
431,41,105029,2,0,P|406:162|404:210,1,143.999995605469,0|2,3:0|2:3,2:0:0:0:
497,319,105389,2,0,P|505:273|512:217,1,71.9999978027344,2|8,2:0|2:0,2:0:0:0:
339,220,105629,1,0,2:0:0:0:
339,220,105749,2,0,P|330:265|323:321,1,71.9999978027344,2|0,2:3|2:0,2:0:0:0:
404,338,105989,6,0,P|319:312|222:394,1,215.999993408203,0|0,3:0|2:0,2:0:0:0:
142,383,106469,1,10,2:0:0:0:
103,376,106589,1,2,2:0:0:0:
70,356,106709,1,2,2:3:0:0:
49,328,106829,1,2,2:0:0:0:
32,252,106949,6,0,P|26:214|18:166,1,71.9999978027344,0|0,3:0|2:0,2:0:0:0:
208,171,107189,2,0,P|213:133|221:85,1,71.9999978027344,8|0,2:0|2:0,2:0:0:0:
113,85,107429,5,10,2:0:0:0:
120,161,107549,1,8,2:0:0:0:
126,238,107669,1,2,3:2:0:0:
263,327,107909,6,0,B|309:357|309:357|369:348|423:290|422:227,1,240,6|8,3:2|2:0,2:0:0:0:
309,165,108629,2,0,B|313:197|313:197|312:198|312:198|318:239,1,60,2|0,2:3|2:0,2:0:0:0:
432,153,108869,2,0,B|436:121|436:121|435:120|435:120|441:79,2,60,0|2|2,3:0|2:3|2:3,2:0:0:0:
340,67,109349,2,0,P|275:74|220:117,1,120,10|2,2:0|2:3,2:0:0:0:
187,172,109709,5,2,2:3:0:0:
187,172,109829,2,0,P|102:171|14:41,2,240,0|8|0,3:0|2:0|3:0,2:0:0:0:
249,120,111029,2,0,P|234:52|214:10,1,60,2|0,2:3|2:0,2:0:0:0:
145,46,111269,1,10,2:0:0:0:
187,172,111509,2,0,P|128:134|84:118,1,60,2|0,2:3|2:0,2:0:0:0:
10,251,111749,6,0,P|100:240|243:295,1,240,0|8,3:0|2:0,2:0:0:0:
247,324,112349,2,0,P|245:365|243:384,1,60,2|0,2:3|2:0,2:0:0:0:
355,325,112589,1,2,2:3:0:0:
355,325,112709,2,0,P|357:284|359:265,1,60,0|2,3:0|2:0,2:0:0:0:
259,207,112949,2,0,P|305:198|347:175,1,60,2|0,2:3|2:0,2:0:0:0:
462,97,113189,2,0,P|408:163|395:213,1,120,10|2,2:0|2:3,2:0:0:0:
397,195,113549,1,0,2:0:0:0:
343,105,113669,6,0,P|259:98|204:8,1,180,2|2,3:2|2:0,2:0:0:0:
205,25,114149,2,0,P|231:41|245:68,1,60,8|2,2:0|2:0,2:0:0:0:
61,148,114389,1,2,2:3:0:0:
61,148,114509,1,2,2:0:0:0:
61,148,114629,2,0,P|114:78|162:78,1,120,2|2,3:2|2:3,2:0:0:0:
174,153,114989,1,2,2:0:0:0:
174,153,115109,2,0,P|151:182|107:192,1,60,10|0,2:0|2:0,2:0:0:0:
0,283,115349,5,2,2:3:0:0:
49,269,115469,1,2,2:0:0:0:
93,301,115589,2,0,B|151:288|194:325|170:338|205:369|266:352,1,180,6|2,3:2|2:0,2:0:0:0:
316,312,116069,2,0,P|335:234|353:184,1,120,10|2,2:0|2:3,2:0:0:0:
348,196,116429,1,2,2:0:0:0:
227,241,116549,2,0,P|213:172|195:109,1,120,2|2,3:2|2:3,2:0:0:0:
199,124,116909,1,0,2:0:0:0:
294,133,117029,2,0,P|310:93|325:61,1,60,8|0,2:0|2:0,2:0:0:0:
384,40,117269,1,2,2:3:0:0:
70,24,117509,6,0,B|113:31|113:31|163:117|163:117|205:125,1,180,2|2,3:2|2:0,2:0:0:0:
167,67,117989,2,0,B|150:68|150:68|131:88|131:88|115:89,1,60,10|0,2:0|2:0,2:0:0:0:
228,200,118229,1,2,2:3:0:0:
228,200,118349,1,2,2:0:0:0:
228,200,118469,2,0,P|239:117|252:48,1,120,2|2,3:2|2:3,2:0:0:0:
263,7,118829,1,2,2:0:0:0:
263,7,118949,1,10,2:0:0:0:
357,180,119189,1,2,2:0:0:0:
59,199,119429,6,0,P|152:209|183:295,1,180,6|0,3:2|2:0,2:0:0:0:
168,356,119909,1,8,2:0:0:0:
379,261,120149,2,0,P|323:336|233:320,1,180,2|2,2:3|2:0,2:0:0:0:
184,280,120629,1,2,2:3:0:0:
457,253,120869,2,0,P|465:201|471:172,1,60,8|0,2:0|2:0,2:0:0:0:
301,111,121109,2,0,P|306:140|310:170,1,60,2|2,2:3|2:0,2:0:0:0:
499,105,121349,6,0,P|366:78|245:71,1,233.999989288331,6|0,3:2|3:0,2:0:0:0:
196,95,121829,1,10,2:0:0:0:
432,68,122069,2,0,P|370:81|308:86,1,120,2|2,3:0|2:0,2:0:0:0:
254,39,122429,1,8,2:0:0:0:
254,39,122549,1,2,3:0:0:0:
34,110,122789,6,0,P|84:81|118:47,1,77.9999964294435,10|8,2:0|3:0,2:0:0:0:
47,205,123029,6,0,P|130:198|178:181,1,120,4|0,3:0|2:0,2:0:0:0:
447,316,123269,6,0,P|319:264|181:256,1,240,14|0,2:0|3:0,2:0:0:0:
218,253,123629,1,0,3:0:0:0:
216,271,123749,1,0,3:0:0:0:
225,284,123869,1,0,3:0:0:0:
216,300,123989,2,0,P|228:218|239:159,1,120,6|0,3:0|3:0,2:0:0:0:
415,49,124229,5,14,2:0:0:0:
411,125,124349,2,0,P|362:163|291:147,1,120,14|0,2:0|2:0,2:0:0:0:
47,120,124589,5,10,2:0:0:0:
88,55,124709,2,0,P|146:50|191:87,1,120,14|0,2:0|2:0,2:0:0:0:
266,349,124949,5,14,2:0:0:0:
216,249,125069,5,8,2:0:0:0:
293,150,125189,6,0,B|318:159|353:153|353:153|319:166|303:185,1,120,14|0,3:2|2:0,2:0:0:0:
138,146,125429,1,2,2:3:0:0:
138,146,125549,2,0,B|133:119|113:92|113:92|138:115|166:119,1,120,2|8,2:0|2:0,2:0:0:0:
215,285,125789,1,2,2:0:0:0:
215,285,125909,2,0,B|194:302|180:333|180:333|188:299|177:274,1,120,2|0,2:3|2:0,2:0:0:0:
230,67,126149,6,0,B|248:48|259:15|259:15|255:50|268:74,1,120,2|0,3:2|2:0,2:0:0:0:
100,249,126389,1,2,2:3:0:0:
100,249,126509,2,0,B|74:242|40:248|40:248|72:235|87:212,1,120,2|8,2:0|2:0,2:0:0:0:
323,263,126749,2,0,B|329:288|352:314|352:314|324:293|297:292,2,120,2|2|0,2:0|2:3|2:0,2:0:0:0:
84,99,127109,5,2,3:2:0:0:
141,156,127229,1,2,2:0:0:0:
218,172,127349,2,0,P|285:154|308:136,1,90.0000034332277,2|0,2:3|2:0,2:0:0:0:
196,320,127589,2,0,P|129:338|106:356,1,90.0000034332277,10|0,2:0|2:0,2:0:0:0:
287,234,127829,1,2,2:3:0:0:
287,234,127949,1,2,2:0:0:0:
218,172,128069,2,0,P|308:185|373:257,1,180.000006866455,0|2,3:0|2:3,2:0:0:0:
297,367,128429,1,0,2:0:0:0:
297,367,128549,2,0,P|280:313|288:270,1,90.0000034332277,10|0,2:0|2:0,2:0:0:0:
502,142,128789,2,0,P|458:180|419:185,1,90.0000034332277,2|0,2:3|2:0,2:0:0:0:
274,16,129029,6,0,B|263:72|311:97|325:66|358:127|341:175,1,180.000006866455,2|2,3:2|2:3,2:0:0:0:
351,18,129389,1,2,2:0:0:0:
265,150,129509,2,0,B|208:154|196:207|229:213|182:262|129:263,1,180.000006866455,10|2,2:0|2:3,2:0:0:0:
284,228,129869,1,2,2:0:0:0:
135,180,129989,2,0,B|115:130|61:128|64:162|-1:125|-3:75,1,180.000006866455,2|2,3:2|2:3,2:0:0:0:
69,218,130349,1,2,2:0:0:0:
74,59,130469,2,0,P|116:24|158:14,2,90.0000034332277,10|0|2,2:0|2:0|2:3,2:0:0:0:
74,59,130949,6,0,B|114:70|114:70|148:184|148:184|193:199,1,198.000006042481,6|0,3:2|2:0,2:0:0:0:
327,102,131189,2,0,B|308:120|308:120|234:103|234:103|211:123,1,132.00000402832,2|0,3:0|2:0,2:0:0:0:
106,261,131429,5,10,2:0:0:0:
196,339,131549,5,10,2:0:0:0:
259,243,131669,5,10,2:0:0:0:
341,330,131789,6,0,P|358:185|380:55,1,264.000008056641,6|0,3:2|2:0,2:0:0:0:
114,107,132149,6,0,P|105:184|94:244,1,132.00000402832,6|0,3:0|2:0,2:0:0:0:
456,206,132389,6,0,P|345:177|187:382,1,396.000012084961,10|4,2:0|3:0,2:0:0:0:
164,101,132869,6,0,B|143:83|131:50|131:50|137:86|128:109,1,120,6|0,3:2|2:0,2:0:0:0:
245,237,133109,1,2,2:3:0:0:
245,237,133229,2,0,B|270:227|304:231|304:231|271:221|254:199,1,120,2|8,2:0|2:0,2:0:0:0:
87,240,133469,1,2,2:0:0:0:
87,240,133589,2,0,B|82:266|62:294|62:294|88:270|115:267,1,120,2|2,2:3|2:0,2:0:0:0:
267,118,133829,6,0,B|274:92|297:66|297:66|269:87|241:88,1,120,2|2,3:2|2:0,2:0:0:0:
175,322,134069,1,2,2:3:0:0:
175,322,134189,2,0,B|194:341|205:373|205:373|201:339|213:314,1,120,2|8,2:0|2:0,2:0:0:0:
51,135,134429,1,2,2:0:0:0:
51,135,134549,2,0,B|27:142|-7:135|-7:135|25:149|38:172,1,120,2|0,2:3|2:0,2:0:0:0:
208,203,134789,6,0,P|286:188|304:168,1,90.0000034332277,2|0,3:2|2:0,2:0:0:0:
258,43,135029,2,0,P|180:58|162:78,1,90.0000034332277,2|0,2:3|2:0,2:0:0:0:
5,170,135269,2,0,P|86:190|156:268,1,180.000006866455,10|2,2:0|2:3,2:0:0:0:
264,363,135629,1,2,2:0:0:0:
264,363,135749,2,0,P|236:315|227:274,1,90.0000034332277,0|8,3:0|2:0,2:0:0:0:
383,124,135989,2,0,P|340:195|317:321,1,180.000006866455,2|8,2:3|3:0,2:0:0:0:
365,234,136349,5,8,2:0:0:0:
291,172,136469,5,10,2:0:0:0:
396,119,136589,5,8,3:0:0:0:
311,53,136709,5,14,3:2:0:0:
373,332,136949,1,14,3:2:0:0:
449,39,137669,5,10,2:0:0:0:
361,348,137909,1,10,2:0:0:0:
276,213,138149,6,0,L|271:163,3,48,8|8|4|8,3:0|3:0|3:0|3:0,2:0:0:0:
296,135,138629,5,6,3:2:0:0:
272,124,138749,1,2,2:0:0:0:
240,122,138869,1,2,2:3:0:0:
199,128,138989,1,2,2:0:0:0:
169,152,139109,1,10,2:0:0:0:
146,190,139229,1,2,2:0:0:0:
140,238,139349,1,2,2:3:0:0:
183,304,139469,6,0,B|227:307|253:278|228:267|279:243|322:254,1,155.999992858887,2|2,2:0|3:2,2:0:0:0:
379,305,139829,2,0,P|376:348|369:390,1,77.9999964294435,2|2,2:3|2:0,2:0:0:0:
491,279,140069,1,10,2:0:0:0:
491,279,140189,1,2,2:0:0:0:
491,279,140309,2,0,P|494:236|501:194,1,77.9999964294435,2|2,2:3|2:0,2:0:0:0:
455,97,140549,5,2,3:2:0:0:
416,124,140669,1,2,2:0:0:0:
373,132,140789,1,2,2:3:0:0:
330,118,140909,1,2,2:0:0:0:
275,60,141029,5,10,2:0:0:0:
248,41,141149,1,2,2:0:0:0:
219,36,141269,1,2,2:3:0:0:
190,45,141389,1,2,2:0:0:0:
140,100,141509,5,2,3:2:0:0:
140,100,141629,1,2,2:0:0:0:
140,100,141749,2,0,P|144:143|146:188,1,77.9999964294435,2|2,2:3|2:0,2:0:0:0:
88,338,141989,1,10,2:0:0:0:
51,289,142109,1,2,2:0:0:0:
64,230,142229,2,0,P|135:206|245:192,1,155.999992858887,2|0,2:3|3:0,2:0:0:0:
384,328,142589,6,0,B|319:328|301:269|339:260|278:210|227:220,2,204.000003890991,2|2|2,2:0|2:0|2:0,2:0:0:0:
503,197,143309,1,2,2:0:0:0:
213,307,143549,6,0,B|284:329|324:269|285:247|370:212|423:240,2,240,2|2|2,2:0|2:0|2:0,2:0:0:0:
110,124,144269,1,2,2:0:0:0:
342,102,144509,6,0,P|297:377|296:386,1,276.000005264282,2|2,2:0|2:0,2:0:0:0:
319,312,144869,2,0,P|317:230|312:162,1,138.000002632141,10|2,2:0|2:0,2:0:0:0:
114,268,145109,1,2,2:3:0:0:
114,268,145229,2,0,P|161:329|218:308,1,138.000002632141,10|0,2:0|3:0,2:0:0:0:
98,155,145469,1,10,2:0:0:0:
98,155,145589,2,0,P|21:165|11:225,1,138.000002632141,10|2,3:0|3:2,2:0:0:0:
223,244,145829,5,10,2:0:0:0:
188,183,145949,1,2,3:2:0:0:
242,136,146069,1,10,3:0:0:0:
195,88,146189,1,2,2:0:0:0:
255,36,146309,6,0,P|296:29|346:26,2,77.9999964294435,6|2|2,3:2|2:0|2:3,2:0:0:0:
112,88,146669,2,0,P|78:54|42:32,2,77.9999964294435,2|10|2,2:0|2:0|2:0,2:0:0:0:
205,203,147029,2,0,P|223:146|233:124,1,77.9999964294435,2|2,2:3|2:0,2:0:0:0:
416,189,147269,6,0,P|398:246|388:268,2,77.9999964294435,2|2|2,3:2|3:2|2:3,2:0:0:0:
217,292,147629,2,0,P|255:282|294:277,2,77.9999964294435,2|10|2,2:0|2:0|2:0,2:0:0:0:
469,118,147989,2,0,P|410:105|386:102,1,77.9999964294435,2|0,2:3|2:0,2:0:0:0:
273,178,148229,5,2,3:2:0:0:
253,180,148349,1,2,2:0:0:0:
185,147,148469,5,2,2:3:0:0:
169,139,148589,1,2,2:0:0:0:
142,68,148709,5,10,2:0:0:0:
138,51,148829,1,2,2:0:0:0:
226,12,148949,6,0,L|185:269,1,259.999988098145,2|0,2:3|2:0,2:0:0:0:
253,325,149429,5,2,2:3:0:0:
253,325,149509,2,0,P|290:321|315:313,1,51.999997619629,2|2,2:0|2:0,2:0:0:0:
115,203,149669,5,10,2:0:0:0:
115,203,149749,2,0,P|78:207|53:215,1,51.999997619629,2|2,2:0|2:0,2:0:0:0:
128,330,149909,6,0,P|190:299|214:240,1,103.999995239258,2|0,2:3|2:0,2:0:0:0:
190,111,150149,5,2,3:2:0:0:
190,111,150269,2,0,P|194:169|286:189,1,155.999992858887,2|2,2:0|2:0,2:0:0:0:
418,81,150629,2,0,P|365:55|302:125,1,155.999992858887,8|2,2:0|2:0,2:0:0:0:
349,224,150989,1,2,2:0:0:0:
387,233,151109,1,2,3:2:0:0:
425,219,151229,1,0,3:0:0:0:
453,187,151349,1,2,2:3:0:0:
453,187,151469,2,0,L|435:352,1,155.999992858887,2|2,2:0|2:0,2:0:0:0:
287,279,151829,2,0,L|371:254,1,77.9999964294435,2|0,2:3|2:0,2:0:0:0:
264,362,152069,6,0,B|217:360|197:319|228:312|179:276|139:283,1,155.999992858887,2|2,3:2|2:3,2:0:0:0:
72,323,152429,1,2,2:0:0:0:
186,204,152549,6,0,B|125:205|100:259|139:267|78:321|24:305,1,204.000003890991,14|10,2:0|2:0,2:0:0:0:
193,118,152909,1,8,2:0:0:0:
193,118,153029,2,0,P|237:136|271:169,1,77.9999964294435,2|8,3:2|2:0,2:0:0:0:
95,211,153269,2,0,P|83:134|67:58,1,155.999992858887,2|10,3:0|2:0,2:0:0:0:
59,47,153629,1,8,3:0:0:0:
48,36,153749,1,4,3:0:0:0:
466,102,153989,6,0,B|411:96|378:151|378:151|369:234|288:231,1,240,6|10,3:2|2:0,2:0:0:0:
216,201,154709,1,2,2:0:0:0:
216,201,154829,1,2,2:0:0:0:
216,201,154949,2,0,L|110:130,1,120,2|2,3:2|2:0,2:0:0:0:
294,154,155309,1,2,2:0:0:0:
294,154,155429,1,10,2:0:0:0:
116,134,155669,2,0,P|146:128|187:123,1,60,2|0,2:0|2:0,2:0:0:0:
303,17,155909,6,0,P|287:114|271:273,1,240,0|10,3:0|2:0,2:0:0:0:
337,323,156629,1,2,2:0:0:0:
337,323,156749,1,2,2:0:0:0:
337,323,156869,2,0,P|406:328|441:290,1,120,2|2,3:2|2:0,2:0:0:0:
467,227,157229,1,2,2:0:0:0:
467,227,157349,1,10,2:0:0:0:
271,184,157589,2,0,P|283:222|289:263,1,60,2|0,2:0|2:0,2:0:0:0:
379,182,157829,6,0,B|369:115|398:54|447:19|447:19|428:55|427:75,1,240,0|10,3:0|2:0,2:0:0:0:
310,102,158549,1,2,2:0:0:0:
310,102,158669,1,2,2:0:0:0:
310,102,158789,2,0,P|234:103|197:136,1,120,2|2,3:2|2:0,2:0:0:0:
201,128,159149,1,2,2:0:0:0:
201,128,159269,2,0,P|162:62|115:47,1,120,10|2,2:0|2:0,2:0:0:0:
68,313,159629,5,2,2:0:0:0:
68,313,159749,2,0,P|100:233|111:130,1,180,0|2,3:0|2:0,2:0:0:0:
37,149,160229,1,10,2:0:0:0:
54,173,160349,1,2,2:0:0:0:
78,190,160469,1,2,2:0:0:0:
107,199,160589,1,2,2:0:0:0:
136,197,160709,1,2,3:2:0:0:
159,187,160829,1,2,2:0:0:0:
178,183,160949,1,2,2:0:0:0:
189,185,161069,1,2,2:0:0:0:
194,188,161189,5,10,2:0:0:0:
244,256,161309,1,8,2:0:0:0:
159,265,161429,1,8,2:0:0:0:
237,334,161669,6,0,L|276:21,2,287.999991210938,6|8|0,3:2|2:0|3:0,2:0:0:0:
277,202,162869,2,0,B|329:152|395:188|395:188,1,120,2|8,2:0|2:0,2:0:0:0:
400,262,163229,2,0,B|348:312|282:276|282:276,1,120,2|2,2:0|2:0,2:0:0:0:
495,181,163589,6,0,P|409:175|316:6,2,287.999991210938,0|8|0,3:0|2:0|3:0,2:0:0:0:
475,63,164789,2,0,P|445:64|376:135,1,120,2|8,2:0|2:0,2:0:0:0:
391,199,165149,1,2,2:0:0:0:
393,216,165269,1,2,2:0:0:0:
395,233,165389,1,2,2:0:0:0:
470,277,165509,6,0,P|285:258|161:248,2,287.999991210938,0|8|0,3:0|2:0|3:0,2:0:0:0:
243,330,166709,2,0,P|240:288|229:204,1,120,2|8,2:0|2:0,2:0:0:0:
322,203,167069,2,0,P|325:245|336:329,1,120,2|0,2:0|2:0,2:0:0:0:
85,214,167429,6,0,P|151:143|245:44,1,215.999993408203,2|2,3:2|2:0,2:0:0:0:
306,88,167909,1,10,2:0:0:0:
327,120,168029,1,2,2:0:0:0:
332,162,168149,1,2,2:0:0:0:
327,197,168269,1,2,2:0:0:0:
304,229,168389,1,2,3:2:0:0:
291,247,168509,1,2,2:0:0:0:
280,264,168629,1,2,2:0:0:0:
275,275,168749,1,2,2:0:0:0:
274,287,168869,5,8,2:0:0:0:
279,317,168989,1,8,3:0:0:0:
284,350,169109,1,4,3:0:0:0:
476,198,169349,5,6,3:2:0:0:
412,152,169829,5,0,3:0:0:0:
334,145,170309,5,0,3:0:0:0:
264,185,170789,5,0,3:0:0:0:
233,259,171269,5,0,3:0:0:0:
169,305,171749,5,0,3:0:0:0:
91,312,172229,5,0,3:0:0:0:
21,272,172709,5,0,3:0:0:0:
266,93,173189,6,0,L|247:286,3,192,0|0|0|0,3:0|3:0|3:0|3:0,2:0:0:0:
418,34,175109,6,0,L|344:96,3,96,0|0|2|2,3:0|3:0|3:0|3:0,2:0:0:0:
495,49,177029,5,6,3:2:0:0:
256,192,177149,12,2,182789,2:0:0:0:
334,95,184469,6,0,P|355:100|379:102,1,36,2|0,2:3|2:0,2:0:0:0:
436,127,184709,38,0,B|365:133|293:105|293:105|255:140|267:194,1,240,6|0,3:2|2:0,2:0:0:0:
427,384,185069,6,0,B|457:318|516:268|516:268|507:217|457:202,1,240,6|0,3:2|2:0,2:0:0:0:
241,110,185429,6,0,B|210:175|151:225|151:225|160:276|210:291,1,240,14|0,2:0|2:0,2:0:0:0:
381,127,185789,6,0,B|339:67|326:-8|326:-8|277:-25|239:10,1,240,6|0,3:2|2:0,2:0:0:0:
238,366,186149,6,0,B|271:357|293:333|273:323|290:290|322:283,1,120,2|0,3:0|2:0,2:0:0:0:
68,196,186389,6,0,B|53:226|56:259|77:250|91:285|75:313,1,120,2|0,3:0|2:0,2:0:0:0:
235,132,186629,6,0,B|204:76|204:76|88:61|12:131,1,270.000010299683,6|0,3:2|3:0,2:0:0:0:
286,342,187109,1,8,2:0:0:0:
286,342,187349,2,0,P|308:207|339:57,1,270.000010299683,2|8,3:0|2:0,2:0:0:0:
302,167,187829,2,0,L|318:287,1,90.0000034332277,0|0,3:0|2:0,2:0:0:0:
512,87,188069,5,8,2:0:0:0:
452,86,188189,1,8,3:0:0:0:
414,106,188309,1,4,3:0:0:0:
396,141,188429,1,4,3:0:0:0:
395,162,188549,6,0,B|384:227|384:227|449:327|449:327|436:385,1,240,14|14,2:0|2:0,2:0:0:0:
438,380,189029,1,2,2:0:0:0:
436,359,189149,1,2,2:0:0:0:
457,310,189269,1,2,2:0:0:0:
339,349,189389,6,0,B|266:369|184:259|248:250|215:127|104:118,1,360,14|2,3:2|3:0,2:0:0:0:
105,118,189869,1,2,2:0:0:0:
37,168,189989,5,10,2:0:0:0:
50,251,190109,5,8,3:0:0:0:
65,330,190229,5,4,3:0:0:0:
315,137,190469,5,6,3:2:0:0:
327,56,190949,1,2,2:3:0:0:
263,6,191309,6,0,B|242:27|237:54|237:54|296:165|296:165|294:197|276:221,1,240,12|0,2:0|2:0,2:0:0:0:
480,139,191669,2,0,B|466:115|437:109|437:109|401:116|366:149,1,120,8|4,3:0|3:0,2:0:0:0:
263,369,191909,5,8,2:0:0:0:
353,379,192029,5,8,3:0:0:0:
407,310,192149,5,4,3:0:0:0:
375,225,192269,5,4,3:0:0:0:
358,218,192389,6,0,L|302:224,3,48,2|2|2|2,3:0|2:0|2:0|2:0,2:0:0:0:
49,67,192869,6,14,B|129:45|146:128|105:135|148:212|215:191,1,240,14|0,3:2|2:0,3:2:0:0:
30,150,193229,2,0,P|155:123|304:113,1,240,14|0,3:2|2:0,2:0:0:0:
329,66,193589,2,0,P|355:117|326:147,1,90.0000034332277,2|0,3:0|2:0,2:0:0:0:
226,230,193829,6,0,P|249:202|285:197,1,60,10|8,2:0|3:0,2:0:0:0:
321,265,194069,2,0,P|298:293|262:298,1,60,4|4,3:0|3:0,2:0:0:0:
491,225,194309,6,0,P|404:214|375:183,1,102.000001945496,14|0,3:2|2:0,2:0:0:0:
329,66,194549,1,2,3:0:0:0:
329,66,194669,1,2,2:0:0:0:
410,53,194789,2,0,P|319:46|238:128,1,204.000003890991,10|2,2:0|2:3,2:0:0:0:
315,338,195149,2,0,P|341:168|353:97,1,204.000003890991,2|0,3:2|2:0,2:0:0:0:
121,29,195509,2,0,P|132:106|138:158,1,102.000001945496,2|2,3:0|2:0,2:0:0:0:
282,254,195749,2,0,P|324:256|368:201,2,102.000001945496,10|0|2,2:0|2:0|3:0,2:0:0:0:
15,192,196229,6,0,B|31:228|31:228|180:211|180:211|204:246,1,215.999993408203,6|0,3:2|2:0,2:0:0:0:
110,306,196469,2,0,B|94:291|94:291|114:169,1,143.999995605469,6|0,3:2|2:0,2:0:0:0:
235,15,196709,5,10,2:0:0:0:
297,121,196829,5,8,2:0:0:0:
400,40,196949,5,10,2:0:0:0:
306,97,197069,6,0,L|329:388,1,287.999991210938,6|0,3:2|2:0,2:0:0:0:
512,186,197429,6,0,L|500:40,1,143.999995605469,2|0,3:0|2:0,2:0:0:0:
256,0,197669,5,10,2:0:0:0:
181,44,197789,5,8,3:0:0:0:
153,119,197909,5,4,3:0:0:0:
187,200,198029,5,4,3:0:0:0:
258,242,198149,6,0,B|277:265|311:241|311:241|299:203|268:207,1,120,6|0,3:2|2:0,2:0:0:0:
70,270,198389,1,2,2:3:0:0:
70,270,198509,2,0,B|40:275|44:317|44:317|83:326|95:297,1,120,2|8,2:0|2:0,2:0:0:0:
152,73,198749,2,0,B|162:46|124:28|124:28|97:57|116:82,2,120,2|2|2,2:0|2:3|2:0,2:0:0:0:
176,331,199109,6,0,B|165:359|203:376|203:376|230:348|211:323,1,120,2|0,3:2|2:0,2:0:0:0:
38,142,199349,1,2,2:3:0:0:
38,142,199469,2,0,B|19:119|-16:143|-16:143|-3:182|27:177,1,120,2|8,2:0|2:0,2:0:0:0:
294,109,199709,1,2,2:0:0:0:
294,109,199829,2,0,B|323:105|319:63|319:63|280:54|268:83,1,120,2|0,2:3|2:0,2:0:0:0:
146,195,200069,6,0,P|231:203|336:229,1,153.000002918243,2|0,3:2|2:0,2:0:0:0:
357,275,200309,2,0,P|393:245|378:195,1,102.000001945496,2|0,2:3|2:0,2:0:0:0:
227,44,200549,2,0,P|191:74|206:123,1,102.000001945496,10|0,2:0|2:0,2:0:0:0:
505,134,200789,1,2,2:3:0:0:
444,82,200909,2,0,P|371:107|247:187,1,204.000003890991,2|8,2:0|2:0,2:0:0:0:
497,218,201269,2,0,P|402:185|358:184,1,102.000001945496,2|0,2:3|2:0,2:0:0:0:
182,190,201509,5,8,3:0:0:0:
190,272,201629,5,8,2:0:0:0:
207,359,201749,5,10,2:0:0:0:
207,359,201869,1,4,3:0:0:0:
207,359,201989,5,6,3:2:0:0:
238,125,202229,1,10,2:0:0:0:
272,315,202949,5,8,2:0:0:0:
236,42,203189,1,10,2:0:0:0:
236,42,203669,6,0,B|146:17|127:110|173:118|125:204|50:180,1,270.000010299683,14|0,2:0|2:0,2:0:0:0:
67,103,204149,6,0,P|115:110|146:152,1,90.0000034332277,2|2,3:2|3:2,2:0:0:0:
114,293,204389,1,2,2:0:0:0:
114,293,204509,2,0,P|87:252|99:201,1,90.0000034332277,10|2,2:0|2:0,2:0:0:0:
217,180,204749,2,0,P|243:220|231:271,1,90.0000034332277,10|2,2:0|2:0,2:0:0:0:
72,358,204989,1,10,2:0:0:0:
131,303,205109,2,0,P|249:285|330:287,1,180.000006866455,10|10,2:0|2:0,2:0:0:0:
473,362,205469,2,0,P|435:348|376:313,1,90.0000034332277,4|4,3:0|3:0,2:0:0:0:
391,324,205829,6,0,B|373:301|383:255|406:274|424:227|404:199,1,135.000005149841,6|0,3:2|2:0,2:0:0:0:
349,143,206069,2,0,P|317:137|343:151,1,90.0000034332277,2|0,3:0|2:0,2:0:0:0:
509,87,206309,2,0,P|431:63|398:47,1,90.0000034332277,10|0,2:0|2:0,2:0:0:0:
242,118,206549,1,2,2:3:0:0:
242,118,206669,2,0,P|325:134|432:173,1,180.000006866455,10|0,2:0|2:0,2:0:0:0:
163,173,207029,2,0,P|148:102|145:56,1,90.0000034332277,2|2,2:3|2:0,2:0:0:0:
259,205,207269,2,0,P|253:249|242:293,1,90.0000034332277,10|0,2:0|2:0,2:0:0:0:
259,205,207749,6,0,P|276:267|283:359,1,135.000005149841,2|0,3:2|2:0,2:0:0:0:
208,355,207989,2,0,P|186:380|201:351,1,90.0000034332277,2|0,2:3|2:0,2:0:0:0:
171,253,208229,2,0,P|106:279|80:302,1,90.0000034332277,10|0,2:0|2:0,2:0:0:0:
0,193,208469,1,2,2:3:0:0:
0,193,208589,2,0,P|79:166|184:112,1,180.000006866455,10|0,2:0|2:0,2:0:0:0:
272,8,208949,2,0,P|249:71|242:117,1,90.0000034332277,2|0,2:3|2:0,2:0:0:0:
334,204,209189,5,10,2:0:0:0:
367,195,209309,5,2,2:0:0:0:
394,168,209429,5,2,2:3:0:0:
406,140,209549,5,2,2:0:0:0:
318,122,209669,6,0,P|338:216|345:277,1,135.000005149841,2|0,3:2|2:0,2:0:0:0:
416,302,209909,2,0,P|448:305|417:292,1,90.0000034332277,2|0,2:3|2:0,2:0:0:0:
346,344,210149,2,0,P|284:326|264:298,1,90.0000034332277,10|0,2:0|2:0,2:0:0:0:
238,159,210389,1,2,2:3:0:0:
238,159,210509,2,0,P|214:228|115:277,1,180.000006866455,10|0,2:0|2:0,2:0:0:0:
44,229,210869,2,0,B|24:114|24:114|42:83|76:70,2,180.000006866455,2|10|2,2:3|2:0|2:3,2:0:0:0:
98,355,211469,5,2,2:0:0:0:
98,355,211589,2,0,B|146:364|191:315|152:292|191:256|240:261,1,180.000006866455,2|2,3:2|2:3,2:0:0:0:
377,352,211949,1,2,2:0:0:0:
377,352,212069,2,0,P|334:333|298:301,1,90.0000034332277,10|0,2:0|2:0,2:0:0:0:
362,198,212309,2,0,P|405:217|441:249,1,90.0000034332277,2|0,2:3|2:0,2:0:0:0:
273,172,212549,5,2,3:2:0:0:
338,112,212669,2,0,P|409:105|528:99,1,180.000006866455,8|0,2:0|2:0,2:0:0:0:
487,129,213029,1,10,2:0:0:0:
411,141,213149,1,8,2:0:0:0:
338,112,213269,1,2,3:2:0:0:
297,41,213389,1,4,3:0:0:0:
312,30,213509,6,0,B|304:119|304:119|298:124|298:124|290:211,2,180.000006866455,6|2|10,3:2|2:3|2:0,2:0:0:0:
149,79,214109,2,0,B|148:101|153:123|153:123|165:138|188:150,1,90.0000034332277,2|2,2:0|2:3,2:0:0:0:
228,83,214349,2,0,B|166:76|129:137|129:137|119:231|28:227,1,270.000010299683,10|2,2:0|2:3,2:0:0:0:
22,212,214829,1,2,2:0:0:0:
22,212,214949,1,8,2:0:0:0:
184,354,215189,5,2,2:3:0:0:
159,306,215309,1,2,2:0:0:0:
176,255,215429,2,0,B|209:248|241:267|241:267|249:287|249:287|247:292|247:292|255:310|255:310|282:323|321:322,1,180.000006866455,2|2,3:2|2:3,2:0:0:0:
466,135,215789,1,2,2:0:0:0:
466,135,215909,2,0,P|397:169|312:255,1,180.000006866455,10|2,2:0|2:3,2:0:0:0:
468,345,216269,2,0,P|421:300|374:276,1,90.0000034332277,10|0,2:0|3:0,2:0:0:0:
184,354,216509,1,2,2:0:0:0:
184,354,216629,2,0,P|221:328|252:296,1,90.0000034332277,2|0,2:3|2:0,2:0:0:0:
289,86,216869,5,10,2:0:0:0:
251,133,216989,1,2,2:0:0:0:
266,160,217109,1,2,2:3:0:0:
254,177,217229,1,2,2:0:0:0:
259,191,217349,6,0,B|226:180|226:180|195:75|195:75|158:65,1,180.000006866455,2|2,3:2|2:3,2:0:0:0:
92,106,217709,1,2,2:0:0:0:
92,106,217829,1,10,2:0:0:0:
95,136,217949,1,2,2:0:0:0:
100,167,218069,1,2,2:3:0:0:
104,196,218189,1,10,2:0:0:0:
174,240,218309,5,0,3:0:0:0:
170,276,218429,1,2,2:0:0:0:
164,313,218549,1,2,2:3:0:0:
159,348,218669,1,2,2:0:0:0:
79,384,218789,2,0,B|62:374|57:353|57:353|62:328|86:304,1,90.0000034332277,10|0,2:0|2:0,2:0:0:0:
235,190,219029,1,2,2:3:0:0:
235,190,219269,6,0,B|317:213|348:288|335:332,1,180.000006866455,2|2,3:2|2:3,2:0:0:0:
261,361,219629,1,2,2:0:0:0:
261,361,219749,2,0,P|273:265|313:3,1,360,8|10,2:0|2:0,2:0:0:0:
334,31,220229,1,2,3:2:0:0:
277,79,220349,1,8,2:0:0:0:
204,50,220469,1,4,3:0:0:0:
68,122,220709,5,10,2:0:0:0:
120,130,220829,1,8,3:0:0:0:
168,176,220949,1,4,3:0:0:0:
172,251,221069,1,4,3:0:0:0:
109,299,221189,6,0,B|153:284|153:284|175:208|175:208|178:204|178:204|195:142|195:142|244:129,1,240,6|2,3:2|2:3,2:0:0:0:
270,240,221549,1,2,2:0:0:0:
270,240,221669,2,0,P|156:210|89:187,1,180.000006866455,10|2,2:0|2:3,2:0:0:0:
269,52,222029,2,0,P|315:91|325:124,1,90.0000034332277,2|0,2:0|3:0,2:0:0:0:
115,117,222269,2,0,P|166:85|200:85,1,90.0000034332277,10|2,2:0|2:3,2:0:0:0:
323,297,222509,1,2,2:0:0:0:
323,297,222629,2,0,P|271:269|250:148,1,180.000006866455,10|2,2:0|2:3,2:0:0:0:
376,37,222989,1,2,2:0:0:0:
376,37,223109,1,0,3:0:0:0:
376,37,223349,6,0,P|371:85|365:140,1,90.0000034332277,2|2,2:3|2:0,2:0:0:0:
119,215,223589,2,0,P|181:189|321:156,1,180.000006866455,10|2,2:0|2:3,2:0:0:0:
444,241,223949,1,10,2:0:0:0:
444,241,224069,2,0,P|386:215|348:203,1,90.0000034332277,2|0,3:2|2:0,2:0:0:0:
214,347,224309,2,0,P|226:282|244:220,1,90.0000034332277,2|0,2:3|2:0,2:0:0:0:
467,323,224549,2,0,P|391:344|310:271,1,180.000006866455,10|2,2:0|2:3,2:0:0:0:
275,136,224909,1,2,2:0:0:0:
275,136,225029,1,2,3:2:0:0:
275,136,225269,6,0,P|227:139|177:145,1,90.0000034332277,2|0,2:3|2:0,2:0:0:0:
42,275,225509,2,0,P|90:272|140:266,1,90.0000034332277,10|2,2:0|2:0,2:0:0:0:
89,111,225749,2,0,P|67:154|47:200,1,90.0000034332277,2|10,2:3|2:0,2:0:0:0:
247,292,225989,2,0,P|268:248|288:202,1,90.0000034332277,2|2,3:2|2:0,2:0:0:0:
166,17,226229,2,0,P|169:118|173:203,1,180.000006866455,2|10,2:3|2:0,2:0:0:0:
173,197,226709,1,2,2:3:0:0:
173,197,226829,1,2,2:0:0:0:
242,269,226949,6,0,B|300:272|310:217|279:215|306:155|365:164,1,180.000006866455,2|2,3:2|2:3,2:0:0:0:
465,272,227309,1,2,2:0:0:0:
465,272,227429,2,0,P|407:261|363:244,1,90.0000034332277,10|2,2:0|2:0,2:0:0:0:
409,17,227669,1,2,2:3:0:0:
409,17,227789,2,0,P|433:89|460:201,1,180.000006866455,2|10,2:0|2:0,2:0:0:0:
255,76,228149,2,0,P|324:79|355:91,1,90.0000034332277,2|10,2:3|2:0,2:0:0:0:
224,163,228389,1,10,2:0:0:0:
158,130,228509,1,10,2:0:0:0:
163,58,228629,1,2,3:0:0:0:
251,283,228869,6,0,P|337:236|356:135,2,180.000006866455,6|2|10,3:2|2:3|2:0,2:0:0:0:
101,210,229469,2,0,P|160:243|170:269,1,90.0000034332277,2|2,2:0|2:3,2:0:0:0:
76,331,229709,2,0,P|64:234|43:114,1,180.000006866455,10|0,2:0|2:0,2:0:0:0:
208,25,230069,2,0,P|220:122|241:242,1,180.000006866455,2|10,2:3|2:0,2:0:0:0:
40,76,230429,2,0,P|126:89|224:105,1,180.000006866455,2|0,2:0|2:0,2:0:0:0:
303,118,230789,6,0,P|342:79|354:33,1,90.0000034332277,2|0,3:2|2:0,2:0:0:0:
500,239,231029,2,0,P|380:180|334:193,1,180.000006866455,2|10,2:3|2:0,2:0:0:0:
263,361,231389,1,0,2:0:0:0:
263,361,231509,2,0,P|276:293|287:232,1,90.0000034332277,2|0,2:3|2:0,2:0:0:0:
138,107,231749,2,0,P|151:175|162:236,1,90.0000034332277,2|0,3:2|2:0,2:0:0:0:
16,336,231989,2,0,P|29:268|40:207,1,90.0000034332277,2|0,2:3|2:0,2:0:0:0:
271,156,232229,2,0,P|172:176|88:195,1,180.000006866455,10|2,2:0|2:3,2:0:0:0:
275,268,232589,5,2,2:0:0:0:
279,272,232709,2,0,P|301:151|324:70,1,180.000006866455,0|2,3:0|2:3,2:0:0:0:
384,59,233069,1,2,2:0:0:0:
410,51,233189,1,10,2:0:0:0:
443,52,233309,1,2,2:0:0:0:
471,68,233429,5,2,2:3:0:0:
471,68,233549,2,0,P|435:102|391:93,1,90.0000034332277,2|0,2:0|3:0,2:0:0:0:
189,25,233789,2,0,P|279:64|311:147,1,180.000006866455,8|2,2:0|2:0,2:0:0:0:
63,133,234149,1,8,2:0:0:0:
63,133,234269,2,0,P|114:102|172:101,1,90.0000034332277,2|2,2:0|2:3,2:0:0:0:
218,323,234509,5,2,2:0:0:0:
218,323,234629,2,0,B|191:295|194:233|220:253|248:195|213:152,2,180.000006866455,0|2|8,3:0|2:3|2:0,2:0:0:0:
465,320,235349,1,2,2:3:0:0:
471,276,235469,1,2,2:0:0:0:
458,240,235589,1,0,3:0:0:0:
458,240,235709,2,0,P|363:251|274:285,1,180.000006866455,8|2,2:0|2:0,2:0:0:0:
419,165,236069,2,0,P|444:126|451:69,1,90.0000034332277,8|10,2:0|2:0,2:0:0:0:
180,62,236309,5,2,2:3:0:0:
180,62,236429,1,2,2:0:0:0:
180,62,236549,2,0,P|270:72|362:99,2,180.000006866455,6|2|10,3:2|2:3|2:0,2:0:0:0:
42,242,237269,1,2,2:3:0:0:
42,242,237389,2,0,P|96:203|96:90,1,180.000006866455,10|0,2:0|2:0,2:0:0:0:
21,152,237749,1,2,2:3:0:0:
21,152,237869,2,0,P|48:204|96:205,1,90.0000034332277,2|8,2:0|2:0,2:0:0:0:
227,149,238109,1,2,2:0:0:0:
227,149,238229,2,0,P|168:146|143:187,1,90.0000034332277,2|0,2:3|2:0,2:0:0:0:
229,357,238469,6,0,P|269:260|315:176,2,180.000006866455,2|2|10,3:2|2:3|2:0,2:0:0:0:
166,254,239189,1,2,2:3:0:0:
166,254,239309,2,0,P|145:148|136:118,1,90.0000034332277,2|0,2:0|3:0,2:0:0:0:
320,135,239549,1,8,2:0:0:0:
320,135,239669,2,0,P|341:241|350:271,1,90.0000034332277,2|0,2:3|2:0,2:0:0:0:
120,73,239909,1,10,2:0:0:0:
195,58,240029,1,8,2:0:0:0:
236,134,240149,1,4,3:0:0:0:
236,134,240269,1,0,3:0:0:0:
236,134,240389,6,0,P|169:194|116:177,1,135.000005149841,6|0,3:2|2:0,2:0:0:0:
33,116,240629,2,0,P|56:138|62:163,1,48,10|0,2:0|2:0,2:0:0:0:
211,314,241349,6,0,B|268:316|280:261|250:256|281:201|336:212,1,180,10|0,2:0|2:0,2:0:0:0:
437,277,241589,2,0,P|418:262|408:240,1,44.999998626709,10|0,2:0|2:0,2:0:0:0:
433,49,242309,6,0,P|405:137|394:185,1,120,14|0,3:2|2:0,2:0:0:0:
