osu file format v14

[General]
AudioFilename: audio.mp3
AudioLeadIn: 0
PreviewTime: 63029
Countdown: 0
SampleSet: Soft
StackLeniency: 0.7
Mode: 0
LetterboxInBreaks: 0
WidescreenStoryboard: 0

[Editor]
DistanceSpacing: 0.5
BeatDivisor: 4
GridSize: 32
TimelineZoom: 1.3

[Metadata]
Title:Dakara Boku wa Ongaku o Yameta
TitleUnicode:だから僕は音楽を辞めた
Artist:Yorushika
ArtistUnicode:ヨルシカ
Creator:Petal
Version:Bouquet
Source:
Tags:japanese jpop j-pop pop full song version Moonlight n-buna nbuna suis 所以我放棄了音樂 that's that is why I gave up on music female 所以我放弃了音乐 album n-buna seolv [_L_u_k_a_s_] namki jazzberry shii wanpachi matha amateurre shizuku- Kazato asa shikibe mayu saggin
BeatmapID:2875429
BeatmapSetID:1392760

[Difficulty]
HPDrainRate:5
CircleSize:4
OverallDifficulty:8.6
ApproachRate:9.5
SliderMultiplier:2.4
SliderTickRate:1

[Events]
//Background and Video events
0,0,"BG.jpg",0,0
//Break Periods
2,182989,183944
//Storyboard Layer 0 (Background)
//Storyboard Layer 1 (Fail)
//Storyboard Layer 2 (Pass)
//Storyboard Layer 3 (Foreground)
//Storyboard Layer 4 (Overlay)
//Storyboard Sound Samples

[TimingPoints]
1349,480,4,2,1,20,1,0
1349,-100,4,2,1,20,0,0
2309,480,4,2,1,25,1,0
2309,-100,4,2,1,25,0,0
2789,-166.666666666667,4,2,1,25,0,0
3989,-250.000000000001,4,2,1,25,0,0
4469,-166.666666666667,4,2,1,25,0,0
4949,-125,4,2,1,25,0,0
5909,-250.000000000001,4,2,1,25,0,0
8549,-125,4,2,1,25,0,0
9269,-166.666666666667,4,2,1,25,0,0
10709,-125,4,2,1,25,0,0
11669,-250.000000000001,4,2,1,25,0,0
12629,-125,4,2,1,25,0,0
13589,-250,4,2,1,25,0,0
14789,-125,4,2,1,25,0,0
15029,-250,4,2,1,25,0,0
17429,-83.3333333333333,4,2,1,40,0,0
17489,-83.3333333333333,4,2,1,5,0,0
17549,-83.3333333333333,4,2,1,40,0,0
17609,-83.3333333333333,4,2,1,5,0,0
17669,-55.5555555555556,4,2,10,60,0,0
17849,-55.5555555555556,4,2,1,5,0,0
17909,-66.6666666666667,4,2,11,60,0,0
18029,-66.6666666666667,4,2,1,60,0,0
18149,-66.6666666666667,4,2,12,60,0,0
18269,-66.6666666666667,4,2,1,60,0,0
18389,-66.6666666666667,4,2,13,60,0,0
18509,-66.6666666666667,4,2,12,60,0,0
18749,-66.6666666666667,4,2,1,60,0,0
18869,-66.6666666666667,4,2,14,60,0,0
18989,-66.6666666666667,4,2,15,60,0,0
19109,-66.6666666666667,4,2,1,60,0,0
19589,-55.5555555555556,4,2,10,60,0,0
19769,-66.6666666666667,4,2,1,5,0,0
19829,-66.6666666666667,4,2,11,60,0,0
19949,-66.6666666666667,4,2,1,60,0,0
20069,-66.6666666666667,4,2,12,60,0,0
20189,-66.6666666666667,4,2,1,60,0,0
20309,-66.6666666666667,4,2,13,60,0,0
20429,-66.6666666666667,4,2,12,60,0,0
20669,-66.6666666666667,4,2,1,60,0,0
20789,-66.6666666666667,4,2,14,60,0,0
20909,-66.6666666666667,4,2,1,60,0,0
21029,-66.6666666666667,4,2,15,60,0,0
21149,-66.6666666666667,4,2,16,60,0,0
21269,-66.6666666666667,4,2,14,60,0,0
21389,-66.6666666666667,4,2,12,60,0,0
21509,-55.5555555555556,4,2,10,60,0,0
21689,-55.5555555555556,4,2,1,5,0,0
21749,-66.6666666666667,4,2,11,60,0,0
21869,-66.6666666666667,4,2,1,60,0,0
21989,-66.6666666666667,4,2,12,60,0,0
22109,-66.6666666666667,4,2,1,60,0,0
22229,-66.6666666666667,4,2,13,60,0,0
22349,-66.6666666666667,4,2,12,60,0,0
22589,-66.6666666666667,4,2,1,60,0,0
22709,-66.6666666666667,4,2,14,60,0,0
22829,-66.6666666666667,4,2,1,60,0,0
22949,-66.6666666666667,4,2,17,60,0,0
23069,-66.6666666666667,4,2,1,60,0,0
23189,-66.6666666666667,4,2,18,60,0,0
23309,-66.6666666666667,4,2,1,60,0,0
23429,-55.5555555555556,4,2,17,60,0,0
23669,-66.6666666666667,4,2,1,60,0,0
23789,-55.5555555555556,4,2,12,60,0,0
23909,-55.5555555555556,4,2,1,60,0,0
24089,-55.5555555555556,4,2,1,5,0,0
24149,-66.6666666666667,4,2,13,60,0,0
24269,-66.6666666666667,4,2,1,60,0,0
24389,-66.6666666666667,4,2,19,60,0,0
24509,-66.6666666666667,4,2,1,60,0,0
24629,-66.6666666666667,4,2,20,60,0,0
24749,-66.6666666666667,4,2,1,60,0,0
24869,-66.6666666666667,4,2,21,60,0,0
24989,-66.6666666666667,4,2,1,60,0,0
25109,-66.6666666666667,4,2,22,60,0,0
25229,-66.6666666666667,4,2,1,60,0,0
25349,-55.5555555555556,4,2,10,60,0,0
25529,-55.5555555555556,4,2,1,5,0,0
25589,-66.6666666666667,4,2,11,60,0,0
25709,-66.6666666666667,4,2,1,60,0,0
25829,-66.6666666666667,4,2,12,60,0,0
25949,-66.6666666666667,4,2,1,60,0,0
26069,-66.6666666666667,4,2,13,60,0,0
26189,-66.6666666666667,4,2,12,60,0,0
26429,-66.6666666666667,4,2,1,60,0,0
26549,-66.6666666666667,4,2,14,60,0,0
26669,-66.6666666666667,4,2,15,60,0,0
26789,-66.6666666666667,4,2,1,60,0,0
27269,-55.5555555555556,4,2,10,60,0,0
27449,-55.5555555555556,4,2,1,5,0,0
27509,-66.6666666666667,4,2,11,60,0,0
27629,-66.6666666666667,4,2,1,60,0,0
27749,-66.6666666666667,4,2,12,60,0,0
27869,-66.6666666666667,4,2,1,60,0,0
27989,-66.6666666666667,4,2,13,60,0,0
28109,-66.6666666666667,4,2,12,60,0,0
28349,-66.6666666666667,4,2,1,60,0,0
28469,-66.6666666666667,4,2,14,60,0,0
28589,-66.6666666666667,4,2,1,60,0,0
28709,-66.6666666666667,4,2,15,60,0,0
28829,-66.6666666666667,4,2,16,60,0,0
28949,-66.6666666666667,4,2,14,60,0,0
29069,-66.6666666666667,4,2,12,60,0,0
29189,-55.5555555555556,4,2,10,60,0,0
29369,-55.5555555555556,4,2,1,5,0,0
29429,-66.6666666666667,4,2,11,60,0,0
29549,-66.6666666666667,4,2,1,60,0,0
29669,-66.6666666666667,4,2,12,60,0,0
29789,-66.6666666666667,4,2,1,60,0,0
29909,-66.6666666666667,4,2,13,60,0,0
30029,-66.6666666666667,4,2,12,60,0,0
30269,-66.6666666666667,4,2,1,60,0,0
30389,-66.6666666666667,4,2,14,60,0,0
30509,-66.6666666666667,4,2,1,60,0,0
30629,-66.6666666666667,4,2,17,60,0,0
30749,-66.6666666666667,4,2,1,60,0,0
30869,-66.6666666666667,4,2,18,60,0,0
30989,-66.6666666666667,4,2,1,60,0,0
31109,-55.5555555555556,4,2,17,60,0,0
31349,-66.6666666666667,4,2,1,60,0,0
31469,-55.5555555555556,4,2,12,60,0,0
31589,-55.5555555555556,4,2,1,60,0,0
31769,-55.5555555555556,4,2,1,5,0,0
31829,-66.6666666666667,4,2,13,60,0,0
31949,-66.6666666666667,4,2,1,60,0,0
32069,-66.6666666666667,4,2,17,60,0,0
32189,-66.6666666666667,4,2,1,60,0,0
32549,-66.6666666666667,4,2,15,60,0,0
32669,-66.6666666666667,4,2,1,60,0,0
33509,-100,4,2,1,30,0,0
39269,-125,4,2,1,30,0,0
41549,-100,4,2,1,30,0,0
42869,-125,4,2,1,30,0,0
43349,-100,4,2,1,30,0,0
46229,-125,4,2,1,30,0,0
48389,-142.857142857143,4,2,1,30,0,0
54149,-125,4,2,1,30,0,0
56069,-83.3333333333333,4,2,1,40,0,0
59909,-71.4285714285714,4,2,1,50,0,0
61829,-29.4117647058824,4,2,1,60,0,0
63029,-55.5555555555559,4,2,1,50,0,0
63209,-55.5555555555559,4,2,1,5,0,0
63269,-55.5555555555559,4,2,1,50,0,0
63749,-62.5000000000004,4,2,3,70,0,1
63869,-62.5000000000004,4,2,1,70,0,1
64469,-55.5555555555559,4,2,1,70,0,1
64649,-55.5555555555559,4,2,1,5,0,1
64709,-62.5000000000004,4,2,1,70,0,1
65429,-55.5555555555559,4,2,1,70,0,1
65609,-55.5555555555559,4,2,1,5,0,1
65669,-55.5555555555559,4,2,1,70,0,1
65909,-62.5000000000004,4,2,1,70,0,1
67409,-62.5000000000004,4,2,1,5,0,1
67469,-62.5000000000004,4,2,1,70,0,1
67529,-62.5000000000004,4,2,1,5,0,1
67589,-62.5000000000004,4,2,1,70,0,1
68069,-55.5555555555559,4,2,1,60,0,1
68249,-55.5555555555559,4,2,1,5,0,1
68309,-55.5555555555559,4,2,1,70,0,1
68549,-55.5555555555559,4,2,1,70,0,1
68729,-55.5555555555559,4,2,1,5,0,1
68789,-55.5555555555559,4,2,1,70,0,1
69029,-50.0000000000002,4,2,1,70,0,1
69209,-50.0000000000002,4,2,1,5,0,1
69269,-62.5000000000004,4,2,1,70,0,1
69509,-50.0000000000002,4,2,1,70,0,1
69689,-55.5555555555559,4,2,1,5,0,1
69749,-50.0000000000002,4,2,1,70,0,1
69929,-50.0000000000002,4,2,1,5,0,1
69989,-50.0000000000002,4,2,1,70,0,1
70649,-50.0000000000002,4,2,1,5,0,1
70709,-62.5,4,2,1,70,0,1
71429,-62.5,4,2,3,70,0,1
71549,-62.5,4,2,1,70,0,1
71789,-55.5555555555556,4,2,1,70,0,1
71969,-55.5555555555556,4,2,1,5,0,1
72029,-55.5555555555556,4,2,1,70,0,1
72389,-62.5,4,2,1,70,0,1
72749,-62.5,4,2,1,70,0,1
73109,-55.5555555555556,4,2,1,70,0,1
73289,-55.5555555555556,4,2,1,5,0,1
73349,-62.5,4,2,1,70,0,1
73829,-55.5555555555556,4,2,1,70,0,1
74009,-55.5555555555556,4,2,1,5,0,1
74069,-55.5555555555556,4,2,1,70,0,1
74189,-62.5,4,2,1,70,0,1
75269,-62.5,4,2,1,70,0,0
75509,-1000,4,2,1,60,0,0
76169,-500,4,2,1,5,0,0
76229,-50,4,2,1,60,0,0
76469,-166.666666666667,4,2,1,50,0,0
76949,-83.3333333333334,4,2,1,40,0,0
77009,-83.3333333333334,4,2,1,5,0,0
77069,-83.3333333333334,4,2,1,40,0,0
77129,-83.3333333333334,4,2,1,5,0,0
77189,-55.5555555555556,4,2,10,60,0,0
77369,-55.5555555555556,4,2,1,5,0,0
77429,-66.6666666666667,4,2,11,60,0,0
77549,-66.6666666666667,4,2,1,60,0,0
77669,-66.6666666666667,4,2,12,60,0,0
77789,-66.6666666666667,4,2,1,60,0,0
77909,-66.6666666666667,4,2,13,60,0,0
78029,-66.6666666666667,4,2,12,60,0,0
78269,-66.6666666666667,4,2,1,60,0,0
78389,-66.6666666666667,4,2,14,60,0,0
78509,-66.6666666666667,4,2,15,60,0,0
78629,-66.6666666666667,4,2,1,60,0,0
79109,-55.5555555555556,4,2,10,60,0,0
79289,-55.5555555555556,4,2,1,5,0,0
79349,-66.6666666666667,4,2,11,60,0,0
79469,-66.6666666666667,4,2,1,60,0,0
79589,-66.6666666666667,4,2,12,60,0,0
79709,-66.6666666666667,4,2,1,60,0,0
79829,-66.6666666666667,4,2,13,60,0,0
79949,-66.6666666666667,4,2,12,60,0,0
80189,-66.6666666666667,4,2,1,60,0,0
80309,-66.6666666666667,4,2,14,60,0,0
80429,-66.6666666666667,4,2,1,60,0,0
80549,-66.6666666666667,4,2,15,60,0,0
80669,-66.6666666666667,4,2,16,60,0,0
80789,-66.6666666666667,4,2,14,60,0,0
80909,-66.6666666666667,4,2,12,60,0,0
81029,-55.5555555555556,4,2,10,60,0,0
81209,-55.5555555555556,4,2,1,5,0,0
81269,-66.6666666666667,4,2,11,60,0,0
81389,-66.6666666666667,4,2,1,60,0,0
81509,-66.6666666666667,4,2,12,60,0,0
81629,-66.6666666666667,4,2,1,60,0,0
81749,-66.6666666666667,4,2,13,60,0,0
81869,-66.6666666666667,4,2,12,60,0,0
82109,-66.6666666666667,4,2,1,60,0,0
82229,-66.6666666666667,4,2,14,60,0,0
82349,-66.6666666666667,4,2,1,60,0,0
82469,-66.6666666666667,4,2,17,60,0,0
82589,-66.6666666666667,4,2,1,60,0,0
82709,-66.6666666666667,4,2,18,60,0,0
82829,-66.6666666666667,4,2,1,60,0,0
82949,-55.5555555555556,4,2,17,60,0,0
83189,-66.6666666666667,4,2,1,60,0,0
83309,-55.5555555555556,4,2,12,60,0,0
83429,-55.5555555555556,4,2,1,60,0,0
83609,-55.5555555555556,4,2,1,5,0,0
83669,-66.6666666666667,4,2,13,60,0,0
83789,-66.6666666666667,4,2,1,60,0,0
83909,-66.6666666666667,4,2,19,60,0,0
84029,-66.6666666666667,4,2,1,60,0,0
84149,-66.6666666666667,4,2,20,60,0,0
84269,-66.6666666666667,4,2,1,60,0,0
84389,-66.6666666666667,4,2,21,60,0,0
84509,-66.6666666666667,4,2,1,60,0,0
84629,-66.6666666666667,4,2,22,60,0,0
84749,-66.6666666666667,4,2,1,60,0,0
84869,-55.5555555555556,4,2,10,60,0,0
85049,-55.5555555555556,4,2,1,5,0,0
85109,-66.6666666666667,4,2,11,60,0,0
85229,-66.6666666666667,4,2,1,60,0,0
85349,-66.6666666666667,4,2,12,60,0,0
85469,-66.6666666666667,4,2,1,60,0,0
85589,-66.6666666666667,4,2,13,60,0,0
85709,-66.6666666666667,4,2,12,60,0,0
85949,-66.6666666666667,4,2,1,60,0,0
86069,-66.6666666666667,4,2,14,60,0,0
86189,-66.6666666666667,4,2,15,60,0,0
86309,-66.6666666666667,4,2,1,60,0,0
86789,-55.5555555555556,4,2,10,60,0,0
86969,-55.5555555555556,4,2,1,5,0,0
87029,-66.6666666666667,4,2,11,60,0,0
87149,-66.6666666666667,4,2,1,60,0,0
87269,-66.6666666666667,4,2,12,60,0,0
87389,-66.6666666666667,4,2,1,60,0,0
87509,-66.6666666666667,4,2,13,60,0,0
87629,-66.6666666666667,4,2,12,60,0,0
87869,-66.6666666666667,4,2,1,60,0,0
87989,-66.6666666666667,4,2,14,60,0,0
88109,-66.6666666666667,4,2,1,60,0,0
88229,-66.6666666666667,4,2,15,60,0,0
88349,-66.6666666666667,4,2,16,60,0,0
88469,-66.6666666666667,4,2,14,60,0,0
88589,-66.6666666666667,4,2,12,60,0,0
88709,-55.5555555555556,4,2,10,60,0,0
88889,-55.5555555555556,4,2,1,5,0,0
88949,-66.6666666666667,4,2,11,60,0,0
89069,-66.6666666666667,4,2,1,60,0,0
89189,-66.6666666666667,4,2,12,60,0,0
89309,-66.6666666666667,4,2,1,60,0,0
89429,-66.6666666666667,4,2,13,60,0,0
89549,-66.6666666666667,4,2,12,60,0,0
89789,-66.6666666666667,4,2,1,60,0,0
89909,-66.6666666666667,4,2,14,60,0,0
90029,-66.6666666666667,4,2,1,60,0,0
90149,-66.6666666666667,4,2,17,60,0,0
90269,-66.6666666666667,4,2,1,60,0,0
90389,-66.6666666666667,4,2,18,60,0,0
90509,-66.6666666666667,4,2,1,60,0,0
90629,-55.5555555555556,4,2,17,60,0,0
90809,-55.5555555555556,4,2,1,5,0,0
90869,-55.5555555555556,4,2,1,60,0,0
90989,-55.5555555555556,4,2,12,60,0,0
91109,-55.5555555555556,4,2,1,60,0,0
91289,-55.5555555555556,4,2,1,5,0,0
91349,-55.5555555555556,4,2,13,60,0,0
91469,-66.6666666666667,4,2,1,60,0,0
91589,-66.6666666666667,4,2,17,60,0,0
91709,-66.6666666666667,4,2,1,60,0,0
92069,-66.6666666666667,4,2,15,60,0,0
92189,-66.6666666666667,4,2,1,60,0,0
93029,-100,4,2,1,35,0,0
98349,-100,4,2,1,5,0,0
99509,-100,4,2,1,20,0,0
100229,-83.3333333333333,4,2,1,35,0,0
102089,-83.3333333333333,4,2,1,5,0,0
102149,-83.3333333333333,4,2,1,35,0,0
104009,-83.3333333333333,4,2,1,5,0,0
104069,-83.3333333333333,4,2,1,35,0,0
107909,-83.3333333333333,4,2,1,40,0,0
108869,-125,4,2,1,40,0,0
109349,-83.3333333333333,4,2,1,40,0,0
114569,-83.3333333333333,4,2,1,5,0,0
114629,-83.3333333333333,4,2,1,35,0,0
119429,-71.4285714285714,4,2,1,40,0,0
119909,-83.3333333333333,4,2,1,40,0,0
120869,-62.5,4,2,1,40,0,0
121349,-83.3333333333333,4,2,1,40,0,0
121829,-71.4285714285714,4,2,1,40,0,0
122789,-55.5555555555556,4,2,1,40,0,0
123209,-55.5555555555556,4,2,1,5,0,0
123269,-55.5555555555556,4,2,1,30,0,0
123989,-55.5555555555556,4,2,1,40,0,0
124229,-100,4,2,1,60,0,0
124289,-100,4,2,1,5,0,0
124349,-29.4117647058824,4,2,1,60,0,0
124589,-100,4,2,1,60,0,0
124649,-100,4,2,1,5,0,0
124709,-29.4117647058824,4,2,1,60,0,0
124949,-71.4285714285714,4,2,1,60,0,0
125009,-71.4285714285714,4,2,1,5,0,0
125069,-71.4285714285714,4,2,1,60,0,0
125129,-71.4285714285714,4,2,1,5,0,0
125189,-62.5,4,2,3,70,0,1
125309,-62.5,4,2,1,70,0,1
125909,-55.5555555555556,4,2,1,70,0,1
126089,-55.5555555555556,4,2,1,5,0,1
126149,-62.5,4,2,1,70,0,1
129029,-55.5555555555556,4,2,1,70,0,1
129509,-55.5555555555556,4,2,1,70,0,1
129689,-55.5555555555556,4,2,1,5,0,1
129749,-55.5555555555556,4,2,1,70,0,1
130169,-55.5555555555556,4,2,1,5,0,1
130229,-55.5555555555556,4,2,1,70,0,1
130469,-50,4,2,1,70,0,1
130649,-50,4,2,1,5,0,1
130709,-62.5,4,2,1,70,0,1
130949,-45.4545454545455,4,2,1,70,0,1
131129,-45.4545454545455,4,2,1,5,0,1
131189,-45.4545454545455,4,2,1,70,0,1
131369,-45.4545454545455,4,2,1,5,0,1
131429,-45.4545454545455,4,2,1,70,0,1
131909,-38.4615384615385,4,2,1,70,0,1
132089,-38.4615384615385,4,2,1,5,0,1
132149,-62.5,4,2,1,70,0,1
132869,-38.4615384615385,4,2,3,70,0,1
133049,-38.4615384615385,4,2,1,5,0,1
133109,-38.4615384615385,4,2,1,70,0,1
133229,-62.5,4,2,1,70,0,1
134549,-55.5555555555556,4,2,1,70,0,1
134729,-55.5555555555556,4,2,1,5,0,1
134789,-62.5,4,2,1,70,0,1
136709,-62.5,4,2,1,70,0,0
136949,-1000,4,2,1,60,0,0
137609,-1000,4,2,1,5,0,0
137669,-50,4,2,1,60,0,0
138149,-71.4285714285714,4,2,1,50,0,0
138389,-125,4,2,1,50,0,0
138629,-125,4,2,23,70,0,1
138749,-125,4,2,15,70,0,1
138869,-125,4,2,24,70,0,1
138989,-125,4,2,25,70,0,1
139109,-125,4,2,17,70,0,1
139229,-125,4,2,12,70,0,1
139349,-125,4,2,13,70,0,1
139469,-55.5555555555556,4,2,10,70,0,1
139649,-55.5555555555556,4,2,1,5,0,1
139709,-55.5555555555556,4,2,21,70,0,1
139829,-55.5555555555556,4,2,22,70,0,1
139949,-55.5555555555556,4,2,17,70,0,1
140069,-55.5555555555556,4,2,12,70,0,1
140189,-55.5555555555556,4,2,21,70,0,1
140309,-55.5555555555556,4,2,20,70,0,1
140429,-55.5555555555556,4,2,26,70,0,1
140549,-55.5555555555556,4,2,27,70,0,1
140669,-55.5555555555556,4,2,28,70,0,1
140789,-55.5555555555556,4,2,29,70,0,1
140909,-55.5555555555556,4,2,26,70,0,1
141029,-55.5555555555556,4,2,10,70,0,1
141149,-55.5555555555556,4,2,21,70,0,1
141269,-55.5555555555556,4,2,22,70,0,1
141389,-55.5555555555556,4,2,17,70,0,1
141509,-55.5555555555556,4,2,10,70,0,1
141629,-55.5555555555556,4,2,21,70,0,1
141749,-55.5555555555556,4,2,22,70,0,1
141869,-55.5555555555556,4,2,17,70,0,1
141989,-55.5555555555556,4,2,25,70,0,1
142109,-55.5555555555556,4,2,17,70,0,1
142229,-55.5555555555556,4,2,22,70,0,1
142409,-55.5555555555556,4,2,1,5,0,1
142469,-55.5555555555556,4,2,1,70,0,1
142529,-55.5555555555556,4,2,1,5,0,1
142589,-55.5555555555556,4,2,16,70,0,1
142769,-55.5555555555556,4,2,1,5,0,1
142829,-55.5555555555556,4,2,25,70,0,1
143009,-55.5555555555556,4,2,1,5,0,1
143069,-55.5555555555556,4,2,17,70,0,1
143249,-55.5555555555556,4,2,1,5,0,1
143309,-45.4545454545455,4,2,12,70,0,1
143489,-45.4545454545455,4,2,1,5,0,1
143549,-45.4545454545455,4,2,25,70,0,1
143729,-45.4545454545455,4,2,1,5,0,1
143789,-45.4545454545455,4,2,17,70,0,1
143969,-45.4545454545455,4,2,1,5,0,1
144029,-45.4545454545455,4,2,12,70,0,1
144209,-45.4545454545455,4,2,1,5,0,1
144269,-41.6666666666667,4,2,21,70,0,1
144449,-41.6666666666667,4,2,1,5,0,1
144509,-41.6666666666667,4,2,17,70,0,1
144689,-41.6666666666667,4,2,1,5,0,1
144749,-41.6666666666667,4,2,12,70,0,1
144929,-41.6666666666667,4,2,1,5,0,1
144989,-41.6666666666667,4,2,21,70,0,1
145169,-41.6666666666667,4,2,1,5,0,1
145229,-41.6666666666667,4,2,30,70,0,1
145349,-41.6666666666667,4,2,1,70,0,1
145469,-41.6666666666667,4,2,10,70,0,1
145589,-41.6666666666667,4,2,1,70,0,1
145709,-41.6666666666667,4,2,21,70,0,1
145829,-41.6666666666667,4,2,1,70,0,1
145949,-41.6666666666667,4,2,12,70,0,1
146069,-166.666666666667,4,2,14,70,0,1
146249,-166.666666666667,4,2,1,5,0,1
146309,-62.5,4,2,31,70,0,1
146429,-62.5,4,2,17,70,0,1
146549,-62.5,4,2,24,70,0,1
146669,-50,4,2,10,70,0,1
146909,-50,4,2,1,70,0,1
147029,-50,4,2,13,70,0,1
147149,-50,4,2,1,70,0,1
147269,-50,4,2,19,70,0,1
147389,-50,4,2,17,70,0,1
147509,-50,4,2,24,70,0,1
147629,-50,4,2,10,70,0,1
147749,-50,4,2,1,70,0,1
147929,-50,4,2,1,5,0,1
147989,-50,4,2,13,70,0,1
148109,-50,4,2,1,70,0,1
148229,-62.5,4,2,12,70,0,1
148349,-62.5,4,2,1,70,0,1
148469,-62.5,4,2,13,70,0,1
148589,-62.5,4,2,1,70,0,1
148709,-50,4,2,12,70,0,1
148889,-50,4,2,1,5,0,1
148949,-50,4,2,14,70,0,1
149069,-50,4,2,1,70,0,1
149429,-50,4,2,32,70,0,1
149509,-50,4,2,17,70,0,1
149589,-50,4,2,12,70,0,1
149669,-50,4,2,10,70,0,1
149749,-50,4,2,27,70,0,1
149829,-50,4,2,28,70,0,1
149909,-41.6666666666667,4,2,33,70,0,1
150089,-41.6666666666667,4,2,1,5,0,1
150149,-41.6666666666667,4,2,34,70,0,1
150269,-62.5,4,2,35,70,0,1
150389,-62.5,4,2,1,70,0,1
150509,-62.5,4,2,28,70,0,1
150629,-62.5,4,2,1,70,0,1
150749,-62.5,4,2,27,70,0,1
150989,-62.5,4,2,1,70,0,1
151109,-62.5,4,2,28,70,0,1
151229,-62.5,4,2,1,70,0,1
151349,-62.5,4,2,36,70,0,1
151469,-62.5,4,2,27,70,0,1
151589,-62.5,4,2,1,70,0,1
151709,-62.5,4,2,26,70,0,1
151949,-62.5,4,2,1,70,0,1
152069,-50,4,2,37,70,0,1
152309,-50,4,2,1,70,0,1
152429,-58.8235294117647,4,2,10,70,0,1
152669,-58.8235294117647,4,2,1,70,0,1
152789,-58.8235294117647,4,2,38,70,0,1
152909,-58.8235294117647,4,2,1,70,0,1
153029,-58.8235294117647,4,2,21,70,0,1
153149,-58.8235294117647,4,2,1,70,0,1
153389,-58.8235294117647,4,2,17,70,0,1
153509,-58.8235294117647,4,2,1,70,0,1
153629,-58.8235294117647,4,2,1,70,0,1
153989,-58.8235294117647,4,2,1,55,0,0
154469,-83.3333333333333,4,2,1,40,0,0
158069,-125,4,2,1,40,0,0
158789,-83.3333333333333,4,2,1,40,0,0
161669,-125,4,2,1,35,0,0
162149,-100,4,2,1,35,0,0
162629,-125,4,2,1,35,0,0
164069,-100,4,2,1,35,0,0
164549,-125,4,2,1,35,0,0
165989,-100,4,2,1,35,0,0
166469,-125,4,2,1,35,0,0
166709,-100,4,2,1,35,0,0
169349,-166.666666666667,4,2,1,25,0,0
177149,-166.666666666667,4,2,1,15,0,0
184469,-83.3333333333334,4,2,1,40,0,0
184529,-83.3333333333334,4,2,1,5,0,0
184589,-83.3333333333334,4,2,1,40,0,0
184649,-83.3333333333334,4,2,1,5,0,0
184709,-50,4,2,34,60,0,1
184949,-50,4,2,1,60,0,1
185069,-50,4,2,35,60,0,1
185309,-50,4,2,1,60,0,1
185429,-50,4,2,28,60,0,1
185669,-50,4,2,1,60,0,1
185789,-50,4,2,27,60,0,1
186029,-50,4,2,1,60,0,1
186149,-50,4,2,26,60,0,1
186269,-50,4,2,1,60,0,1
186389,-50,4,2,19,60,0,1
186509,-50,4,2,1,60,0,1
186629,-50,4,2,39,60,0,1
186989,-50,4,2,1,60,0,1
188549,-45.4545454545455,4,2,40,60,0,1
188729,-45.4545454545455,4,2,1,5,0,1
188789,-45.4545454545455,4,2,41,60,0,1
188969,-45.4545454545455,4,2,1,5,0,1
189029,-45.4545454545455,4,2,1,35,0,0
189389,-38.4615384615385,4,2,16,60,0,1
189569,-38.4615384615385,4,2,1,5,0,1
189629,-38.4615384615385,4,2,30,60,0,1
189749,-38.4615384615385,4,2,19,60,0,1
189869,-38.4615384615385,4,2,27,60,0,1
189989,-38.4615384615385,4,2,34,60,0,1
190109,-38.4615384615385,4,2,42,60,0,1
190229,-38.4615384615385,4,2,43,60,0,1
190469,-38.4615384615385,4,2,1,60,0,0
190949,-38.4615384615385,4,2,1,45,0,0
191309,-50,4,2,1,60,0,1
192389,-166.666666666667,4,2,1,45,0,0
192869,-45.4545454545455,4,2,17,60,0,0
192909,-71.4285714285714,4,2,1,5,0,0
193229,-50,4,2,44,60,0,1
193469,-50,4,2,1,60,0,1
193589,-62.5,4,2,1,60,0,1
194309,-50,4,2,45,70,0,1
194489,-50,4,2,1,5,0,1
194549,-58.8235294117647,4,2,46,70,0,1
194669,-58.8235294117647,4,2,1,70,0,1
194789,-50,4,2,47,70,0,1
194969,-50,4,2,1,5,0,1
195029,-50,4,2,38,70,0,1
195149,-50,4,2,30,70,0,1
195269,-50,4,2,39,70,0,1
195449,-50,4,2,1,5,0,1
195509,-50,4,2,38,70,0,1
195629,-50,4,2,30,70,0,1
195749,-45.4545454545455,4,2,47,70,0,1
195929,-45.4545454545455,4,2,1,5,0,1
195989,-62.5,4,2,48,70,0,1
196109,-62.5,4,2,1,70,0,1
196229,-45.4545454545455,4,2,30,70,0,1
196409,-45.4545454545455,4,2,1,5,0,1
196469,-45.4545454545455,4,2,1,70,0,1
196649,-45.4545454545455,4,2,1,5,0,1
196709,-71.4285714285714,4,2,49,70,0,1
196769,-71.4285714285714,4,2,1,5,0,1
196829,-71.4285714285714,4,2,49,70,0,1
196889,-71.4285714285714,4,2,1,5,0,1
196949,-71.4285714285714,4,2,50,70,0,1
197009,-71.4285714285714,4,2,1,5,0,1
197069,-71.4285714285714,4,2,49,70,0,1
197129,-71.4285714285714,4,2,1,5,0,1
197189,-45.4545454545455,4,2,40,70,0,1
197369,-45.4545454545455,4,2,1,5,0,1
197429,-62.5,4,2,51,70,0,1
197549,-62.5,4,2,1,70,0,1
197669,-62.5,4,2,30,70,0,1
197789,-62.5,4,2,1,70,0,1
197909,-62.5,4,2,51,70,0,1
198149,-38.4615384615385,4,2,52,70,0,1
198329,-38.4615384615385,4,2,1,5,0,1
198389,-38.4615384615385,4,2,51,70,0,1
198509,-62.5,4,2,39,70,0,1
198629,-62.5,4,2,1,70,0,1
198749,-62.5,4,2,30,70,0,1
198869,-62.5,4,2,38,70,0,1
198989,-62.5,4,2,30,70,0,1
199109,-62.5,4,2,40,70,0,1
199229,-62.5,4,2,1,70,0,1
199349,-62.5,4,2,51,70,0,1
199469,-50,4,2,39,70,0,1
199649,-50,4,2,1,5,0,1
199709,-50,4,2,30,70,0,1
199829,-55.5555555555556,4,2,38,70,0,1
200009,-55.5555555555556,4,2,1,5,0,1
200069,-62.5,4,2,47,70,0,1
200189,-62.5,4,2,1,70,0,1
200309,-62.5,4,2,38,70,0,1
200429,-62.5,4,2,1,70,0,1
200549,-55.5555555555556,4,2,47,70,0,1
200729,-55.5555555555556,4,2,1,5,0,1
200789,-55.5555555555556,4,2,38,70,0,1
200909,-62.5,4,2,44,70,0,1
201149,-62.5,4,2,1,70,0,1
201269,-62.5,4,2,53,70,0,1
201389,-62.5,4,2,1,70,0,1
201509,-62.5,4,2,54,70,0,1
201629,-62.5,4,2,1,70,0,1
201749,-62.5,4,2,38,70,0,1
201869,-62.5,4,2,30,70,0,1
201989,-62.5,4,2,47,60,0,0
202229,-1000,4,2,44,60,0,0
202889,-1000,4,2,1,5,0,0
202949,-50,4,2,47,60,0,0
203069,-50,4,2,1,60,0,0
203189,-50,4,2,44,50,0,0
203429,-200,4,2,17,50,0,0
203609,-200,4,2,1,5,0,0
203669,-40,4,2,44,60,0,0
204029,-40,4,2,1,60,0,0
204149,-40,4,2,49,60,0,0
204269,-40,4,2,27,60,0,0
204389,-40,4,2,39,60,0,0
204509,-40,4,2,47,60,0,0
204629,-40,4,2,44,60,0,0
204749,-40,4,2,47,60,0,0
204869,-40,4,2,30,60,0,0
204989,-40,4,2,47,60,0,0
205109,-40,4,2,44,60,0,0
205229,-40,4,2,55,60,0,0
205349,-40,4,2,41,60,0,0
205469,-40,4,2,1,60,0,0
205829,-55.5555555555556,4,2,39,60,0,0
206009,-55.5555555555556,4,2,1,5,0,0
206069,-62.5,4,2,56,60,0,0
206189,-62.5,4,2,1,60,0,0
206309,-62.5,4,2,47,60,0,0
206429,-62.5,4,2,1,60,0,0
206549,-62.5,4,2,38,60,0,0
206669,-62.5,4,2,47,60,0,0
206909,-62.5,4,2,1,60,0,0
207029,-62.5,4,2,48,60,0,0
207149,-62.5,4,2,55,60,0,0
207269,-62.5,4,2,1,60,0,0
207749,-55.5555555555556,4,2,39,60,0,0
207929,-55.5555555555556,4,2,1,5,0,0
207989,-62.5,4,2,56,60,0,0
208109,-62.5,4,2,1,60,0,0
208229,-62.5,4,2,47,60,0,0
208349,-62.5,4,2,1,60,0,0
208469,-62.5,4,2,38,60,0,0
208589,-62.5,4,2,47,60,0,0
208829,-62.5,4,2,1,60,0,0
208949,-62.5,4,2,48,60,0,0
209069,-62.5,4,2,1,60,0,0
209189,-62.5,4,2,55,60,0,0
209309,-62.5,4,2,54,60,0,0
209429,-62.5,4,2,48,60,0,0
209549,-62.5,4,2,47,60,0,0
209669,-55.5555555555556,4,2,39,60,0,0
209849,-55.5555555555556,4,2,1,5,0,0
209909,-62.5,4,2,56,60,0,0
210029,-62.5,4,2,1,60,0,0
210149,-62.5,4,2,47,60,0,0
210269,-62.5,4,2,1,60,0,0
210389,-62.5,4,2,38,60,0,0
210509,-62.5,4,2,47,60,0,0
210749,-62.5,4,2,1,60,0,0
210869,-62.5,4,2,48,60,0,0
210989,-62.5,4,2,1,60,0,0
211109,-62.5,4,2,44,60,0,0
211229,-62.5,4,2,1,60,0,0
211349,-62.5,4,2,14,60,0,0
211469,-62.5,4,2,1,60,0,0
211589,-62.5,4,2,44,60,0,0
211829,-62.5,4,2,1,60,0,0
211949,-62.5,4,2,47,60,0,0
212069,-55.5555555555556,4,2,1,60,0,0
212249,-55.5555555555556,4,2,1,5,0,0
212309,-62.5,4,2,38,60,0,0
212429,-62.5,4,2,1,60,0,0
212549,-62.5,4,2,40,60,0,0
212669,-62.5,4,2,1,60,0,0
212789,-62.5,4,2,51,60,0,0
212909,-62.5,4,2,1,60,0,0
213029,-62.5,4,2,30,60,0,0
213149,-62.5,4,2,1,60,0,0
213269,-62.5,4,2,46,60,0,0
213389,-62.5,4,2,1,60,0,0
213509,-55.5555555555556,4,2,39,60,0,0
213689,-55.5555555555556,4,2,1,5,0,0
213749,-62.5,4,2,56,60,0,0
213869,-62.5,4,2,1,60,0,0
213989,-62.5,4,2,47,60,0,0
214109,-62.5,4,2,1,60,0,0
214229,-62.5,4,2,38,60,0,0
214349,-62.5,4,2,47,60,0,0
214589,-62.5,4,2,1,60,0,0
214709,-62.5,4,2,48,60,0,0
214829,-62.5,4,2,55,60,0,0
214949,-62.5,4,2,1,60,0,0
215069,-62.5,4,2,1,60,0,0
215429,-55.5555555555556,4,2,39,60,0,0
215609,-55.5555555555556,4,2,1,5,0,0
215669,-62.5,4,2,56,60,0,0
215789,-62.5,4,2,1,60,0,0
215909,-62.5,4,2,47,60,0,0
216029,-62.5,4,2,1,60,0,0
216149,-62.5,4,2,38,60,0,0
216269,-62.5,4,2,47,60,0,0
216509,-62.5,4,2,1,60,0,0
216629,-62.5,4,2,48,60,0,0
216749,-62.5,4,2,1,60,0,0
216869,-62.5,4,2,55,60,0,0
216989,-62.5,4,2,54,60,0,0
217109,-62.5,4,2,48,60,0,0
217229,-62.5,4,2,47,60,0,0
217349,-55.5555555555556,4,2,39,60,0,0
217529,-55.5555555555556,4,2,1,5,0,0
217589,-62.5,4,2,56,60,0,0
217709,-62.5,4,2,1,60,0,0
217829,-62.5,4,2,47,60,0,0
217949,-62.5,4,2,1,60,0,0
218069,-62.5,4,2,38,60,0,0
218189,-62.5,4,2,47,60,0,0
218429,-62.5,4,2,1,60,0,0
218549,-62.5,4,2,48,60,0,0
218669,-62.5,4,2,1,60,0,0
218789,-62.5,4,2,44,60,0,0
218909,-62.5,4,2,1,60,0,0
219029,-62.5,4,2,14,60,0,0
219149,-62.5,4,2,1,60,0,0
219269,-55.5555555555556,4,2,44,60,0,0
219449,-55.5555555555556,4,2,1,5,0,0
219509,-62.5,4,2,1,60,0,0
219629,-62.5,4,2,47,60,0,0
219749,-62.5,4,2,1,60,0,0
219869,-62.5,4,2,1,60,0,0
219989,-62.5,4,2,38,60,0,0
220109,-62.5,4,2,1,60,0,0
220229,-62.5,4,2,44,60,0,0
220349,-62.5,4,2,1,60,0,0
220469,-50,4,2,1,60,0,0
220649,-50,4,2,1,5,0,0
220709,-50,4,2,44,60,0,0
220829,-50,4,2,17,60,0,0
220949,-50,4,2,53,60,0,0
221069,-50,4,2,57,60,0,0
221189,-55.5555555555556,4,2,1,70,0,1
221369,-55.5555555555556,4,2,1,5,0,1
221429,-62.5,4,2,1,70,0,1
222629,-55.5555555555556,4,2,1,70,0,1
222809,-62.5,4,2,1,5,0,1
222869,-62.5,4,2,1,70,0,1
225029,-55.5555555555556,4,2,1,70,0,1
225209,-55.5555555555556,4,2,1,5,0,1
225269,-62.5,4,2,1,70,0,1
226469,-55.5555555555556,4,2,1,70,0,1
226889,-55.5555555555556,4,2,1,5,0,1
226949,-55.5555555555556,4,2,1,70,0,1
227129,-55.5555555555556,4,2,1,5,0,1
227189,-62.5,4,2,1,70,0,1
228869,-55.5555555555556,4,2,39,60,0,0
229049,-55.5555555555556,4,2,1,5,0,0
229109,-62.5,4,2,56,60,0,0
229229,-62.5,4,2,1,60,0,0
229349,-62.5,4,2,47,60,0,0
229469,-62.5,4,2,1,60,0,0
229589,-62.5,4,2,38,60,0,0
229709,-62.5,4,2,47,60,0,0
229949,-62.5,4,2,1,60,0,0
230069,-62.5,4,2,48,60,0,0
230189,-62.5,4,2,55,60,0,0
230309,-62.5,4,2,1,60,0,0
230789,-55.5555555555556,4,2,39,60,0,0
230969,-55.5555555555556,4,2,1,5,0,0
231029,-62.5,4,2,56,60,0,0
231149,-62.5,4,2,1,60,0,0
231269,-62.5,4,2,47,60,0,0
231389,-62.5,4,2,1,60,0,0
231509,-62.5,4,2,38,60,0,0
231629,-62.5,4,2,1,60,0,0
231749,-55.5555555555556,4,2,30,60,0,0
231929,-55.5555555555556,4,2,1,5,0,0
231989,-62.5,4,2,51,60,0,0
232109,-62.5,4,2,1,60,0,0
232229,-62.5,4,2,54,60,0,0
232349,-62.5,4,2,1,60,0,0
232469,-62.5,4,2,53,60,0,0
232589,-62.5,4,2,1,60,0,0
232709,-55.5555555555556,4,2,1,60,0,0
232889,-55.5555555555556,4,2,1,5,0,0
232949,-62.5,4,2,1,60,0,0
234629,-55.5555555555556,4,2,1,60,0,0
234809,-55.5555555555556,4,2,1,5,0,0
234869,-62.5,4,2,1,60,0,0
236549,-55.5555555555556,4,2,39,60,0,0
236729,-55.5555555555556,4,2,1,5,0,0
236789,-62.5,4,2,56,60,0,0
236909,-62.5,4,2,1,60,0,0
237029,-62.5,4,2,47,60,0,0
237149,-62.5,4,2,1,60,0,0
237269,-62.5,4,2,38,60,0,0
237389,-62.5,4,2,47,60,0,0
237629,-62.5,4,2,1,60,0,0
237749,-62.5,4,2,48,60,0,0
237869,-62.5,4,2,55,60,0,0
237989,-62.5,4,2,1,60,0,0
238469,-55.5555555555556,4,2,39,60,0,0
238649,-55.5555555555556,4,2,1,5,0,0
238709,-62.5,4,2,56,60,0,0
238829,-62.5,4,2,1,60,0,0
238949,-62.5,4,2,47,60,0,0
239069,-62.5,4,2,1,60,0,0
239189,-62.5,4,2,38,60,0,0
239309,-62.5,4,2,47,60,0,0
239429,-62.5,4,2,1,60,0,0
239669,-62.5,4,2,48,60,0,0
239789,-62.5,4,2,1,60,0,0
239909,-62.5,4,2,54,60,0,0
240029,-62.5,4,2,1,60,0,0
240149,-62.5,4,2,53,60,0,0
240269,-62.5,4,2,1,60,0,0
240389,-50,4,2,1,60,0,0
240629,-1000,4,2,1,60,0,0
241289,-1000,4,2,1,5,0,0
241349,-45.4545454545455,4,2,1,60,0,0
241709,-45.4545454545455,4,2,1,45,0,0
242309,-38.4615384615385,4,2,1,60,0,0
242609,-50,4,2,1,30,0,0

[Colours]
Combo1 : 191,234,233
Combo2 : 208,181,216
Combo3 : 255,232,126
Combo4 : 235,121,105

[HitObjects]
21,28,1349,5,0,3:0:0:0:
100,16,1829,1,0,3:0:0:0:
433,103,2309,5,0,3:0:0:0:
488,47,2549,1,2,0:0:0:0:
426,114,2789,6,0,L|437:166,1,35.9999989013672,2|0,3:2|0:0,0:0:0:0:
495,35,3029,2,0,L|487:0,1,35.9999989013672,2|0,0:0|0:0,0:0:0:0:
266,121,3269,5,2,3:2:0:0:
300,114,3389,1,2,0:0:0:0:
334,126,3509,1,2,0:0:0:0:
355,154,3629,1,2,0:0:0:0:
426,114,3749,5,2,3:2:0:0:
512,291,3989,6,0,L|445:280,1,48,2|0,0:0|3:0,0:0:0:0:
355,154,4469,6,0,L|361:189,1,35.9999989013672,2|2,0:0|0:0,0:0:0:0:
287,384,4709,5,2,3:2:0:0:
275,371,4829,1,2,0:0:0:0:
333,321,4949,2,0,L|395:335,1,48,2|0,0:0|0:0,0:0:0:0:
206,187,5189,5,2,3:2:0:0:
200,209,5309,1,2,0:0:0:0:
126,167,5429,5,2,0:0:0:0:
120,189,5549,1,2,0:0:0:0:
6,250,5669,6,0,L|65:237,1,48,2|0,3:2|0:0,0:0:0:0:
214,110,5909,6,0,L|155:97,1,48,2|0,0:0|3:0,0:0:0:0:
95,39,6389,5,2,0:0:0:0:
99,59,6509,1,2,0:0:0:0:
34,141,6629,5,2,3:2:0:0:
68,131,6749,1,2,0:0:0:0:
102,141,6869,1,2,0:0:0:0:
126,167,6989,1,2,0:0:0:0:
167,99,7109,5,2,3:2:0:0:
271,272,7349,6,0,L|217:282,1,48,2|0,0:0|3:0,0:0:0:0:
179,364,7829,6,0,L|176:341,1,24,2|2,0:0|0:0,0:0:0:0:
354,265,8069,5,2,3:2:0:0:
352,276,8189,1,2,0:0:0:0:
350,288,8309,1,2,0:0:0:0:
348,300,8429,1,2,0:0:0:0:
401,357,8549,6,0,L|466:343,1,48,2|2,3:2|0:0,0:0:0:0:
512,211,8789,1,2,0:0:0:0:
388,13,9029,6,0,P|379:2|374:24,1,48,2|0,3:2|0:0,0:0:0:0:
448,89,9269,2,0,L|331:108,1,107.999996704102,2|0,0:0|0:0,0:0:0:0:
170,134,9749,2,0,L|134:140,1,35.9999989013672,2|0,0:0|0:0,0:0:0:0:
256,120,9989,5,0,3:0:0:0:
57,216,10229,5,2,0:0:0:0:
91,209,10349,1,2,0:0:0:0:
125,221,10469,1,2,3:2:0:0:
146,249,10589,1,2,0:0:0:0:
245,301,10709,6,0,L|197:309,1,48,2|0,0:0|0:0,0:0:0:0:
312,182,10949,5,2,3:2:0:0:
360,246,11069,2,0,L|351:299,1,48,2|0,0:0|0:0,0:0:0:0:
284,375,11309,5,2,0:0:0:0:
294,365,11429,2,0,L|352:377,1,48,2|0,3:2|0:0,0:0:0:0:
486,273,11669,6,0,L|428:285,1,48,2|0,0:0|3:0,0:0:0:0:
301,79,12149,5,2,0:0:0:0:
295,101,12269,1,2,0:0:0:0:
364,32,12389,5,2,3:2:0:0:
347,15,12509,1,2,0:0:0:0:
376,112,12629,6,0,L|438:95,1,48,2|0,0:0|0:0,0:0:0:0:
150,4,12869,5,2,3:2:0:0:
126,56,12989,1,2,0:0:0:0:
169,95,13109,1,2,0:0:0:0:
219,66,13229,1,2,0:0:0:0:
207,10,13349,6,0,L|258:-2,1,48,2|2,3:2|0:0,0:0:0:0:
85,179,13589,6,0,L|34:167,1,48,2|0,0:0|3:0,0:0:0:0:
267,370,14309,5,2,3:2:0:0:
252,372,14429,1,2,0:0:0:0:
238,374,14549,1,2,0:0:0:0:
224,376,14669,1,2,0:0:0:0:
161,325,14789,6,0,L|169:271,1,48,2|2,3:2|0:0,0:0:0:0:
361,382,15029,6,0,P|362:364|346:378,1,48,2|0,0:0|3:0,0:0:0:0:
298,139,15749,5,2,3:2:0:0:
0,182,17429,6,0,L|37:186,1,35.9999989013672,2|0,0:3|0:0,0:0:0:0:
173,307,17549,2,0,L|137:303,1,35.9999989013672,2|0,0:3|0:0,0:0:0:0:
110,169,17669,6,0,B|126:219|91:249|83:242|48:270|60:318,1,161.999995056153,6|0,3:2|0:0,0:0:0:0:
50,323,17909,2,0,P|96:339|116:375,1,90.0000034332277,2|0,0:0|0:0,0:0:0:0:
276,204,18149,6,0,B|238:213|238:213|231:219|231:219|183:230,1,90.0000034332277,10|0,0:0|0:0,0:0:0:0:
68,0,18389,1,2,0:0:0:0:
14,57,18509,2,0,P|48:109|163:83,1,180.000006866455,2|0,0:0|0:0,0:0:0:0:
268,56,18869,6,0,B|245:34|208:37|208:37|227:55|226:86,1,90.0000034332277,2|2,0:0|0:0,0:0:0:0:
276,204,19109,2,0,B|266:147|308:119|316:128|358:103|352:49,1,180.000006866455,8|2,0:0|0:3,0:0:0:0:
190,228,19589,6,0,P|255:232|322:312,1,161.999995056153,2|0,3:2|0:0,0:0:0:0:
308,306,19829,2,0,P|264:313|233:362,1,90.0000034332277,2|0,0:0|0:0,0:0:0:0:
451,384,20069,6,0,L|464:280,1,90.0000034332277,10|0,0:0|0:0,0:0:0:0:
486,92,20309,1,2,0:0:0:0:
446,161,20429,2,0,B|365:176|365:176|357:189|357:189|269:205,1,180.000006866455,2|0,0:0|0:0,0:0:0:0:
190,228,20789,6,0,B|171:212|148:210|148:210|173:197|205:218,1,90.0000034332277,2|0,0:0|0:0,0:0:0:0:
249,0,21029,5,10,0:0:0:0:
266,18,21149,1,2,0:0:0:0:
314,78,21269,5,2,0:0:0:0:
302,99,21389,1,2,0:0:0:0:
227,129,21509,6,0,B|177:145|147:110|154:102|126:67|78:79,1,161.999995056153,2|0,3:2|0:0,0:0:0:0:
67,74,21749,2,0,P|53:113|-5:131,1,90.0000034332277,2|0,0:0|0:0,0:0:0:0:
170,296,21989,6,0,B|177:256|177:256|182:250|182:250|193:193,1,90.0000034332277,10|0,0:0|0:0,0:0:0:0:
0,384,22229,1,2,0:0:0:0:
47,315,22349,2,0,P|105:304|189:399,1,180.000006866455,2|0,0:0|0:0,0:0:0:0:
268,384,22709,6,0,B|325:366|325:366|340:352|315:318,1,90.0000034332277,2|0,0:0|0:0,0:0:0:0:
409,290,22949,2,0,B|364:249|364:249|345:243|328:282,1,90.0000034332277,10|0,0:0|0:0,0:0:0:0:
315,175,23189,2,0,B|262:204|262:204|251:221|282:249,1,90.0000034332277,2|0,0:0|0:0,0:0:0:0:
486,329,23429,6,0,B|512:265|470:221|459:237|414:191|440:126,1,215.999993408203,2|2,3:2|0:3,0:0:0:0:
444,0,23789,5,2,0:0:0:0:
508,47,23909,2,0,P|457:94|357:59,1,161.999995056153,10|0,0:0|0:0,0:0:0:0:
361,65,24149,2,0,B|299:76|299:76|294:98|267:118,1,90.0000034332277,2|0,0:0|0:0,0:0:0:0:
0,0,24389,6,0,P|52:8|81:57,1,90.0000034332277,2|0,3:2|0:0,0:0:0:0:
220,60,24629,2,0,P|168:68|139:117,1,90.0000034332277,2|0,0:0|0:0,0:0:0:0:
1,110,24869,2,0,P|-14:91|13:106,1,90.0000034332277,10|0,0:0|0:0,0:0:0:0:
169,216,25109,2,0,P|184:197|157:212,1,90.0000034332277,2|0,0:0|0:0,0:0:0:0:
0,323,25349,6,0,P|62:310|136:389,1,161.999995056153,6|0,3:2|0:0,0:0:0:0:
145,375,25589,2,0,L|242:362,1,90.0000034332277,2|0,0:0|0:0,0:0:0:0:
353,230,25829,6,0,P|314:263|261:252,1,90.0000034332277,10|0,0:0|0:0,0:0:0:0:
372,76,26069,1,2,0:0:0:0:
333,148,26189,2,0,P|377:200|491:164,1,180.000006866455,2|0,0:0|0:0,0:0:0:0:
512,102,26549,6,0,B|489:80|452:83|452:83|471:101|470:132,1,90.0000034332277,2|2,0:0|0:0,0:0:0:0:
353,230,26789,2,0,B|347:280|389:305|397:296|439:324|429:381,1,180.000006866455,8|2,0:0|0:3,0:0:0:0:
305,35,27269,6,0,P|265:90|148:64,1,161.999995056153,2|0,3:2|0:0,0:0:0:0:
165,93,27509,2,0,P|129:73|69:95,1,90.0000034332277,2|0,0:0|0:0,0:0:0:0:
159,195,27749,6,0,B|199:188|199:188|208:191|208:191|257:183,1,90.0000034332277,10|0,0:0|0:0,0:0:0:0:
41,14,27989,1,2,0:0:0:0:
0,83,28109,2,0,B|-5:133|36:158|44:149|86:177|76:234,1,180.000006866455,2|0,0:0|0:0,0:0:0:0:
0,305,28469,6,0,P|-14:285|10:303,1,90.0000034332277,2|0,0:0|0:0,0:0:0:0:
241,355,28709,5,10,0:0:0:0:
256,335,28829,1,2,0:0:0:0:
323,296,28949,5,2,0:0:0:0:
310,276,29069,1,2,0:0:0:0:
285,200,29189,6,0,P|222:191|154:278,1,161.999995056153,2|0,3:2|0:0,0:0:0:0:
147,265,29429,2,0,P|111:270|74:221,1,90.0000034332277,2|0,0:0|0:0,0:0:0:0:
207,17,29669,6,0,L|223:119,1,90.0000034332277,10|0,0:0|0:0,0:0:0:0:
395,256,29909,1,2,0:0:0:0:
452,198,30029,2,0,B|457:148|416:123|408:132|366:104|376:47,1,180.000006866455,2|0,0:0|0:0,0:0:0:0:
475,24,30389,6,0,P|491:44|456:34,1,90.0000034332277,2|0,0:0|0:0,0:0:0:0:
305,150,30629,2,0,P|288:170|323:160,1,90.0000034332277,10|0,0:0|0:0,0:0:0:0:
512,301,30869,2,0,P|460:305|426:353,1,90.0000034332277,2|0,0:0|0:0,0:0:0:0:
264,384,31109,6,0,B|123:367|123:367|97:331|130:294,1,215.999993408203,2|2,3:2|0:3,0:0:0:0:
144,145,31469,5,2,0:0:0:0:
196,213,31589,2,0,P|143:262|54:218,1,161.999995056153,10|0,0:0|0:0,0:0:0:0:
60,224,31829,5,2,0:0:0:0:
1,277,31949,1,8,0:0:0:0:
57,124,32069,6,0,B|97:131|97:131|102:136|102:136|143:144,1,90.0000034332277,2|0,3:2|0:0,0:0:0:0:
331,283,32309,2,0,B|290:290|290:290|285:295|285:295|244:303,1,90.0000034332277,8|0,0:0|0:0,0:0:0:0:
250,21,32549,5,10,0:0:0:0:
323,47,32669,1,8,0:0:0:0:
316,127,32789,1,8,3:0:0:0:
239,146,32909,1,4,3:0:0:0:
196,79,33029,1,6,3:2:0:0:
143,144,33509,5,2,3:2:0:0:
244,302,33989,5,2,3:2:0:0:
209,291,34109,1,2,0:0:0:0:
174,298,34229,1,2,0:3:0:0:
146,319,34349,1,2,0:0:0:0:
0,253,34469,6,0,P|0:226|22:195,1,60,10|0,0:0|0:0,0:0:0:0:
91,222,34709,2,0,P|91:248|68:279,1,60,2|0,0:0|0:0,0:0:0:0:
17,330,34949,5,0,3:0:0:0:
146,319,35429,5,2,3:2:0:0:
55,103,35909,5,2,3:2:0:0:
76,131,36029,1,2,0:0:0:0:
109,146,36149,1,2,0:3:0:0:
143,144,36269,1,2,0:0:0:0:
258,59,36389,6,0,L|245:-12,1,60,10|0,0:0|0:0,0:0:0:0:
167,14,36629,2,0,L|177:73,1,60,2|0,0:0|0:0,0:0:0:0:
230,134,36869,5,0,3:0:0:0:
386,0,37109,5,2,0:3:0:0:
464,21,37229,1,2,0:0:0:0:
370,8,37349,2,0,L|385:82,1,60,2|0,3:2|0:0,0:0:0:0:
469,245,37589,5,2,0:3:0:0:
510,179,37709,1,2,0:0:0:0:
444,139,37829,2,0,L|384:150,2,60,2|2|2,3:2|0:0|0:3,0:0:0:0:
354,332,38309,6,0,B|438:317|438:317|452:340|491:344,1,120,8|2,0:0|0:3,0:0:0:0:
294,384,38789,5,2,3:2:0:0:
273,355,38909,1,2,0:0:0:0:
269,320,39029,1,2,0:3:0:0:
283,288,39149,1,2,0:0:0:0:
195,348,39269,6,0,L|126:363,1,48,2|2,3:2|0:0,0:0:0:0:
24,384,39509,2,0,L|71:374,1,48,2|2,0:3|0:0,0:0:0:0:
53,189,39749,5,2,3:2:0:0:
41,235,39869,1,2,0:0:0:0:
89,247,39989,1,2,0:3:0:0:
99,199,40109,1,2,0:0:0:0:
203,242,40229,5,10,0:0:0:0:
208,266,40349,1,2,0:0:0:0:
185,272,40469,1,2,0:3:0:0:
179,249,40589,1,2,0:0:0:0:
148,358,40709,5,6,3:0:0:0:
258,177,40949,2,0,L|244:104,2,48,2|2|2,0:0|0:0|3:2,0:0:0:0:
425,244,41429,5,2,0:3:0:0:
410,234,41549,2,0,P|370:238|347:272,1,60,2|0,0:0|3:0,0:0:0:0:
252,382,41789,5,2,0:0:0:0:
231,350,41909,1,2,0:3:0:0:
261,325,42029,1,2,0:0:0:0:
332,372,42149,6,0,L|415:385,1,60,10|0,0:0|0:0,0:0:0:0:
512,299,42389,2,0,P|510:275|504:300,1,60,2|0,0:3|0:0,0:0:0:0:
486,374,42629,5,0,3:0:0:0:
339,162,42869,6,0,L|353:96,1,48,2|0,0:3|0:0,0:0:0:0:
444,12,43109,5,2,3:2:0:0:
512,53,43229,1,2,0:0:0:0:
429,6,43349,2,0,L|352:18,1,60,2|0,0:3|0:0,0:0:0:0:
133,108,43589,5,2,3:2:0:0:
167,106,43709,1,2,0:0:0:0:
200,121,43829,1,2,0:3:0:0:
221,149,43949,1,2,0:0:0:0:
273,65,44069,6,0,L|286:0,1,60,10|0,0:0|0:0,0:0:0:0:
143,211,44309,2,0,P|142:187|156:206,1,60,2|0,0:3|0:0,0:0:0:0:
310,244,44549,6,0,P|243:247|202:294,2,120,0|2|0,3:0|0:3|3:0,0:0:0:0:
282,319,45269,1,2,0:3:0:0:
340,169,45509,5,0,3:0:0:0:
482,355,45749,5,2,0:3:0:0:
422,299,45869,2,0,L|345:312,1,60,2|8,0:0|0:0,0:0:0:0:
437,211,46109,5,2,0:0:0:0:
450,222,46229,2,0,L|527:237,1,48,2|0,0:3|0:0,0:0:0:0:
358,60,46469,5,2,3:2:0:0:
391,106,46589,1,2,0:0:0:0:
446,88,46709,1,2,0:3:0:0:
446,31,46829,1,2,0:0:0:0:
391,13,46949,6,0,L|381:62,1,48,2|2,3:2|0:0,0:0:0:0:
270,65,47189,2,0,L|260:114,1,48,2|2,0:3|0:0,0:0:0:0:
134,138,47429,5,8,0:0:0:0:
340,169,47669,1,8,0:0:0:0:
140,346,47909,5,8,0:0:0:0:
162,273,48029,1,8,0:0:0:0:
218,330,48149,1,8,3:0:0:0:
227,321,48389,6,0,B|278:305|303:345|296:351|321:384|381:373,2,167.999994873047,6|0|0,3:2|3:0|3:0,0:0:0:0:
456,204,49829,1,8,0:0:0:0:
247,20,50309,6,0,P|257:70|167:47,1,167.999994873047,0|0,3:0|3:0,0:0:0:0:
0,252,51269,2,0,B|19:249|34:227|34:227|40:258|68:277,1,83.9999974365235,0|2,3:0|0:3,0:0:0:0:
108,336,51749,2,0,P|69:341|13:360,1,83.9999974365235,8|0,0:0|0:0,0:0:0:0:
10,84,52229,6,0,P|44:134|175:135,2,167.999994873047,0|0|0,3:0|3:0|3:0,0:0:0:0:
255,0,53669,1,8,0:0:0:0:
258,16,53909,1,2,0:3:0:0:
327,57,54149,6,0,B|340:102|306:120|301:114|271:144|284:186,2,144,0|2|2,3:0|0:0|0:3,0:0:0:0:
363,239,54989,1,2,0:0:0:0:
352,229,55109,2,0,P|294:236|266:276,1,96,0|2,3:0|0:0,0:0:0:0:
26,384,55589,5,8,0:0:0:0:
48,311,55709,1,8,0:0:0:0:
104,368,55829,1,8,3:0:0:0:
113,355,56069,6,0,B|121:312|92:292|87:298|54:277|63:226,1,143.999995605469,6|2,3:2|0:3,0:0:0:0:
74,218,56429,1,2,0:0:0:0:
156,145,56549,5,2,3:2:0:0:
145,112,56669,1,2,0:0:0:0:
111,112,56789,1,2,0:3:0:0:
101,145,56909,1,2,0:0:0:0:
131,164,57029,6,0,P|165:168|201:209,1,71.9999978027344,2|0,3:2|0:0,0:0:0:0:
273,263,57269,2,0,P|239:267|203:308,1,71.9999978027344,2|0,0:3|0:0,0:0:0:0:
0,367,57509,6,0,B|37:284|129:301|129:301|145:355|183:357,1,215.999993408203,8|0,0:0|0:0,0:0:0:0:
434,315,57989,5,2,3:2:0:0:
447,293,58109,1,2,0:0:0:0:
374,260,58229,1,2,0:3:0:0:
329,322,58349,1,2,0:0:0:0:
273,263,58469,6,0,L|288:169,1,71.9999978027344,2|0,3:2|0:0,0:0:0:0:
376,14,58709,1,2,0:3:0:0:
442,58,58829,1,2,0:2:0:0:
364,5,58949,6,0,B|323:-3|296:29|304:36|284:68|232:60,1,143.999995605469,2|2,3:2|0:3,0:0:0:0:
135,68,59309,2,0,P|177:64|207:154,1,143.999995605469,2|0,0:0|0:0,0:0:0:0:
70,147,59669,2,0,B|46:127|61:99|61:99|71:116|86:125,1,71.9999978027344,2|0,0:3|0:0,0:0:0:0:
285,192,59909,6,0,P|197:194|133:269,1,167.999994873047,6|0,3:2|0:0,0:0:0:0:
0,384,60269,5,0,3:0:0:0:
111,319,60389,2,0,B|88:310|77:293|77:293|76:315|56:343,1,83.9999974365235,8|0,0:0|0:0,0:0:0:0:
63,330,60629,6,0,B|175:346|175:346|187:358|187:358|332:379,1,251.999992309571,0|0,3:0|0:0,0:0:0:0:
388,373,61109,6,0,B|396:349|415:336|415:336|387:337|370:371,1,83.9999974365235,2|0,0:3|0:0,0:0:0:0:
278,191,61349,5,8,0:0:0:0:
327,269,61469,1,8,3:0:0:0:
318,108,61589,1,8,3:0:0:0:
184,197,61709,1,4,3:0:0:0:
371,190,61829,6,0,B|305:181|275:234|291:243|271:302|180:284,1,204.000003890991,14|0,3:2|0:0,0:0:0:0:
207,286,62069,1,2,0:3:0:0:
318,108,62189,6,0,B|343:169|404:169|403:150|464:138|494:226,1,204.000003890991,10|0,3:2|0:0,0:0:0:0:
483,201,62429,1,2,0:3:0:0:
278,191,62549,6,0,B|318:138|287:85|272:95|231:48|292:-21,1,204.000003890991,10|0,3:2|0:0,0:0:0:0:
276,0,62789,1,2,0:3:0:0:
18,93,62909,5,8,0:0:0:0:
0,3,63029,2,0,P|45:65|141:65,1,161.999995056153,8|0,3:0|0:0,0:0:0:0:
125,72,63269,5,8,0:0:0:0:
155,0,63389,1,8,3:0:0:0:
39,166,63509,5,4,3:0:0:0:
18,93,63629,1,4,3:0:0:0:
182,197,63749,6,0,P|132:204|95:251,1,96,14|0,3:2|0:0,0:0:0:0:
20,384,63989,5,2,0:3:0:0:
0,294,64109,2,0,L|98:318,1,96,2|8,0:0|0:0,0:0:0:0:
252,242,64349,5,2,0:0:0:0:
192,383,64469,2,0,B|181:337|215:310|222:319|260:292|250:235,1,161.999995056153,2|0,0:3|0:0,0:0:0:0:
292,152,64709,6,0,B|267:132|228:136|228:136|251:154|252:185,1,96,2|0,3:2|0:0,0:0:0:0:
275,373,64949,5,2,0:3:0:0:
357,302,65069,2,0,L|482:326,1,96,2|8,0:0|0:0,0:0:0:0:
512,91,65309,5,2,0:0:0:0:
464,158,65429,2,0,P|398:156|348:52,1,161.999995056153,2|0,0:3|0:0,0:0:0:0:
341,0,65669,5,2,3:2:0:0:
446,50,65789,1,2,0:0:0:0:
341,0,65909,2,0,B|296:5|296:5|289:10|289:10|234:19,1,96,2|0,0:3|0:0,0:0:0:0:
101,122,66149,6,0,B|80:114|75:87|75:87|97:-3,1,96,10|0,0:0|0:0,0:0:0:0:
230,228,66389,1,2,0:3:0:0:
291,166,66509,2,0,B|207:178|207:178|198:190|198:190|86:208,1,192,2|0,0:0|0:0,0:0:0:0:
50,259,66869,6,0,P|23:202|59:149,1,96,2|0,0:3|0:0,0:0:0:0:
230,228,67109,6,0,L|211:337,1,96,10|0,0:0|0:0,0:0:0:0:
337,383,67349,6,0,P|365:379|379:367,1,48,2|0,0:3|0:0,0:0:0:0:
512,345,67469,2,0,L|438:331,1,48,2|0,0:0|0:0,0:0:0:0:
379,366,67589,6,0,L|397:255,1,96,2|0,3:2|0:0,0:0:0:0:
506,43,67829,5,2,0:3:0:0:
401,7,67949,1,2,0:0:0:0:
506,43,68069,2,0,P|423:53|352:113,1,161.999995056153,10|0,0:0|0:0,0:0:0:0:
374,177,68309,5,2,0:3:0:0:
255,47,68429,1,2,0:0:0:0:
374,177,68549,2,0,P|291:167|220:107,1,161.999995056153,2|0,3:2|0:0,0:0:0:0:
186,189,68789,5,2,0:3:0:0:
25,110,68909,1,2,0:0:0:0:
186,189,69029,2,0,P|103:199|22:264,1,180,10|0,0:0|0:0,0:0:0:0:
123,305,69269,6,0,B|134:278|155:268|155:268|127:265|103:292,1,96,2|0,0:3|0:0,0:0:0:0:
2,29,69509,6,0,P|69:95|155:96,1,180,6|0,3:2|0:0,0:0:0:0:
335,292,69749,2,0,P|247:297|186:360,1,180,2|0,3:0|0:0,0:0:0:0:
229,42,69989,5,10,0:0:0:0:
349,81,70109,1,10,0:0:0:0:
229,120,70229,1,10,0:0:0:0:
303,17,70349,1,6,3:2:0:0:
303,144,70469,6,0,P|387:132|486:229,1,180,2|0,0:0|0:0,0:0:0:0:
476,34,70709,2,0,P|508:64|500:137,1,96,2|0,3:0|0:0,0:0:0:0:
363,370,70949,5,10,0:0:0:0:
336,213,71069,1,8,3:0:0:0:
434,316,71189,1,4,3:0:0:0:
277,343,71309,1,4,3:0:0:0:
434,316,71429,6,0,P|489:333|520:391,1,96,6|0,3:2|0:0,0:0:0:0:
188,137,71669,5,2,0:3:0:0:
194,250,71789,2,0,P|142:290|37:243,1,161.999995056153,2|0,0:0|0:0,0:0:0:0:
18,69,72029,5,2,0:0:0:0:
93,168,72149,1,2,0:3:0:0:
0,205,72269,1,2,0:0:0:0:
93,35,72389,6,0,B|136:44|136:44|144:51|144:51|185:60,1,96,2|0,3:2|0:0,0:0:0:0:
284,144,72629,1,2,0:3:0:0:
349,94,72749,6,0,L|369:-18,1,96,2|8,0:0|0:0,0:0:0:0:
473,231,72989,1,2,0:0:0:0:
508,133,73109,2,0,B|428:152|428:152|422:162|422:162|324:184,1,161.999995056153,2|0,0:3|0:0,0:0:0:0:
284,144,73349,6,0,P|274:192|303:237,1,96,2|0,3:2|0:0,0:0:0:0:
448,308,73589,2,0,P|457:274|427:300,1,96,2|0,0:3|0:0,0:0:0:0:
297,384,73829,6,0,B|246:393|219:355|228:348|201:314|155:325,1,161.999995056153,10|0,0:0|0:0,0:0:0:0:
95,376,74069,5,2,0:3:0:0:
159,146,74189,2,8,P|100:129|-7:227,1,192,10|8,0:0|0:0,0:0:0:0:
63,254,74549,6,0,P|102:261|151:215,1,96,2|0,0:3|0:0,0:0:0:0:
303,19,74789,5,8,3:0:0:0:
418,104,74909,1,8,0:0:0:0:
282,158,75029,1,8,0:0:0:0:
334,94,75149,1,4,3:0:0:0:
457,177,75269,5,14,3:2:0:0:
28,19,75509,6,0,L|32:53,1,33,14|0,3:2|0:0,0:0:0:0:
110,31,76229,6,0,P|163:40|211:103,1,120,10|0,0:0|0:0,0:0:0:0:
35,283,76469,6,0,L|-5:277,2,35.9999989013672,10|2|2,0:0|0:0|0:0,0:0:0:0:
115,266,76949,6,0,P|128:263|131:286,1,35.9999989013672,2|0,0:3|0:0,0:0:0:0:
271,355,77069,2,0,P|284:358|287:335,1,35.9999989013672,2|0,0:3|0:0,0:0:0:0:
226,288,77189,6,0,P|143:298|88:375,1,161.999995056153,6|0,3:2|0:0,0:0:0:0:
86,363,77429,2,0,P|36:376|-2:350,1,90.0000034332277,2|0,0:0|0:0,0:0:0:0:
198,168,77669,6,0,P|229:199|280:206,1,90.0000034332277,10|0,0:0|0:0,0:0:0:0:
200,0,77909,1,2,0:0:0:0:
251,75,78029,2,0,P|211:126|88:108,1,180.000006866455,2|0,0:0|0:0,0:0:0:0:
49,60,78389,6,0,B|58:40|57:17|57:17|75:40|117:45,1,90.0000034332277,2|2,0:0|0:0,0:0:0:0:
273,207,78629,2,0,B|322:218|351:182|341:174|370:134|431:144,1,180.000006866455,8|2,0:0|0:3,0:0:0:0:
512,384,79109,6,0,P|460:337|362:374,1,161.999995056153,2|0,3:2|0:0,0:0:0:0:
366,367,79349,2,0,L|350:268,1,90.0000034332277,2|0,0:0|0:0,0:0:0:0:
505,170,79589,6,0,P|473:218|421:221,1,90.0000034332277,10|0,0:0|0:0,0:0:0:0:
356,34,79829,1,2,0:0:0:0:
291,91,79949,2,0,P|328:148|451:123,1,180.000006866455,2|0,0:0|0:0,0:0:0:0:
488,86,80309,6,0,B|492:61|508:45|508:45|481:51|470:87,1,90.0000034332277,2|0,0:0|0:0,0:0:0:0:
255,193,80549,5,10,0:0:0:0:
238,175,80669,1,2,0:0:0:0:
190,115,80789,5,2,0:0:0:0:
202,94,80909,1,2,0:0:0:0:
242,22,81029,6,0,P|187:74|68:44,1,161.999995056153,2|0,3:2|0:0,0:0:0:0:
95,62,81269,2,0,B|36:72|36:72|27:91|-5:107,1,90.0000034332277,2|0,0:0|0:0,0:0:0:0:
148,276,81509,6,0,B|162:274|169:248|169:248|151:175,1,90.0000034332277,10|0,0:0|0:0,0:0:0:0:
7,375,81749,1,2,0:0:0:0:
62,313,81869,2,0,P|138:309|216:411,1,180.000006866455,2|0,0:0|0:0,0:0:0:0:
333,346,82229,6,0,B|312:322|274:321|274:321|292:341|288:372,1,90.0000034332277,2|0,0:0|0:0,0:0:0:0:
415,238,82469,2,0,B|435:214|473:213|473:213|455:233|459:264,1,90.0000034332277,10|0,0:0|0:0,0:0:0:0:
285,179,82709,2,0,B|264:155|226:154|226:154|244:174|240:205,1,90.0000034332277,2|0,0:0|0:0,0:0:0:0:
366,40,82949,6,0,B|340:104|382:148|393:132|438:178|412:243,1,215.999993408203,2|2,3:2|0:3,0:0:0:0:
285,341,83309,5,2,0:0:0:0:
320,266,83429,2,0,P|382:263|461:347,1,161.999995056153,10|0,0:0|0:0,0:0:0:0:
465,334,83669,2,0,B|522:317|522:317|498:317|466:293,1,90.0000034332277,2|0,0:0|0:0,0:0:0:0:
213,262,83909,6,0,L|196:354,1,90.0000034332277,2|0,3:2|0:0,0:0:0:0:
305,170,84149,2,0,P|290:142|290:179,1,90.0000034332277,2|0,0:0|0:0,0:0:0:0:
115,314,84389,2,0,P|64:302|38:252,1,90.0000034332277,10|0,0:0|0:0,0:0:0:0:
129,115,84629,2,0,L|146:207,1,90.0000034332277,2|0,0:0|0:0,0:0:0:0:
318,0,84869,6,0,P|273:53|171:37,1,161.999995056153,6|0,3:2|0:0,0:0:0:0:
178,37,85109,2,0,P|140:14|83:29,1,90.0000034332277,2|0,0:0|0:0,0:0:0:0:
2,162,85349,6,0,B|-12:140|-12:140|64:157,1,90.0000034332277,10|0,0:0|0:0,0:0:0:0:
212,263,85589,1,2,0:0:0:0:
231,176,85709,2,0,B|151:194|151:194|140:218|140:218|50:240,1,180.000006866455,2|0,0:0|0:0,0:0:0:0:
22,317,86069,6,0,B|4:299|-18:295|-18:295|7:284|37:308,1,90.0000034332277,2|2,0:0|0:0,0:0:0:0:
197,351,86309,2,0,B|246:357|272:319|264:313|287:269|348:274,1,180.000006866455,8|2,0:0|0:3,0:0:0:0:
462,116,86789,6,0,P|384:115|338:196,1,161.999995056153,2|0,3:2|0:0,0:0:0:0:
345,192,87029,2,0,P|398:205|426:248,1,90.0000034332277,2|0,0:0|0:0,0:0:0:0:
498,332,87269,6,0,L|516:224,1,90.0000034332277,10|0,0:0|0:0,0:0:0:0:
360,4,87509,1,2,0:0:0:0:
311,69,87629,2,0,B|227:88|227:88|222:99|222:99|129:121,1,180.000006866455,2|0,0:0|0:0,0:0:0:0:
86,171,87989,6,0,P|63:140|75:81,1,90.0000034332277,2|0,0:0|0:0,0:0:0:0:
267,168,88229,5,10,0:0:0:0:
262,190,88349,1,2,0:0:0:0:
282,266,88469,5,2,0:0:0:0:
259,270,88589,1,2,0:0:0:0:
189,315,88709,6,0,B|143:320|118:284|128:278|103:238|47:246,1,161.999995056153,2|0,3:2|0:0,0:0:0:0:
40,251,88949,2,0,P|21:303|57:349,1,90.0000034332277,2|0,0:0|0:0,0:0:0:0:
269,355,89189,6,0,L|285:242,1,90.0000034332277,10|0,0:0|0:0,0:0:0:0:
434,100,89429,1,2,0:0:0:0:
492,162,89549,2,0,P|459:217|343:205,1,180.000006866455,2|0,0:0|0:0,0:0:0:0:
254,154,89909,6,0,B|250:179|234:195|234:195|261:189|272:153,1,90.0000034332277,2|0,0:0|0:0,0:0:0:0:
437,254,90149,2,0,B|441:279|457:295|457:295|430:289|419:253,1,90.0000034332277,10|0,0:0|0:0,0:0:0:0:
257,340,90389,2,0,B|253:365|237:381|237:381|264:375|269:353,1,90.0000034332277,2|0,0:0|0:0,0:0:0:0:
353,214,90629,6,0,B|358:168|322:143|316:153|276:128|284:72,1,161.999995056153,2|0,3:2|0:0,0:0:0:0:
295,65,90869,5,2,0:3:0:0:
381,90,90989,1,2,0:0:0:0:
149,146,91109,6,0,B|144:100|180:75|186:85|226:60|218:4,1,161.999995056153,8|0,0:0|0:0,0:0:0:0:
205,0,91349,5,2,0:0:0:0:
119,29,91469,1,8,0:0:0:0:
295,65,91589,6,0,L|399:96,1,90.0000034332277,10|8,0:0|3:0,0:0:0:0:
178,222,91829,2,0,L|74:253,1,90.0000034332277,4|8,3:0|0:0,0:0:0:0:
416,384,92069,5,10,0:0:0:0:
469,318,92189,1,8,3:0:0:0:
419,246,92309,1,4,3:0:0:0:
336,271,92429,1,4,3:0:0:0:
331,356,92549,1,6,3:2:0:0:
261,311,93029,5,10,0:0:0:0:
0,329,93509,5,2,3:2:0:0:
21,364,93629,1,2,0:0:0:0:
60,376,93749,1,2,0:3:0:0:
97,359,93869,1,2,0:0:0:0:
199,261,93989,6,0,L|188:196,1,60,10|0,0:0|0:0,0:0:0:0:
107,218,94229,2,0,L|117:277,1,60,2|0,0:0|0:0,0:0:0:0:
135,142,94469,5,0,3:0:0:0:
173,336,94709,1,2,0:0:0:0:
377,211,94949,5,2,3:2:0:0:
350,241,95069,1,2,0:0:0:0:
309,246,95189,1,2,0:3:0:0:
276,223,95309,1,2,0:0:0:0:
264,138,95429,6,0,L|334:154,1,60,10|0,0:0|0:0,0:0:0:0:
377,211,95669,2,0,L|435:224,1,60,2|2,0:0|0:0,0:0:0:0:
318,51,95909,5,2,3:2:0:0:
276,56,96029,1,10,0:0:0:0:
234,62,96149,1,10,0:0:0:0:
193,68,96269,1,10,0:0:0:0:
133,12,96389,5,0,3:0:0:0:
35,236,96629,5,2,0:0:0:0:
0,202,96749,1,2,0:0:0:0:
27,162,96869,1,8,0:0:0:0:
99,190,96989,2,0,L|241:176,1,120,2|2,0:0|0:0,0:0:0:0:
289,145,97349,6,0,P|298:186|279:220,1,60,2|0,3:2|0:0,0:0:0:0:
123,382,97589,6,0,B|113:308|113:308|111:271|151:256,1,120,2|8,0:3|0:0,0:0:0:0:
311,307,97949,5,2,0:0:0:0:
265,374,98069,2,0,L|179:389,1,60,2|0,0:0|0:0,0:0:0:0:
256,1,98309,6,0,L|256:30,1,20,14|0,0:0|0:0,0:0:0:0:
463,216,99509,6,0,L|509:208,2,30,2|2|2,0:3|0:3|0:3,0:0:0:0:
404,263,99749,5,2,0:3:0:0:
407,280,99869,1,2,0:3:0:0:
410,297,99989,1,6,3:0:0:0:
413,314,100109,1,10,3:0:0:0:
268,349,100229,6,0,P|293:323|343:324,1,71.9999978027344,6|0,3:2|0:0,0:0:0:0:
463,216,100469,2,0,P|438:190|403:185,1,71.9999978027344,2|0,0:3|0:0,0:0:0:0:
282,165,100709,2,0,L|298:250,1,71.9999978027344,10|0,0:0|0:0,0:0:0:0:
453,110,100949,1,2,0:3:0:0:
459,90,101069,1,2,0:0:0:0:
399,34,101189,6,0,L|303:54,2,71.9999978027344,0|2|2,3:0|0:0|0:3,0:0:0:0:
203,149,101549,1,2,0:0:0:0:
255,87,101669,2,0,L|240:-8,1,71.9999978027344,10|0,0:0|0:0,0:0:0:0:
57,181,101909,2,0,P|108:182|162:235,1,107.999996704102,2|0,0:3|0:0,0:0:0:0:
150,228,102149,5,0,3:0:0:0:
336,327,102389,5,2,0:3:0:0:
282,384,102509,1,2,0:0:0:0:
343,338,102629,1,10,0:0:0:0:
275,372,102749,1,2,0:0:0:0:
426,357,102869,6,0,L|407:277,1,71.9999978027344,2|0,0:3|0:0,0:0:0:0:
492,33,103109,5,2,3:2:0:0:
468,107,103229,1,2,0:0:0:0:
415,54,103349,1,2,0:3:0:0:
362,143,103469,6,0,L|267:165,1,71.9999978027344,2|8,0:0|0:0,0:0:0:0:
84,51,103709,5,2,0:0:0:0:
140,0,103829,2,0,P|186:-5|246:44,1,107.999996704102,2|0,0:3|0:0,0:0:0:0:
243,37,104069,6,0,L|223:127,1,71.9999978027344,0|0,3:0|0:0,0:0:0:0:
20,196,104309,5,2,0:3:0:0:
12,178,104429,1,2,0:0:0:0:
84,134,104549,2,0,L|170:152,1,71.9999978027344,8|0,0:0|0:0,0:0:0:0:
329,234,104789,2,0,L|243:252,1,71.9999978027344,2|0,0:3|0:0,0:0:0:0:
113,291,105029,6,0,L|97:205,1,71.9999978027344,0|0,3:0|0:0,0:0:0:0:
194,314,105269,5,2,0:3:0:0:
24,339,105389,2,0,P|90:332|142:390,1,143.999995605469,2|0,0:0|0:0,0:0:0:0:
305,377,105749,6,0,B|289:361|268:356|268:356|257:373|234:377,1,71.9999978027344,2|0,0:3|0:0,0:0:0:0:
99,220,105989,6,0,L|113:291,1,71.9999978027344,0|0,3:0|0:0,0:0:0:0:
258,248,106229,2,0,P|264:230|240:248,1,71.9999978027344,2|0,0:3|0:0,0:0:0:0:
0,94,106469,5,10,0:0:0:0:
19,131,106589,1,2,0:0:0:0:
57,150,106709,1,2,0:3:0:0:
98,140,106829,1,2,0:0:0:0:
155,78,106949,6,0,P|196:88|228:124,1,71.9999978027344,0|0,3:0|0:0,0:0:0:0:
282,159,107189,2,0,P|323:149|355:113,1,71.9999978027344,8|0,0:0|0:0,0:0:0:0:
507,24,107429,5,10,0:0:0:0:
435,0,107549,1,8,0:0:0:0:
391,62,107669,1,2,3:2:0:0:
435,123,107789,1,2,0:0:0:0:
444,134,107909,6,0,B|457:178|423:199|418:193|389:215|399:266,1,143.999995605469,6|2,3:2|0:3,0:0:0:0:
498,311,108269,1,2,0:0:0:0:
484,299,108389,2,0,P|417:300|365:369,1,143.999995605469,8|2,0:0|0:3,0:0:0:0:
148,377,108869,6,0,L|93:368,2,48,0|2|2,3:0|0:3|0:3,0:0:0:0:
243,231,109349,6,0,P|248:267|285:294,1,71.9999978027344,10|0,0:0|0:0,0:0:0:0:
302,365,109589,2,0,P|337:371|374:344,1,71.9999978027344,2|0,0:3|0:0,0:0:0:0:
300,128,109829,6,0,P|256:176|97:198,1,215.999993408203,0|0,3:0|0:0,0:0:0:0:
158,129,110309,2,0,P|193:124|225:95,1,71.9999978027344,8|0,0:0|0:0,0:0:0:0:
0,39,110549,6,0,P|-17:84|84:63,1,215.999993408203,2|0,0:3|0:0,0:0:0:0:
113,203,111029,2,0,P|118:218|84:211,1,71.9999978027344,2|0,0:3|0:0,0:0:0:0:
0,245,111269,6,0,B|68:231|108:288|92:292|126:343|216:326,1,215.999993408203,10|0,0:0|0:0,0:0:0:0:
247,276,111749,5,0,3:0:0:0:
404,349,111989,2,0,L|412:388,2,35.9999989013672,2|2|2,0:3|0:3|0:3,0:0:0:0:
439,273,112229,5,8,0:0:0:0:
446,260,112349,2,0,B|440:251|423:252|423:252|361:275,1,71.9999978027344,2|0,0:3|0:0,0:0:0:0:
321,377,112589,2,0,B|315:386|298:385|298:385|236:362,1,71.9999978027344,2|0,0:3|3:0,0:0:0:0:
197,197,112829,5,2,0:0:0:0:
251,138,112949,2,0,P|317:133|379:203,2,143.999995605469,2|10|2,0:3|0:0|0:3,0:0:0:0:
23,33,113669,6,0,B|13:78|51:105|54:94|88:117|77:177,1,143.999995605469,2|2,3:2|0:3,0:0:0:0:
167,11,114029,2,0,P|130:14|104:39,1,71.9999978027344,2|8,0:0|0:0,0:0:0:0:
0,206,114269,1,2,0:0:0:0:
13,195,114389,2,0,P|64:199|111:250,1,107.999996704102,2|0,0:3|0:0,0:0:0:0:
114,246,114629,6,0,L|203:229,1,71.9999978027344,2|0,3:2|0:0,0:0:0:0:
303,373,114869,2,0,P|304:347|291:373,1,71.9999978027344,2|0,0:3|0:0,0:0:0:0:
260,235,115109,6,0,B|270:276|236:299|233:288|195:315|205:360,1,143.999995605469,10|2,0:0|0:3,0:0:0:0:
480,347,115589,6,0,P|432:362|370:297,1,143.999995605469,6|2,3:2|0:3,0:0:0:0:
354,227,115949,1,2,0:0:0:0:
366,207,116069,1,10,0:0:0:0:
421,155,116309,5,2,0:3:0:0:
392,124,116429,1,2,0:0:0:0:
423,91,116549,2,0,L|513:106,1,71.9999978027344,2|0,3:2|0:0,0:0:0:0:
312,0,116789,2,0,L|298:82,1,71.9999978027344,2|0,0:3|0:0,0:0:0:0:
119,99,117029,6,0,B|108:54|108:54|220:82|220:82|226:121|256:133,1,215.999993408203,8|0,0:0|0:0,0:0:0:0:
354,227,117509,5,2,3:2:0:0:
366,207,117629,1,2,0:0:0:0:
286,195,117749,1,2,0:3:0:0:
241,257,117869,1,2,0:0:0:0:
165,222,117989,6,0,B|137:213|137:213|103:243|103:243|107:278,2,95.9999970703126,10|2|2,0:0|0:0|0:0,0:0:0:0:
332,321,118469,6,0,P|312:300|315:326,1,71.9999978027344,2|0,3:2|0:0,0:0:0:0:
241,257,118709,2,0,B|328:279|328:279|336:292|336:292|468:323,1,215.999993408203,2|0,0:3|0:0,0:0:0:0:
506,364,119189,6,0,P|520:333|514:291,1,71.9999978027344,2|0,0:0|0:0,0:0:0:0:
391,130,119429,6,0,P|386:219|480:150,1,251.999992309571,6|0,3:2|0:0,0:0:0:0:
401,49,119909,6,0,B|383:43|375:24|375:24|373:46|356:68,1,71.9999978027344,8|0,0:0|0:0,0:0:0:0:
268,172,120149,2,0,P|228:163|204:131,1,71.9999978027344,2|0,0:3|0:0,0:0:0:0:
56,12,120389,5,0,3:0:0:0:
0,69,120509,1,2,0:0:0:0:
78,89,120629,1,2,0:3:0:0:
89,103,120869,6,0,B|106:154|54:190|51:177|2:212|23:278,1,192,8|2,0:0|0:3,0:0:0:0:
34,279,121229,1,2,0:0:0:0:
134,220,121349,6,0,P|136:255|113:281,1,71.9999978027344,6|0,3:2|0:0,0:0:0:0:
138,353,121589,2,0,P|105:366|73:351,1,71.9999978027344,2|0,0:3|3:0,0:0:0:0:
185,158,121829,6,0,L|295:176,1,83.9999974365235,10|0,0:0|0:0,0:0:0:0:
408,304,122069,2,0,P|421:275|396:298,1,83.9999974365235,2|0,3:0|0:0,0:0:0:0:
235,252,122309,2,0,B|219:259|218:280|218:280|243:356,1,83.9999974365235,2|8,0:0|0:0,0:0:0:0:
349,207,122549,2,0,L|363:110,1,83.9999974365235,2|0,3:0|0:0,0:0:0:0:
195,18,122789,6,0,P|245:74|309:71,1,107.999996704102,10|8,0:0|3:0,0:0:0:0:
475,149,123029,2,0,P|396:146|348:207,1,161.999995056153,6|0,3:0|0:0,0:0:0:0:
304,287,123269,5,14,0:0:0:0:
325,281,123389,1,0,3:0:0:0:
340,295,123509,1,0,3:0:0:0:
416,365,123629,5,0,3:0:0:0:
383,361,123749,1,0,3:0:0:0:
358,384,123869,1,0,3:0:0:0:
430,216,123989,5,6,3:0:0:0:
451,290,124109,1,0,3:0:0:0:
280,363,124229,6,0,L|251:356,1,30,14|0,0:0|0:0,0:0:0:0:
181,214,124349,2,0,B|114:207|93:259|103:257|73:320|2:299,1,204.000003890991,14|0,0:0|0:0,0:0:0:0:
171,367,124589,6,0,L|177:337,1,30,14|0,0:0|0:0,0:0:0:0:
264,198,124709,2,0,B|288:138|227:103|228:113|177:85|193:23,1,204.000003890991,14|0,0:0|0:0,0:0:0:0:
284,3,124949,6,0,P|272:37|251:49,1,41.9999987182618,14|0,0:0|0:0,0:0:0:0:
126,98,125069,2,0,P|137:132|158:144,1,41.9999987182618,8|0,0:0|0:0,0:0:0:0:
332,239,125189,6,0,P|282:248|247:305,1,96,14|0,3:2|0:0,0:0:0:0:
81,384,125429,5,2,0:3:0:0:
11,301,125549,2,0,L|34:178,1,96,2|8,0:0|0:0,0:0:0:0:
192,23,125789,5,2,0:0:0:0:
0,76,125909,2,0,B|45:65|73:99|64:106|91:144|145:134,1,161.999995056153,2|0,0:3|0:0,0:0:0:0:
264,198,126149,6,0,B|244:178|220:189|220:189|200:220|151:216,1,96,2|0,3:2|0:0,0:0:0:0:
141,135,126389,5,2,0:3:0:0:
253,280,126509,2,0,B|276:297|280:320|280:320|290:294|270:264,1,96,2|8,0:0|0:0,0:0:0:0:
470,209,126749,6,0,P|402:216|347:113,1,192,2|0,0:0|0:0,0:0:0:0:
408,14,127109,5,2,3:2:0:0:
266,105,127229,1,2,0:0:0:0:
408,14,127349,2,0,B|360:27|360:27|357:33|357:33|305:47,1,96,2|0,0:3|0:0,0:0:0:0:
141,135,127589,6,0,P|191:147|229:202,1,96,10|0,0:0|0:0,0:0:0:0:
345,378,127829,1,2,0:3:0:0:
395,302,127949,2,0,P|351:331|177:362,1,192,2|8,0:0|0:0,0:0:0:0:
141,316,128309,6,0,P|125:306|156:309,1,96,2|0,0:3|0:0,0:0:0:0:
307,186,128549,6,0,P|283:234|281:285,1,96,10|0,0:0|0:0,0:0:0:0:
455,362,128789,2,0,B|483:360|501:375|501:375|492:348|457:338,1,96,2|0,0:3|0:0,0:0:0:0:
265,281,129029,6,0,P|307:326|372:326,1,107.999996704102,2|0,3:2|0:0,0:0:0:0:
512,79,129269,5,2,0:3:0:0:
465,166,129389,1,2,0:0:0:0:
512,79,129509,2,0,P|439:137|336:111,1,161.999995056153,10|0,0:0|0:0,0:0:0:0:
341,64,129749,5,2,0:3:0:0:
197,135,129869,1,2,0:0:0:0:
341,64,129989,2,0,P|268:6|165:32,1,161.999995056153,2|0,3:2|0:0,0:0:0:0:
122,0,130229,5,2,0:3:0:0:
1,71,130349,1,2,0:0:0:0:
122,0,130469,2,0,P|107:105|70:196,1,180,10|0,0:0|0:0,0:0:0:0:
31,239,130709,6,0,B|29:268|13:284|13:284|40:277|54:244,1,96,2|0,0:3|0:0,0:0:0:0:
197,135,130949,6,0,B|340:156|234:197|411:218,1,198.000006042481,6|0,3:2|0:0,0:0:0:0:
464,312,131189,2,0,B|317:332|424:378|243:389,1,198.000006042481,2|0,3:0|0:0,0:0:0:0:
362,26,131429,5,10,0:0:0:0:
485,65,131549,1,10,0:0:0:0:
361,105,131669,1,10,0:0:0:0:
438,0,131789,1,6,3:2:0:0:
439,135,131909,6,0,B|436:190|468:211|479:197|514:217|515:274|515:274|470:281|455:339,1,233.999989288331,2|0,0:0|0:0,0:0:0:0:
180,229,132149,2,0,P|232:240|265:295,1,96,6|0,3:0|0:0,0:0:0:0:
406,384,132389,5,10,0:0:0:0:
445,240,132509,1,8,3:0:0:0:
315,207,132629,1,4,3:0:0:0:
276,351,132749,1,4,3:0:0:0:
364,294,132869,6,0,B|210:300|301:385|130:375,1,233.999989288331,6|0,3:2|0:0,0:0:0:0:
101,317,133109,5,2,0:3:0:0:
207,128,133229,2,0,B|234:136|246:156|246:156|246:128|217:107,1,96,2|8,0:0|0:0,0:0:0:0:
95,6,133469,5,2,0:0:0:0:
0,136,133589,1,2,0:3:0:0:
162,61,133709,1,2,0:0:0:0:
13,28,133829,6,0,P|48:75|115:77,1,96,2|2,3:2|0:0,0:0:0:0:
176,200,134069,1,2,0:3:0:0:
347,107,134189,6,0,L|331:-4,1,96,2|8,0:0|0:0,0:0:0:0:
248,243,134429,5,2,0:0:0:0:
207,129,134549,2,0,B|252:118|280:152|271:159|298:197|352:187,1,161.999995056153,2|0,0:3|0:0,0:0:0:0:
512,64,134789,6,0,P|488:38|490:78,1,96,2|0,3:2|0:0,0:0:0:0:
418,223,135029,2,0,P|364:234|333:287,1,96,2|0,0:3|0:0,0:0:0:0:
497,383,135269,2,0,L|514:279,1,96,10|0,0:0|0:0,0:0:0:0:
413,2,135509,5,2,0:3:0:0:
347,107,135629,2,0,P|375:154|509:156,1,192,2|8,0:0|0:0,0:0:0:0:
314,9,135989,6,0,B|297:31|274:36|274:36|300:45|330:25,1,96,2|0,0:3|0:0,0:0:0:0:
339,264,136229,5,8,3:0:0:0:
418,223,136349,1,8,0:0:0:0:
239,185,136469,1,10,0:0:0:0:
298,350,136589,1,8,3:0:0:0:
348,187,136709,5,14,3:2:0:0:
44,376,136949,6,0,L|39:343,1,33,14|0,3:2|0:0,0:0:0:0:
215,294,137669,6,0,P|150:313|120:367,1,120,10|0,0:0|0:0,0:0:0:0:
0,163,137909,5,10,0:0:0:0:
125,223,138029,1,2,0:0:0:0:
0,163,138149,6,0,L|91:146,1,83.9999974365235,8|8,3:0|3:0,0:0:0:0:
122,354,138389,2,0,L|111:296,1,48,4|8,3:0|3:0,0:0:0:0:
457,175,138629,5,6,3:2:0:0:
447,221,138749,1,2,0:0:0:0:
410,249,138869,1,2,0:0:0:0:
363,246,138989,1,2,0:0:0:0:
284,229,139109,5,10,0:0:0:0:
309,309,139229,1,2,0:0:0:0:
381,170,139349,5,2,0:0:0:0:
230,295,139469,2,0,B|184:306|156:271|165:264|138:226|84:236,1,161.999995056153,2|0,0:0|0:0,0:0:0:0:
0,350,139709,5,2,3:2:0:0:
78,319,139829,1,2,0:0:0:0:
14,269,139949,1,2,0:0:0:0:
151,151,140069,5,10,0:0:0:0:
172,225,140189,1,2,0:0:0:0:
50,69,140309,5,2,0:0:0:0:
5,183,140429,1,2,0:0:0:0:
174,0,140549,5,2,3:2:0:0:
205,77,140669,1,2,0:0:0:0:
284,105,140789,1,2,0:0:0:0:
357,63,140909,1,2,0:0:0:0:
492,227,141029,5,10,0:0:0:0:
512,148,141149,1,2,0:0:0:0:
434,127,141269,1,2,0:0:0:0:
413,206,141389,1,2,0:0:0:0:
259,268,141509,5,2,3:2:0:0:
238,192,141629,1,2,0:0:0:0:
312,172,141749,1,2,0:0:0:0:
333,247,141869,1,2,0:0:0:0:
459,370,141989,5,10,0:0:0:0:
507,303,142109,1,2,0:0:0:0:
448,384,142229,6,0,B|397:393|374:369|382:359|352:314|285:339,1,161.999995056153,2|0,0:0|0:0,0:0:0:0:
177,384,142469,6,0,P|167:364|186:378,1,53.9999983520508,0|0,3:0|0:0,0:0:0:0:
302,333,142589,6,0,B|319:284|351:276|356:288|410:284|422:214,1,161.999995056153,2|0,0:0|0:0,0:0:0:0:
270,72,142829,2,0,B|303:111|294:143|281:141|257:190|312:235,1,161.999995056153,2|0,0:0|0:0,0:0:0:0:
511,173,143069,2,0,B|459:182|437:158|444:148|414:103|347:128,1,161.999995056153,2|0,0:0|0:0,0:0:0:0:
227,0,143309,6,0,B|161:-2|145:63|168:62|143:120|77:121,1,198.000006042481,2|0,0:0|0:0,0:0:0:0:
103,257,143549,6,0,B|18:242|11:150|11:150|21:177|86:213,1,198.000006042481,2|0,0:0|0:0,0:0:0:0:
216,175,143789,2,0,B|245:256|169:308|169:308|193:279|186:211,1,198.000006042481,2|0,0:0|0:0,0:0:0:0:
88,120,144029,2,0,B|143:53|226:93|226:93|189:87|134:127,1,198.000006042481,2|0,0:0|0:0,0:0:0:0:
100,368,144269,6,0,P|187:322|332:296,1,215.999993408203,2|0,0:0|0:0,0:0:0:0:
405,153,144509,6,0,P|426:243|543:283,1,215.999993408203,2|0,0:0|0:0,0:0:0:0:
343,42,144749,2,0,P|322:132|205:172,1,215.999993408203,2|0,0:0|0:0,0:0:0:0:
403,334,144989,2,0,B|401:266|437:242|448:255|512:226|496:136,1,215.999993408203,2|0,0:0|0:0,0:0:0:0:
452,89,145229,5,10,0:0:0:0:
250,0,145349,1,0,3:0:0:0:
156,94,145469,5,10,0:0:0:0:
237,96,145589,1,10,3:0:0:0:
128,17,145709,1,2,3:2:0:0:
98,251,145829,5,10,0:0:0:0:
132,180,145949,1,2,3:2:0:0:
222,309,146069,6,0,L|208:246,1,53.9999983520508,2|0,0:0|0:0,0:0:0:0:
13,326,146309,6,0,P|61:332|99:397,1,96,6|2,3:2|0:0,0:0:0:0:
208,171,146549,1,2,0:0:0:0:
83,374,146669,2,0,P|54:284|151:147,1,240,2|0,0:0|0:0,0:0:0:0:
342,80,147029,6,0,B|310:58|283:65|283:65|264:94|217:99,1,120,2|0,0:0|0:0,0:0:0:0:
42,9,147269,5,2,3:2:0:0:
158,91,147389,1,2,3:2:0:0:
14,143,147509,1,2,0:0:0:0:
72,83,147629,5,2,0:0:0:0:
208,171,147749,2,0,B|344:191|243:230|415:245,1,180,8|0,0:0|0:0,0:0:0:0:
116,271,147989,6,0,B|77:263|71:225|71:225|91:247|135:246,1,120,2|0,0:0|0:0,0:0:0:0:
438,159,148229,6,0,P|457:223|490:255,1,96,2|0,3:2|0:0,0:0:0:0:
332,325,148469,2,0,P|360:286|369:239,1,96,2|0,0:0|0:0,0:0:0:0:
414,26,148709,6,0,P|375:90|262:86,1,180,10|0,0:0|0:0,0:0:0:0:
149,65,148949,2,0,B|179:30|229:35|229:35|210:50|208:74,1,120,2|0,0:0|0:0,0:0:0:0:
81,144,149189,1,0,3:0:0:0:
36,32,149309,1,0,3:0:0:0:
182,136,149429,5,2,0:0:0:0:
194,151,149509,5,2,0:0:0:0:
196,174,149589,5,2,0:0:0:0:
174,208,149669,5,10,0:0:0:0:
123,205,149749,5,2,0:0:0:0:
92,239,149829,5,2,0:0:0:0:
98,269,149909,6,0,P|178:239|320:214,1,215.999993408203,2|0,0:0|0:0,0:0:0:0:
449,168,150149,5,2,3:2:0:0:
345,286,150269,2,0,B|341:249|354:229|354:229|379:221|393:187,1,96,2|2,0:0|0:3,0:0:0:0:
471,40,150509,2,0,B|467:77|480:97|480:97|505:105|519:139,1,96,2|8,0:0|0:0,0:0:0:0:
396,359,150749,6,0,P|316:329|186:307,1,192,2|0,0:0|0:0,0:0:0:0:
0,240,151109,6,0,B|-19:212|-7:178|-7:178|13:174|36:159,1,96,2|0,3:2|0:0,0:0:0:0:
95,384,151349,1,2,0:0:0:0:
203,234,151469,2,0,P|151:251|133:305,1,96,2|8,0:0|0:0,0:0:0:0:
0,72,151709,2,0,P|21:133|145:130,1,192,2|0,0:0|0:0,0:0:0:0:
174,0,152069,6,0,B|171:75|211:102|223:87|294:119|277:219,1,240,6|2,3:2|0:3,0:0:0:0:
423,206,152429,2,0,B|403:264|365:273|360:259|297:263|282:345,1,204.000003890991,2|0,0:0|0:0,0:0:0:0:
207,384,152789,5,10,0:0:0:0:
369,348,152909,1,8,0:0:0:0:
249,130,153029,5,2,3:2:0:0:
283,337,153149,1,8,0:0:0:0:
179,312,153269,1,2,3:0:0:0:
370,271,153389,1,2,3:2:0:0:
179,312,153509,5,10,0:0:0:0:
268,250,153629,1,8,3:0:0:0:
135,145,153749,1,6,3:0:0:0:
184,225,153869,1,4,3:0:0:0:
299,77,153989,5,6,3:2:0:0:
235,24,154469,5,10,0:0:0:0:
491,96,154949,5,2,3:2:0:0:
445,75,155069,1,2,0:0:0:0:
396,87,155189,1,2,0:0:0:0:
366,127,155309,1,2,0:0:0:0:
267,176,155429,6,0,P|232:167|207:142,1,71.9999978027344,10|0,0:0|0:0,0:0:0:0:
143,93,155669,2,0,P|100:107|76:149,1,71.9999978027344,2|0,0:0|0:0,0:0:0:0:
48,199,155909,5,0,3:0:0:0:
244,368,156149,5,2,0:0:0:0:
249,341,156269,1,2,0:0:0:0:
126,298,156389,5,10,0:0:0:0:
154,338,156509,1,2,0:0:0:0:
201,354,156629,1,2,0:0:0:0:
249,341,156749,1,2,0:0:0:0:
247,327,156869,5,2,3:2:0:0:
325,354,156989,1,2,0:0:0:0:
391,249,157109,5,2,0:0:0:0:
313,276,157229,1,2,0:0:0:0:
209,171,157349,6,0,P|235:206|286:206,1,71.9999978027344,10|0,0:0|0:0,0:0:0:0:
422,92,157589,2,0,P|400:120|366:128,1,71.9999978027344,2|0,0:0|0:0,0:0:0:0:
282,18,157829,5,0,3:0:0:0:
81,64,158069,2,0,L|91:11,1,48,2|0,0:0|0:0,0:0:0:0:
256,94,158309,5,10,0:0:0:0:
209,83,158429,1,2,0:0:0:0:
164,97,158549,1,2,0:0:0:0:
131,131,158669,1,2,0:0:0:0:
15,170,158789,6,0,P|51:176|82:216,1,71.9999978027344,2|0,3:2|0:0,0:0:0:0:
147,370,159029,5,2,0:0:0:0:
206,317,159149,1,2,0:0:0:0:
137,378,159269,2,0,L|55:368,1,71.9999978027344,10|0,0:0|0:0,0:0:0:0:
157,209,159509,2,0,P|182:233|217:238,1,71.9999978027344,2|0,0:0|0:0,0:0:0:0:
10,246,159749,5,0,3:0:0:0:
223,155,159989,5,2,0:0:0:0:
228,132,160109,1,2,0:0:0:0:
134,1,160229,5,10,0:0:0:0:
154,38,160349,1,2,0:0:0:0:
192,57,160469,1,2,0:0:0:0:
234,53,160589,1,2,0:0:0:0:
364,67,160709,6,0,P|326:78|297:118,1,71.9999978027344,2|0,3:2|0:0,0:0:0:0:
216,262,160949,5,2,0:0:0:0:
157,209,161069,1,2,0:0:0:0:
226,270,161189,2,0,L|308:260,1,71.9999978027344,10|0,0:0|0:0,0:0:0:0:
512,346,161429,5,2,0:0:0:0:
438,309,161549,1,8,0:0:0:0:
498,260,161669,6,0,B|507:298|476:322|470:314|436:339|444:384,1,144,6|0,3:2|0:0,0:0:0:0:
262,171,162149,2,0,P|293:220|407:218,1,180,8|0,0:0|0:0,0:0:0:0:
511,56,162629,6,0,L|497:-13,1,48,0|0,3:0|0:0,0:0:0:0:
350,95,162869,2,0,L|317:102,2,24,2|2|2,0:0|0:0|0:0,0:0:0:0:
432,77,163109,5,8,0:0:0:0:
270,9,163229,5,2,0:0:0:0:
232,86,163349,1,2,0:0:0:0:
251,0,163469,1,2,0:0:0:0:
246,94,163589,6,0,B|255:132|224:156|218:148|184:173|192:218,1,144,0|0,3:0|0:0,0:0:0:0:
29,194,164069,2,0,B|17:242|55:272|63:262|106:292|95:349,1,180,8|0,0:0|0:0,0:0:0:0:
235,310,164549,6,0,L|188:299,1,48,0|0,3:0|0:0,0:0:0:0:
98,150,164789,2,0,L|104:115,2,24,2|2|2,0:0|0:0|0:0,0:0:0:0:
276,240,165029,5,8,0:0:0:0:
328,182,165149,1,2,0:0:0:0:
355,258,165269,2,0,P|383:251|399:230,1,48,2|0,0:0|0:0,0:0:0:0:
465,287,165509,6,0,P|398:291|338:355,1,144,0|0,3:0|0:0,0:0:0:0:
281,83,165989,2,0,P|342:143|448:134,1,180,8|0,0:0|0:0,0:0:0:0:
386,73,166469,6,0,P|378:51|357:68,1,48,0|0,3:0|0:0,0:0:0:0:
205,170,166709,2,0,B|172:177|152:152|159:147|139:118|101:125,1,120,2|8,0:0|0:0,0:0:0:0:
4,205,167069,5,2,0:0:0:0:
0,190,167189,2,0,P|34:193|61:212,1,60,2|0,0:0|0:0,0:0:0:0:
117,47,167429,5,2,3:2:0:0:
77,41,167549,1,2,0:0:0:0:
40,53,167669,1,2,0:0:0:0:
12,79,167789,1,2,0:0:0:0:
172,107,167909,5,10,0:0:0:0:
197,75,168029,1,2,0:0:0:0:
205,37,168149,1,2,0:0:0:0:
196,0,168269,1,2,0:0:0:0:
91,123,168389,5,2,3:2:0:0:
102,152,168509,1,2,0:0:0:0:
125,172,168629,1,2,0:0:0:0:
154,181,168749,1,2,0:0:0:0:
280,260,168869,5,8,0:0:0:0:
268,277,168989,1,8,3:0:0:0:
251,287,169109,1,4,3:0:0:0:
232,290,169229,1,4,3:0:0:0:
142,384,169349,5,6,3:2:0:0:
80,245,169829,5,0,3:0:0:0:
0,384,170309,5,0,3:0:0:0:
77,331,170789,5,0,3:0:0:0:
0,135,171269,5,0,3:0:0:0:
118,151,171749,5,0,3:0:0:0:
236,166,172229,5,0,3:0:0:0:
355,178,172709,5,0,3:0:0:0:
242,0,173189,6,0,B|232:44|265:70|272:61|307:87|299:132,2,143.999995605469,0|0|0,3:0|3:0|3:0,0:0:0:0:
424,196,174629,5,0,3:0:0:0:
183,290,175109,6,0,P|104:294|54:352,2,143.999995605469,0|0|2,3:0|3:0|3:0,0:0:0:0:
254,0,176549,5,2,3:0:0:0:
256,192,177029,5,6,3:2:0:0:
256,192,177149,12,2,182789,0:0:0:0:
352,14,184469,6,0,P|373:18|382:31,1,35.9999989013672,2|0,0:3|0:0,0:0:0:0:
479,168,184589,2,0,P|458:172|449:185,1,35.9999989013672,2|0,0:3|0:0,0:0:0:0:
459,0,184709,6,0,B|479:73|425:109|414:96|345:137|372:217,1,240,6|0,3:2|0:0,0:0:0:0:
212,206,185069,6,0,B|218:281|281:296|287:280|365:295|367:380,1,240,6|0,3:2|0:0,0:0:0:0:
289,78,185429,6,0,P|239:153|81:137,1,240,14|0,0:0|0:0,0:0:0:0:
0,309,185789,6,0,P|114:296|188:384,1,240,6|0,3:2|0:0,0:0:0:0:
342,247,186149,6,0,B|298:250|290:286|298:289|288:330|239:323,1,120,10|0,3:2|0:0,0:0:0:0:
100,153,186389,2,0,B|143:148|157:182|149:187|167:225|214:210,1,120,10|0,3:2|0:0,0:0:0:0:
494,104,186629,6,0,P|465:13|403:153,1,360,6|0,3:2|3:0,0:0:0:0:
438,262,187109,2,0,B|477:242|457:185|457:185|451:211|394:234,1,120,8|0,0:0|0:0,0:0:0:0:
389,384,187349,6,0,B|365:315|433:274|444:287|498:252|474:180,1,240,2|0,3:0|0:0,0:0:0:0:
421,77,187709,5,8,0:0:0:0:
510,375,187829,2,0,P|502:321|432:270,1,120,2|0,3:0|0:0,0:0:0:0:
262,123,188069,5,8,0:0:0:0:
203,260,188189,1,8,3:0:0:0:
353,236,188309,1,6,3:0:0:0:
270,207,188429,1,4,3:0:0:0:
312,311,188549,6,0,B|169:332|275:373|95:389,1,198.000006042481,14|0,0:0|0:0,0:0:0:0:
12,97,188789,2,0,B|155:118|49:159|229:175,1,198.000006042481,14|0,0:0|0:0,0:0:0:0:
380,2,189029,5,2,0:0:0:0:
341,108,189149,1,2,0:0:0:0:
421,77,189269,1,2,0:0:0:0:
204,0,189389,6,0,B|186:74|225:115|245:90|311:159|261:224,1,233.999989288331,14|0,3:2|0:0,0:0:0:0:
133,384,189629,5,2,0:0:0:0:
99,312,189749,1,2,3:2:0:0:
156,255,189869,1,2,0:0:0:0:
248,309,189989,5,10,0:0:0:0:
190,170,190109,1,2,3:2:0:0:
99,312,190229,5,2,3:2:0:0:
270,207,190349,1,4,3:0:0:0:
102,117,190469,5,6,3:2:0:0:
40,168,190949,5,2,0:3:0:0:
418,0,191309,6,0,B|452:249,1,240,12|0,0:0|0:0,0:0:0:0:
356,384,191669,5,8,3:0:0:0:
503,297,191789,1,4,3:0:0:0:
330,238,191909,5,8,0:0:0:0:
309,314,192029,1,8,3:0:0:0:
454,384,192149,5,4,3:0:0:0:
450,237,192269,1,4,3:0:0:0:
247,263,192389,5,2,3:0:0:0:
229,267,192509,1,2,0:0:0:0:
211,271,192629,1,2,0:0:0:0:
193,275,192749,1,2,0:0:0:0:
367,153,192869,6,14,P|386:169|417:174,1,44.0000013427735,14|14,3:2|3:2,3:2:0:0:
244,5,193229,6,0,P|183:90|31:71,1,240,14|0,3:2|0:0,0:0:0:0:
52,235,193589,2,0,B|79:243|91:263|91:263|91:235|62:214,1,96,2|0,3:0|0:0,0:0:0:0:
96,16,193829,5,10,0:0:0:0:
14,163,193949,1,8,3:0:0:0:
177,144,194069,1,4,3:0:0:0:
56,90,194189,1,4,3:0:0:0:
175,235,194309,6,0,P|263:237|334:329,1,180,14|0,3:2|0:0,0:0:0:0:
395,332,194549,2,0,P|338:346|309:398,1,102.000001945496,2|0,0:0|0:0,0:0:0:0:
376,35,194789,6,0,B|389:82|437:89|439:76|491:81|510:136,1,180,10|0,0:0|0:0,0:0:0:0:
460,196,195029,1,2,0:0:0:0:
395,332,195149,1,2,3:2:0:0:
460,196,195269,6,0,B|446:243|398:250|396:237|344:242|325:297,1,180,2|0,0:0|0:0,0:0:0:0:
313,379,195509,1,10,0:0:0:0:
244,181,195629,1,2,0:0:0:0:
313,379,195749,6,0,B|255:383|228:333|241:326|215:270|143:283,1,198.000006042481,10|0,0:0|0:0,0:0:0:0:
16,334,195989,6,0,B|14:363|-2:379|-2:379|25:372|39:339,1,96,10|0,0:0|0:0,0:0:0:0:
244,181,196229,6,0,P|173:185|86:73,1,198.000006042481,6|0,3:2|0:0,0:0:0:0:
170,379,196469,2,0,P|241:383|328:271,1,198.000006042481,6|0,3:2|0:0,0:0:0:0:
316,0,196709,6,0,L|366:34,1,41.9999987182618,10|0,0:0|0:0,0:0:0:0:
443,117,196829,2,0,L|385:137,1,41.9999987182618,10|0,0:0|0:0,0:0:0:0:
307,129,196949,6,0,L|342:81,1,41.9999987182618,10|0,0:0|0:0,0:0:0:0:
430,0,197069,2,0,L|446:62,1,41.9999987182618,6|0,3:2|0:0,0:0:0:0:
510,155,197189,6,0,B|520:213|472:243|463:229|406:246|419:315,1,198.000006042481,2|0,0:0|0:0,0:0:0:0:
244,181,197429,2,0,P|292:184|331:236,1,96,10|0,0:0|0:0,0:0:0:0:
469,377,197669,5,10,0:0:0:0:
451,211,197789,1,2,3:2:0:0:
324,297,197909,1,2,3:2:0:0:
418,312,198029,1,4,3:0:0:0:
307,129,198149,6,0,B|241:111|185:171|216:190|169:257|75:212,1,233.999989288331,6|0,3:2|0:0,0:0:0:0:
44,174,198389,1,2,0:0:0:0:
227,15,198509,2,0,B|254:23|266:43|266:43|266:15|237:-6,1,96,2|8,0:0|0:0,0:0:0:0:
3,98,198749,5,2,0:0:0:0:
122,145,198869,1,2,0:0:0:0:
82,69,198989,1,2,0:0:0:0:
39,258,199109,6,0,P|96:273|123:324,1,96,2|0,3:2|0:0,0:0:0:0:
310,366,199349,1,2,0:0:0:0:
208,187,199469,6,0,B|158:311|240:245|170:397,1,180,2|0,0:0|0:0,0:0:0:0:
107,382,199709,5,2,0:0:0:0:
287,247,199829,6,0,B|334:255|371:279|336:299|382:333|451:322,1,161.999995056153,2|0,0:0|0:0,0:0:0:0:
223,109,200069,6,0,P|164:140|117:121,1,96,2|0,3:2|0:0,0:0:0:0:
39,258,200309,2,0,P|96:273|123:324,1,96,2|0,0:0|0:0,0:0:0:0:
326,160,200549,2,0,L|304:-4,1,161.999995056153,10|0,0:0|0:0,0:0:0:0:
221,22,200789,5,2,0:0:0:0:
441,183,200909,2,0,P|317:197|284:260,1,192,2|8,0:0|0:0,0:0:0:0:
158,369,201269,6,0,P|135:351|166:363,1,96,2|0,0:0|0:0,0:0:0:0:
387,254,201509,5,2,3:2:0:0:
368,344,201629,1,8,0:0:0:0:
175,225,201749,1,10,0:0:0:0:
239,384,201869,1,2,3:2:0:0:
326,160,201989,5,6,3:2:0:0:
13,25,202229,6,0,L|19:59,1,33,10|0,0:0|0:0,0:0:0:0:
184,41,202949,6,0,B|173:1|122:-3|122:-3|104:33|60:45,1,120,10|0,0:0|0:0,0:0:0:0:
15,170,203189,5,10,0:0:0:0:
184,204,203309,1,2,0:0:0:0:
84,105,203429,2,0,L|94:149,1,45,2|0,0:0|0:0,0:0:0:0:
128,369,203669,6,0,B|209:224|267:394|328:210|296:151|296:151|246:260|122:170|156:205,1,450,14|0,0:0|0:0,0:0:0:0:
0,254,204149,5,2,3:2:0:0:
1,326,204269,1,2,3:2:0:0:
56,375,204389,1,2,0:0:0:0:
128,369,204509,1,10,0:0:0:0:
250,235,204629,5,2,0:0:0:0:
184,204,204749,1,10,0:0:0:0:
115,231,204869,1,2,0:0:0:0:
90,299,204989,1,10,0:0:0:0:
11,108,205109,5,10,0:0:0:0:
56,86,205229,1,10,0:0:0:0:
104,105,205349,1,10,0:0:0:0:
121,152,205469,1,4,3:0:0:0:
281,306,205589,5,4,3:0:0:0:
329,244,205709,1,4,3:0:0:0:
248,234,205829,6,0,B|232:184|267:154|275:161|310:133|298:85,1,161.999995056153,6|0,3:2|0:0,0:0:0:0:
320,14,206069,2,0,P|276:12|232:56,1,96,2|0,0:0|0:0,0:0:0:0:
329,244,206309,6,0,L|441:225,1,96,10|0,0:0|0:0,0:0:0:0:
299,89,206549,1,2,0:0:0:0:
512,83,206669,2,0,P|433:73|374:175,1,192,10|0,0:0|0:0,0:0:0:0:
455,306,207029,5,2,0:0:0:0:
501,244,207149,1,2,0:0:0:0:
361,346,207269,2,0,B|301:365|263:321|272:310|237:266|173:300,1,192,8|2,0:0|0:3,0:0:0:0:
2,14,207749,6,0,P|38:69|146:33,1,161.999995056153,2|0,3:2|0:0,0:0:0:0:
201,81,207989,2,0,P|201:31|157:-6,1,96,2|0,0:0|0:0,0:0:0:0:
13,96,208229,6,0,L|28:204,1,96,10|0,0:0|0:0,0:0:0:0:
130,364,208469,1,2,0:0:0:0:
156,215,208589,2,0,P|77:203|3:290,1,192,10|0,0:0|0:0,0:0:0:0:
212,348,208949,6,0,B|223:321|244:311|244:311|216:308|192:335,1,96,2|0,0:0|0:0,0:0:0:0:
201,81,209189,5,10,0:0:0:0:
271,50,209309,1,2,0:0:0:0:
321,107,209429,1,2,0:0:0:0:
278,173,209549,1,2,0:0:0:0:
315,249,209669,6,0,B|365:260|389:229|379:222|410:186|467:201,1,161.999995056153,2|0,3:2|0:0,0:0:0:0:
497,270,209909,2,0,P|463:307|408:290,1,96,2|0,0:0|0:0,0:0:0:0:
180,174,210149,6,0,L|203:67,1,96,10|0,0:0|0:0,0:0:0:0:
315,249,210389,1,2,0:0:0:0:
83,211,210509,2,0,P|161:207|225:319,1,192,10|0,0:0|0:0,0:0:0:0:
192,384,210869,6,0,B|149:371|151:328|151:328|167:348|204:361,1,96,2|0,0:0|0:0,0:0:0:0:
315,249,211109,2,0,B|358:236|356:193|356:193|340:213|303:226,1,96,10|0,0:0|0:0,0:0:0:0:
180,174,211349,2,0,B|137:161|139:118|139:118|155:138|192:151,1,96,2|0,0:0|0:0,0:0:0:0:
378,34,211589,6,0,P|349:88|215:77,1,192,2|2,3:2|0:3,0:0:0:0:
46,119,211949,5,2,0:0:0:0:
207,14,212069,2,0,L|176:195,1,161.999995056153,10|0,0:0|0:0,0:0:0:0:
97,238,212309,6,0,B|86:211|65:201|65:201|93:198|117:225,1,96,2|0,0:0|0:0,0:0:0:0:
317,348,212549,6,0,P|260:358|226:407,1,96,2|0,3:2|0:0,0:0:0:0:
15,264,212789,2,0,P|6:321|42:368,1,96,2|0,0:0|0:0,0:0:0:0:
192,268,213029,2,0,L|176:152,1,96,10|0,0:0|0:0,0:0:0:0:
80,7,213269,5,2,3:2:0:0:
101,165,213389,1,4,3:0:0:0:
0,52,213509,6,0,P|66:45|152:121,1,161.999995056153,6|0,3:2|0:0,0:0:0:0:
178,172,213749,2,0,P|240:166|260:121,1,96,2|0,0:0|0:0,0:0:0:0:
387,19,213989,6,0,L|290:35,1,96,10|0,0:0|0:0,0:0:0:0:
332,178,214229,1,2,0:0:0:0:
472,0,214349,2,0,B|486:65|446:96|436:83|388:120|417:186,1,192,10|0,0:0|0:0,0:0:0:0:
433,318,214709,5,2,0:0:0:0:
484,258,214829,1,2,0:0:0:0:
260,241,214949,2,0,P|301:249|344:317,1,96,8|0,0:0|0:0,0:0:0:0:
367,375,215189,5,2,0:3:0:0:
405,242,215309,1,2,0:0:0:0:
266,321,215429,6,0,B|221:334|186:298|198:290|170:253|110:275,1,161.999995056153,2|0,3:2|0:0,0:0:0:0:
50,245,215669,2,0,P|43:288|88:335,1,96,2|0,0:0|0:0,0:0:0:0:
260,241,215909,6,0,L|247:137,1,96,10|0,0:0|0:0,0:0:0:0:
161,0,216149,1,2,0:0:0:0:
18,89,216269,2,0,P|54:143|184:111,1,192,10|0,0:0|0:0,0:0:0:0:
308,88,216629,6,0,B|294:50|254:48|254:48|268:63|272:105,1,96,2|0,0:0|0:0,0:0:0:0:
260,241,216869,5,10,0:0:0:0:
315,294,216989,1,2,0:0:0:0:
381,257,217109,1,2,0:0:0:0:
363,180,217229,1,2,0:0:0:0:
425,127,217349,6,0,P|498:133|532:231,1,161.999995056153,2|0,3:2|0:0,0:0:0:0:
512,279,217589,2,0,P|458:288|437:329,1,96,2|0,0:0|0:0,0:0:0:0:
249,163,217829,6,0,L|267:57,1,96,10|0,0:0|0:0,0:0:0:0:
425,127,218069,1,2,0:0:0:0:
260,241,218189,2,0,B|205:257|166:207|179:198|147:156|80:181,1,192,10|0,0:0|0:0,0:0:0:0:
0,27,218549,6,0,B|58:7|58:7|74:30|111:27,1,96,2|0,0:0|0:0,0:0:0:0:
92,177,218789,2,0,B|46:135|46:135|57:110|36:80,1,96,10|0,0:0|0:0,0:0:0:0:
197,0,219029,2,0,L|174:113,1,96,2|0,0:0|0:0,0:0:0:0:
0,215,219269,6,0,P|69:211|140:299,1,161.999995056153,2|0,3:2|0:0,0:0:0:0:
144,347,219509,2,0,B|168:363|173:385|173:385|181:358|159:329,1,96,2|2,0:3|0:0,0:0:0:0:
190,201,219749,5,10,0:0:0:0:
218,269,219869,1,2,0:0:0:0:
286,301,219989,1,2,0:0:0:0:
357,277,220109,1,10,0:0:0:0:
315,191,220229,5,2,3:2:0:0:
406,360,220349,1,8,0:0:0:0:
502,201,220469,2,0,P|415:210|351:298,1,180,4|0,3:0|0:0,0:0:0:0:
320,371,220709,5,10,0:0:0:0:
452,283,220829,1,2,3:2:0:0:
315,191,220949,1,2,3:2:0:0:
356,276,221069,1,2,3:2:0:0:
475,53,221189,6,0,B|489:102|445:136|437:124|402:152|422:211,1,161.999995056153,6|0,3:2|0:0,0:0:0:0:
452,283,221429,5,2,0:3:0:0:
502,201,221549,1,2,0:0:0:0:
324,114,221669,2,0,P|260:126|233:162,1,96,10|0,0:0|0:0,0:0:0:0:
173,282,221909,1,2,0:3:0:0:
60,163,222029,6,0,P|103:204|167:194,1,96,2|0,0:0|3:0,0:0:0:0:
185,358,222269,2,0,P|237:329|247:265,1,96,10|2,0:0|0:3,0:0:0:0:
240,146,222509,1,2,0:0:0:0:
388,318,222629,6,0,P|319:257|317:166,1,161.999995056153,10|0,0:0|0:0,0:0:0:0:
323,113,222869,2,0,P|259:125|232:161,1,96,2|0,0:3|0:0,0:0:0:0:
452,368,223109,6,0,B|479:371|495:388|495:388|490:361|458:345,1,96,0|0,3:0|0:0,0:0:0:0:
407,163,223349,5,2,0:3:0:0:
365,246,223469,1,2,0:0:0:0:
456,237,223589,5,10,0:0:0:0:
309,191,223709,1,2,0:0:0:0:
431,83,223829,5,2,0:3:0:0:
456,237,223949,1,10,0:0:0:0:
323,113,224069,6,0,P|315:62|346:16,1,96,2|0,3:2|0:0,0:0:0:0:
512,171,224309,2,0,P|525:149|502:172,1,96,2|0,0:3|0:0,0:0:0:0:
340,256,224549,2,0,P|327:234|350:257,1,96,10|0,0:0|0:0,0:0:0:0:
467,350,224789,2,0,L|364:367,1,96,2|0,0:3|0:0,0:0:0:0:
152,109,225029,6,0,B|128:136|140:166|140:166|194:195|172:273,1,161.999995056153,2|0,3:2|0:0,0:0:0:0:
196,326,225269,2,0,P|135:319|108:279,1,96,2|0,0:3|0:0,0:0:0:0:
319,42,225509,5,10,0:0:0:0:
356,180,225629,1,2,0:0:0:0:
228,142,225749,1,2,0:3:0:0:
305,118,225869,1,10,0:0:0:0:
422,227,225989,5,2,3:2:0:0:
458,118,226109,1,2,0:0:0:0:
422,227,226229,2,0,B|382:243|370:260|370:260|373:284|366:302,1,96,2|0,0:3|0:0,0:0:0:0:
211,300,226469,6,0,P|315:304|383:384,1,215.999993408203,10|2,0:0|0:3,0:0:0:0:
458,118,226829,6,0,P|435:125|428:97,1,53.9999983520508,2|0,0:0|0:0,0:0:0:0:
218,14,226949,6,0,B|204:63|248:97|256:85|291:113|271:172,1,161.999995056153,2|0,3:2|0:0,0:0:0:0:
205,204,227189,5,2,0:3:0:0:
365,157,227309,1,2,0:0:0:0:
200,89,227429,5,10,0:0:0:0:
278,239,227549,1,2,0:0:0:0:
101,228,227669,5,2,0:3:0:0:
278,239,227789,1,2,0:0:0:0:
189,384,227909,5,2,3:2:0:0:
168,273,228029,1,10,0:0:0:0:
250,318,228149,5,2,0:3:0:0:
106,350,228269,1,10,0:0:0:0:
242,151,228389,5,10,0:0:0:0:
355,268,228509,1,10,0:0:0:0:
168,273,228629,2,0,B|149:230|149:230|173:173,1,96,2|0,3:0|0:0,0:0:0:0:
512,54,228869,6,0,P|454:106|349:77,1,161.999995056153,6|0,3:2|0:0,0:0:0:0:
316,41,229109,2,0,B|286:43|267:32|267:32|279:55|314:63,1,96,2|0,0:0|0:0,0:0:0:0:
441,226,229349,6,0,P|471:181|458:128,1,96,10|0,0:0|0:0,0:0:0:0:
374,98,229589,1,2,0:0:0:0:
289,223,229709,2,0,P|361:219|439:323,1,192,10|0,0:0|0:0,0:0:0:0:
254,315,230069,6,0,B|214:296|219:258|219:258|227:277|262:299,1,96,2|2,0:0|0:0,0:0:0:0:
436,302,230309,2,0,B|369:294|336:330|372:354|316:398|253:385,1,192,10|2,0:0|0:3,0:0:0:0:
8,190,230789,6,0,P|64:210|145:132,1,161.999995056153,2|0,3:2|0:0,0:0:0:0:
185,86,231029,2,0,B|155:56|121:61|121:61|117:79|71:94,1,96,2|0,0:0|0:0,0:0:0:0:
139,298,231269,6,0,P|185:284|257:275,1,96,10|0,0:0|0:0,0:0:0:0:
405,21,231509,2,0,P|398:-1|388:33,1,96,2|0,0:0|0:0,0:0:0:0:
290,50,231749,6,0,P|334:102|447:97,1,161.999995056153,2|0,3:2|0:0,0:0:0:0:
473,177,231989,2,0,P|503:148|507:78,1,96,2|0,0:0|0:0,0:0:0:0:
291,167,232229,6,0,P|309:231|318:281,1,96,10|0,0:0|0:0,0:0:0:0:
473,377,232469,2,0,P|495:360|459:365,1,96,2|0,0:0|0:0,0:0:0:0:
232,276,232709,6,0,P|301:288|364:378,1,161.999995056153,0|0,3:0|0:0,0:0:0:0:
149,384,232949,5,2,0:3:0:0:
126,351,233069,1,2,0:0:0:0:
153,319,233189,1,10,0:0:0:0:
111,252,233429,5,2,0:3:0:0:
158,192,233549,1,2,0:0:0:0:
98,140,233669,1,0,3:0:0:0:
50,200,233789,1,8,0:0:0:0:
169,44,233909,5,2,0:3:0:0:
208,117,234029,2,0,B|263:96|263:96|287:89|298:113,1,96,2|8,0:0|0:0,0:0:0:0:
317,248,234269,2,0,B|250:233|250:233|254:202|232:181,1,96,2|2,0:0|0:3,0:0:0:0:
394,3,234509,1,2,0:0:0:0:
468,70,234629,6,0,B|474:122|446:147|423:129|399:164|408:214,1,161.999995056153,0|0,3:0|0:0,0:0:0:0:
447,384,234869,5,2,0:3:0:0:
512,335,234989,1,2,0:0:0:0:
389,284,235109,2,0,P|330:296|313:343,1,96,8|0,0:0|0:0,0:0:0:0:
171,384,235349,2,0,P|112:372|95:325,1,96,2|0,0:3|0:0,0:0:0:0:
248,205,235589,5,0,3:0:0:0:
317,248,235709,1,8,0:0:0:0:
246,287,235829,5,2,0:3:0:0:
202,137,235949,1,2,0:0:0:0:
319,168,236069,5,8,0:0:0:0:
166,211,236189,1,10,0:0:0:0:
319,168,236309,1,2,0:3:0:0:
166,211,236429,1,0,0:0:0:0:
269,28,236549,6,0,P|203:87|113:46,1,161.999995056153,6|0,3:2|0:0,0:0:0:0:
61,34,236789,2,0,B|38:23|33:-3|33:-3|49:13|76:16,1,96,2|0,0:0|0:0,0:0:0:0:
391,13,237029,6,0,L|372:128,1,96,10|0,0:0|0:0,0:0:0:0:
417,262,237269,1,2,0:0:0:0:
499,115,237389,2,0,B|411:134|411:134|398:150|398:150|278:176,1,192,10|0,0:0|0:0,0:0:0:0:
341,292,237749,6,0,P|396:312|416:360,1,96,2|2,0:0|0:0,0:0:0:0:
181,384,237989,2,0,B|168:328|206:294|226:309|266:272|250:216,1,192,8|2,0:0|0:3,0:0:0:0:
12,51,238469,6,0,P|47:110|153:100,1,161.999995056153,2|0,3:2|0:0,0:0:0:0:
200,157,238709,2,0,P|234:117|228:57,1,96,2|0,0:0|0:0,0:0:0:0:
0,177,238949,6,0,L|15:276,1,96,10|0,0:0|0:0,0:0:0:0:
179,378,239189,1,2,0:0:0:0:
238,322,239309,1,2,0:0:0:0:
178,263,239429,1,0,3:0:0:0:
97,358,239549,5,8,0:0:0:0:
259,232,239669,2,0,P|298:255|376:279,1,96,2|0,0:0|0:0,0:0:0:0:
444,384,239909,5,10,0:0:0:0:
512,267,240029,1,8,0:0:0:0:
444,384,240149,2,0,B|433:343|433:343|437:330|437:330|422:266,1,96,2|0,3:2|0:0,0:0:0:0:
512,67,240389,6,0,B|479:35|439:42|439:42|431:64|389:79,1,120,6|0,3:2|0:0,0:0:0:0:
217,0,240629,6,0,L|222:34,1,33,10|0,0:0|0:0,0:0:0:0:
40,35,241349,6,0,P|106:35|148:98,1,132.00000402832,10|0,0:0|0:0,0:0:0:0:
356,184,241589,5,10,0:0:0:0:
182,253,241709,1,2,0:0:0:0:
356,184,241829,1,2,0:0:0:0:
203,377,242309,6,0,B|226:99|298:296|304:-19,1,389.999982147218,14|2,3:2|0:0,0:0:0:0:
