osu file format v14

[General]
AudioFilename: Yorushika - Dakara Bokuwa Ongaku wo Tomeda.mp3
AudioLeadIn: 0
PreviewTime: 62049
Countdown: 0
SampleSet: None
StackLeniency: 0.7
Mode: 0
LetterboxInBreaks: 0
WidescreenStoryboard: 1

[Editor]
Bookmarks: 127606,187137,220017,241497
DistanceSpacing: 1.3
BeatDivisor: 4
GridSize: 32
TimelineZoom: 1

[Metadata]
Title:Dakara Boku wa Ongaku o Yameta
TitleUnicode:だから僕は音楽を辞めた
Artist:Yorushika
ArtistUnicode:ヨルシカ
Creator:Awaken
Version:Re:Tryment
Source:
Tags:n-buna ナブナ suis スイ flask ponbot delis
BeatmapID:3574587
BeatmapSetID:961450

[Difficulty]
HPDrainRate:4.5
CircleSize:4.2
OverallDifficulty:9.5
ApproachRate:9.6
SliderMultiplier:1.2
SliderTickRate:1

[Events]
//Background and Video events
Video,0,"Video.avi"
0,0,"ymt.jpg",0,0
//Break Periods
2,5645,15977
2,21185,62057
2,76206,211577
//Storyboard Layer 0 (Background)
//Storyboard Layer 1 (Fail)
//Storyboard Layer 2 (Pass)
//Storyboard Layer 3 (Foreground)
//Storyboard Layer 4 (Overlay)
//Storyboard Sound Samples

[TimingPoints]
166,240,4,2,2,10,1,0
166,-200,4,2,2,10,0,0
1126,-100,4,2,2,10,0,0
18046,-200,4,2,2,10,0,0
18406,-100,4,2,2,10,0,0
62566,-83.3333333333333,4,2,2,10,0,1
67846,-66.6666666666667,4,2,2,10,0,1
70006,-200,4,2,2,10,0,1
70246,-66.6666666666667,4,2,2,10,0,1
70486,-83.3333333333333,4,2,2,10,0,1
74026,-100,4,2,2,10,0,0
74086,-100,4,2,2,10,0,1
74146,-100,4,2,2,10,0,0
74326,-100,4,2,2,10,0,1
74386,-100,4,2,2,10,0,0
75046,-100,4,2,2,10,0,1
75106,-100,4,2,2,10,0,0
75286,-100,4,2,2,10,0,1
75346,-100,4,2,2,10,0,0
212086,-66.6666666666667,4,2,2,10,0,0

[Colours]
Combo1 : 227,232,64
Combo2 : 0,236,153
Combo3 : 33,165,162
Combo4 : 241,63,85

[HitObjects]
159,40,166,6,0,P|137:66|157:120,1,90
342,135,586,1,0,0:0:0:0:
342,135,646,2,0,P|364:161|344:215,1,90
234,322,1066,5,0,0:0:0:0:
234,322,1126,2,0,L|97:312,2,120
456,190,1846,2,0,P|470:155|472:122,1,60
317,38,2086,1,0,0:0:0:0:
324,115,2206,1,0,0:0:0:0:
330,192,2326,1,0,0:0:0:0:
337,269,2446,1,0,0:0:0:0:
345,346,2566,1,0,0:0:0:0:
345,346,2806,2,0,L|272:339,1,60
46,248,3046,6,0,L|176:234,2,120
405,44,3766,2,0,P|353:30|330:29,1,60
226,129,4006,1,0,0:0:0:0:
281,183,4126,1,0,0:0:0:0:
358,194,4246,1,0,0:0:0:0:
435,184,4366,1,0,0:0:0:0:
495,134,4486,1,0,0:0:0:0:
495,134,4726,2,0,L|487:199,1,60
234,314,4966,6,0,B|288:303|288:303|360:316,2,120
88,92,16486,6,0,P|125:84|184:49,1,90
309,178,16726,2,0,P|262:172|205:146,1,90
84,244,16966,2,0,P|134:244|178:259,1,90
338,289,17206,2,0,L|368:285,1,30
493,218,17326,6,0,L|406:207,1,60
385,150,17506,1,0,0:0:0:0:
385,150,17566,1,0,0:0:0:0:
466,300,17686,1,0,0:0:0:0:
480,133,17806,1,0,0:0:0:0:
273,23,17926,1,0,0:0:0:0:
416,69,18046,6,0,P|380:62|336:76,1,75
181,115,18406,6,0,L|280:105,1,90
184,215,18646,2,0,L|91:210,1,90
30,321,18886,2,0,L|134:312,1,90
284,231,19126,2,0,L|277:179,1,30
211,306,19246,2,0,B|239:324|239:324|273:329,1,60
343,299,19426,1,0,0:0:0:0:
343,299,19486,1,0,0:0:0:0:
430,172,19606,1,0,0:0:0:0:
290,87,19726,5,0,0:0:0:0:
290,87,19786,1,0,0:0:0:0:
290,87,19846,1,0,0:0:0:0:
279,201,19966,1,0,0:0:0:0:
430,172,20086,1,0,0:0:0:0:
364,44,20206,1,0,0:0:0:0:
189,220,20326,6,0,P|214:265|263:282,1,90
463,281,20566,2,0,P|423:303|358:302,1,90
170,105,20806,2,0,P|179:59|220:17,1,90
152,72,62566,6,0,P|205:63|280:58,1,107.999996704102
334,72,62806,1,0,0:0:0:0:
173,216,62866,2,0,P|122:213|44:197,1,107.999996704102
0,159,63166,1,0,0:0:0:0:
258,167,63286,1,0,0:0:0:0:
63,302,63406,1,0,0:0:0:0:
332,324,63526,6,0,P|282:324|211:332,1,107.999996704102
150,298,63766,1,0,0:0:0:0:
341,178,63886,2,0,P|395:189|458:189,1,107.999996704102
512,144,64126,1,0,0:0:0:0:
269,225,64246,6,0,P|255:168|276:119,1,107.999996704102
320,61,64486,1,0,0:0:0:0:
360,253,64606,1,0,0:0:0:0:
182,208,64726,1,0,0:0:0:0:
341,178,64846,1,0,0:0:0:0:
181,117,64966,6,0,B|103:105|103:105|59:126,1,107.999996704102
2,232,65206,2,0,L|58:225,1,30
269,225,65326,1,0,0:0:0:0:
269,225,65386,1,0,0:0:0:0:
269,225,65446,1,0,0:0:0:0:
102,193,65566,1,0,0:0:0:0:
145,339,65686,1,0,0:0:0:0:
331,299,65806,1,0,0:0:0:0:
222,94,65926,6,0,B|216:134|216:134|283:93,1,107.999996704102
413,211,66166,2,0,B|415:255|415:255|355:213,1,107.999996704102
118,90,66406,5,0,0:0:0:0:
348,144,66526,1,0,0:0:0:0:
160,193,66646,1,0,0:0:0:0:
263,13,66766,1,0,0:0:0:0:
267,211,66886,2,0,L|160:193,1,107.999996704102
183,274,67126,1,0,0:0:0:0:
437,219,67246,1,0,0:0:0:0:
264,293,67366,6,0,L|344:306,1,71.9999978027344
412,297,67546,1,0,0:0:0:0:
412,297,67606,1,0,0:0:0:0:
131,356,67726,1,0,0:0:0:0:
265,102,67846,6,0,B|292:66|292:66|343:104|332:165,1,135.000005149841
89,58,68086,6,0,B|115:32|115:32|167:7|221:56,1,135.000005149841
1,162,68326,6,0,L|179:130,2,180.000006866455
434,254,68926,1,0,0:0:0:0:
256,112,69046,1,0,0:0:0:0:
159,284,69166,1,0,0:0:0:0:
433,83,69286,5,0,0:0:0:0:
198,213,69406,1,0,0:0:0:0:
487,328,69526,1,0,0:0:0:0:
354,127,69646,1,0,0:0:0:0:
354,127,69706,1,0,0:0:0:0:
354,127,69766,2,0,P|349:158|352:185,1,45.0000017166138
286,359,69886,2,0,B|282:326|273:304,1,45.0000017166138
468,213,70006,6,0,L|512:207,1,45
274,226,70246,6,0,P|218:204|127:191,1,135.000005149841
63,188,70486,1,0,0:0:0:0:
296,93,70606,2,0,P|353:87|424:70,1,107.999996704102
471,41,70846,1,0,0:0:0:0:
372,173,70966,1,0,0:0:0:0:
223,18,71086,1,0,0:0:0:0:
23,103,71206,6,0,L|130:94,1,107.999996704102
204,128,71446,1,0,0:0:0:0:
358,300,71566,2,0,L|251:289,1,107.999996704102
181,320,71806,1,0,0:0:0:0:
491,265,71926,6,0,L|514:152,1,107.999996704102
447,62,72166,6,0,P|412:113|444:153,1,107.999996704102
195,228,72406,2,0,P|251:209|312:227,1,107.999996704102
270,6,72646,2,0,L|302:113,1,107.999996704102
388,290,72886,2,0,L|394:230,1,35.9999989013672
191,137,73006,1,0,0:0:0:0:
191,137,73066,1,0,0:0:0:0:
191,137,73126,1,0,0:0:0:0:
286,322,73246,1,0,0:0:0:0:
365,170,73366,1,0,0:0:0:0:
170,254,73486,1,0,0:0:0:0:
485,216,73606,5,0,0:0:0:0:
485,216,73726,1,0,0:0:0:0:
46,179,73846,1,0,0:0:0:0:
46,179,73966,1,0,0:0:0:0:
485,216,74086,5,0,0:0:0:0:
46,179,74326,1,0,0:0:0:0:
485,216,75046,1,0,0:0:0:0:
46,179,75286,5,0,0:0:0:0:
266,195,75406,1,0,0:0:0:0:
485,216,75526,1,0,0:0:0:0:
11,267,75766,5,0,0:0:0:0:
512,129,76006,1,0,0:0:0:0:
73,95,212086,6,0,B|102:107|102:107|106:91|106:91|108:108|108:108|117:100|109:92|101:93|124:99|124:101|124:104|103:90|103:90|98:97|98:97|108:92|108:92|125:116|110:108|110:108|104:120|230:108,1,270.000010299683
