osu file format v14

[General]
AudioFilename: Yorushika - Dakara Bokuwa Ongaku wo Tomeda.mp3
AudioLeadIn: 0
PreviewTime: 62049
Countdown: 0
SampleSet: Soft
StackLeniency: 0.7
Mode: 0
LetterboxInBreaks: 0
WidescreenStoryboard: 0

[Editor]
Bookmarks: 34006,187137,220017,241497
DistanceSpacing: 0.7
BeatDivisor: 4
GridSize: 4
TimelineZoom: 1

[Metadata]
Title:Dakara Boku wa Ongaku o Yameta
TitleUnicode:だから僕は音楽を辞めた
Artist:Yorushika
ArtistUnicode:ヨルシカ
Creator:Awaken
Version:Hard
Source:
Tags:n-buna ナブナ suis スイ flask ponbot delis
BeatmapID:2016857
BeatmapSetID:961450

[Difficulty]
HPDrainRate:4
CircleSize:3.8
OverallDifficulty:7
ApproachRate:8
SliderMultiplier:1.6
SliderTickRate:1

[Events]
//Background and Video events
Video,0,"Video.avi"
0,0,"ymt.jpg",0,0
//Break Periods
2,43566,44536
2,76206,82936
2,160686,163576
2,164766,166936
2,176045,182776
2,227886,228856
2,235806,238096
//Storyboard Layer 0 (Background)
//Storyboard Layer 1 (Fail)
//Storyboard Layer 2 (Pass)
//Storyboard Layer 3 (Foreground)
//Storyboard Layer 4 (Overlay)
//Storyboard Sound Samples

[TimingPoints]
166,240,4,2,2,10,1,0
166,-133.333333333333,4,2,2,10,0,0
1126,-200,4,2,2,30,0,0
16006,-133.333333333333,4,2,2,50,0,0
16486,-133.333333333333,4,2,1,50,0,0
31846,-133.333333333333,4,2,2,50,0,0
32326,-200,4,2,2,30,0,0
46246,-200,4,2,1,30,0,0
47206,-200,4,2,2,30,0,0
54886,-133.333333333333,4,2,2,40,0,0
62566,-133.333333333333,4,2,1,50,0,1
74086,-133.333333333333,4,2,1,50,0,0
83686,-133.333333333333,4,2,1,50,0,0
91366,-200,4,2,2,30,0,0
105766,-200,4,2,2,30,0,0
106726,-200,4,2,1,30,0,0
114406,-133.333333333333,4,2,1,40,0,0
124006,-133.333333333333,4,2,1,50,0,1
137446,-133.333333333333,4,2,1,50,0,0
152806,-133.333333333333,4,2,2,30,0,0
156646,-200,4,2,2,30,0,0
183526,-133.333333333333,4,2,1,50,0,0
189646,-200,4,2,1,40,0,0
190126,-133.333333333333,4,2,1,50,0,0
193126,-133.333333333333,4,2,1,50,0,1
204646,-133.333333333333,4,2,1,50,0,0
212326,-200,4,2,1,50,0,0
215926,-133.333333333333,4,2,1,50,0,0

[Colours]
Combo1 : 227,232,64
Combo2 : 0,236,153
Combo3 : 33,165,162
Combo4 : 241,63,85

[HitObjects]
54,199,166,5,8,0:0:0:0:
54,199,646,1,8,0:0:0:0:
54,199,1126,6,0,P|113:209|146:201,1,80,12|2,0:0|0:0,0:0:0:0:
193,145,1606,2,0,P|251:131|282:136,1,80,8|2,0:0|0:0,0:0:0:0:
343,171,2086,2,0,B|361:217|361:217|344:236|342:268|342:268|368:285|374:326,2,160,10|10|8,0:0|0:0|0:0,0:0:0:0:
257,48,3526,5,10,0:0:0:0:
114,136,4006,2,0,P|93:184|96:215,1,80,8|2,0:0|0:0,0:0:0:0:
137,284,4486,2,0,L|224:278,1,80,10|2,0:0|0:0,0:0:0:0:
365,314,4966,1,8,0:0:0:0:
455,152,5446,6,0,B|410:137|410:137|374:140,1,80,10|2,0:0|0:0,0:0:0:0:
299,174,5926,2,0,B|258:185|258:185|211:178,1,80,10|2,0:0|0:0,0:0:0:0:
143,142,6406,1,8,0:0:0:0:
78,288,6886,6,0,L|164:284,1,80,10|0,0:0|0:0,0:0:0:0:
244,306,7366,1,10,0:0:0:0:
317,264,7606,1,2,0:0:0:0:
394,296,7846,2,0,P|388:222|311:183,2,160,10|8|14,0:0|0:0|0:0,0:0:0:0:
492,160,9286,6,0,B|478:119|478:119|483:71,1,80,10|2,0:0|0:0,0:0:0:0:
330,20,9766,2,0,B|345:61|345:61|346:108,1,80,10|0,0:0|0:0,0:0:0:0:
221,220,10246,2,0,B|205:179|205:179|207:128,1,80,10|2,0:0|0:0,0:0:0:0:
82,48,10726,1,8,0:0:0:0:
82,48,11206,6,0,L|91:135,1,80,10|2,0:0|0:0,0:0:0:0:
82,211,11686,2,0,L|27:207,2,40,10|2|0,0:0|0:0|0:0,0:0:0:0:
113,294,12166,2,0,L|200:285,1,80,10|2,0:0|0:0,0:0:0:0:
281,294,12646,1,14,0:0:0:0:
320,114,13126,6,0,L|224:104,1,80,10|2,0:0|0:0,0:0:0:0:
164,144,13606,2,0,P|155:195|166:238,1,80,10|2,0:0|0:0,0:0:0:0:
215,280,14086,1,10,0:0:0:0:
290,242,14326,1,0,0:0:0:0:
363,283,14566,1,2,0:0:0:0:
107,64,16006,6,0,P|101:101|105:138,2,60.0000022888184,8|0|8,0:0|0:0|0:0,0:0:0:0:
151,45,16366,1,8,0:0:0:0:
197,58,16486,6,0,L|331:44,1,120.000004577637,4|2,0:0|0:0,0:0:0:0:
407,267,16966,2,0,B|344:248|344:248|280:254,1,120.000004577637,8|2,0:0|0:0,0:0:0:0:
250,266,17326,2,0,P|223:204|247:141,1,120.000004577637,0|0,0:0|0:0,0:0:0:0:
265,126,17686,1,2,0:0:0:0:
425,108,17926,2,0,L|419:182,2,60.0000022888184,8|0|2,0:0|0:0|0:0,0:0:0:0:
250,266,18406,6,0,P|276:337|260:401,1,120.000004577637,0|2,0:0|0:0,0:0:0:0:
74,294,18886,2,0,P|50:232|58:166,1,120.000004577637,8|2,0:0|0:0,0:0:0:0:
74,142,19246,2,0,L|216:122,1,120.000004577637,0|0,0:0|0:0,0:0:0:0:
232,110,19606,1,2,0:0:0:0:
420,197,19846,2,0,L|431:273,2,60.0000022888184,10|2|0,0:0|0:0|0:0,0:0:0:0:
375,179,20206,1,0,0:0:0:0:
331,199,20326,6,0,P|279:225|205:217,1,120.000004577637,0|2,0:0|0:0,0:0:0:0:
46,79,20806,2,0,P|98:53|181:63,1,120.000004577637,8|2,0:0|0:0,0:0:0:0:
197,72,21166,2,0,B|261:82|261:82|315:66,1,120.000004577637,0|0,0:0|0:0,0:0:0:0:
354,53,21526,1,2,0:0:0:0:
467,166,21766,1,8,0:0:0:0:
323,257,22006,1,2,0:0:0:0:
444,318,22246,6,0,P|390:295|333:310,1,120.000004577637,2|0,0:0|0:0,0:0:0:0:
293,336,22606,1,2,0:0:0:0:
293,336,22726,2,0,P|215:347|167:322,1,120.000004577637,8|0,0:0|0:0,0:0:0:0:
149,301,23086,1,0,0:0:0:0:
149,301,23206,2,0,L|155:168,3,120.000004577637,2|2|10|2,0:0|0:0|0:0|0:0,0:0:0:0:
270,100,24166,6,0,P|341:108|404:73,1,120.000004577637,4|2,0:0|0:0,0:0:0:0:
450,241,24646,2,0,P|379:233|324:256,1,120.000004577637,8|2,0:0|0:0,0:0:0:0:
300,274,25006,2,0,B|254:290|254:290|178:254,1,120.000004577637,0|0,0:0|0:0,0:0:0:0:
153,238,25366,1,2,0:0:0:0:
130,91,25606,2,0,L|204:94,2,60.0000022888184,8|0|2,0:0|0:0|0:0,0:0:0:0:
243,163,26086,6,0,P|309:150|378:166,1,120.000004577637,2|2,0:0|0:0,0:0:0:0:
307,343,26566,2,0,P|241:356|188:346,1,120.000004577637,8|2,0:0|0:0,0:0:0:0:
158,319,26926,2,0,L|138:193,1,120.000004577637,0|0,0:0|0:0,0:0:0:0:
134,158,27286,1,2,0:0:0:0:
331,123,27526,2,0,L|326:196,2,60.0000022888184,10|2|0,0:0|0:0|0:0,0:0:0:0:
366,90,27886,1,0,0:0:0:0:
405,116,28006,6,0,L|423:251,1,120.000004577637,2|2,0:0|0:0,0:0:0:0:
322,354,28486,2,0,P|263:333|186:333,1,120.000004577637,8|2,0:0|0:0,0:0:0:0:
164,321,28846,2,0,P|133:278|133:192,1,120.000004577637,0|0,0:0|0:0,0:0:0:0:
140,172,29206,1,2,0:0:0:0:
307,223,29446,1,8,0:0:0:0:
438,64,29686,1,2,0:0:0:0:
425,224,29926,6,0,B|382:214|382:214|307:223,1,120.000004577637,2|0,0:0|0:0,0:0:0:0:
262,240,30286,1,0,0:0:0:0:
262,240,30406,2,0,B|195:252|195:252|141:235,1,120.000004577637,10|0,0:0|0:0,0:0:0:0:
107,218,30766,1,0,0:0:0:0:
107,218,30886,2,0,L|117:352,1,120.000004577637,10|10,0:0|0:0,0:0:0:0:
213,362,31366,2,0,L|283:358,3,60.0000022888184,10|2|0|0,0:0|0:0|0:0|0:0,0:0:0:0:
313,346,31846,5,10,0:0:0:0:
401,249,32326,1,10,0:0:0:0:
373,134,32806,2,0,B|323:112|323:112|217:131,2,160,2|10|8,0:0|0:0|0:0,0:0:0:0:
401,249,34246,1,10,0:0:0:0:
317,338,34726,2,0,P|270:336|228:325,1,80,10|2,0:0|0:0,0:0:0:0:
167,289,35206,2,0,P|127:280|88:279,1,80,10|2,0:0|0:0,0:0:0:0:
12,311,35686,1,8,0:0:0:0:
94,173,36166,5,10,0:0:0:0:
247,126,36646,2,0,L|241:76,2,40,10|2|2,0:0|0:0|0:0,0:0:0:0:
299,186,37126,2,0,L|306:277,1,80,8|2,0:0|0:0,0:0:0:0:
253,327,37606,6,0,P|195:356|127:298,1,160,8|10,0:0|0:0,0:0:0:0:
128,221,38326,1,0,0:0:0:0:
166,151,38566,2,0,P|236:123|291:175,1,160,10|8,0:0|0:0,0:0:0:0:
352,227,39286,1,2,0:0:0:0:
429,205,39526,5,12,0:0:0:0:
369,56,40006,1,10,0:0:0:0:
233,140,40486,2,0,B|176:153|176:153|135:122|76:137,2,160,10|8|8,0:0|0:0|0:0,0:0:0:0:
369,56,41926,1,10,0:0:0:0:
449,194,42406,2,0,L|441:280,1,80,10|0,0:0|0:0,0:0:0:0:
361,266,42886,2,0,L|369:360,1,80,10|10,0:0|0:0,0:0:0:0:
288,355,43366,1,12,0:0:0:0:
152,309,45286,6,0,P|129:273|201:193,1,160,0|10,0:0|0:0,0:0:0:0:
271,186,46006,1,10,0:0:0:0:
343,151,46246,5,8,0:0:0:0:
220,94,46486,1,8,0:0:0:0:
146,213,46726,1,8,0:0:0:0:
229,324,46966,1,8,0:0:0:0:
349,281,47206,6,0,B|402:274|443:306|443:306|438:237|491:200|491:200|438:168|447:106,1,320,14|10,0:0|0:0,0:0:0:0:
150,77,48646,2,0,L|154:159,1,80,10|2,0:0|0:0,0:0:0:0:
141,236,49126,2,0,P|166:186|191:303,1,320,8|10,0:0|0:0,0:0:0:0:
356,342,50566,2,0,L|350:256,1,80,8|0,0:0|0:0,0:0:0:0:
355,183,51046,2,0,B|405:177|405:177|440:146|421:79|421:79|369:48|369:48|323:76|260:57,1,320,2|2,0:0|0:0,0:0:0:0:
115,105,52486,2,0,P|101:150|116:193,1,80,8|0,0:0|0:0,0:0:0:0:
159,243,52966,2,0,B|226:233|226:233|331:251,2,160,2|10|2,0:0|0:0|0:0,0:0:0:0:
245,144,54406,1,8,0:0:0:0:
440,325,54886,6,0,P|415:279|417:205,1,120.000004577637,6|0,0:0|0:0,0:0:0:0:
333,189,55366,2,0,P|334:129|307:76,1,120.000004577637,2|0,0:0|0:0,0:0:0:0:
226,53,55846,2,0,L|96:47,2,120.000004577637,2|2|10,0:0|0:0|0:0,0:0:0:0:
72,325,56806,6,0,P|97:279|95:205,1,120.000004577637,2|2,0:0|0:0,0:0:0:0:
179,189,57286,2,0,P|177:129|204:76,1,120.000004577637,0|2,0:0|0:0,0:0:0:0:
286,53,57766,2,0,L|416:47,2,120.000004577637,2|0|10,0:0|0:0|0:0,0:0:0:0:
204,76,58486,1,2,0:0:0:0:
129,36,58726,6,0,P|120:91|170:156,1,120.000004577637,2|0,0:0|0:0,0:0:0:0:
233,161,59206,1,10,0:0:0:0:
179,225,59446,2,0,P|302:206|359:299,1,240.000009155274,6|0,0:0|0:0,0:0:0:0:
442,292,60166,2,0,L|451:217,3,60.0000022888184,10|0|2|0,0:0|0:0|0:0|0:0,0:0:0:0:
446,190,60646,5,10,0:0:0:0:
292,117,61006,1,10,0:0:0:0:
161,217,61366,1,10,0:0:0:0:
50,60,62086,2,0,L|175:51,1,120.000004577637,2|2,0:0|0:0,0:0:0:0:
245,87,62566,6,0,P|269:140|263:209,1,120.000004577637,4|0,0:0|0:0,0:0:0:0:
244,236,62926,1,2,0:0:0:0:
244,236,63046,2,0,L|104:252,1,120.000004577637,8|2,0:0|0:0,0:0:0:0:
371,190,63526,2,0,P|347:243|353:312,1,120.000004577637,2|0,0:0|0:0,0:0:0:0:
372,339,63886,1,2,0:0:0:0:
372,339,64006,2,0,L|512:355,1,120.000004577637,8|2,0:0|0:0,0:0:0:0:
484,232,64486,2,0,L|495:163,2,60.0000022888184,6|2|0,0:0|0:0|0:0,0:0:0:0:
450,94,64966,2,0,P|405:78|332:84,1,120.000004577637,8|2,0:0|0:0,0:0:0:0:
264,130,65446,2,0,P|204:136|147:119,1,120.000004577637,0|0,0:0|0:0,0:0:0:0:
65,140,65926,5,10,0:0:0:0:
92,219,66166,2,0,L|158:212,1,60.0000022888184,2|0,0:0|0:0,0:0:0:0:
177,246,66406,2,0,L|243:239,1,60.0000022888184,2|2,0:0|0:0,0:0:0:0:
266,269,66646,2,0,L|332:262,1,60.0000022888184,2|0,0:0|0:0,0:0:0:0:
358,288,66886,2,0,L|424:281,1,60.0000022888184,8|2,0:0|0:0,0:0:0:0:
444,314,67126,2,0,L|510:307,1,60.0000022888184,2|2,0:0|0:0,0:0:0:0:
509,266,67366,6,0,B|491:227|491:227|503:134,1,120.000004577637,2|0,0:0|0:0,0:0:0:0:
459,140,67726,1,0,0:0:0:0:
459,140,67846,2,0,B|468:63|468:63|450:24,1,120.000004577637,10|0,0:0|0:0,0:0:0:0:
371,12,68326,2,0,L|235:20,2,120.000004577637,12|12|10,0:0|0:0|0:0,0:0:0:0:
296,139,69046,1,8,0:0:0:0:
238,200,69286,2,0,L|118:192,2,120.000004577637,10|12|10,0:0|0:0|0:0,0:0:0:0:
343,313,70006,1,2,0:0:0:0:
409,364,70246,6,0,P|426:316|391:242,1,120.000004577637,4|0,0:0|0:0,0:0:0:0:
371,225,70606,1,2,0:0:0:0:
371,225,70726,2,0,L|237:242,1,120.000004577637,8|2,0:0|0:0,0:0:0:0:
185,188,71206,2,0,P|168:131|190:77,1,120.000004577637,2|0,0:0|0:0,0:0:0:0:
223,49,71567,1,2,0:0:0:0:
223,49,71686,2,0,L|342:64,1,120.000004577637,8|2,0:0|0:0,0:0:0:0:
412,108,72166,2,0,B|439:151|439:151|432:241,2,120.000004577637,2|2|8,0:0|0:0|0:0,0:0:0:0:
342,64,72886,1,2,0:0:0:0:
258,57,73126,6,0,P|202:79|135:75,1,120.000004577637,0|8,0:0|0:0,0:0:0:0:
126,174,73606,2,0,P|70:152|3:156,1,120.000004577637,8|0,0:0|0:0,0:0:0:0:
0,255,74086,5,12,0:0:0:0:
0,255,74326,1,12,0:0:0:0:
241,328,75046,1,12,0:0:0:0:
241,328,75286,2,0,L|322:320,2,60.0000022888184,4|8|8,0:0|0:0|0:0,0:0:0:0:
417,228,75766,1,2,0:0:0:0:
417,228,76006,5,4,0:0:0:0:
315,326,83686,6,0,L|181:340,1,120.000004577637,4|2,0:0|0:0,0:0:0:0:
105,117,84166,2,0,B|168:136|168:136|232:130,1,120.000004577637,8|0,0:0|0:0,0:0:0:0:
261,117,84526,2,0,P|288:179|264:242,1,120.000004577637,2|0,0:0|0:0,0:0:0:0:
247,258,84886,1,2,0:0:0:0:
72,296,85126,2,0,L|78:222,2,60.0000022888184,8|0|2,0:0|0:0|0:0,0:0:0:0:
261,117,85606,6,0,P|235:46|251:-18,1,120.000004577637,0|2,0:0|0:0,0:0:0:0:
438,90,86086,2,0,P|462:152|454:218,1,120.000004577637,8|0,0:0|0:0,0:0:0:0:
438,242,86446,2,0,L|296:262,1,120.000004577637,2|0,0:0|0:0,0:0:0:0:
280,274,86806,1,2,0:0:0:0:
92,187,87046,2,0,L|81:111,2,60.0000022888184,8|0|2,0:0|0:0|0:0,0:0:0:0:
137,205,87406,1,0,0:0:0:0:
181,185,87526,6,0,P|233:159|307:167,1,120.000004577637,0|2,0:0|0:0,0:0:0:0:
466,305,88006,2,0,P|414:331|331:321,1,120.000004577637,8|0,0:0|0:0,0:0:0:0:
315,312,88366,2,0,B|251:302|251:302|197:318,1,120.000004577637,2|0,0:0|0:0,0:0:0:0:
158,331,88726,1,2,0:0:0:0:
45,218,88966,1,10,0:0:0:0:
189,127,89206,1,2,0:0:0:0:
67,65,89446,6,0,P|121:88|178:73,1,120.000004577637,2|2,0:0|0:0,0:0:0:0:
219,48,89806,1,0,0:0:0:0:
219,48,89926,2,0,P|297:37|345:62,1,120.000004577637,10|10,0:0|0:0,0:0:0:0:
363,83,90286,1,8,0:0:0:0:
363,83,90406,2,0,L|357:216,1,120.000004577637,10|10,0:0|0:0,0:0:0:0:
282,240,90886,2,0,L|287:324,3,60.0000022888184,8|2|0|0,0:0|0:0|0:0|0:0,0:0:0:0:
288,328,91366,5,12,0:0:0:0:
119,282,91846,1,8,0:0:0:0:
139,134,92326,2,0,B|189:112|189:112|295:131,2,160,10|8|8,0:0|0:0|0:0,0:0:0:0:
111,249,93766,1,10,0:0:0:0:
195,338,94246,2,0,P|242:336|284:325,1,80,8|2,0:0|0:0,0:0:0:0:
345,289,94726,2,0,P|385:280|424:279,1,80,8|2,0:0|0:0,0:0:0:0:
500,311,95206,1,8,0:0:0:0:
418,173,95686,5,8,0:0:0:0:
265,126,96166,2,0,L|271:76,2,40,8|0|2,0:0|0:0|0:0,0:0:0:0:
213,186,96646,2,0,L|206:277,1,80,8|2,0:0|0:0,0:0:0:0:
194,343,97126,1,4,0:0:0:0:
86,254,99046,6,0,P|58:213|125:141,1,160,14|8,0:0|0:0,0:0:0:0:
201,138,99766,1,2,0:0:0:0:
279,140,100006,2,0,B|336:153|336:153|377:122|436:137,2,160,10|8|8,0:0|0:0|0:0,0:0:0:0:
143,56,101446,1,8,0:0:0:0:
63,194,101926,2,0,L|71:280,1,80,10|0,0:0|0:0,0:0:0:0:
151,266,102406,2,0,L|143:360,1,80,10|2,0:0|0:0,0:0:0:0:
224,355,102886,1,12,0:0:0:0:
360,309,104806,6,0,P|383:273|311:193,1,160,0|10,0:0|0:0,0:0:0:0:
241,186,105526,1,10,0:0:0:0:
169,151,105766,5,8,0:0:0:0:
292,94,106006,1,8,0:0:0:0:
366,213,106246,1,8,0:0:0:0:
283,324,106486,1,8,0:0:0:0:
163,281,106726,6,0,B|110:274|69:306|69:306|74:237|21:200|21:200|74:168|65:106,1,320,6|0,0:0|0:0,0:0:0:0:
362,77,108166,2,0,L|358:159,1,80,8|2,0:0|0:0,0:0:0:0:
371,236,108646,2,0,P|346:186|321:303,1,320,4|2,0:0|0:0,0:0:0:0:
156,343,110086,2,0,L|162:257,1,80,10|0,0:0|0:0,0:0:0:0:
157,183,110566,2,0,B|107:177|107:177|72:146|91:79|91:79|143:48|143:48|189:76|252:57,1,320,2|0,0:0|0:0,0:0:0:0:
397,105,112006,2,0,P|411:150|396:193,1,80,10|2,0:0|0:0,0:0:0:0:
353,243,112486,2,0,B|286:233|286:233|181:251,2,160,2|10|2,0:0|0:0|0:0,0:0:0:0:
228,144,113926,1,10,0:0:0:0:
72,325,114406,6,0,P|97:279|95:205,1,120.000004577637,6|2,0:0|0:0,0:0:0:0:
179,189,114886,2,0,P|178:129|205:76,1,120.000004577637,10|2,0:0|0:0,0:0:0:0:
286,53,115366,2,0,L|416:47,2,120.000004577637,2|2|10,0:0|0:0|0:0,0:0:0:0:
440,325,116326,6,0,P|415:279|417:205,1,120.000004577637,2|2,0:0|0:0,0:0:0:0:
333,189,116806,2,0,P|335:129|308:76,1,120.000004577637,8|0,0:0|0:0,0:0:0:0:
226,53,117286,2,0,L|96:47,2,120.000004577637,2|0|8,0:0|0:0|0:0,0:0:0:0:
308,76,118006,1,2,0:0:0:0:
383,36,118246,6,0,P|392:91|342:156,1,120.000004577637,4|0,0:0|0:0,0:0:0:0:
279,161,118726,1,8,0:0:0:0:
333,225,118966,2,0,P|210:206|153:299,1,240.000009155274,2|0,0:0|0:0,0:0:0:0:
87,343,119686,2,0,P|72:287|91:222,1,120.000004577637,8|2,0:0|0:0,0:0:0:0:
130,155,120166,5,4,0:0:0:0:
209,181,120406,1,2,0:0:0:0:
263,117,120646,2,0,L|400:108,1,120.000004577637,8|2,0:0|0:0,0:0:0:0:
459,145,121126,1,2,0:0:0:0:
459,145,121366,1,0,0:0:0:0:
366,259,121606,1,10,0:0:0:0:
366,259,121846,1,0,0:0:0:0:
481,340,122086,5,14,0:0:0:0:
295,334,123046,2,0,L|217:346,1,60.0000022888184,10|10,0:0|0:0,0:0:0:0:
281,314,123406,2,0,L|203:326,1,60.0000022888184,10|10,0:0|0:0,0:0:0:0:
267,297,123766,2,0,L|189:309,1,60.0000022888184,10|10,0:0|0:0,0:0:0:0:
267,297,124006,6,0,P|243:244|249:175,1,120.000004577637,4|0,0:0|0:0,0:0:0:0:
268,148,124366,1,2,0:0:0:0:
268,148,124486,2,0,L|408:132,1,120.000004577637,8|2,0:0|0:0,0:0:0:0:
141,194,124966,2,0,P|165:141|159:72,1,120.000004577637,2|0,0:0|0:0,0:0:0:0:
140,45,125326,1,2,0:0:0:0:
140,45,125446,2,0,L|0:29,1,120.000004577637,8|0,0:0|0:0,0:0:0:0:
28,152,125926,2,0,L|17:221,2,60.0000022888184,6|2|0,0:0|0:0|0:0,0:0:0:0:
62,290,126406,2,0,P|107:306|180:300,1,120.000004577637,8|2,0:0|0:0,0:0:0:0:
248,254,126886,2,0,P|308:248|365:265,1,120.000004577637,2|2,0:0|0:0,0:0:0:0:
447,244,127366,5,8,0:0:0:0:
420,165,127606,2,0,L|354:172,1,60.0000022888184,2|0,0:0|0:0,0:0:0:0:
335,138,127846,2,0,L|269:127,1,60.0000022888184,2|2,0:0|0:0,0:0:0:0:
237,145,128086,2,0,L|172:157,1,60.0000022888184
159,117,128326,2,0,L|99:109,1,60.0000022888184,8|0,0:0|0:0,0:0:0:0:
77,73,128566,2,0,L|10:80,1,60.0000022888184,2|2,0:0|0:0,0:0:0:0:
0,116,128806,6,0,B|18:155|18:155|6:248,1,120.000004577637,2|0,0:0|0:0,0:0:0:0:
53,244,129166,1,0,0:0:0:0:
53,244,129286,2,0,B|44:321|44:321|62:360,1,120.000004577637,8|2,0:0|0:0,0:0:0:0:
142,375,129766,2,0,L|278:367,2,120.000004577637,12|12|10,0:0|0:0|0:0,0:0:0:0:
216,245,130486,1,0,0:0:0:0:
274,184,130726,2,0,L|394:192,2,120.000004577637,10|12|8,0:0|0:0|0:0,0:0:0:0:
169,71,131446,1,2,0:0:0:0:
103,20,131686,6,0,P|86:68|121:142,1,120.000004577637,4|0,0:0|0:0,0:0:0:0:
141,159,132046,1,2,0:0:0:0:
141,159,132166,2,0,L|275:142,1,120.000004577637,8|2,0:0|0:0,0:0:0:0:
327,196,132646,2,0,P|344:253|322:307,1,120.000004577637,2|0,0:0|0:0,0:0:0:0:
289,335,133007,1,2,0:0:0:0:
289,335,133126,2,0,L|170:320,1,120.000004577637,8|2,0:0|0:0,0:0:0:0:
100,276,133606,2,0,B|73:233|73:233|80:143,2,120.000004577637,0|2|8,0:0|0:0|0:0,0:0:0:0:
170,320,134326,1,2,0:0:0:0:
254,327,134566,6,0,P|310:305|377:309,1,120.000004577637,0|10,0:0|0:0,0:0:0:0:
386,210,135046,2,0,P|442:232|509:228,1,120.000004577637,8|2,0:0|0:0,0:0:0:0:
512,129,135526,5,12,0:0:0:0:
512,129,135766,1,12,0:0:0:0:
271,56,136486,1,4,0:0:0:0:
271,56,136726,2,0,L|190:64,2,60.0000022888184,4|8|8,0:0|0:0|0:0,0:0:0:0:
95,156,137206,1,2,0:0:0:0:
95,156,137446,5,4,0:0:0:0:
183,224,137686,1,2,0:0:0:0:
291,196,137926,2,0,L|297:126,2,60.0000022888184,8|2|2,0:0|0:0|0:0,0:0:0:0:
281,237,138286,2,0,B|343:224|343:224|420:244,1,120.000004577637,2|0,0:0|0:0,0:0:0:0:
438,248,138646,1,2,0:0:0:0:
506,155,138886,2,0,P|512:104|490:34,1,120.000004577637,8|2,0:0|0:0,0:0:0:0:
354,31,139366,6,0,L|286:27,2,60.0000022888184,2|0|2,0:0|0:0|0:0,0:0:0:0:
216,106,139846,2,0,L|145:120,2,60.0000022888184,10|0|2,0:0|0:0|0:0,0:0:0:0:
28,101,140326,2,0,L|41:165,2,60.0000022888184,2|0|2,0:0|0:0|0:0,0:0:0:0:
176,229,140806,2,0,L|165:301,2,60.0000022888184,10|0|2,0:0|0:0|0:0,0:0:0:0:
373,133,141286,5,2,0:0:0:0:
373,133,141406,2,0,P|395:175|377:258,1,120.000004577637,0|2,0:0|0:0,0:0:0:0:
276,301,141886,2,0,L|137:296,1,120.000004577637,2|2,0:0|0:0,0:0:0:0:
82,172,142366,1,2,0:0:0:0:
82,172,142606,2,0,L|214:151,1,120.000004577637,2|2,0:0|0:0,0:0:0:0:
418,86,143086,5,2,0:0:0:0:
418,86,143326,2,0,L|293:66,2,120.000004577637,2|2|2,0:0|0:0|0:0,0:0:0:0:
471,179,144046,2,0,P|479:226|480:303,1,120.000004577637,2|2,0:0|0:0,0:0:0:0:
382,358,144526,1,2,0:0:0:0:
266,292,144766,2,0,L|194:301,2,60.0000022888184,2|2|0,0:0|0:0|0:0,0:0:0:0:
126,272,145126,6,0,P|81:224|86:159,1,120.000004577637,4|0,0:0|0:0,0:0:0:0:
98,134,145486,1,0,0:0:0:0:
98,134,145606,2,0,L|230:117,1,120.000004577637,10|0,0:0|0:0,0:0:0:0:
373,187,146086,2,0,P|398:248|371:307,1,120.000004577637,2|0,0:0|0:0,0:0:0:0:
351,326,146446,1,0,0:0:0:0:
351,326,146566,2,0,L|215:318,1,120.000004577637,10|0,0:0|0:0,0:0:0:0:
109,214,147046,6,0,P|88:169|106:99,1,120.000004577637,2|0,0:0|0:0,0:0:0:0:
230,25,147526,2,0,P|251:70|233:140,1,120.000004577637,10|2,0:0|0:0,0:0:0:0:
328,228,148006,1,0,0:0:0:0:
431,89,148246,1,2,0:0:0:0:
439,185,148486,2,0,L|447:242,3,40.000001525879,10|0|2|0,0:0|0:0|0:0|0:0,0:0:0:0:
471,341,148966,5,2,0:0:0:0:
471,341,149086,2,0,P|409:323|346:334,1,120.000004577637,2|0,0:0|0:0,0:0:0:0:
315,344,149446,2,0,L|189:334,1,120.000004577637,8|0,0:0|0:0,0:0:0:0:
130,249,149926,2,0,P|114:203|131:134,1,120.000004577637,2|0,0:0|0:0,0:0:0:0:
165,111,150286,1,2,0:0:0:0:
165,111,150406,2,0,L|290:95,1,120.000004577637,8|0,0:0|0:0,0:0:0:0:
430,102,150886,6,0,B|452:142|452:142|450:225,1,120.000004577637,2|0,0:0|0:0,0:0:0:0:
443,258,151246,1,0,0:0:0:0:
443,258,151366,2,0,L|307:278,1,120.000004577637,8|0,0:0|0:0,0:0:0:0:
293,304,151726,1,0,0:0:0:0:
293,304,151846,2,0,L|221:298,1,60.0000022888184,2|0,0:0|0:0,0:0:0:0:
204,222,152086,2,0,L|145:232,1,60.0000022888184
81,186,152326,2,0,P|61:130|79:47,1,120.000004577637,8|2,0:0|0:0,0:0:0:0:
291,21,152806,5,4,0:0:0:0:
459,126,153286,1,8,0:0:0:0:
360,293,153766,1,2,0:0:0:0:
459,126,154246,1,8,0:0:0:0:
224,204,154726,5,0,0:0:0:0:
418,209,155206,1,8,0:0:0:0:
259,320,155686,1,2,0:0:0:0:
418,209,156166,1,8,0:0:0:0:
177,247,156646,6,0,P|127:223|154:132,1,160,0|8,0:0|0:0,0:0:0:0:
242,125,157366,1,2,0:0:0:0:
321,71,157606,2,0,B|386:84|386:84|475:36,2,160,0|8|2,0:0|0:0|0:0,0:0:0:0:
431,227,159046,1,10,0:0:0:0:
315,324,159526,2,0,L|154:333,2,160,2|10|12,0:0|0:0|0:0,0:0:0:0:
321,181,164326,6,0,L|315:278,1,80,2|2,0:0|0:0,0:0:0:0:
132,112,167686,5,0,0:0:0:0:
132,112,167926,1,8,0:0:0:0:
132,112,168166,1,12,0:0:0:0:
211,122,171766,6,0,L|210:161,2,40,0|8|8,0:0|0:0|0:0,0:0:0:0:
416,92,175726,6,0,L|409:141,1,40,0|8,0:0|0:0,0:0:0:0:
213,215,183526,6,0,L|286:207,2,60.0000022888184,4|0|0,0:0|0:0|0:0,0:0:0:0:
350,118,183886,2,0,L|409:130,2,60.0000022888184,2|0|0,0:0|0:0|0:0,0:0:0:0:
446,246,184246,2,0,L|448:308,2,60.0000022888184,6|0|0,0:0|0:0|0:0,0:0:0:0:
324,319,184606,2,0,L|326:379,2,60.0000022888184,2|0|0,0:0|0:0|0:0,0:0:0:0:
182,341,184966,1,4,0:0:0:0:
182,341,185206,1,2,0:0:0:0:
182,341,185446,6,0,P|130:351|68:203,1,240.000009155274,2|8,0:0|0:0,0:0:0:0:
250,40,186166,2,0,B|266:95|266:95|248:144|248:144|285:203|270:275,1,240.000009155274,6|2,0:0|0:0,0:0:0:0:
110,58,186886,2,0,L|114:125,2,60.0000022888184,8|0|2,0:0|0:0|0:0,0:0:0:0:
140,257,187366,1,6,0:0:0:0:
140,257,187606,1,6,0:0:0:0:
140,257,188206,6,0,B|191:210|191:210|246:196|294:239|294:239|346:206|346:135,1,300.000011444092,4|10,0:0|0:0,0:0:0:0:
270,37,189046,1,0,0:0:0:0:
270,37,189286,2,0,L|149:31,1,120.000004577637,2|0,0:0|0:0,0:0:0:0:
104,44,189646,6,0,P|79:73|94:115,1,80,2|2,0:0|0:0,0:0:0:0:
116,149,190006,2,0,L|163:143,1,40,10|8,0:0|0:0,0:0:0:0:
251,157,190246,6,0,P|277:212|261:284,1,120.000004577637,6|10,0:0|0:0,0:0:0:0:
236,332,190606,2,0,P|303:314|361:317,1,120.000004577637,10|0,0:0|0:0,0:0:0:0:
422,337,190966,1,10,0:0:0:0:
443,122,191206,6,0,L|453:182,2,60.0000022888184,0|0|10,0:0|0:0|0:0,0:0:0:0:
391,71,191566,1,0,0:0:0:0:
324,98,191686,6,0,P|252:118|183:108,1,120.000004577637,14|0,0:0|0:0,0:0:0:0:
180,182,192046,2,0,P|120:180|63:198,1,120.000004577637,14|0,0:0|0:0,0:0:0:0:
16,253,192406,1,2,0:0:0:0:
201,347,192646,6,0,L|334:338,1,120.000004577637,8|2,0:0|0:0,0:0:0:0:
389,360,193006,1,0,0:0:0:0:
444,314,193126,2,0,P|443:266|452:240,1,60.0000022888184,6|0,0:0|0:0,0:0:0:0:
342,234,193366,2,0,P|343:186|334:160,1,60.0000022888184,8|0,0:0|0:0,0:0:0:0:
501,176,193606,2,0,P|500:128|509:102,1,60.0000022888184,8|0,0:0|0:0,0:0:0:0:
403,97,193846,2,0,P|404:49|395:23,1,60.0000022888184,2|10,0:0|0:0,0:0:0:0:
330,18,194086,6,0,L|194:27,1,120.000004577637,2|0,0:0|0:0,0:0:0:0:
149,66,194446,1,2,0:0:0:0:
187,126,194566,2,0,L|335:136,2,120.000004577637,8|2|12,0:0|0:0|0:0,0:0:0:0:
93,232,195286,1,12,0:0:0:0:
202,339,195526,1,8,0:0:0:0:
372,324,195766,2,0,P|406:312|440:312,1,60.0000022888184,10|2,0:0|0:0,0:0:0:0:
490,255,196006,2,0,L|495:120,2,120.000004577637,6|14|10,0:0|0:0|0:0,0:0:0:0:
301,209,196726,1,10,0:0:0:0:
398,231,196966,6,0,L|395:84,1,120.000004577637,4|0,0:0|0:0,0:0:0:0:
445,58,197326,1,2,0:0:0:0:
445,58,197446,2,0,P|405:87|324:100,1,120.000004577637,8|2,0:0|0:0,0:0:0:0:
231,259,197926,2,0,P|192:225|117:214,1,120.000004577637,2|0,0:0|0:0,0:0:0:0:
54,219,198286,1,2,0:0:0:0:
54,219,198406,2,0,P|88:168|102:102,1,120.000004577637,8|2,0:0|0:0,0:0:0:0:
227,40,198886,6,0,L|353:32,1,120.000004577637,0|2,0:0|0:0,0:0:0:0:
450,133,199366,1,8,0:0:0:0:
373,254,199606,2,0,L|303:246,1,60.0000022888184,2|0,0:0|0:0,0:0:0:0:
251,283,199846,2,0,L|177:287,1,60.0000022888184
131,246,200086,2,0,L|51:243,1,60.0000022888184,10|0,0:0|0:0,0:0:0:0:
17,195,200326,1,8,0:0:0:0:
105,52,200566,2,0,L|178:60,1,60.0000022888184,2|0,0:0|0:0,0:0:0:0:
239,68,200806,5,12,0:0:0:0:
239,68,201046,1,12,0:0:0:0:
399,213,201766,1,12,0:0:0:0:
399,213,202006,2,0,L|404:287,1,60.0000022888184,12|8,0:0|0:0,0:0:0:0:
233,338,202246,1,8,0:0:0:0:
233,338,202486,2,0,P|234:269|79:264,1,240.000009155274,12|2,0:0|0:0,0:0:0:0:
119,101,203206,6,0,L|182:105,1,60.0000022888184,2|10,0:0|0:0,0:0:0:0:
226,185,203446,2,0,L|291:173,1,60.0000022888184,10|10,0:0|0:0,0:0:0:0:
351,240,203686,2,0,L|411:200,1,60.0000022888184,8|8,0:0|0:0,0:0:0:0:
494,223,203926,2,0,L|505:143,1,60.0000022888184,8|8,0:0|0:0,0:0:0:0:
420,51,204166,2,0,L|424:123,2,60.0000022888184,8|8|8,0:0|0:0|0:0,0:0:0:0:
97,25,204646,5,4,0:0:0:0:
256,192,204706,12,0,210406,0:0:0:0:
81,172,212326,6,0,B|97:99|188:102|222:166|222:166|261:105|339:103|382:161|382:161|424:62,1,480,2|8,0:0|0:0,0:0:0:0:
493,202,214006,6,0,L|498:258,1,40,0|2,0:0|0:0,0:0:0:0:
441,328,214246,2,0,B|392:237|392:237|355:299|277:303|233:246|233:246|204:313|114:324|92:252,1,480,2|8,0:0|0:0,0:0:0:0:
69,171,215926,6,0,L|67:87,1,60.0000022888184,0|0,0:0|0:0,0:0:0:0:
45,74,216166,2,0,P|101:96|167:87,1,120.000004577637,2|0,0:0|0:0,0:0:0:0:
225,141,216646,2,0,P|284:135|339:156,1,120.000004577637,8|0,0:0|0:0,0:0:0:0:
364,190,217006,2,0,L|353:313,1,120.000004577637,2|0,0:0|0:0,0:0:0:0:
347,351,217366,1,2,0:0:0:0:
265,330,217606,2,0,L|202:333,2,60.0000022888184,10|0|2,0:0|0:0|0:0,0:0:0:0:
187,222,218086,6,0,L|120:233,2,60.0000022888184,2|0|2,0:0|0:0|0:0,0:0:0:0:
98,120,218566,2,0,L|32:143,2,60.0000022888184,8|0|2,0:0|0:0|0:0,0:0:0:0:
206,47,219046,2,0,L|272:56,2,60.0000022888184,2|8|10,0:0|0:0|0:0,0:0:0:0:
303,170,219526,2,0,L|370:156,2,60.0000022888184,10|0|10,0:0|0:0|0:0,0:0:0:0:
472,168,220006,5,4,0:0:0:0:
472,168,220246,1,2,0:0:0:0:
472,168,220486,2,0,P|483:207|486:304,1,120.000004577637,10|0,0:0|0:0,0:0:0:0:
459,316,220846,2,0,L|335:338,2,120.000004577637,2|2|0,0:0|0:0|0:0,0:0:0:0:
498,331,221446,1,8,0:0:0:0:
498,331,221686,1,2,0:0:0:0:
298,257,221926,6,0,P|223:237|161:247,1,120.000004577637,2|0,0:0|0:0,0:0:0:0:
141,228,222286,1,0,0:0:0:0:
141,228,222406,2,0,L|131:161,1,60.0000022888184,8|0,0:0|0:0,0:0:0:0:
167,146,222646,2,0,L|167:74,1,60.0000022888184,2|0,0:0|0:0,0:0:0:0:
199,59,222886,2,0,P|255:41|326:52,1,120.000004577637,2|0,0:0|0:0,0:0:0:0:
469,157,223366,2,0,P|412:175|353:168,1,120.000004577637,10|2,0:0|0:0,0:0:0:0:
204,318,223846,6,0,P|260:300|331:311,1,120.000004577637,0|2,0:0|0:0,0:0:0:0:
360,318,224206,1,0,0:0:0:0:
360,318,224326,2,0,L|370:251,1,60.0000022888184,8|0,0:0|0:0,0:0:0:0:
408,243,224566,2,0,L|405:181,1,60.0000022888184,2|2,0:0|0:0,0:0:0:0:
439,159,224806,2,0,B|452:105|452:105|434:32,1,120.000004577637,0|2,0:0|0:0,0:0:0:0:
355,19,225286,2,0,L|227:27,1,120.000004577637,8|0,0:0|0:0,0:0:0:0:
193,29,225646,1,0,0:0:0:0:
193,29,225766,2,0,P|173:87|193:158,1,120.000004577637,4|2,0:0|0:0,0:0:0:0:
210,176,226126,5,2,0:0:0:0:
230,212,226246,1,8,0:0:0:0:
228,253,226366,1,2,0:0:0:0:
209,290,226486,1,0,0:0:0:0:
172,311,226606,1,2,0:0:0:0:
130,316,226726,2,0,L|55:323,2,60.0000022888184,0|0|2,0:0|0:0|0:0,0:0:0:0:
78,181,227206,6,0,B|86:143|86:143|69:48,2,120.000004577637,8|2|4,0:0|0:0|0:0,0:0:0:0:
257,151,229606,6,0,L|389:136,2,120.000004577637,2|2|8,0:0|0:0|0:0,0:0:0:0:
354,287,230566,5,2,0:0:0:0:
281,245,230806,1,2,0:0:0:0:
276,328,231046,2,0,B|260:263|193:252|193:252|165:304|70:299,1,240.000009155274,8|2,0:0|0:0,0:0:0:0:
449,207,232486,6,0,L|450:122,2,80.0000030517579,2|0|0,0:0|0:0|0:0,0:0:0:0:
353,243,232966,2,0,L|362:336,2,80.0000030517579,10|0|0,0:0|0:0|0:0,0:0:0:0:
281,175,233446,1,2,0:0:0:0:
96,108,235006,6,0,L|80:41,2,60.0000022888184,8|2|0,0:0|0:0|0:0,0:0:0:0:
82,150,235366,1,4,0:0:0:0:
82,150,235606,1,2,0:0:0:0:
152,219,238846,6,0,L|231:210,2,60.0000022888184,8|2|0,0:0|0:0|0:0,0:0:0:0:
109,199,239206,5,8,0:0:0:0:
109,199,239446,1,8,0:0:0:0:
377,42,240166,1,8,0:0:0:0:
377,42,240406,1,8,0:0:0:0:
328,347,241126,1,4,0:0:0:0:
