osu file format v14

[General]
AudioFilename: Yorushika - Dakara Bokuwa Ongaku wo Tomeda.mp3
AudioLeadIn: 0
PreviewTime: 62049
Countdown: 0
SampleSet: Soft
StackLeniency: 0.7
Mode: 0
LetterboxInBreaks: 0
WidescreenStoryboard: 0

[Editor]
Bookmarks: 127606,187137,220017,241497
DistanceSpacing: 6
BeatDivisor: 4
GridSize: 8
TimelineZoom: 1

[Metadata]
Title:Dakara Boku wa Ongaku o Yameta
TitleUnicode:だから僕は音楽を辞めた
Artist:Yorushika
ArtistUnicode:ヨルシカ
Creator:Awaken
Version:Dakara Boku wa, Ongaku o, Yameta
Source:
Tags:n-buna ナブナ suis スイ flask ponbot delis
BeatmapID:2012763
BeatmapSetID:961450

[Difficulty]
HPDrainRate:4.5
CircleSize:4.2
OverallDifficulty:9.5
ApproachRate:9.6
SliderMultiplier:1.6
SliderTickRate:1

[Events]
//Background and Video events
Video,0,"Video.avi"
0,0,"ymt.jpg",0,0
//Break Periods
2,76206,82681
2,160686,163321
2,164526,167161
2,176046,180601
2,210606,211801
//Storyboard Layer 0 (Background)
//Storyboard Layer 1 (Fail)
//Storyboard Layer 2 (Pass)
//Storyboard Layer 3 (Foreground)
//Storyboard Layer 4 (Overlay)
//Storyboard Sound Samples

[TimingPoints]
166,240,4,2,2,10,1,0
166,-100,4,2,2,10,0,0
1126,-100,4,2,2,30,0,0
13846,-133.333333333333,4,2,2,30,0,0
14566,-100,4,2,2,20,0,0
15046,-100,4,3,2,10,0,0
15526,-100,4,3,2,20,0,0
16006,-100,4,2,1,40,0,0
16486,-66.6666666666667,4,2,1,50,0,0
31486,-100,4,2,2,50,0,0
31846,-100,4,2,2,35,0,0
33226,-100,4,2,1,35,0,0
33406,-100,4,2,2,35,0,0
35146,-100,4,2,1,35,0,0
35326,-100,4,2,2,35,0,0
38986,-100,4,2,1,35,0,0
39106,-100,4,2,2,35,0,0
39526,-100,4,2,2,40,0,0
40906,-100,4,2,1,40,0,0
41026,-100,4,2,2,40,0,0
42826,-100,4,2,1,40,0,0
43366,-100,4,2,2,40,0,0
44746,-100,4,2,1,20,0,0
44866,-100,4,2,1,40,0,0
45286,-100,4,2,1,20,0,0
45766,-100,4,3,2,20,0,0
46246,-100,4,2,1,40,0,0
47206,-133.333333333333,4,2,2,40,0,0
48586,-133.333333333333,4,2,1,40,0,0
48706,-133.333333333333,4,2,2,40,0,0
50506,-133.333333333333,4,2,1,40,0,0
50626,-133.333333333333,4,2,2,40,0,0
52426,-133.333333333333,4,2,1,40,0,0
52546,-133.333333333333,4,2,2,40,0,0
54406,-100,4,2,1,50,0,0
58726,-133.333333333333,4,2,1,50,0,0
60646,-100,4,2,1,50,0,0
62566,-66.6666666666667,4,2,1,60,0,1
74086,-66.6666666666667,4,2,1,60,0,0
91006,-100,4,2,2,35,0,0
95146,-100,4,2,1,30,0,0
95266,-100,4,2,2,30,0,0
99466,-100,4,2,1,30,0,0
99586,-100,4,2,2,30,0,0
100426,-100,4,2,1,30,0,0
100546,-100,4,2,2,30,0,0
101386,-100,4,2,1,30,0,0
101506,-100,4,2,2,30,0,0
102346,-100,4,2,1,30,0,0
102466,-100,4,2,2,30,0,0
103306,-100,4,2,1,30,0,0
103426,-100,4,2,2,30,0,0
103606,-100,4,3,2,20,0,0
104146,-100,4,2,2,20,0,0
104266,-100,4,2,1,30,0,0
104386,-100,4,2,2,30,0,0
104446,-100,4,3,2,20,0,0
104506,-100,4,2,2,20,0,0
104626,-100,4,3,2,20,0,0
104806,-100,4,2,2,30,0,0
105226,-100,4,2,1,30,0,0
105346,-100,4,2,2,30,0,0
105766,-100,4,2,1,40,0,0
106726,-133.333333333333,4,2,2,40,0,0
108106,-133.333333333333,4,2,1,40,0,0
108226,-133.333333333333,4,2,2,40,0,0
110026,-133.333333333333,4,2,1,40,0,0
110126,-133.333333333333,4,2,2,40,0,0
110986,-133.333333333333,4,2,1,40,0,0
111106,-133.333333333333,4,2,2,40,0,0
111946,-133.333333333333,4,2,1,40,0,0
112066,-133.333333333333,4,2,2,40,0,0
112906,-133.333333333333,4,2,1,40,0,0
113026,-133.333333333333,4,2,2,40,0,0
113926,-100,4,2,1,50,0,0
122086,-66.6666666666667,4,2,1,50,0,0
124006,-66.6666666666667,4,2,1,60,0,1
137446,-100,4,2,1,60,0,0
140266,-100,4,2,2,60,0,0
140386,-100,4,2,1,60,0,0
141046,-200,4,2,1,60,0,0
141286,-100,4,2,1,60,0,0
141586,-100,4,2,1,5,0,0
141646,-95.2380952380952,4,2,1,60,0,0
141826,-95.2380952380952,4,2,1,5,0,0
141886,-90.9090909090909,4,2,1,60,0,0
142066,-90.9090909090909,4,2,1,5,0,0
142126,-86.9565217391304,4,2,1,60,0,0
142306,-86.9565217391304,4,2,1,5,0,0
142366,-83.3333333333333,4,2,1,60,0,0
142546,-83.3333333333333,4,2,1,5,0,0
142606,-83.3333333333333,4,2,1,60,0,0
142786,-83.3333333333333,4,2,1,5,0,0
142846,-80,4,2,1,60,0,0
143026,-80,4,2,1,5,0,0
143086,-76.9230769230769,4,2,1,60,0,0
143266,-76.9230769230769,4,2,1,5,0,0
143326,-74.0740740740741,4,2,1,60,0,0
143506,-74.0740740740741,4,2,1,5,0,0
143566,-71.4285714285714,4,2,1,60,0,0
143746,-71.4285714285714,4,2,1,5,0,0
143806,-68.9655172413793,4,2,1,60,0,0
143986,-68.9655172413793,4,2,1,5,0,0
144046,-55.5555555555556,4,2,1,60,0,0
144226,-55.5555555555556,4,2,1,5,0,0
144286,-52.6315789473684,4,2,1,60,0,0
144466,-52.6315789473684,4,2,1,5,0,0
144526,-50,4,2,1,60,0,0
144586,-50,4,2,1,5,0,0
144646,-50,4,2,1,60,0,0
145126,-100,4,2,1,60,0,0
147046,-100,4,2,1,60,0,0
148966,-80,4,2,1,60,0,0
152806,-133.333333333333,4,2,2,40,0,0
153226,-133.333333333333,4,2,1,40,0,0
153346,-133.333333333333,4,2,2,40,0,0
154186,-133.333333333333,4,2,1,40,0,0
154306,-133.333333333333,4,2,2,40,0,0
155146,-133.333333333333,4,2,1,40,0,0
155326,-133.333333333333,4,2,2,40,0,0
156106,-133.333333333333,4,2,1,40,0,0
156226,-133.333333333333,4,2,2,40,0,0
157066,-133.333333333333,4,2,1,40,0,0
157186,-133.333333333333,4,2,2,40,0,0
158026,-133.333333333333,4,2,1,40,0,0
158146,-133.333333333333,4,2,2,40,0,0
158986,-133.333333333333,4,2,1,40,0,0
159106,-133.333333333333,4,2,2,40,0,0
159946,-133.333333333333,4,2,1,40,0,0
160186,-133.333333333333,4,2,2,40,0,0
163786,-133.333333333333,4,2,1,30,0,0
163906,-133.333333333333,4,2,2,30,0,0
168166,-133.333333333333,4,2,2,25,0,0
171766,-133.333333333333,4,2,2,20,0,0
181246,-133.333333333333,4,2,2,10,0,0
181366,-133.333333333333,4,2,2,15,0,0
181486,-133.333333333333,4,2,2,20,0,0
181606,-400,4,2,1,20,0,0
181666,-400,4,2,1,5,0,0
183286,-400,4,2,1,60,0,0
183526,-100,4,2,1,60,0,0
187846,-100,4,2,2,60,0,0
189286,-200,4,2,1,40,0,0
189886,-200,4,2,1,60,0,0
190246,-100,4,2,1,60,0,0
190966,-200,4,2,1,60,0,0
191326,-200,4,2,1,30,0,0
191686,-66.6666666666667,4,2,1,60,0,0
193126,-66.6666666666667,4,2,1,60,0,1
203446,-66.6666666666667,4,2,1,40,0,1
203566,-66.6666666666667,4,2,1,45,0,1
203686,-66.6666666666667,4,2,1,50,0,1
203806,-66.6666666666667,4,2,1,55,0,1
203926,-66.6666666666667,4,2,1,60,0,1
204046,-66.6666666666667,4,2,1,65,0,1
204166,-66.6666666666667,4,2,1,70,0,1
204286,-66.6666666666667,4,2,1,75,0,1
204646,-66.6666666666667,4,2,1,80,0,0
210406,-66.6666666666667,4,2,1,60,0,0
212326,-66.6666666666667,4,2,1,60,0,0
213046,-100,4,2,1,60,0,0
213286,-100,4,2,1,60,0,0
214246,-66.6666666666667,4,2,1,60,0,0
214966,-100,4,2,1,60,0,0
215326,-66.6666666666667,4,2,1,60,0,0
215686,-100,4,2,1,60,0,0
220006,-66.6666666666667,4,2,1,60,0,0
231466,-100,4,2,2,60,0,0
231586,-100,4,2,1,60,0,0
235366,-66.6666666666667,4,2,1,60,0,0
239206,-66.6666666666667,4,2,1,80,0,0
240646,-66.6666666666667,4,2,1,60,0,0
241126,-400,4,2,2,70,0,0

[Colours]
Combo1 : 227,232,64
Combo2 : 0,236,153
Combo3 : 33,165,162
Combo4 : 241,63,85

[HitObjects]
309,158,166,5,8,0:0:0:0:
309,158,646,1,8,0:0:0:0:
424,93,1126,5,12,0:0:0:0:
482,171,1246,2,0,L|461:265,2,80,0|2|0,0:0|0:0|0:0,0:0:0:0:
354,263,1606,2,0,P|346:308|356:362,1,80,8|0,0:0|0:0,0:0:0:0:
205,358,1846,2,0,P|212:313|203:259,1,80,2|0,0:0|0:0,0:0:0:0:
138,59,2086,1,10,0:0:0:0:
138,59,2206,1,2,0:0:0:0:
250,137,2326,2,0,P|298:132|343:141,1,80
476,36,2566,2,0,P|436:43|379:33,1,80,10|0,0:0|0:0,0:0:0:0:
445,164,2806,6,0,L|454:268,1,80,2|0,0:0|0:0,0:0:0:0:
336,363,3046,1,8,0:0:0:0:
323,368,3286,2,0,P|276:373|231:366,1,80,2|0,0:0|0:0,0:0:0:0:
98,274,3526,2,0,P|145:269|190:276,1,80,10|2,0:0|0:0,0:0:0:0:
342,201,3766,2,0,P|295:206|250:199,1,80,2|0,0:0|0:0,0:0:0:0:
240,66,4006,1,8,0:0:0:0:
240,66,4126,1,2,0:0:0:0:
421,156,4246,2,0,P|431:218|421:266,1,80,2|0,0:0|0:0,0:0:0:0:
270,337,4486,6,0,P|260:275|270:227,1,80,10|0,0:0|0:0,0:0:0:0:
113,169,4726,2,0,P|123:133|123:80,1,80,2|0,0:0|0:0,0:0:0:0:
298,87,4966,1,8,0:0:0:0:
307,98,5206,6,0,L|408:78,1,80,2|2,0:0|0:0,0:0:0:0:
470,183,5446,2,0,L|391:198,1,80,10|0,0:0|0:0,0:0:0:0:
337,334,5686,2,0,L|438:314,1,80,2|2,0:0|0:0,0:0:0:0:
264,212,5926,1,10,0:0:0:0:
512,337,6166,1,2,0:0:0:0:
154,325,6406,1,8,0:0:0:0:
454,227,6646,2,0,P|468:192|475:149,1,80,2|0,0:0|0:0,0:0:0:0:
380,44,6886,5,10,0:0:0:0:
380,44,7006,1,2,0:0:0:0:
235,127,7126,1,0,0:0:0:0:
235,127,7246,1,0,0:0:0:0:
69,52,7366,2,0,P|82:94|86:141,1,80,10|0,0:0|0:0,0:0:0:0:
57,328,7606,2,0,P|69:284|88:249,1,80,2|0,0:0|0:0,0:0:0:0:
264,212,7846,1,10,0:0:0:0:
4,165,8086,1,2,0:0:0:0:
283,38,8326,5,8,0:0:0:0:
359,340,8566,1,2,0:0:0:0:
93,216,8806,1,10,0:0:0:0:
101,201,9046,6,0,L|182:189,1,80,2|2,0:0|0:0,0:0:0:0:
335,265,9286,2,0,P|350:295|359:356,1,80,10|0,0:0|0:0,0:0:0:0:
436,142,9526,2,0,P|431:104|436:59,1,80,2|0,0:0|0:0,0:0:0:0:
326,28,9766,1,10,0:0:0:0:
291,126,9886,1,2,0:0:0:0:
213,201,10006,1,0,0:0:0:0:
101,201,10126,1,2,0:0:0:0:
20,162,10246,6,0,P|45:209|52:251,1,80,10|0,0:0|0:0,0:0:0:0:
209,226,10486,2,0,P|207:273|192:323,1,80,2|0,0:0|0:0,0:0:0:0:
339,76,10726,1,8,0:0:0:0:
350,86,10966,6,0,L|343:187,1,80,2|2,0:0|0:0,0:0:0:0:
236,222,11206,2,0,L|243:319,1,80,10|0,0:0|0:0,0:0:0:0:
430,280,11446,2,0,L|423:370,1,80,2|0,0:0|0:0,0:0:0:0:
137,344,11686,1,10,0:0:0:0:
232,349,11806,1,2,0:0:0:0:
320,311,11926,1,0,0:0:0:0:
362,224,12046,1,2,0:0:0:0:
361,128,12166,6,0,B|347:91|353:39,1,80,10|2,0:0|0:0,0:0:0:0:
212,169,12406,2,0,P|177:181|123:187,1,80,2|0,0:0|0:0,0:0:0:0:
30,293,12646,1,8,0:0:0:0:
30,293,13126,6,0,L|117:290,1,80,10|2,0:0|0:0,0:0:0:0:
243,225,13366,2,0,L|248:125,1,80,2|2,0:0|0:0,0:0:0:0:
301,336,13606,2,0,L|388:333,2,80,10|2|2,0:0|0:0|0:0,0:0:0:0:
297,338,14566,5,2,0:0:0:0:
303,342,14686,1,2,0:0:0:0:
310,343,14806,1,2,0:0:0:0:
317,346,14926,1,0,0:0:0:0:
201,346,15046,5,2,0:0:0:0:
207,350,15166,1,2,0:0:0:0:
214,351,15286,1,10,0:0:0:0:
221,354,15406,1,8,0:0:0:0:
126,294,15526,5,8,0:0:0:0:
154,185,15646,1,0,0:0:0:0:
255,138,15766,1,8,0:0:0:0:
366,136,15886,1,0,0:0:0:0:
466,199,16006,5,8,0:0:0:0:
366,136,16126,1,0,0:0:0:0:
466,199,16246,1,8,0:0:0:0:
366,136,16366,1,8,0:0:0:0:
466,199,16486,6,0,B|479:268|479:268|462:332,1,120.000004577637,4|0,0:0|0:0,0:0:0:0:
226,363,16726,2,0,B|213:294|213:294|230:230,1,120.000004577637,2|0,0:0|0:0,0:0:0:0:
368,30,16966,2,0,L|377:161,1,120.000004577637,8|0,0:0|0:0,0:0:0:0:
311,297,17206,1,2,0:0:0:0:
466,199,17326,2,0,B|292:156|386:229|218:183,1,240.000009155274
95,343,17686,2,0,P|172:331|232:346,1,120.000004577637,2|0,0:0|0:0,0:0:0:0:
102,99,17926,2,0,P|73:171|30:216,1,120.000004577637,8|0,0:0|0:0,0:0:0:0:
275,226,18166,1,2,0:0:0:0:
221,39,18286,1,0,0:0:0:0:
275,226,18406,6,0,L|419:216,1,120.000004577637
161,139,18646,2,0,L|41:147,1,120.000004577637,2|0,0:0|0:0,0:0:0:0:
335,101,18886,2,0,P|393:66|426:15,1,120.000004577637,8|0,0:0|0:0,0:0:0:0:
161,139,19126,1,2,0:0:0:0:
316,266,19246,2,0,P|244:234|85:271,1,240.000009155274
427,163,19606,2,0,P|442:93|414:29,1,120.000004577637,2|0,0:0|0:0,0:0:0:0:
57,176,19846,5,10,0:0:0:0:
84,294,19966,1,2,0:0:0:0:
179,369,20086,1,0,0:0:0:0:
299,376,20206,1,0,0:0:0:0:
425,358,20326,6,0,P|444:296|441:235,1,120.000004577637
262,132,20566,2,0,P|243:194|246:255,1,120.000004577637,2|0,0:0|0:0,0:0:0:0:
53,356,20806,2,0,P|72:294|69:233,1,120.000004577637,8|0,0:0|0:0,0:0:0:0:
177,65,21046,1,2,0:0:0:0:
218,276,21166,2,0,B|162:236|162:236|177:66,1,240.000009155274,2|0,0:0|0:0,0:0:0:0:
432,183,21526,2,0,L|435:309,1,120.000004577637,2|0,0:0|0:0,0:0:0:0:
313,188,21766,2,0,L|315:68,1,120.000004577637,8|0,0:0|0:0,0:0:0:0:
424,334,22006,1,2,0:0:0:0:
313,188,22126,1,0,0:0:0:0:
455,101,22246,6,0,P|474:161|464:237,1,120.000004577637,2|0,0:0|0:0,0:0:0:0:
186,144,22486,1,0,0:0:0:0:
396,27,22606,2,0,P|462:16|522:43,1,120.000004577637,2|8,0:0|0:0,0:0:0:0:
209,344,22846,1,0,0:0:0:0:
267,96,22966,5,0,0:0:0:0:
336,298,23086,1,8,0:0:0:0:
144,243,23206,2,0,P|206:225|281:232,1,120.000004577637,2|0,0:0|0:0,0:0:0:0:
487,130,23446,2,0,P|425:136|363:117,1,120.000004577637,2|0,0:0|0:0,0:0:0:0:
136,98,23686,1,10,0:0:0:0:
136,98,23806,1,8,0:0:0:0:
30,358,23926,2,0,P|30:298|61:231,1,120.000004577637,2|0,0:0|0:0,0:0:0:0:
243,282,24166,6,0,P|301:303|376:307,1,120.000004577637,4|0,0:0|0:0,0:0:0:0:
375,160,24406,2,0,P|442:148|502:115,1,120.000004577637,2|0,0:0|0:0,0:0:0:0:
241,81,24646,2,0,P|176:89|113:125,1,120.000004577637,10|0,0:0|0:0,0:0:0:0:
155,313,24886,1,2,0:0:0:0:
390,259,25006,6,0,B|404:192|404:192|353:20,1,240.000009155274,2|0,0:0|0:0,0:0:0:0:
221,237,25366,2,0,L|211:361,1,120.000004577637,2|0,0:0|0:0,0:0:0:0:
77,243,25606,2,0,L|71:113,1,120.000004577637,8|0,0:0|0:0,0:0:0:0:
261,128,25846,1,0,0:0:0:0:
297,358,25966,1,0,0:0:0:0:
261,128,26086,6,0,P|341:127|401:147,1,120.000004577637,2|0,0:0|0:0,0:0:0:0:
188,278,26326,2,0,P|108:279|48:259,1,120.000004577637,2|0,0:0|0:0,0:0:0:0:
315,256,26566,2,0,P|330:338|324:399,1,120.000004577637,8|0,0:0|0:0,0:0:0:0:
329,57,26806,1,2,0:0:0:0:
178,156,26926,2,0,B|281:170|281:170|323:161|323:161|418:177,1,240.000009155274,2|0,0:0|0:0,0:0:0:0:
364,334,27286,2,0,L|236:356,1,120.000004577637,2|0,0:0|0:0,0:0:0:0:
3,166,27526,5,10,0:0:0:0:
131,78,27646,1,2,0:0:0:0:
108,314,27766,1,0,0:0:0:0:
131,78,27886,1,0,0:0:0:0:
179,243,28006,6,0,P|203:298|209:359,1,120.000004577637,2|0,0:0|0:0,0:0:0:0:
321,168,28246,2,0,P|331:103|368:46,1,120.000004577637,2|0,0:0|0:0,0:0:0:0:
500,304,28486,2,0,P|442:313|377:299,1,120.000004577637,8|0,0:0|0:0,0:0:0:0:
238,75,28726,1,2,0:0:0:0:
435,189,28846,2,0,B|353:164|353:164|286:220|188:198,1,240.000009155274,2|0,0:0|0:0,0:0:0:0:
315,37,29206,2,0,P|396:27|453:33,1,120.000004577637,2|0,0:0|0:0,0:0:0:0:
408,302,29446,2,0,P|327:312|270:306,1,120.000004577637,8|0,0:0|0:0,0:0:0:0:
165,91,29686,1,2,0:0:0:0:
165,91,29806,1,0,0:0:0:0:
318,203,29926,6,0,L|325:349,1,120.000004577637,2|0,0:0|0:0,0:0:0:0:
481,229,30166,1,0,0:0:0:0:
481,229,30286,1,0,0:0:0:0:
175,376,30406,2,0,P|151:329|150:268,1,100,10|0,0:0|0:0,0:0:0:0:
295,121,30646,1,0,0:0:0:0:
295,121,30766,1,8,0:0:0:0:
406,342,30886,2,0,P|332:354|258:338,1,120.000004577637,10|0,0:0|0:0,0:0:0:0:
368,152,31126,2,0,P|442:140|516:156,1,120.000004577637,10|0,0:0|0:0,0:0:0:0:
108,202,31366,2,0,L|95:144,1,60.0000022888184,14|0,0:0|0:0,0:0:0:0:
237,4,31486,5,8,0:0:0:0:
219,91,31606,1,8,0:0:0:0:
204,178,31726,1,0,0:0:0:0:
285,329,31846,6,0,L|278:250,1,80,10|0,0:0|0:0,0:0:0:0:
369,131,32086,2,0,L|361:211,1,80,2|0,0:0|0:0,0:0:0:0:
283,42,32326,2,0,P|208:27|113:68,1,160,10|0,0:0|0:0,0:0:0:0:
3,200,32686,1,0,0:0:0:0:
97,127,32806,2,0,P|116:161|123:200,1,80,2|2,0:0|0:0,0:0:0:0:
234,222,33046,2,0,P|224:283|204:314,1,80,2|0,0:0|0:0,0:0:0:0:
103,362,33286,1,10,0:0:0:0:
329,311,33526,1,2,0:0:0:0:
321,69,33766,6,0,B|298:123|298:123|326:243,1,160,8|2,0:0|0:0,0:0:0:0:
422,310,34126,1,0,0:0:0:0:
432,151,34246,2,0,L|421:337,1,160,10|0,0:0|0:0,0:0:0:0:
274,194,34606,1,0,0:0:0:0:
215,298,34726,2,0,P|252:313|292:312,1,80,10|2,0:0|0:0,0:0:0:0:
81,312,34966,2,0,P|93:350|120:380,1,80,2|0,0:0|0:0,0:0:0:0:
56,174,35206,1,10,0:0:0:0:
356,47,35446,1,2,0:0:0:0:
56,174,35686,6,0,B|108:188|148:160|148:160|214:175,1,160,8|2,0:0|0:0,0:0:0:0:
363,125,36046,1,2,0:0:0:0:
433,300,36166,2,0,L|254:311,1,160,10|0,0:0|0:0,0:0:0:0:
208,48,36526,1,2,0:0:0:0:
179,234,36646,2,0,P|163:194|161:142,1,80,10|2,0:0|0:0,0:0:0:0:
313,40,36886,1,2,0:0:0:0:
433,300,37006,2,0,L|273:309,1,160,2|2,0:0|0:0,0:0:0:0:
52,177,37366,2,0,B|117:147|117:147|203:164,1,160,2|0,0:0|0:0,0:0:0:0:
362,164,37726,5,2,0:0:0:0:
283,177,37846,1,2,0:0:0:0:
204,165,37966,1,2,0:0:0:0:
130,129,38086,1,10,0:0:0:0:
220,126,38206,1,2,0:0:0:0:
305,82,38326,1,2,0:0:0:0:
372,13,38446,1,2,0:0:0:0:
471,68,38566,6,0,P|485:114|476:162,1,80,10|0,0:0|0:0,0:0:0:0:
331,243,38806,2,0,L|232:234,1,80,2|0,0:0|0:0,0:0:0:0:
68,313,39046,1,8,0:0:0:0:
144,370,39166,1,0,0:0:0:0:
216,307,39286,1,2,0:0:0:0:
178,218,39406,1,10,0:0:0:0:
82,216,39526,6,0,B|57:178|57:178|68:54,1,160,12|0,0:0|0:0,0:0:0:0:
176,17,39886,1,0,0:0:0:0:
282,117,40006,2,0,L|276:295,1,160,10|2,0:0|0:0,0:0:0:0:
176,174,40366,1,0,0:0:0:0:
348,40,40486,2,0,P|401:33|445:34,1,80,10|2,0:0|0:0,0:0:0:0:
495,182,40726,2,0,L|486:272,1,80,2|2,0:0|0:0,0:0:0:0:
340,361,40966,2,0,L|334:273,1,80,8|0,0:0|0:0,0:0:0:0:
185,73,41206,2,0,L|179:162,1,80,2|0,0:0|0:0,0:0:0:0:
129,338,41446,6,0,P|58:347|75:275,1,160,8|2,0:0|0:0,0:0:0:0:
191,209,41806,1,0,0:0:0:0:
288,337,41926,2,0,L|301:235,1,80,10|2,0:0|0:0,0:0:0:0:
374,84,42166,2,0,L|374:164,1,80,2|0,0:0|0:0,0:0:0:0:
374,164,42346,1,0,0:0:0:0:
374,164,42406,1,10,0:0:0:0:
272,213,42526,1,2,0:0:0:0:
415,290,42646,1,0,0:0:0:0:
261,339,42766,5,2,0:0:0:0:
261,339,42886,2,0,L|179:345,1,80,10|0,0:0|0:0,0:0:0:0:
33,237,43126,2,0,L|130:239,1,80,2|0,0:0|0:0,0:0:0:0:
391,36,43366,5,2,0:0:0:0:
507,253,43606,5,2,0:0:0:0:
359,251,43726,1,8,0:0:0:0:
226,184,43846,1,10,0:0:0:0:
507,253,44086,5,2,0:0:0:0:
226,184,44326,1,10,0:0:0:0:
507,253,44566,5,2,0:0:0:0:
277,268,44686,2,0,P|334:253|368:231,1,80,2|8,0:0|0:0,0:0:0:0:
243,102,44926,1,2,0:0:0:0:
498,136,45046,2,0,P|458:128|422:110,1,80,2|0,0:0|0:0,0:0:0:0:
153,1,45286,5,0,0:0:0:0:
152,88,45406,1,2,0:0:0:0:
148,180,45526,1,2,0:0:0:0:
147,267,45646,1,2,0:0:0:0:
146,355,45766,5,8,0:0:0:0:
68,314,45886,1,10,0:0:0:0:
44,237,46006,1,10,0:0:0:0:
70,161,46126,1,8,0:0:0:0:
131,110,46246,5,8,0:0:0:0:
226,121,46366,1,0,0:0:0:0:
298,57,46486,1,8,0:0:0:0:
357,132,46606,1,0,0:0:0:0:
432,28,46726,5,8,0:0:0:0:
381,285,46846,1,8,0:0:0:0:
306,133,46966,1,8,0:0:0:0:
501,173,47086,5,0,0:0:0:0:
501,173,47146,1,0,0:0:0:0:
501,173,47206,2,0,B|444:147|401:169|401:169|351:153|351:153|316:173|262:169,1,240.000009155274,14|8,0:0|0:0,0:0:0:0:
45,338,47926,2,0,B|118:322|170:348|170:348|231:339|268:298,1,240.000009155274,2|0,0:0|0:0,0:0:0:0:
169,72,48646,2,0,P|146:129|174:200,1,120.000004577637,8|0,0:0|0:0,0:0:0:0:
400,205,49126,6,0,L|148:183,1,240.000009155274,10|8,0:0|0:0,0:0:0:0:
391,43,49846,1,0,0:0:0:0:
441,343,50086,1,10,0:0:0:0:
441,343,50326,1,0,0:0:0:0:
269,129,50566,1,10,0:0:0:0:
325,350,50806,1,0,0:0:0:0:
325,350,51046,6,0,P|286:303|121:318,1,240.000009155274,2|8,0:0|0:0,0:0:0:0:
26,118,51766,1,0,0:0:0:0:
181,52,52006,1,0,0:0:0:0:
181,52,52246,1,2,0:0:0:0:
335,270,52486,1,10,0:0:0:0:
345,27,52726,1,2,0:0:0:0:
345,27,52966,6,0,P|377:87|286:89,1,180.000006866455,2|0,0:0|0:0,0:0:0:0:
294,103,53446,1,10,0:0:0:0:
134,206,53686,2,0,P|201:175|196:264,1,180.000006866455,2|0,0:0|0:0,0:0:0:0:
211,255,54166,1,10,0:0:0:0:
337,235,54406,2,0,L|421:240,1,80,8|8,0:0|0:0,0:0:0:0:
512,164,54646,1,2,0:0:0:0:
512,164,54766,1,0,0:0:0:0:
376,142,54886,5,6,0:0:0:0:
414,349,55006,1,2,0:0:0:0:
376,142,55126,1,0,0:0:0:0:
414,349,55246,1,0,0:0:0:0:
271,125,55366,2,0,P|265:82|274:39,1,80,2|0,0:0|0:0,0:0:0:0:
146,174,55606,2,0,P|151:219|143:260,1,80,0|8,0:0|0:0,0:0:0:0:
91,79,55846,2,0,P|140:66|185:68,1,80,10|0,0:0|0:0,0:0:0:0:
317,215,56086,2,0,P|277:220|238:212,1,80,10|0,0:0|0:0,0:0:0:0:
41,323,56326,6,0,P|88:323|133:334,2,80,10|0|2,0:0|0:0|0:0,0:0:0:0:
147,174,56686,1,0,0:0:0:0:
346,308,56806,5,2,0:0:0:0:
120,329,56926,1,0,0:0:0:0:
346,308,57046,1,2,0:0:0:0:
226,231,57166,1,2,0:0:0:0:
418,356,57286,2,0,P|428:318|420:269,1,80,8|0,0:0|0:0,0:0:0:0:
231,153,57526,2,0,P|220:190|229:240,1,80,10|10,0:0|0:0,0:0:0:0:
466,133,57766,2,0,P|418:107|346:115,1,120,10|0,0:0|0:0,0:0:0:0:
324,128,58006,1,0,0:0:0:0:
138,219,58126,1,10,0:0:0:0:
216,43,58246,6,0,L|224:134,1,80,8|0,0:0|0:0,0:0:0:0:
328,227,58486,2,0,L|316:325,1,80,2|0,0:0|0:0,0:0:0:0:
251,356,58666,1,0,0:0:0:0:
251,356,58726,2,0,B|215:323|215:323|217:242,1,120.000004577637,14|0,0:0|0:0,0:0:0:0:
162,32,59086,1,10,0:0:0:0:
138,219,59206,2,0,P|143:176|138:141,1,60.0000022888184,8|0,0:0|0:0,0:0:0:0:
44,56,59446,6,0,B|-2:84|-3:132|-3:132|27:148|42:183|42:183|32:218|35:264,1,240.000009155274,6|0,0:0|0:0,0:0:0:0:
133,157,60046,1,0,0:0:0:0:
162,32,60166,2,0,L|166:92,2,40.000001525879,10|0|0,0:0|0:0|0:0,0:0:0:0:
264,174,60406,2,0,L|257:228,2,40.000001525879,2|0|0,0:0|0:0|0:0,0:0:0:0:
99,323,60646,6,0,L|200:305,1,80,14|0,0:0|0:0,0:0:0:0:
280,66,60886,1,0,0:0:0:0:
382,258,61006,2,0,L|281:240,1,80,10|0,0:0|0:0,0:0:0:0:
94,138,61246,1,0,0:0:0:0:
231,344,61366,6,0,B|217:296|217:296|227:252|227:252|213:216|223:157,1,160,14|0,0:0|0:0,0:0:0:0:
413,229,61726,2,0,L|397:327,1,80,2|12,0:0|0:0,0:0:0:0:
340,149,61966,1,0,0:0:0:0:
409,51,62086,2,0,P|447:42|487:46,1,80,2|0,0:0|0:0,0:0:0:0:
261,91,62326,2,0,P|201:98|161:88,1,80,10|0,0:0|0:0,0:0:0:0:
66,32,62506,5,0,0:0:0:0:
66,32,62566,2,0,P|53:97|71:155,1,120.000004577637,6|0,0:0|0:0,0:0:0:0:
42,363,62806,1,0,0:0:0:0:
229,311,62926,2,0,B|247:247|247:247|237:186,1,120.000004577637,10|8,0:0|0:0,0:0:0:0:
184,61,63166,1,2,0:0:0:0:
334,190,63286,1,2,0:0:0:0:
126,248,63406,1,0,0:0:0:0:
270,112,63526,6,0,P|351:93|393:104,1,120.000004577637,2|0,0:0|0:0,0:0:0:0:
470,283,63766,1,0,0:0:0:0:
225,365,63886,2,0,B|206:308|206:308|206:232,1,120.000004577637,10|8,0:0|0:0,0:0:0:0:
310,28,64126,1,2,0:0:0:0:
396,128,64246,2,0,L|380:247,1,120.000004577637,2|0,0:0|0:0,0:0:0:0:
380,246,64426,1,0,0:0:0:0:
380,246,64486,1,6,0:0:0:0:
246,134,64606,5,2,0:0:0:0:
396,334,64726,1,0,0:0:0:0:
144,336,64846,1,0,0:0:0:0:
296,197,64966,2,0,B|278:135|278:135|284:62,1,120.000004577637,8|0,0:0|0:0,0:0:0:0:
140,219,65206,2,0,B|154:279|154:279|142:349,1,120.000004577637,2|10,0:0|0:0,0:0:0:0:
298,297,65446,5,0,0:0:0:0:
195,142,65566,1,0,0:0:0:0:
195,142,65626,1,0,0:0:0:0:
195,142,65686,1,2,0:0:0:0:
430,94,65806,1,0,0:0:0:0:
298,297,65926,2,0,P|357:278|415:277,1,120.000004577637
195,142,66166,2,0,P|141:151|76:130,1,120.000004577637,2|2,0:0|0:0,0:0:0:0:
79,132,66346,1,0,0:0:0:0:
79,132,66406,5,2,0:0:0:0:
264,76,66526,1,2,0:0:0:0:
180,253,66646,1,2,0:0:0:0:
341,349,66766,1,8,0:0:0:0:
238,162,66886,1,8,0:0:0:0:
433,263,67006,1,2,0:0:0:0:
155,299,67126,1,2,0:0:0:0:
396,131,67246,1,10,0:0:0:0:
175,48,67366,6,0,B|249:43|249:43|290:63|290:63|340:28|420:44,1,240.000009155274,2|2,0:0|0:0,0:0:0:0:
249,237,67726,1,2,0:0:0:0:
249,237,67846,2,0,B|175:232|175:232|134:252|134:252|84:217|18:230,1,240.000009155274,10|10,0:0|0:0,0:0:0:0:
360,137,68206,1,0,0:0:0:0:
360,137,68326,2,0,P|382:210|368:388,1,240.000009155274,14|14,0:0|0:0,0:0:0:0:
43,281,68686,1,0,0:0:0:0:
43,281,68806,2,0,P|21:208|35:30,1,240.000009155274,14|10,0:0|0:0,0:0:0:0:
340,7,69166,1,4,0:0:0:0:
340,7,69286,2,0,P|362:80|348:258,1,240.000009155274,10|14,0:0|0:0,0:0:0:0:
207,367,69646,5,0,0:0:0:0:
180,50,69766,1,10,0:0:0:0:
402,294,69886,1,4,0:0:0:0:
86,218,70006,1,10,0:0:0:0:
368,103,70126,1,0,0:0:0:0:
207,367,70246,6,0,B|191:322|191:322|213:286|213:286|199:242|199:242|220:175|194:118,1,240.000009155274,12|0,0:0|0:0,0:0:0:0:
434,231,70606,2,0,L|423:355,1,120.000004577637,10|8,0:0|0:0,0:0:0:0:
203,253,70846,1,0,0:0:0:0:
322,131,70966,2,0,L|318:11,1,120.000004577637,2|2,0:0|0:0,0:0:0:0:
283,301,71206,6,0,P|215:346|116:243,1,240.000009155274,2|0,0:0|0:0,0:0:0:0:
170,20,71566,2,0,P|196:81|180:146,1,120.000004577637,2|8,0:0|0:0,0:0:0:0:
30,257,71806,1,0,0:0:0:0:
97,88,71926,1,2,0:0:0:0:
203,253,72046,1,0,0:0:0:0:
27,153,72166,2,0,P|4:91|23:30,1,120.000004577637,2|0,0:0|0:0,0:0:0:0:
304,11,72406,2,0,P|327:73|308:134,1,120.000004577637,2|0,0:0|0:0,0:0:0:0:
113,369,72646,2,0,L|123:239,1,120.000004577637,8|0,0:0|0:0,0:0:0:0:
209,31,72886,2,0,L|199:150,1,120.000004577637,2|10,0:0|0:0,0:0:0:0:
319,282,73126,5,0,0:0:0:0:
199,150,73246,1,0,0:0:0:0:
199,150,73306,1,0,0:0:0:0:
199,150,73366,1,2,0:0:0:0:
113,369,73486,1,8,0:0:0:0:
319,282,73606,5,8,0:0:0:0:
69,256,73726,1,0,0:0:0:0:
69,256,73786,1,0,0:0:0:0:
69,256,73846,2,0,L|145:246,1,60.0000022888184,10|0,0:0|0:0,0:0:0:0:
317,73,73966,2,0,L|247:62,1,60.0000022888184,10|0,0:0|0:0,0:0:0:0:
84,102,74086,6,0,B|125:126|134:151|134:151|175:143|190:176|190:176|255:146|319:159,1,240.000009155274,12|12,0:0|0:0,0:0:0:0:
491,271,75046,2,0,B|450:295|441:320|441:320|400:312|385:345|385:345|320:315|256:328,1,240.000009155274,12|4,0:0|0:0,0:0:0:0:
368,206,75406,1,8,0:0:0:0:
368,206,75526,1,8,0:0:0:0:
90,331,75766,1,2,0:0:0:0:
467,18,76006,5,4,0:0:0:0:
301,313,83206,5,0,0:0:0:0:
137,224,83326,1,8,0:0:0:0:
268,101,83446,1,8,0:0:0:0:
268,101,83686,6,0,P|212:75|135:76,1,120.000004577637,4|0,0:0|0:0,0:0:0:0:
137,224,83926,2,0,P|76:227|10:269,1,120.000004577637,2|0,0:0|0:0,0:0:0:0:
301,313,84166,2,0,P|367:310|429:269,1,120.000004577637,8|0,0:0|0:0,0:0:0:0:
357,71,84406,1,0,0:0:0:0:
121,125,84526,6,0,B|107:192|107:192|158:364,1,240.000009155274,2|0,0:0|0:0,0:0:0:0:
291,147,84886,2,0,L|301:23,1,120.000004577637,2|0,0:0|0:0,0:0:0:0:
435,141,85126,2,0,L|441:271,1,120.000004577637,8|0,0:0|0:0,0:0:0:0:
251,256,85366,1,2,0:0:0:0:
215,26,85486,1,0,0:0:0:0:
251,256,85606,6,0,P|171:257|111:237,1,120.000004577637
324,106,85846,2,0,P|404:105|464:125,1,120.000004577637,2|0,0:0|0:0,0:0:0:0:
197,128,86086,2,0,P|182:46|188:-15,1,120.000004577637,8|0,0:0|0:0,0:0:0:0:
183,327,86326,1,0,0:0:0:0:
334,228,86446,2,0,B|231:214|231:214|189:223|189:223|94:207,1,240.000009155274,2|0,0:0|0:0,0:0:0:0:
148,50,86806,2,0,L|276:28,1,120.000004577637,2|0,0:0|0:0,0:0:0:0:
509,218,87046,5,10,0:0:0:0:
381,306,87166,1,0,0:0:0:0:
404,70,87286,1,2,0:0:0:0:
381,306,87406,1,0,0:0:0:0:
333,141,87526,6,0,P|310:66|309:4,1,120.000004577637,4|0,0:0|0:0,0:0:0:0:
191,216,87766,2,0,P|176:280|144:338,1,120.000004577637,2|0,0:0|0:0,0:0:0:0:
12,80,88006,2,0,P|89:68|159:87,1,120.000004577637,8|0,0:0|0:0,0:0:0:0:
274,309,88246,1,0,0:0:0:0:
77,195,88366,2,0,B|159:220|159:220|226:164|324:186,1,240.000009155274,2|0,0:0|0:0,0:0:0:0:
197,347,88726,2,0,P|116:357|59:351,1,120.000004577637,2|0,0:0|0:0,0:0:0:0:
104,82,88966,6,0,P|185:72|242:78,1,120.000004577637,10|0,0:0|0:0,0:0:0:0:
347,293,89206,1,2,0:0:0:0:
347,293,89326,1,0,0:0:0:0:
194,181,89446,6,0,L|187:35,1,120.000004577637,2|0,0:0|0:0,0:0:0:0:
31,155,89686,1,2,0:0:0:0:
31,155,89806,1,0,0:0:0:0:
337,8,89926,2,0,P|361:55|362:116,1,100,10|0,0:0|0:0,0:0:0:0:
217,263,90166,1,10,0:0:0:0:
217,263,90286,1,8,0:0:0:0:
106,42,90406,2,0,P|180:30|254:46,1,120.000004577637,10|0,0:0|0:0,0:0:0:0:
148,214,90646,2,0,P|74:226|0:210,1,120.000004577637,10|0,0:0|0:0,0:0:0:0:
314,360,90886,2,0,L|391:354,1,60.0000022888184,12|0,0:0|0:0,0:0:0:0:
390,235,91006,5,8,0:0:0:0:
292,268,91126,1,8,0:0:0:0:
194,294,91246,1,8,0:0:0:0:
55,212,91366,6,0,L|47:123,1,80,12|0,0:0|0:0,0:0:0:0:
210,117,91606,2,0,L|200:209,1,80,2|0,0:0|0:0,0:0:0:0:
269,346,91846,2,0,P|344:361|439:320,1,160,8|0,0:0|0:0,0:0:0:0:
509,184,92206,1,0,0:0:0:0:
384,218,92326,2,0,P|365:184|358:145,1,80,10|2,0:0|0:0,0:0:0:0:
225,124,92566,2,0,P|235:63|255:32,1,80,2|0,0:0|0:0,0:0:0:0:
105,166,92806,1,8,0:0:0:0:
384,218,93046,1,2,0:0:0:0:
191,315,93286,6,0,B|214:261|214:261|186:141,1,160,8|0,0:0|0:0,0:0:0:0:
90,74,93646,1,0,0:0:0:0:
72,248,93766,2,0,L|79:142,1,80,10|2,0:0|0:0,0:0:0:0:
218,0,94006,2,0,L|212:79,1,80,2|0,0:0|0:0,0:0:0:0:
322,199,94246,1,8,0:0:0:0:
365,290,94366,1,0,0:0:0:0:
303,367,94486,1,2,0:0:0:0:
213,326,94606,1,2,0:0:0:0:
225,231,94726,1,8,0:0:0:0:
391,379,94966,1,2,0:0:0:0:
456,210,95206,6,0,B|404:196|364:224|364:224|298:209,1,160,8|0,0:0|0:0,0:0:0:0:
149,259,95566,1,2,0:0:0:0:
293,75,95686,2,0,L|196:61,1,80,8|2,0:0|0:0,0:0:0:0:
204,51,96046,1,2,0:0:0:0:
333,150,96166,2,0,P|349:190|351:242,1,80,8|0,0:0|0:0,0:0:0:0:
128,292,96406,2,0,P|112:252|110:200,1,80,2|0,0:0|0:0,0:0:0:0:
204,51,96646,2,0,L|194:151,1,80,8|0,0:0|0:0,0:0:0:0:
254,356,96886,2,0,L|262:277,1,80,2|0,0:0|0:0,0:0:0:0:
437,72,97126,5,4,0:0:0:0:
352,94,98566,2,0,L|272:84,1,80,2|0,0:0|0:0,0:0:0:0:
449,69,98806,2,0,L|508:2,1,80,2|0,0:0|0:0,0:0:0:0:
430,168,99046,6,0,B|455:206|455:206|444:330,1,160,14|0,0:0|0:0,0:0:0:0:
336,367,99406,1,0,0:0:0:0:
230,267,99526,2,0,L|237:169,1,80,8|0,0:0|0:0,0:0:0:0:
134,252,99766,1,2,0:0:0:0:
174,357,99886,1,0,0:0:0:0:
79,341,100006,6,0,P|26:348|-18:347,1,80,10|2,0:0|0:0,0:0:0:0:
3,200,100246,1,2,0:0:0:0:
3,200,100366,1,0,0:0:0:0:
98,72,100486,2,0,L|104:160,1,80,8|0,0:0|0:0,0:0:0:0:
257,217,100726,2,0,L|263:128,1,80,2|0,0:0|0:0,0:0:0:0:
383,46,100966,6,0,P|454:37|437:109,1,160,8|0,0:0|0:0,0:0:0:0:
343,160,101326,1,2,0:0:0:0:
224,47,101446,2,0,L|211:149,1,80,8|0,0:0|0:0,0:0:0:0:
138,300,101686,2,0,L|138:220,1,80
138,220,101866,1,0,0:0:0:0:
138,220,101926,1,10,0:0:0:0:
239,170,102046,1,2,0:0:0:0:
80,115,102166,1,0,0:0:0:0:
256,57,102286,1,2,0:0:0:0:
370,208,102406,6,0,L|456:219,2,80,8|2|2,0:0|0:0|0:0,0:0:0:0:
239,170,102766,1,0,0:0:0:0:
155,298,102886,1,8,0:0:0:0:
428,260,103126,5,10,0:0:0:0:
287,253,103246,1,8,0:0:0:0:
155,298,103366,1,8,0:0:0:0:
428,260,103606,5,10,0:0:0:0:
155,298,103846,1,12,0:0:0:0:
428,260,104086,5,8,0:0:0:0:
234,329,104206,2,0,P|293:344|329:340,1,80,2|8,0:0|0:0,0:0:0:0:
416,100,104446,1,0,0:0:0:0:
303,168,104566,2,0,P|288:223|296:259,1,80,2|0,0:0|0:0,0:0:0:0:
428,260,104806,6,0,L|416:95,1,160,14|0,0:0|0:0,0:0:0:0:
416,20,105166,1,0,0:0:0:0:
416,20,105286,1,10,0:0:0:0:
488,57,105406,1,10,0:0:0:0:
512,134,105526,1,10,0:0:0:0:
486,210,105646,1,8,0:0:0:0:
425,261,105766,5,8,0:0:0:0:
330,250,105886,1,0,0:0:0:0:
258,314,106006,1,8,0:0:0:0:
199,239,106126,1,0,0:0:0:0:
124,343,106246,5,8,0:0:0:0:
175,86,106366,1,8,0:0:0:0:
250,238,106486,1,8,0:0:0:0:
55,198,106606,5,0,0:0:0:0:
55,198,106666,1,0,0:0:0:0:
55,198,106726,2,0,B|112:224|155:202|155:202|205:218|205:218|240:198|294:202,1,240.000009155274,6|8,0:0|0:0,0:0:0:0:
463,342,107446,2,0,B|403:183|506:268|439:85,1,240.000009155274,2|0,0:0|0:0,0:0:0:0:
298,42,108166,1,8,0:0:0:0:
188,223,108406,2,0,P|147:257|126:261,1,60.0000022888184,0|2,0:0|0:0,0:0:0:0:
112,179,108646,6,0,L|363:200,1,240.000009155274,4|10,0:0|0:0,0:0:0:0:
45,135,109366,2,0,P|44:75|68:21,1,120.000004577637,2|0,0:0|0:0,0:0:0:0:
65,335,109846,1,0,0:0:0:0:
258,317,110086,2,0,P|281:249|266:185,1,120.000004577637,10|0,0:0|0:0,0:0:0:0:
187,34,110566,6,0,P|226:81|391:66,1,240.000009155274,2|8,0:0|0:0,0:0:0:0:
491,239,111286,2,0,P|449:253|405:323,1,120.000004577637,2|0,0:0|0:0,0:0:0:0:
259,318,111766,1,0,0:0:0:0:
176,54,112006,2,0,P|186:107|174:194,1,120.000004577637,10|2,0:0|0:0,0:0:0:0:
126,341,112486,6,0,P|94:281|185:279,1,180.000006866455,2|0,0:0|0:0,0:0:0:0:
177,265,112966,1,10,0:0:0:0:
306,121,113086,1,2,0:0:0:0:
332,338,113206,1,0,0:0:0:0:
283,212,113326,1,0,0:0:0:0:
253,304,113446,6,0,P|246:334|243:364,1,60.0000022888184,2|0,0:0|0:0,0:0:0:0:
401,137,113686,2,0,P|401:107|397:78,1,60.0000022888184,2|0,0:0|0:0,0:0:0:0:
175,149,113926,6,0,L|91:144,1,80,10|8,0:0|0:0,0:0:0:0:
14,284,114166,1,8,0:0:0:0:
14,284,114286,1,0,0:0:0:0:
141,235,114406,5,6,0:0:0:0:
121,50,114526,1,2,0:0:0:0:
141,235,114646,1,2,0:0:0:0:
121,50,114766,1,0,0:0:0:0:
241,259,114886,2,0,P|247:307|238:345,1,80,10|0,0:0|0:0,0:0:0:0:
367,204,115126,2,0,P|359:161|370:118,1,80,2|10,0:0|0:0,0:0:0:0:
344,302,115366,2,0,P|390:304|423:291,1,80,10|0,0:0|0:0,0:0:0:0:
268,163,115606,2,0,P|228:156|184:165,1,80,2|0,0:0|0:0,0:0:0:0:
479,82,115846,6,0,L|468:174,2,80,10|0|2,0:0|0:0|0:0,0:0:0:0:
314,58,116206,1,0,0:0:0:0:
166,76,116326,5,2,0:0:0:0:
397,27,116446,1,8,0:0:0:0:
166,76,116566,1,10,0:0:0:0:
325,147,116686,1,2,0:0:0:0:
93,36,116806,2,0,P|83:74|94:125,1,80,8|0,0:0|0:0,0:0:0:0:
319,224,117046,2,0,P|330:187|321:137,1,80,2|10,0:0|0:0,0:0:0:0:
64,264,117286,2,0,P|112:290|230:266,1,160,2|2,0:0|0:0,0:0:0:0:
254,107,117646,1,0,0:0:0:0:
345,326,117766,2,0,L|360:214,1,80,8|0,0:0|0:0,0:0:0:0:
264,30,118006,6,0,P|251:78|262:128,1,80,2|0,0:0|0:0,0:0:0:0:
278,190,118186,1,0,0:0:0:0:
278,190,118246,2,0,B|266:261|266:261|274:293|274:293|270:373,1,160,4|0,0:0|0:0,0:0:0:0:
421,278,118606,1,0,0:0:0:0:
399,129,118726,2,0,L|389:41,1,80,8|0,0:0|0:0,0:0:0:0:
248,7,118966,2,0,L|238:86,1,80,2|0,0:0|0:0,0:0:0:0:
41,158,119206,6,0,B|111:173|153:139|153:139|201:168,2,160
184,348,119806,2,0,L|196:258,2,80,10|2|8,0:0|0:0|0:0,0:0:0:0:
221,81,120166,5,4,0:0:0:0:
333,348,120406,1,2,0:0:0:0:
88,308,120646,1,8,0:0:0:0:
393,40,120886,1,2,0:0:0:0:
240,366,121126,5,0,0:0:0:0:
282,6,121366,1,2,0:0:0:0:
487,322,121606,1,8,0:0:0:0:
140,178,121846,1,10,0:0:0:0:
491,75,122086,5,14,0:0:0:0:
240,28,122206,1,2,0:0:0:0:
142,153,123046,5,10,0:0:0:0:
392,111,123166,1,10,0:0:0:0:
147,244,123406,5,10,0:0:0:0:
397,202,123526,1,10,0:0:0:0:
150,336,123766,5,10,0:0:0:0:
400,294,123886,1,10,0:0:0:0:
452,372,124006,6,0,P|394:384|339:364,1,120.000004577637,6|0,0:0|0:0,0:0:0:0:
493,207,124246,1,0,0:0:0:0:
181,100,124366,2,0,P|251:85|312:106,1,120.000004577637,10|8,0:0|0:0,0:0:0:0:
400,294,124606,1,2,0:0:0:0:
242,182,124726,1,2,0:0:0:0:
399,86,124846,1,0,0:0:0:0:
242,272,124966,6,0,P|161:291|119:280,1,120.000004577637,2|0,0:0|0:0,0:0:0:0:
42,101,125206,1,0,0:0:0:0:
287,19,125326,2,0,L|306:152,1,120.000004577637,10|8,0:0|0:0,0:0:0:0:
202,356,125566,1,2,0:0:0:0:
116,256,125686,2,0,L|132:137,1,120.000004577637
132,138,125866,1,0,0:0:0:0:
132,138,125926,1,6,0:0:0:0:
266,250,126046,5,2,0:0:0:0:
42,101,126166,1,0,0:0:0:0:
330,31,126286,1,0,0:0:0:0:
221,151,126406,2,0,B|212:209|212:209|233:286,1,120.000004577637,8|0,0:0|0:0,0:0:0:0:
384,336,126646,2,0,B|393:278|393:278|372:201,1,120.000004577637,2|10,0:0|0:0,0:0:0:0:
330,31,126886,5,0,0:0:0:0:
194,164,127006,1,0,0:0:0:0:
194,164,127066,1,0,0:0:0:0:
194,164,127126,1,2,0:0:0:0:
447,69,127246,1,0,0:0:0:0:
430,230,127366,2,0,P|374:250|301:222,1,120.000004577637,8|0,0:0|0:0,0:0:0:0:
129,75,127606,2,0,P|185:55|258:83,1,120.000004577637,2|0,0:0|0:0,0:0:0:0:
240,321,127846,5,2,0:0:0:0:
136,201,127966,1,2,0:0:0:0:
332,131,128086,1,2,0:0:0:0:
171,35,128206,1,8,0:0:0:0:
274,222,128326,1,10,0:0:0:0:
79,121,128446,1,0,0:0:0:0:
356,85,128566,1,2,0:0:0:0:
116,253,128686,1,2,0:0:0:0:
372,317,128806,6,0,B|382:268|382:268|366:225|366:225|382:151|355:84,1,240.000009155274,2|2,0:0|0:0,0:0:0:0:
240,191,129166,2,0,L|232:319,1,120.000004577637,2|10,0:0|0:0,0:0:0:0:
355,84,129406,1,0,0:0:0:0:
97,61,129526,2,0,B|86:129|86:129|97:180,1,120.000004577637,2|0,0:0|0:0,0:0:0:0:
260,341,129766,2,0,P|328:360|438:241,1,240.000009155274,12|12,0:0|0:0,0:0:0:0:
280,30,130126,2,0,P|271:112|297:157,1,120.000004577637,0|10,0:0|0:0,0:0:0:0:
456,113,130366,1,2,0:0:0:0:
246,241,130486,1,8,0:0:0:0:
456,113,130606,1,4,0:0:0:0:
198,112,130726,6,0,B|149:68|101:83|101:83|83:153|16:194,1,240.000009155274,10|8,0:0|0:0,0:0:0:0:
261,341,131086,1,4,0:0:0:0:
316,64,131206,1,8,0:0:0:0:
136,259,131326,1,2,0:0:0:0:
464,229,131446,1,14,0:0:0:0:
231,18,131566,1,0,0:0:0:0:
261,341,131686,6,0,B|260:309|283:278|283:278|269:252|285:219|285:219|251:162|283:98,1,240.000009155274,12|0,0:0|0:0,0:0:0:0:
29,37,132046,2,0,P|46:92|34:176,1,120.000004577637,2|8,0:0|0:0,0:0:0:0:
276,112,132286,1,0,0:0:0:0:
135,258,132406,2,0,P|121:311|131:378,1,120.000004577637,2|0,0:0|0:0,0:0:0:0:
196,70,132646,6,0,P|264:25|363:128,1,240.000009155274,2|0,0:0|0:0,0:0:0:0:
281,371,133006,2,0,P|256:314|271:245,1,120.000004577637,2|8,0:0|0:0,0:0:0:0:
477,126,133246,1,2,0:0:0:0:
354,306,133366,1,2,0:0:0:0:
276,112,133486,1,0,0:0:0:0:
424,241,133606,2,0,P|438:316|428:364,1,120.000004577637,2|0,0:0|0:0,0:0:0:0:
197,358,133846,2,0,P|183:283|193:235,1,120.000004577637,2|0,0:0|0:0,0:0:0:0:
399,15,134086,2,0,L|389:145,1,120.000004577637,8|0,0:0|0:0,0:0:0:0:
303,353,134326,2,0,L|313:234,1,120.000004577637,2|10,0:0|0:0,0:0:0:0:
193,102,134566,5,0,0:0:0:0:
313,234,134686,1,0,0:0:0:0:
313,234,134746,1,0,0:0:0:0:
313,234,134806,1,2,0:0:0:0:
399,15,134926,1,8,0:0:0:0:
193,102,135046,5,8,0:0:0:0:
443,128,135166,1,0,0:0:0:0:
443,128,135226,1,0,0:0:0:0:
443,128,135286,2,0,L|367:138,1,60.0000022888184,2|0,0:0|0:0,0:0:0:0:
195,311,135406,2,0,L|265:322,1,60.0000022888184,10|0,0:0|0:0,0:0:0:0:
427,282,135526,6,0,B|386:258|377:233|377:233|336:241|321:208|321:208|256:238|192:225,1,240.000009155274,12|12,0:0|0:0,0:0:0:0:
21,113,136486,2,0,B|62:89|71:64|71:64|112:72|127:39|127:39|192:69|256:56,1,240.000009155274,4|12,0:0|0:0,0:0:0:0:
144,178,136846,1,8,0:0:0:0:
144,178,136966,1,8,0:0:0:0:
422,53,137206,1,2,0:0:0:0:
346,357,137446,5,4,0:0:0:0:
291,199,137566,1,0,0:0:0:0:
345,343,137686,1,2,0:0:0:0:
290,185,137806,1,2,0:0:0:0:
346,329,137926,1,8,0:0:0:0:
291,171,138046,1,2,0:0:0:0:
130,93,138166,1,2,0:0:0:0:
376,86,138286,6,0,B|404:83|435:61|435:61|459:97|461:165,1,160,2|0,0:0|0:0,0:0:0:0:
138,277,138646,1,2,0:0:0:0:
328,316,138766,1,2,0:0:0:0:
134,263,138886,1,8,0:0:0:0:
324,302,139006,1,2,0:0:0:0:
129,246,139126,1,2,0:0:0:0:
319,285,139246,1,2,0:0:0:0:
415,128,139366,5,2,0:0:0:0:
232,188,139486,1,2,0:0:0:0:
406,147,139606,1,2,0:0:0:0:
149,166,139726,1,2,0:0:0:0:
397,166,139846,1,10,0:0:0:0:
84,110,139966,1,2,0:0:0:0:
391,186,140086,1,2,0:0:0:0:
62,31,140206,1,2,0:0:0:0:
263,103,140326,5,10,0:0:0:0:
214,303,140446,1,2,0:0:0:0:
272,81,140566,1,2,0:0:0:0:
345,236,140686,1,2,0:0:0:0:
277,60,140806,1,10,0:0:0:0:
166,217,140926,1,2,0:0:0:0:
284,37,141046,6,0,P|299:71|296:100,1,60,2|0,0:0|0:0,0:0:0:0:
251,303,141286,5,2,0:0:0:0:
438,280,141406,6,0,L|305:259,1,120,2|0,0:0|0:0,0:0:0:0:
131,289,141646,6,0,P|189:312|251:302,1,125.999996154785,2|0,0:0|0:0,0:0:0:0:
79,220,141886,6,0,L|60:77,1,132.00000402832,2|0,0:0|0:0,0:0:0:0:
184,4,142126,6,0,L|173:156,1,138.000002632141,2|0,0:0|0:0,0:0:0:0:
276,287,142366,6,0,L|268:123,1,143.999995605469,2|0,0:0|0:0,0:0:0:0:
375,38,142606,6,0,L|361:210,1,143.999995605469,2|0,0:0|0:0,0:0:0:0:
469,338,142846,6,0,L|455:172,1,150,2|0,0:0|0:0,0:0:0:0:
375,38,143086,6,0,L|360:220,1,155.999992858887,2|0,0:0|0:0,0:0:0:0:
276,287,143326,6,0,L|266:109,1,162.000000617981,2|0,0:0|0:0,0:0:0:0:
179,31,143566,6,0,L|167:204,1,167.999994873047,2|0,0:0|0:0,0:0:0:0:
80,339,143806,6,0,L|62:149,1,174.000005310059,2|0,0:0|0:0,0:0:0:0:
178,31,144046,6,0,P|289:35|332:129,1,215.999993408203,2|0,0:0|0:0,0:0:0:0:
181,281,144286,6,0,P|150:174|246:104,1,227.999993911743,2|0,0:0|0:0,0:0:0:0:
307,218,144526,1,2,0:0:0:0:
190,372,144646,1,0,0:0:0:0:
345,300,144766,1,2,0:0:0:0:
345,300,144826,1,0,0:0:0:0:
345,300,144886,1,10,0:0:0:0:
472,380,145006,1,8,0:0:0:0:
327,125,145126,6,0,P|444:109|470:130,1,160,4|0,0:0|0:0,0:0:0:0:
469,129,145486,1,0,0:0:0:0:
211,329,145606,2,0,P|139:358|68:326,1,160,10|0,0:0|0:0,0:0:0:0:
67,325,145966,1,0,0:0:0:0:
327,124,146086,6,0,P|399:96|469:129,1,160,2|0,0:0|0:0,0:0:0:0:
469,129,146446,1,0,0:0:0:0:
210,329,146566,2,0,P|138:357|67:325,1,160,10|0,0:0|0:0,0:0:0:0:
66,324,146926,1,0,0:0:0:0:
152,211,147046,6,0,B|189:193|213:151|213:151|256:138|272:110,1,160,2|0,0:0|0:0,0:0:0:0:
182,43,147406,1,0,0:0:0:0:
281,225,147526,2,0,B|308:241|352:231|352:231|394:255|435:252,1,160,10|2,0:0|0:0,0:0:0:0:
361,87,147886,1,0,0:0:0:0:
168,121,148006,2,0,L|88:130,1,80
120,22,148246,2,0,L|215:11,1,80,2|0,0:0|0:0,0:0:0:0:
321,179,148486,2,0,L|253:170,3,53.3333333333333,10|0|2|0,0:0|0:0|0:0|0:0,0:0:0:0:
180,314,148966,5,2,0:0:0:0:
180,314,149086,2,0,P|223:289|257:223,1,100,2|0,0:0|0:0,0:0:0:0:
229,52,149326,2,0,P|229:101|269:164,1,100,2|8,0:0|0:0,0:0:0:0:
436,224,149566,2,0,P|392:199|318:202,1,100,2|0,0:0|0:0,0:0:0:0:
152,173,149806,1,0,0:0:0:0:
152,173,149866,1,0,0:0:0:0:
152,173,149926,2,0,B|203:192|203:192|244:180|244:180|291:213|362:190,1,200,2|0,0:0|0:0,0:0:0:0:
448,333,150286,2,0,P|401:314|331:328,1,100,2|8,0:0|0:0,0:0:0:0:
436,224,150526,2,0,P|362:179|427:122,1,200,2|0,0:0|0:0,0:0:0:0:
170,146,150886,6,0,B|188:219|188:219|180:278|180:278|198:349,1,200,2|0,0:0|0:0,0:0:0:0:
293,242,151246,1,2,0:0:0:0:
98,262,151366,2,0,B|170:247|170:247|211:259|211:259|293:242,1,200,8|2,0:0|0:0,0:0:0:0:
343,175,151666,1,0,0:0:0:0:
343,175,151726,1,0,0:0:0:0:
398,247,151846,1,10,0:0:0:0:
253,161,151966,1,0,0:0:0:0:
474,201,152086,1,8,0:0:0:0:
341,320,152206,5,0,0:0:0:0:
341,320,152266,1,0,0:0:0:0:
341,320,152326,1,8,0:0:0:0:
253,161,152446,1,8,0:0:0:0:
431,118,152566,1,2,0:0:0:0:
299,246,152686,1,10,0:0:0:0:
73,157,152806,5,6,0:0:0:0:
398,247,153046,1,2,0:0:0:0:
73,157,153286,1,10,0:0:0:0:
73,157,153526,6,0,P|113:164|146:158,1,60.0000022888184
73,157,153766,6,0,P|66:197|72:230,1,60.0000022888184,2|2,0:0|0:0,0:0:0:0:
73,157,154006,6,0,P|33:150|0:156,1,60.0000022888184,2|0,0:0|0:0,0:0:0:0:
396,226,154246,2,0,L|461:225,1,60.0000022888184,8|0,0:0|0:0,0:0:0:0:
307,168,154486,2,0,L|247:168,1,60.0000022888184,2|0,0:0|0:0,0:0:0:0:
467,79,154726,1,0,0:0:0:0:
467,79,154966,6,0,P|479:106|500:128,1,60.0000022888184,2|0,0:0|0:0,0:0:0:0:
441,131,155206,6,0,P|470:134|499:127,1,60.0000022888184,10|2,0:0|0:0,0:0:0:0:
473,179,155446,6,0,P|490:155|499:126,1,60.0000022888184,2|2,0:0|0:0,0:0:0:0:
222,36,155686,2,0,L|217:106,1,60.0000022888184,2|0,0:0|0:0,0:0:0:0:
286,226,155926,2,0,L|290:166,1,60.0000022888184,2|0,0:0|0:0,0:0:0:0:
141,216,156166,1,10,0:0:0:0:
376,300,156406,1,2,0:0:0:0:
61,354,156646,5,0,0:0:0:0:
61,354,156886,2,0,L|130:350,1,60.0000022888184,2|0,0:0|0:0,0:0:0:0:
350,274,157126,1,8,0:0:0:0:
350,274,157366,2,0,P|364:235|362:207,1,60.0000022888184,2|2,0:0|0:0,0:0:0:0:
295,75,157606,6,0,L|171:79,1,120.000004577637,0|2,0:0|0:0,0:0:0:0:
70,52,157966,1,2,0:0:0:0:
31,154,158086,2,0,P|85:147|102:146,1,60.0000022888184,8|0,0:0|0:0,0:0:0:0:
233,198,158326,2,0,P|179:205|162:206,1,60.0000022888184,2|0,0:0|0:0,0:0:0:0:
81,298,158566,6,0,P|163:305|206:328,1,120.000004577637,2|0,0:0|0:0,0:0:0:0:
291,330,158926,1,0,0:0:0:0:
382,305,159046,2,0,L|396:173,1,120.000004577637,10|0,0:0|0:0,0:0:0:0:
247,157,159406,1,0,0:0:0:0:
219,22,159526,2,0,P|220:55|228:81,1,60.0000022888184,2|0,0:0|0:0,0:0:0:0:
142,243,159766,2,0,P|164:227|188:204,1,60.0000022888184,0|2,0:0|0:0,0:0:0:0:
377,207,160006,2,0,P|346:192|320:186,1,60.0000022888184,10|8,0:0|0:0,0:0:0:0:
423,82,160246,6,0,P|456:82|495:66,2,60.0000022888184,0|0|4,0:0|0:0|0:0,0:0:0:0:
190,157,163846,6,0,L|331:146,1,120.000004577637,10|0,0:0|0:0,0:0:0:0:
384,235,164206,1,0,0:0:0:0:
384,235,164326,1,2,0:0:0:0:
311,291,167686,5,0,0:0:0:0:
316,294,167806,1,8,0:0:0:0:
318,299,167926,1,8,0:0:0:0:
317,304,168046,1,8,0:0:0:0:
312,307,168166,1,12,0:0:0:0:
210,45,171766,5,0,0:0:0:0:
206,56,171886,1,8,0:0:0:0:
202,67,172006,1,8,0:0:0:0:
93,177,175726,5,0,0:0:0:0:
93,177,175846,1,8,0:0:0:0:
353,183,181126,5,0,0:0:0:0:
357,194,181246,1,8,0:0:0:0:
348,201,181366,1,8,0:0:0:0:
342,190,181486,1,0,0:0:0:0:
351,192,181606,2,0,B|306:173|284:129|284:129|246:124|224:149|224:149|210:168|211:201|211:201|180:180|142:200,1,280,2|0,0:0|0:0,0:0:0:0:
93,273,183406,1,0,0:0:0:0:
130,353,183526,6,0,P|189:362|222:356,1,80,6|0,0:0|0:0,0:0:0:0:
345,309,183766,1,0,0:0:0:0:
123,161,183886,2,0,P|162:205|191:222,1,80,2|0,0:0|0:0,0:0:0:0:
374,221,184126,1,0,0:0:0:0:
246,23,184246,2,0,P|247:82|259:114,1,80,6|0,0:0|0:0,0:0:0:0:
448,162,184486,1,0,0:0:0:0:
256,361,184606,2,0,P|254:301|242:269,1,80,2|0,0:0|0:0,0:0:0:0:
123,161,184846,1,0,0:0:0:0:
368,67,184966,6,0,L|364:159,1,80,6|0,0:0|0:0,0:0:0:0:
221,280,185206,2,0,L|224:200,1,80,2|0,0:0|0:0,0:0:0:0:
441,17,185446,2,0,B|453:68|453:68|441:101|441:101|457:141|446:196,1,160,6|0,0:0|0:0,0:0:0:0:
279,131,185806,1,0,0:0:0:0:
341,316,185926,2,0,L|346:215,1,80,8|0,0:0|0:0,0:0:0:0:
196,93,186166,6,0,B|171:146|203:201|203:201|247:222,1,160,6|0,0:0|0:0,0:0:0:0:
361,145,186526,1,0,0:0:0:0:
172,285,186646,2,0,L|181:365,1,80,2|0,0:0|0:0,0:0:0:0:
369,224,186886,2,0,L|360:144,1,80,8|0,0:0|0:0,0:0:0:0:
207,25,187126,2,0,L|216:105,1,80,2|8,0:0|0:0,0:0:0:0:
382,368,187366,1,14,0:0:0:0:
346,22,187606,1,14,0:0:0:0:
382,368,187846,5,10,0:0:0:0:
268,207,187966,1,8,0:0:0:0:
451,87,188086,1,2,0:0:0:0:
346,22,188206,6,0,B|313:64|333:131|333:131|380:175|369:262,1,240,6|0,0:0|0:0,0:0:0:0:
237,351,188686,1,0,0:0:0:0:
237,351,188806,1,10,0:0:0:0:
213,34,189046,1,0,0:0:0:0:
237,351,189286,6,0,P|194:354|229:280,1,160,6|0,0:0|0:0,0:0:0:0:
346,276,189886,2,0,L|341:315,1,40,2|8,0:0|0:0,0:0:0:0:
258,60,190126,1,8,0:0:0:0:
237,351,190246,6,0,L|230:218,1,120,6|0,0:0|0:0,0:0:0:0:
327,152,190486,2,0,L|320:204,1,40,10|0,0:0|0:0,0:0:0:0:
258,60,190606,2,0,B|308:55|308:55|363:66,1,80,10|0,0:0|0:0,0:0:0:0:
450,138,190846,1,0,0:0:0:0:
133,137,190966,6,0,P|95:147|56:141,1,80,0|6,0:0|0:0,0:0:0:0:
186,228,191326,2,0,L|226:237,2,40,0|10|0,0:0|0:0|0:0,0:0:0:0:
331,186,191686,6,0,B|391:173|391:173|451:178,1,120.000004577637,14|0,0:0|0:0,0:0:0:0:
478,85,191926,1,0,0:0:0:0:
449,306,192046,2,0,B|494:260|494:260|478:85,1,240.000009155274,14|0,0:0|0:0,0:0:0:0:
353,31,192406,2,0,L|345:151,1,120.000004577637,2|0,0:0|0:0,0:0:0:0:
345,150,192586,1,0,0:0:0:0:
345,150,192646,1,8,0:0:0:0:
190,288,192766,1,0,0:0:0:0:
387,362,192886,1,2,0:0:0:0:
226,153,193006,5,0,0:0:0:0:
226,153,193066,1,0,0:0:0:0:
226,153,193126,1,4,0:0:0:0:
326,275,193246,1,0,0:0:0:0:
134,361,193366,1,8,0:0:0:0:
326,275,193486,1,8,0:0:0:0:
67,197,193606,2,0,P|45:263|64:311,1,120.000004577637,8|0,0:0|0:0,0:0:0:0:
386,334,193846,2,0,P|408:268|389:220,1,120.000004577637,10|10,0:0|0:0,0:0:0:0:
171,66,194086,5,2,0:0:0:0:
139,253,194206,1,10,0:0:0:0:
326,275,194326,1,0,0:0:0:0:
353,88,194446,1,10,0:0:0:0:
159,158,194566,2,0,P|160:222|206:285,1,120.000004577637,8|0,0:0|0:0,0:0:0:0:
432,198,194806,2,0,P|431:134|385:71,1,120.000004577637,2|0,0:0|0:0,0:0:0:0:
181,363,195046,6,0,B|273:378|273:378|323:326|308:233,1,240.000009155274,12|4,0:0|0:0,0:0:0:0:
215,26,195406,1,2,0:0:0:0:
73,163,195526,1,8,0:0:0:0:
309,241,195646,1,8,0:0:0:0:
309,241,195706,1,0,0:0:0:0:
309,241,195766,1,14,0:0:0:0:
187,113,195886,1,2,0:0:0:0:
179,362,196006,5,14,0:0:0:0:
372,177,196126,1,8,0:0:0:0:
135,263,196246,1,14,0:0:0:0:
405,357,196366,1,8,0:0:0:0:
281,68,196486,1,14,0:0:0:0:
298,303,196606,1,8,0:0:0:0:
298,303,196666,1,0,0:0:0:0:
298,303,196726,1,14,0:0:0:0:
281,68,196846,1,8,0:0:0:0:
386,323,196966,6,4,P|339:378|212:301,1,240.000009155274,4|0,0:0|0:0,0:0:0:0:
419,111,197326,2,0,L|428:237,1,120.000004577637,2|8,0:0|0:0,0:0:0:0:
213,311,197566,1,0,0:0:0:0:
289,4,197686,2,0,L|276:136,1,120.000004577637,6|2,0:0|0:0,0:0:0:0:
298,303,197926,6,0,B|282:251|282:251|295:200|295:200|269:141|284:68,1,240.000009155274,6|0,0:0|0:0,0:0:0:0:
497,158,198286,2,0,L|486:289,1,120.000004577637,2|8,0:0|0:0,0:0:0:0:
395,36,198526,1,0,0:0:0:0:
334,227,198646,2,0,L|348:347,1,120.000004577637,2|0,0:0|0:0,0:0:0:0:
402,143,198886,6,0,P|343:123|268:141,1,120.000004577637,6|0,0:0|0:0,0:0:0:0:
23,305,199126,2,0,P|81:325|157:307,1,120.000004577637,2|0,0:0|0:0,0:0:0:0:
119,0,199366,2,0,P|99:56|107:114,1,120.000004577637,12|0,0:0|0:0,0:0:0:0:
295,380,199606,2,0,P|314:323|306:265,1,120.000004577637,10|12,0:0|0:0,0:0:0:0:
107,114,199846,5,0,0:0:0:0:
306,265,199966,1,0,0:0:0:0:
306,265,200026,1,2,0:0:0:0:
306,265,200086,1,8,0:0:0:0:
245,22,200206,1,0,0:0:0:0:
145,229,200326,5,8,0:0:0:0:
325,137,200446,1,8,0:0:0:0:
325,137,200506,1,2,0:0:0:0:
325,137,200566,1,8,0:0:0:0:
391,339,200686,1,8,0:0:0:0:
145,229,200806,6,0,B|212:229|212:229|257:255|257:255|314:224|392:262,1,240.000009155274,12|12,0:0|0:0,0:0:0:0:
436,77,201766,2,0,B|369:77|369:77|324:103|324:103|267:72|189:110,1,240.000009155274,12|12,0:0|0:0,0:0:0:0:
0,247,202126,1,8,0:0:0:0:
0,247,202246,1,8,0:0:0:0:
491,134,202486,6,0,B|453:82|381:79|341:130|341:130|347:197|347:197|294:233|217:186,1,360.000013732911,12|0,0:0|0:0,0:0:0:0:
40,359,202966,1,2,0:0:0:0:
40,359,203086,1,2,0:0:0:0:
137,115,203206,1,6,0:0:0:0:
158,245,203326,1,2,0:0:0:0:
273,62,203446,1,2,0:0:0:0:
266,228,203566,1,14,0:0:0:0:
403,123,203686,5,10,0:0:0:0:
365,269,203806,1,14,0:0:0:0:
454,212,203926,5,10,0:0:0:0:
219,303,204046,1,10,0:0:0:0:
512,295,204166,5,10,0:0:0:0:
88,192,204286,1,10,0:0:0:0:
88,192,204646,5,4,0:0:0:0:
256,192,204706,12,0,210406,0:0:0:0:
0,135,212326,6,0,B|43:136|70:112|70:112|91:144|92:186|92:186|136:153|190:173,2,240.000009155274,6|0|10,0:0|0:0|0:0,0:0:0:0:
260,122,213046,6,0,L|272:40,1,80,2|0,0:0|0:0,0:0:0:0:
335,207,213286,1,0,0:0:0:0:
257,282,213406,2,0,L|168:268,2,80,8|8|0,0:0|0:0|0:0,0:0:0:0:
335,207,213766,1,10,0:0:0:0:
369,342,213886,1,0,0:0:0:0:
507,173,214006,1,0,0:0:0:0:
335,207,214126,1,2,0:0:0:0:
507,173,214246,6,0,B|465:173|438:149|438:149|417:181|416:223|416:223|372:190|334:206,2,240.000009155274,6|2|10,0:0|0:0|0:0,0:0:0:0:
262,299,214966,6,0,L|168:306,1,80,2|0,0:0|0:0,0:0:0:0:
212,127,215206,1,0,0:0:0:0:
384,170,215326,1,8,0:0:0:0:
217,48,215446,2,0,P|271:75|217:211,1,240.000009155274,10|0,0:0|0:0,0:0:0:0:
24,124,215806,2,0,P|15:83|16:27,1,80,10|0,0:0|0:0,0:0:0:0:
15,308,216046,1,0,0:0:0:0:
109,213,216166,5,2,0:0:0:0:
122,221,216286,1,0,0:0:0:0:
275,169,216406,5,2,0:0:0:0:
288,177,216526,1,0,0:0:0:0:
168,357,216646,5,2,0:0:0:0:
181,365,216766,1,0,0:0:0:0:
324,321,216886,5,2,0:0:0:0:
337,329,217006,1,8,0:0:0:0:
460,194,217126,5,0,0:0:0:0:
435,326,217246,1,0,0:0:0:0:
467,181,217366,1,10,0:0:0:0:
428,342,217486,1,0,0:0:0:0:
298,100,217606,5,10,0:0:0:0:
321,245,217726,1,8,0:0:0:0:
296,84,217846,1,2,0:0:0:0:
326,264,217966,1,8,0:0:0:0:
106,170,218086,5,10,0:0:0:0:
344,163,218206,1,8,0:0:0:0:
85,164,218326,1,10,0:0:0:0:
371,171,218446,1,8,0:0:0:0:
111,319,218566,5,10,0:0:0:0:
365,296,218686,1,8,0:0:0:0:
86,333,218806,1,10,0:0:0:0:
387,306,218926,1,8,0:0:0:0:
64,245,219046,5,10,0:0:0:0:
318,233,219166,1,10,0:0:0:0:
99,74,219286,1,10,0:0:0:0:
190,199,219406,5,2,0:0:0:0:
190,199,219466,1,0,0:0:0:0:
190,199,219526,1,10,0:0:0:0:
321,41,219646,1,0,0:0:0:0:
269,258,219766,1,10,0:0:0:0:
235,12,219886,1,10,0:0:0:0:
355,302,220006,6,0,B|298:322|298:322|247:307|247:307|187:331|110:310,1,240.000009155274,6|0,0:0|0:0,0:0:0:0:
58,188,220366,1,0,0:0:0:0:
152,96,220486,2,0,L|281:106,1,120.000004577637,10|0,0:0|0:0,0:0:0:0:
398,192,220726,1,0,0:0:0:0:
480,29,220846,2,0,P|497:90|478:161,1,120.000004577637,2|0,0:0|0:0,0:0:0:0:
303,301,221086,2,0,P|286:240|305:169,1,120.000004577637,2|0,0:0|0:0,0:0:0:0:
407,92,221326,1,2,0:0:0:0:
378,340,221446,6,0,L|249:348,1,120.000004577637,8|0,0:0|0:0,0:0:0:0:
151,155,221686,2,0,L|280:163,1,120.000004577637,2|0,0:0|0:0,0:0:0:0:
66,294,221926,6,0,B|115:254|115:254|96:76,1,240.000009155274,2|0,0:0|0:0,0:0:0:0:
260,32,222286,1,0,0:0:0:0:
239,240,222406,2,0,P|219:171|228:106,1,120.000004577637,2|10,0:0|0:0,0:0:0:0:
432,32,222646,2,0,P|452:101|443:166,1,120.000004577637,10|0,0:0|0:0,0:0:0:0:
344,304,222886,5,2,0:0:0:0:
350,133,223006,1,0,0:0:0:0:
344,304,223126,1,2,0:0:0:0:
454,242,223246,1,0,0:0:0:0:
454,242,223306,1,0,0:0:0:0:
454,242,223366,1,10,0:0:0:0:
239,240,223486,1,0,0:0:0:0:
305,56,223606,1,2,0:0:0:0:
239,240,223726,1,0,0:0:0:0:
124,134,223846,6,0,P|107:81|109:12,1,120.000004577637,2|0,0:0|0:0,0:0:0:0:
239,240,224086,2,0,P|241:302|221:368,1,120.000004577637
244,119,224326,2,0,L|373:109,1,120.000004577637,8|10,0:0|0:0,0:0:0:0:
484,276,224566,2,0,L|355:266,1,120.000004577637,2|10,0:0|0:0,0:0:0:0:
403,92,224806,1,2,0:0:0:0:
345,237,224926,1,8,0:0:0:0:
188,178,225046,1,10,0:0:0:0:
224,322,225166,1,2,0:0:0:0:
97,232,225286,6,0,P|118:120|228:91,1,240.000009155274,8|0,0:0|0:0,0:0:0:0:
349,193,225646,1,0,0:0:0:0:
224,322,225766,2,0,B|213:267|213:267|238:215|238:215|203:146|237:73,1,240.000009155274,6|2,0:0|0:0,0:0:0:0:
355,152,226126,1,2,0:0:0:0:
138,208,226246,1,8,0:0:0:0:
332,284,226366,1,10,0:0:0:0:
102,222,226486,1,8,0:0:0:0:
355,152,226606,1,10,0:0:0:0:
97,127,226726,5,2,0:0:0:0:
355,198,226846,1,2,0:0:0:0:
68,159,226966,1,8,0:0:0:0:
396,87,227086,1,10,0:0:0:0:
43,49,227206,2,0,P|108:35|178:59,1,120.000004577637,8|0,0:0|0:0,0:0:0:0:
511,85,227446,2,0,P|446:99|376:75,1,120.000004577637,2|0,0:0|0:0,0:0:0:0:
31,264,227686,6,0,P|113:189|204:252,1,240.000009155274,6|0,0:0|0:0,0:0:0:0:
243,106,228046,1,0,0:0:0:0:
242,105,228166,2,0,P|333:169|416:94,1,240.000009155274,10|2,0:0|0:0,0:0:0:0:
489,162,228526,1,2,0:0:0:0:
489,162,228646,2,0,P|462:215|458:274,1,120.000004577637
368,384,228887,2,0,P|365:324|339:271,1,120.000004577637
260,349,229126,6,0,B|172:352|172:352|108:334|108:334|8:336,1,240.000009155274,10|0,0:0|0:0,0:0:0:0:
160,222,229486,1,0,0:0:0:0:
81,85,229606,2,0,L|219:68,1,120.000004577637,2|0,0:0|0:0,0:0:0:0:
373,259,229846,2,0,L|235:242,1,120.000004577637,2|0,0:0|0:0,0:0:0:0:
0,223,230086,2,0,B|112:175|112:175|237:158,1,240.000009155274,8|0,0:0|0:0,0:0:0:0:
317,351,230446,1,0,0:0:0:0:
472,245,230566,2,0,L|484:115,1,120.000004577637,2|0,0:0|0:0,0:0:0:0:
325,46,230806,2,0,L|336:165,1,120.000004577637,2|0,0:0|0:0,0:0:0:0:
203,299,231046,6,0,B|118:286|23:338|23:338|61:318|65:280,1,240.000009155274,10|2,0:0|0:0,0:0:0:0:
211,191,231406,1,0,0:0:0:0:
364,348,231526,1,10,0:0:0:0:
364,348,231766,2,0,P|377:320|384:264,1,80,2|0,0:0|0:0,0:0:0:0:
160,115,232006,1,8,0:0:0:0:
160,115,232246,6,0,L|167:199,1,80,2|2,0:0|0:0,0:0:0:0:
125,372,232486,2,0,L|129:275,2,80,2|2|0,0:0|0:0|0:0,0:0:0:0:
236,285,232846,1,2,0:0:0:0:
236,285,232966,2,0,L|414:265,1,160,10|2,0:0|0:0,0:0:0:0:
64,202,233326,1,2,0:0:0:0:
350,110,233446,6,0,P|311:136|255:149,1,80,6|0,0:0|0:0,0:0:0:0:
143,215,233686,2,0,P|96:204|39:205,1,80
5,345,233926,2,0,P|116:338|198:322,1,160,10|0,0:0|0:0,0:0:0:0:
399,208,234286,5,0,0:0:0:0:
399,208,234346,1,0,0:0:0:0:
399,208,234406,1,2,0:0:0:0:
277,325,234526,1,2,0:0:0:0:
365,107,234646,1,0,0:0:0:0:
454,283,234766,1,0,0:0:0:0:
272,150,234886,5,8,0:0:0:0:
372,292,235006,1,8,0:0:0:0:
166,330,235126,1,10,0:0:0:0:
166,330,235246,1,10,0:0:0:0:
192,185,235366,6,0,P|237:224|296:231,1,120.000004577637,6|0,0:0|0:0,0:0:0:0:
166,330,235606,2,0,P|108:317|51:333,1,120.000004577637,2|0,0:0|0:0,0:0:0:0:
48,215,235846,2,0,P|73:161|72:102,1,120.000004577637,8|2,0:0|0:0,0:0:0:0:
381,197,236086,1,2,0:0:0:0:
278,105,236206,6,0,B|218:123|192:192|192:192|196:252|261:300,1,240.000009155274,2|0,0:0|0:0,0:0:0:0:
468,247,236566,2,0,P|473:169|448:121,1,120.000004577637,2|0,0:0|0:0,0:0:0:0:
314,23,236806,2,0,L|178:32,1,120.000004577637,8|2,0:0|0:0,0:0:0:0:
50,269,237046,1,0,0:0:0:0:
239,165,237166,1,2,0:0:0:0:
301,371,237286,6,0,L|312:238,1,120.000004577637,2|0,0:0|0:0,0:0:0:0:
134,157,237526,2,0,L|143:276,1,120.000004577637,2|0,0:0|0:0,0:0:0:0:
330,131,237766,2,0,L|341:-2,1,120.000004577637,8|2,0:0|0:0,0:0:0:0:
134,157,238006,1,2,0:0:0:0:
278,260,238126,2,0,B|219:217|219:217|147:277|50:238,1,240.000009155274,2|0,0:0|0:0,0:0:0:0:
161,350,238486,2,0,L|291:363,1,120.000004577637,2|0,0:0|0:0,0:0:0:0:
435,284,238726,2,0,P|461:217|441:153,1,120.000004577637,8|8,0:0|0:0,0:0:0:0:
221,132,238966,1,10,0:0:0:0:
435,284,239086,1,8,0:0:0:0:
307,66,239206,6,4,B|320:130|320:130|312:171|312:171|337:216|326:331,1,240.000009155274,8|8,0:0|0:0,0:0:0:0:
307,66,240166,6,0,B|320:130|320:130|312:171|312:171|337:216|326:331,1,240.000009155274,8|8,0:0|0:0,0:0:0:0:
180,358,240526,1,8,0:0:0:0:
46,308,240646,1,2,0:0:0:0:
46,308,241126,5,4,0:0:0:0:
