osu file format v14

[General]
AudioFilename: audio.ogg
AudioLeadIn: 0
PreviewTime: 63217
Countdown: 0
SampleSet: Soft
StackLeniency: 0.7
Mode: 0
LetterboxInBreaks: 0
WidescreenStoryboard: 0

[Editor]
Bookmarks: 118417,153937,164737,240337
DistanceSpacing: 0.5
BeatDivisor: 8
GridSize: 8
TimelineZoom: 1.6

[Metadata]
Title:Dakara Boku wa Ongaku o Yameta
TitleUnicode:だから僕は音楽を辞めた
Artist:Yorushika
ArtistUnicode:ヨルシカ
Creator:[Hatsune Miku]
Version:I'm not mistaken?
Source:
Tags:SuperDalouBot n-buna ナブナ suis スイ japanese pop jpop j-pop thats that's why i gave up on music
BeatmapID:3117101
BeatmapSetID:1508883

[Difficulty]
HPDrainRate:6
CircleSize:4
OverallDifficulty:8
ApproachRate:9
SliderMultiplier:1.7
SliderTickRate:1

[Events]
//Background and Video events
0,0,"bg.jpg",0,0
//Break Periods
2,77337,83977
2,154137,161017
//Storyboard Layer 0 (Background)
//Storyboard Layer 1 (Fail)
//Storyboard Layer 2 (Pass)
//Storyboard Layer 3 (Foreground)
//Storyboard Layer 4 (Overlay)
//Storyboard Sound Samples

[TimingPoints]
337,480,4,2,0,30,1,0
2257,-100,4,2,0,45,0,0
16657,-200,4,2,0,30,0,0
17377,-100,4,2,0,45,0,0
17617,-66.6666666666667,4,2,0,75,0,0
32977,-100,4,2,0,60,0,0
59857,-80,4,2,0,60,0,0
63697,-66.6666666666667,4,2,0,80,0,0
92017,-80,4,2,0,60,0,0
92257,-100,4,2,0,60,0,0
123217,-66.6666666666667,4,2,0,60,0,0
123577,-100,4,2,0,60,0,0
124177,-66.6666666666667,4,2,0,60,0,0
125137,-66.6666666666667,4,2,0,80,0,0
146617,-66.6666666666667,4,2,0,70,0,0
146977,-66.6666666666667,4,2,0,60,0,0
147217,-66.6666666666667,4,2,0,80,0,0
147577,-66.6666666666667,4,2,0,70,0,0
147937,-66.6666666666667,4,2,0,60,0,0
148177,-66.6666666666667,4,2,0,80,0,0
153937,-66.6666666666667,4,2,0,50,0,0
161617,-100,4,2,0,60,0,0
169297,-100,4,2,0,40,0,0
184657,-66.6666666666667,4,2,0,60,0,0
185017,-80,4,2,0,60,0,0
185377,-100,4,2,0,60,0,0
185737,-133.333333333333,4,2,0,60,0,0
186097,-66.6666666666667,4,2,0,60,0,0
191257,-57.1428571428571,4,2,0,80,0,0
191737,-66.6666666666667,4,2,0,80,0,0
192337,-66.6666666666667,4,2,0,60,0,0
192817,-50,4,2,0,80,0,0
193177,-100,4,2,0,80,0,0
193777,-50,4,2,0,60,0,0
194257,-50,4,2,0,80,0,0
194497,-66.6666666666667,4,2,0,80,0,0
202177,-200,4,2,0,80,0,0
202417,-200,4,2,0,40,0,0
202897,-200,4,2,0,80,0,0
203617,-66.6666666666667,4,2,0,80,0,0
220417,-50,4,2,0,80,0,0
220777,-66.6666666666667,4,2,0,80,0,0
242257,-50,4,2,0,60,0,0
242317,-50,4,2,0,5,0,0

[Colours]
Combo1 : 102,102,255
Combo2 : 255,128,64

[HitObjects]
140,65,1297,5,0,3:0:0:0:
140,65,1777,1,0,3:0:0:0:
283,155,2257,5,0,3:0:0:0:
344,213,2497,2,0,P|405:203|429:189,1,85,0|0,0:0|3:0,0:0:0:0:
444,108,2977,1,0,0:0:0:0:
337,37,3217,1,0,3:0:0:0:
337,37,3337,2,0,L|250:28,1,85
252,28,3697,2,0,L|243:115,1,85,0|0,3:0|0:0,0:0:0:0:
165,213,4177,5,0,3:0:0:0:
85,242,4417,2,0,P|60:288|63:332,1,85,0|0,0:0|3:0,0:0:0:0:
115,384,4897,1,0,0:0:0:0:
227,323,5137,1,0,3:0:0:0:
227,323,5257,2,0,L|321:333,1,85
311,331,5617,2,0,L|395:322,1,85,0|0,3:0|0:0,0:0:0:0:
483,229,6097,5,0,3:0:0:0:
377,157,6337,2,0,L|386:215,1,42.5
398,239,6577,2,0,P|356:224|303:232,1,85,0|0,3:0|0:0,0:0:0:0:
215,149,7057,1,0,3:0:0:0:
251,72,7297,1,0,0:0:0:0:
131,26,7537,1,0,3:0:0:0:
51,10,7777,1,0,0:0:0:0:
51,10,7897,1,0,0:0:0:0:
51,10,8017,6,0,L|63:108,1,85,0|0,3:0|0:0,0:0:0:0:
66,114,8377,1,0,0:0:0:0:
51,129,8497,2,0,L|2:119,2,42.5,0|0|0,3:0|0:0|0:0,0:0:0:0:
96,189,8857,2,0,L|145:179,1,42.5,0|0,0:0|3:0,0:0:0:0:
306,259,9217,2,0,L|178:247,1,127.5
195,233,9697,2,0,L|236:224,1,42.5
306,259,9937,5,0,3:0:0:0:
402,342,10177,1,0,0:0:0:0:
402,342,10297,1,0,0:0:0:0:
402,342,10417,2,0,P|428:300|427:254,1,85,0|0,3:0|0:0,0:0:0:0:
389,190,10897,1,0,3:0:0:0:
372,176,11017,2,0,L|283:165,1,85
287,165,11377,2,0,L|298:76,1,85,0|0,3:0|0:0,0:0:0:0:
197,0,11857,5,0,3:0:0:0:
72,25,12097,2,0,P|94:45|129:42,1,42.5
143,65,12337,2,0,P|133:115|133:158,1,85,0|0,3:0|0:0,0:0:0:0:
223,239,12817,1,0,3:0:0:0:
241,257,12937,2,0,L|322:273,2,42.5
352,235,13297,1,0,3:0:0:0:
363,217,13417,2,0,L|379:136,1,42.5
486,117,13777,5,0,3:0:0:0:
486,117,14257,2,0,P|437:108|420:96,1,42.5,0|0,3:0|0:0,0:0:0:0:
413,81,14497,2,0,P|422:32|434:15,1,42.5
452,12,14737,2,0,P|501:21|518:33,2,42.5,0|0|0,3:0|0:0|0:0,0:0:0:0:
486,117,15217,1,0,3:0:0:0:
249,212,15697,6,0,P|298:221|315:233,3,42.5,0|0|0|0,3:0|0:0|0:0|0:0,0:0:0:0:
322,248,16177,2,0,P|313:297|301:314,3,42.5
283,317,16657,6,0,P|234:308|217:296,2,42.5,2|2|2,0:0|0:0|0:0,0:0:0:0:
138,298,17377,6,0,P|109:296|85:307,1,42.5,2|2,0:0|0:0,0:0:0:0:
73,314,17617,6,0,P|47:251|47:171,1,127.500004863739,4|2,3:1|0:0,0:0:0:0:
199,81,18097,2,0,L|368:68,1,127.500004863739,8|2,1:2|0:0,0:0:0:0:
326,71,18457,1,2,0:0:0:0:
404,57,18577,2,0,P|430:29|433:-2,1,63.7500024318696,0|0,3:0|0:0,0:0:0:0:
434,5,18817,2,0,L|426:150,1,127.500004863739,2|8,0:0|1:2,0:0:0:0:
422,212,19177,1,0,0:0:0:0:
422,212,19297,1,2,0:0:0:0:
321,327,19537,6,0,P|256:352|193:316,1,127.500004863739,0|2,3:0|0:0,0:0:0:0:
319,226,20017,2,0,P|260:204|203:229,1,127.500004863739,8|2,1:2|0:0,0:0:0:0:
203,229,20377,1,2,0:0:0:0:
135,263,20497,1,0,3:0:0:0:
116,245,20617,2,0,P|104:175|113:120,1,127.500004863739,0|0,3:0|0:0,0:0:0:0:
113,119,20977,2,0,P|87:131|50:129,1,63.7500024318696,8|0,1:2|0:0,0:0:0:0:
42,53,21217,2,0,P|68:41|105:43,1,63.7500024318696,2|0,0:0|0:0,0:0:0:0:
173,72,21457,5,0,3:0:0:0:
356,18,21697,1,2,0:0:0:0:
173,72,21937,1,8,1:2:0:0:
329,181,22177,1,2,0:0:0:0:
347,199,22297,2,0,P|340:218|335:263,1,63.7500024318696,2|0,0:0|3:0,0:0:0:0:
409,310,22537,1,0,0:0:0:0:
419,286,22657,1,2,0:0:0:0:
511,120,22897,1,8,1:2:0:0:
484,102,23017,1,0,0:0:0:0:
452,97,23137,1,2,0:0:0:0:
287,195,23377,6,0,L|136:207,1,127.500004863739,0|2,3:0|0:0,0:0:0:0:
159,205,23737,1,0,0:0:0:0:
114,266,23857,2,0,P|85:211|106:153,1,127.500004863739,12|2,1:2|0:0,0:0:0:0:
106,153,24217,1,0,0:0:0:0:
162,100,24337,1,0,3:0:0:0:
184,87,24457,2,0,B|214:96|214:96|245:88,2,63.7500024318696,10|2|0,1:2|0:0|0:0,0:0:0:0:
132,29,24817,2,0,B|102:20|102:20|70:27,1,63.7500024318696,2|0,1:2|3:0,0:0:0:0:
217,11,25057,1,2,3:2:0:0:
217,11,25297,6,0,L|226:165,1,127.500004863739,4|2,3:1|0:0,0:0:0:0:
379,249,25777,2,0,P|462:230|468:161,1,127.500004863739,8|2,1:2|0:0,0:0:0:0:
463,174,26137,1,2,0:0:0:0:
414,114,26257,1,0,3:0:0:0:
224,138,26497,2,0,B|214:168|214:168|222:204,1,63.7500024318696,2|0,0:0|0:0,0:0:0:0:
279,249,26737,2,0,L|350:234,2,63.7500024318696,8|0|2,1:2|0:0|0:0,0:0:0:0:
126,363,27217,6,0,P|63:337|49:264,1,127.500004863739,0|2,3:0|0:0,0:0:0:0:
4,97,27697,2,0,L|152:84,1,127.500004863739,8|2,1:2|0:0,0:0:0:0:
156,83,28057,1,2,0:0:0:0:
187,13,28177,1,0,3:0:0:0:
258,190,28417,1,2,0:0:0:0:
375,40,28657,1,8,1:2:0:0:
350,33,28777,1,0,0:0:0:0:
325,27,28897,1,2,0:0:0:0:
300,18,29017,1,0,0:0:0:0:
244,71,29137,6,0,L|253:141,1,63.7500024318696,0|0,3:0|0:0,0:0:0:0:
329,136,29377,2,0,P|356:152|423:137,1,63.7500024318696,2|0,0:0|0:0,0:0:0:0:
493,56,29617,2,0,L|457:198,1,127.500004863739,8|2,1:2|0:0,0:0:0:0:
461,179,29977,1,2,0:0:0:0:
387,154,30097,1,0,3:0:0:0:
377,177,30217,1,0,0:0:0:0:
379,202,30337,1,2,0:0:0:0:
330,333,30577,6,0,P|359:347|405:341,1,63.7500024318696,8|0,1:2|0:0,0:0:0:0:
272,273,30817,2,0,P|269:241|252:207,1,63.7500024318696,2|0,0:0|0:0,0:0:0:0:
122,361,31057,6,0,L|269:346,1,127.500004863739,0|2,3:0|0:0,0:0:0:0:
248,348,31417,1,0,0:0:0:0:
134,268,31537,2,0,P|72:280|33:329,1,127.500004863739,12|2,1:2|0:0,0:0:0:0:
33,329,31897,1,0,1:0:0:0:
122,361,32017,1,0,3:0:0:0:
22,197,32257,1,0,1:0:0:0:
144,50,32497,1,0,1:0:0:0:
150,94,32617,1,0,3:0:0:0:
183,123,32737,1,0,3:0:0:0:
208,126,32857,1,0,3:0:0:0:
230,126,32977,6,0,L|335:115,1,85,4|0,3:1|0:0,0:0:0:0:
314,117,33337,1,0,0:0:0:0:
314,117,33457,2,0,P|341:161|331:204,1,85,0|0,3:0|0:0,0:0:0:0:
401,248,33937,2,0,L|446:240,2,42.5,0|0|0,3:0|0:0|0:0,0:0:0:0:
369,277,34297,1,0,0:0:0:0:
369,277,34417,2,0,L|377:375,1,85,0|0,1:0|0:0,0:0:0:0:
256,317,34897,5,0,3:0:0:0:
186,365,35137,2,0,P|129:371|100:338,1,85,0|0,0:0|3:0,0:0:0:0:
54,290,35617,1,0,0:0:0:0:
93,176,35857,2,0,L|100:218,2,42.5,0|0|0,3:0|0:0|0:0,0:0:0:0:
58,161,36217,1,0,0:0:0:0:
58,161,36337,2,0,L|69:57,1,85,0|0,1:0|0:0,0:0:0:0:
172,4,36817,5,0,3:0:0:0:
217,75,37057,2,0,L|271:84,1,42.5
296,62,37297,2,0,P|332:28|383:32,1,85,0|0,3:0|0:0,0:0:0:0:
404,41,37657,1,0,0:0:0:0:
404,41,37777,2,0,L|445:34,2,42.5,0|0|0,3:0|0:0|0:0,0:0:0:0:
371,164,38257,2,0,L|359:286,1,85,0|0,1:0|0:0,0:0:0:0:
437,352,38737,6,0,L|506:359,1,42.5,0|0,3:0|0:0,0:0:0:0:
419,333,38977,2,0,L|376:328,1,42.5
307,359,39217,2,0,L|264:354,1,42.5,0|0,3:0|0:0,0:0:0:0:
194,311,39457,2,0,L|237:316,1,42.5
130,355,39697,1,0,3:0:0:0:
88,353,39817,1,0,3:0:0:0:
59,323,39937,1,0,0:0:0:0:
60,282,40057,1,0,0:0:0:0:
74,292,40177,5,0,3:0:0:0:
73,319,40297,1,0,3:0:0:0:
92,340,40417,1,0,0:0:0:0:
120,340,40537,1,0,0:0:0:0:
194,311,40657,6,0,B|267:308|234:258|326:252,1,127.5,4|0,3:2|0:0,0:0:0:0:
304,254,41137,2,0,P|337:215|324:162,1,85,0|0,3:0|0:0,0:0:0:0:
324,165,41497,1,0,0:0:0:0:
231,77,41737,1,2,0:0:0:0:
214,81,41857,1,2,0:0:0:0:
197,85,41977,1,2,0:0:0:0:
162,109,42097,2,0,P|126:71|133:34,1,85,0|0,1:0|0:0,0:0:0:0:
256,44,42577,5,0,3:0:0:0:
361,116,42817,2,0,L|468:132,1,85,0|0,0:0|3:0,0:0:0:0:
445,128,43177,1,0,0:0:0:0:
445,128,43297,1,0,0:0:0:0:
368,230,43537,5,2,3:2:0:0:
293,248,43657,1,2,0:0:0:0:
445,252,43897,5,2,0:0:0:0:
457,281,44017,2,0,L|449:383,1,85,2|0,1:2|0:0,0:0:0:0:
368,230,44497,5,0,3:0:0:0:
293,248,44977,1,0,3:0:0:0:
218,266,45457,1,0,3:0:0:0:
68,302,45937,1,0,1:0:0:0:
0,250,46177,1,0,0:0:0:0:
103,174,46417,5,0,3:0:0:0:
128,159,46537,2,0,P|145:94|129:63,1,85
108,51,46897,2,0,L|47:41,1,42.5,0|0,3:0|0:0,0:0:0:0:
27,63,47137,1,0,0:0:0:0:
30,83,47257,1,0,0:0:0:0:
32,104,47377,5,10,1:2:0:0:
138,174,47617,1,10,1:2:0:0:
326,92,47857,2,0,P|364:112|386:133,1,42.5,0|0,1:0|3:0,0:0:0:0:
427,69,48097,1,0,3:0:0:0:
427,69,48337,6,0,P|463:140|423:220,1,170,4|0,3:2|3:0,0:0:0:0:
500,261,49057,2,0,P|456:327|367:333,1,170,2|0,0:0|0:0,0:0:0:0:
298,292,49777,1,0,1:0:0:0:
85,69,50257,6,0,P|49:140|89:220,1,170,0|0,3:0|3:0,0:0:0:0:
12,261,50977,2,0,P|55:327|144:333,1,170,2|0,0:0|0:0,0:0:0:0:
214,292,51697,1,0,1:0:0:0:
256,0,52177,6,0,B|226:112|287:50|256:168,1,170,0|0,3:0|3:0,0:0:0:0:
256,164,52897,2,0,B|225:49|286:111|256:0,1,170,2|0,0:0|0:0,0:0:0:0:
180,37,53617,2,0,P|148:48|84:30,1,85,0|0,1:0|0:0,0:0:0:0:
331,120,54097,6,0,P|416:114|457:139,2,127.5,0|2|2,3:0|0:0|0:0,0:0:0:0:
256,164,55057,1,2,3:2:0:0:
307,231,55297,2,0,L|313:286,1,42.5,2|0,0:0|0:0,0:0:0:0:
381,306,55537,5,0,1:0:0:0:
359,342,55657,1,0,3:0:0:0:
318,353,55777,1,4,3:0:0:0:
161,296,56017,5,6,3:2:0:0:
79,273,56497,1,2,3:2:0:0:
102,191,56977,1,2,3:2:0:0:
184,214,57457,1,2,1:2:0:0:
184,214,57577,1,0,3:0:0:0:
184,214,57697,1,4,3:0:0:0:
309,238,57937,6,0,P|410:229|447:242,1,127.5,2|0,3:2|0:0,0:0:0:0:
450,248,58417,1,2,3:2:0:0:
476,123,58657,2,0,B|360:127|425:75|283:84,1,170,2|2,0:0|0:0,0:0:0:0:
215,2,59377,2,0,P|174:26|154:80,1,85,0|0,1:0|0:0,0:0:0:0:
119,213,59857,6,0,P|66:170|45:57,1,159.375,6|0,3:2|3:0,0:0:0:0:
40,85,60337,1,0,1:0:0:0:
284,193,60577,6,0,P|220:217|111:179,1,159.375,2|0,3:2|3:0,0:0:0:0:
134,196,61057,1,0,1:0:0:0:
349,40,61297,5,0,1:0:0:0:
343,92,61417,1,0,3:0:0:0:
318,138,61537,1,0,3:0:0:0:
277,171,61657,1,0,3:0:0:0:
220,228,61777,6,0,P|169:233|134:196,1,106.25,4|0,1:2|0:0,0:0:0:0:
55,176,62137,2,0,P|25:134|39:84,1,106.25,4|0,1:2|0:0,0:0:0:0:
104,37,62497,1,4,1:2:0:0:
199,154,62737,1,0,3:0:0:0:
214,175,62857,2,0,L|223:257,1,53.125,0|4,1:0|3:0,0:0:0:0:
361,322,63217,1,0,1:0:0:0:
361,322,63337,1,0,3:0:0:0:
361,322,63457,2,0,L|370:240,1,53.125,0|0,3:0|0:0,0:0:0:0:
478,222,63697,6,0,P|457:208|408:204,1,63.7500024318696,4|0,3:1|0:0,0:0:0:0:
387,132,63937,1,2,0:0:0:0:
239,275,64057,2,0,L|378:268,1,127.500004863739,2|0,0:0|0:0,0:0:0:0:
220,296,64417,2,0,P|188:292|161:275,1,63.7500024318696,2|0,0:0|0:0,0:0:0:0:
115,213,64657,1,0,3:0:0:0:
238,67,64897,1,2,0:0:0:0:
341,17,65017,2,0,P|345:78|297:115,1,127.500004863739,2|0,0:0|0:0,0:0:0:0:
238,67,65377,2,0,L|155:56,1,63.7500024318696,2|0,0:0|0:0,0:0:0:0:
356,186,65617,5,0,3:0:0:0:
356,186,65737,1,0,0:0:0:0:
356,186,65857,2,0,P|400:181|442:188,1,63.7500024318696,2|0,0:0|0:0,0:0:0:0:
512,102,66097,2,0,P|468:107|426:100,1,63.7500024318696,8|0,1:2|0:0,0:0:0:0:
337,213,66337,2,0,L|359:356,1,127.500004863739,2|0,0:0|3:0,0:0:0:0:
356,339,66697,1,8,3:2:0:0:
283,364,66817,2,0,P|259:354|211:349,1,63.7500024318696,2|0,0:0|0:0,0:0:0:0:
76,340,67057,2,0,L|235:328,1,127.500004863739,8|2,1:2|0:0,0:0:0:0:
137,296,67417,1,0,0:0:0:0:
68,188,67537,6,0,P|34:120|60:57,1,127.500004863739,0|2,3:0|0:0,0:0:0:0:
110,31,67897,1,0,0:0:0:0:
185,41,68017,2,0,P|219:109|193:172,1,127.500004863739,8|2,1:2|0:0,0:0:0:0:
144,201,68377,1,0,0:0:0:0:
299,116,68497,2,0,P|337:110|372:117,1,63.7500024318696,0|8,3:0|0:2,0:0:0:0:
229,256,68737,1,2,0:0:0:0:
217,233,68857,1,0,0:0:0:0:
138,185,68977,2,0,P|112:208|97:255,1,63.7500024318696,8|0,1:2|0:0,0:0:0:0:
53,326,69217,2,0,P|35:300|31:269,1,63.7500024318696,2|0,0:0|0:0,0:0:0:0:
196,358,69457,6,0,L|45:335,1,127.500004863739,4|6,3:2|3:2,0:0:0:0:
216,354,69937,2,0,L|316:338,1,63.7500024318696,8|0,1:2|0:0,0:0:0:0:
332,287,70177,1,2,3:2:0:0:
355,297,70297,1,4,3:1:0:0:
373,314,70417,1,0,3:0:0:0:
489,259,70657,6,0,L|389:243,1,63.7500024318696,8|0,1:2|0:0,0:0:0:0:
308,275,70897,1,8,3:0:0:0:
285,265,71017,1,4,3:0:0:0:
267,248,71137,1,0,3:0:0:0:
255,225,71257,1,0,3:0:0:0:
184,196,71377,6,0,P|180:131|236:92,1,127.500004863739,4|2,3:2|0:0,0:0:0:0:
300,101,71737,2,0,P|346:60|340:-1,1,127.500004863739,2|0,0:0|0:0,0:0:0:0:
317,10,72097,1,2,0:0:0:0:
432,49,72217,1,2,0:0:0:0:
300,101,72337,2,0,L|310:189,1,63.7500024318696,0|0,3:0|0:0,0:0:0:0:
422,266,72577,1,2,0:0:0:0:
481,314,72697,2,0,P|504:287|507:246,1,63.7500024318696,2|8,0:0|1:2,0:0:0:0:
291,237,72937,1,0,0:0:0:0:
276,257,73057,2,0,L|286:345,1,63.7500024318696,2|0,0:0|0:0,0:0:0:0:
415,357,73297,6,0,B|388:370|388:370|358:354,1,63.7500024318696,0|0,3:0|0:0,0:0:0:0:
204,214,73537,2,0,B|174:198|174:198|147:211,1,63.7500024318696,2|0,0:0|0:0,0:0:0:0:
90,263,73777,2,0,P|31:226|40:159,1,127.500004863739,8|2,1:2|0:0,0:0:0:0:
55,166,74137,1,0,0:0:0:0:
91,98,74257,1,0,3:0:0:0:
102,75,74377,1,8,0:2:0:0:
89,52,74497,1,2,3:2:0:0:
308,215,74737,5,0,1:0:0:0:
208,166,74857,1,0,1:0:0:0:
280,140,74977,1,0,1:0:0:0:
231,239,75097,1,0,1:0:0:0:
256,192,75217,5,4,1:2:0:0:
256,192,75457,1,4,1:2:0:0:
256,192,76177,5,4,1:2:0:0:
256,192,76417,1,4,1:2:0:0:
458,347,76897,5,2,0:0:0:0:
458,347,77017,1,2,0:0:0:0:
421,279,77137,1,4,1:0:0:0:
135,336,84577,6,0,P|126:318|121:271,1,63.7500024318696,0|0,3:0|0:0,0:0:0:0:
155,207,84817,1,4,3:1:0:0:
302,247,85057,1,2,0:0:0:0:
311,223,85177,2,0,P|330:150|316:76,1,127.500004863739,2|0,0:0|0:0,0:0:0:0:
324,99,85537,1,0,0:0:0:0:
250,76,85657,2,0,B|170:66|227:32|133:21,1,127.500004863739,2|0,0:0|0:0,0:0:0:0:
134,98,86017,5,2,0:0:0:0:
161,132,86137,1,2,0:0:0:0:
161,176,86257,1,10,1:2:0:0:
136,211,86377,1,2,0:0:0:0:
94,224,86497,2,0,L|27:215,1,63.7500024318696,2|2,0:0|0:0,0:0:0:0:
149,302,86737,6,0,P|177:285|246:292,1,63.7500024318696,2|0,3:2|0:0,0:0:0:0:
277,349,86977,2,0,P|337:318|332:238,2,127.500004863739,2|8|2,0:0|1:2|0:0,0:0:0:0:
251,345,87577,1,0,0:0:0:0:
207,280,87697,2,0,L|196:168,1,63.7500024318696,0|0,3:0|0:0,0:0:0:0:
231,146,87937,1,2,0:0:0:0:
382,166,88177,2,0,P|393:129|387:100,1,63.7500024318696,10|0,1:2|0:0,0:0:0:0:
474,45,88417,2,0,P|447:16|419:7,1,63.7500024318696,2|0,0:0|0:0,0:0:0:0:
259,25,88657,6,0,L|397:14,1,127.500004863739,0|2,3:0|0:0,0:0:0:0:
231,146,89137,2,0,L|93:135,1,127.500004863739,8|2,1:2|0:0,0:0:0:0:
78,135,89497,1,2,0:0:0:0:
34,72,89617,2,0,P|106:42|157:58,1,127.500004863739,0|2,3:2|0:0,0:0:0:0:
174,44,89977,1,0,0:0:0:0:
174,44,90097,2,0,P|188:78|170:121,1,63.7500024318696,8|0,1:2|0:0,0:0:0:0:
251,151,90337,2,0,P|236:185|255:228,1,63.7500024318696,2|0,0:0|0:0,0:0:0:0:
357,261,90577,6,0,B|311:267|311:267|297:287|297:287|241:297,2,127.500004863739,0|2|8,3:0|0:0|1:2,0:0:0:0:
507,234,91297,1,2,3:2:0:0:
461,295,91417,1,0,1:0:0:0:
428,225,91537,1,0,1:0:0:0:
507,234,91777,6,0,L|497:309,1,63.7500024318696,0|0,3:0|3:0,0:0:0:0:
461,295,92017,6,0,L|451:370,1,53.125,8|4,3:0|3:0,0:0:0:0:
435,357,92257,5,0,3:0:0:0:
309,380,92497,6,0,L|197:369,1,85,4|0,3:2|0:0,0:0:0:0:
171,305,92977,2,0,L|182:193,1,85,0|0,3:0|0:0,0:0:0:0:
119,167,93457,1,0,3:0:0:0:
119,167,93577,2,0,L|74:164,2,42.5
151,139,93937,2,0,L|162:27,1,85,0|0,3:0|0:0,0:0:0:0:
182,34,94297,2,0,L|221:46,1,21.25,0|0,3:0|3:0,0:0:0:0:
231,51,94417,6,0,P|266:26|322:34,1,85,0|0,3:0|0:0,0:0:0:0:
390,44,94897,2,0,P|425:19|481:27,1,85,0|0,3:0|0:0,0:0:0:0:
503,50,95257,1,0,0:0:0:0:
503,50,95377,2,0,L|485:108,1,42.5,0|0,3:0|0:0,0:0:0:0:
422,142,95617,2,0,L|440:200,1,42.5
494,249,95857,2,0,P|441:219|392:226,1,85,0|0,3:0|3:0,0:0:0:0:
401,238,96217,1,0,1:0:0:0:
335,277,96337,6,0,P|309:249|310:200,1,85,0|0,1:0|0:0,0:0:0:0:
217,114,96817,2,0,P|205:150|162:174,1,85,0|0,3:0|0:0,0:0:0:0:
134,297,97297,2,0,P|171:288|213:313,1,85,0|0,3:0|0:0,0:0:0:0:
239,342,97657,1,2,0:0:0:0:
57,364,97897,5,2,0:0:0:0:
57,342,98017,1,2,0:0:0:0:
57,320,98137,1,2,0:0:0:0:
15,255,98257,5,4,3:2:0:0:
182,62,99457,2,0,L|178:8,1,42.5,2|0,0:0|0:0,0:0:0:0:
179,21,99697,2,0,P|117:20|96:58,1,85,2|4,3:2|3:0,3:0:0:0:
86,108,100057,1,8,3:0:0:0:
86,108,100177,6,0,L|-16:97,2,85,4|0|2,3:2|0:0|1:2,0:0:0:0:
179,194,100897,1,2,0:0:0:0:
191,211,101017,2,0,P|240:184|250:133,1,85,2|0,0:0|0:0,0:0:0:0:
250,159,101377,2,0,L|256:221,1,42.5,2|0,0:0|0:0,0:0:0:0:
324,232,101617,2,0,P|373:205|383:154,1,85,0|2,1:0|0:0,0:0:0:0:
466,82,102097,5,0,3:0:0:0:
373,170,102337,2,0,L|314:163,1,42.5,2|0,0:0|0:0,0:0:0:0:
408,245,102577,2,0,L|401:304,1,42.5,0|0,1:0|0:0,0:0:0:0:
456,176,102817,2,0,P|496:196|502:269,1,85,2|2,0:0|3:2,0:0:0:0:
484,264,103177,2,0,L|477:323,1,42.5,2|0,0:0|0:0,0:0:0:0:
468,382,103417,2,0,P|397:359|362:360,1,85,2|0,0:0|0:0,0:0:0:0:
314,382,103777,1,2,0:0:0:0:
184,299,104017,5,0,3:0:0:0:
147,222,104497,1,2,1:2:0:0:
110,145,104977,1,0,3:0:0:0:
73,68,105457,1,2,1:2:0:0:
152,39,105697,1,2,0:0:0:0:
152,39,105937,6,0,L|262:50,1,85,0|0,3:0|0:0,0:0:0:0:
236,47,106297,1,0,0:0:0:0:
293,98,106417,2,0,P|305:137|293:171,2,42.5,0|0|0,1:0|0:0|0:0,0:0:0:0:
232,178,106777,1,0,3:0:0:0:
230,199,106897,1,8,1:2:0:0:
299,306,107137,6,0,L|374:298,1,42.5,8|0,1:2|0:0,0:0:0:0:
406,260,107377,2,0,L|481:252,1,42.5,0|0,1:0|3:0,0:0:0:0:
288,321,107617,1,0,3:0:0:0:
288,321,107857,6,0,P|221:339|121:281,1,170,4|0,3:2|1:0,0:0:0:0:
75,359,108577,2,0,P|25:309|26:194,1,170,2|2,0:0|0:0,0:0:0:0:
61,140,109297,1,0,1:0:0:0:
118,26,109537,2,0,B|150:52|150:52|143:97,1,85,2|0,0:0|3:0,0:0:0:0:
180,172,110017,5,2,0:0:0:0:
261,148,110257,1,2,1:2:0:0:
224,71,110497,1,2,0:0:0:0:
143,95,110737,1,2,3:2:0:0:
58,93,110977,1,2,0:0:0:0:
136,125,111217,1,2,1:2:0:0:
176,199,111457,2,0,P|186:248|181:261,1,42.5,2|0,0:0|0:0,0:0:0:0:
181,280,111697,5,0,3:0:0:0:
278,362,111937,2,0,P|330:343|376:347,1,85,2|0,0:0|1:0,0:0:0:0:
398,359,112297,1,2,0:0:0:0:
475,257,112537,1,2,0:0:0:0:
493,246,112657,1,2,3:2:0:0:
470,211,112777,1,2,0:0:0:0:
432,195,112897,1,2,0:0:0:0:
390,202,113017,1,2,0:0:0:0:
327,246,113137,2,0,P|297:183|317:140,1,85,0|0,1:0|0:0,0:0:0:0:
357,57,113617,6,0,L|230:35,1,127.5,0|0,3:0|0:0,0:0:0:0:
212,25,114097,2,0,P|242:88|222:131,1,85,0|0,1:0|0:0,0:0:0:0:
234,120,114457,1,0,0:0:0:0:
242,139,114577,2,0,L|316:154,1,42.5,0|0,3:0|0:0,0:0:0:0:
348,98,114817,2,0,L|363:24,1,42.5
212,25,115057,1,2,1:2:0:0:
170,29,115177,1,2,0:0:0:0:
139,57,115297,1,2,0:0:0:0:
132,98,115417,1,2,0:0:0:0:
72,153,115537,6,0,P|84:226|123:258,1,127.5,4|0,3:2|0:0,0:0:0:0:
123,258,116017,2,0,L|224:246,1,85,0|0,1:0|0:0,0:0:0:0:
228,243,116377,1,0,0:0:0:0:
274,182,116497,1,0,3:0:0:0:
350,284,116737,1,0,0:0:0:0:
254,368,116977,1,2,1:2:0:0:
245,348,117097,1,2,0:0:0:0:
245,326,117217,1,2,0:0:0:0:
426,316,117457,6,0,L|433:256,3,42.5,0|0|0|0,3:0|0:0|0:0|0:0,0:0:0:0:
381,210,117937,2,0,L|374:150,1,42.5,0|0,1:0|0:0,0:0:0:0:
435,71,118177,2,0,L|431:114,1,42.5
372,227,118417,1,0,3:0:0:0:
354,239,118537,2,0,L|234:225,1,85,0|0,1:0|0:0,0:0:0:0:
248,227,118897,2,0,P|223:274|231:324,1,85,0|0,1:0|0:0,0:0:0:0:
141,326,119377,6,0,L|335:348,1,170,4|0,3:2|1:0,0:0:0:0:
129,345,120097,2,0,P|73:331|88:217,1,170,2|2,0:0|0:0,0:0:0:0:
135,182,120817,1,0,1:0:0:0:
215,209,121057,2,0,P|248:193|288:209,1,42.5,2|2,0:0|0:0,0:0:0:0:
212,117,121297,1,4,3:2:0:0:
130,94,121537,6,0,B|117:98|109:92|109:92|120:90|128:81,1,42.5,0|0,0:0|3:0,0:0:0:0:
237,28,121777,1,0,1:0:0:0:
374,101,122017,6,0,P|387:65|386:48,1,42.5,0|0,3:0|0:0,0:0:0:0:
292,145,122257,2,0,L|219:149,1,42.5,0|0,3:0|3:0,0:0:0:0:
427,179,122497,2,0,L|488:218,1,42.5,0|0,3:0|0:0,0:0:0:0:
314,348,122737,5,2,0:0:0:0:
325,261,122857,1,2,0:0:0:0:
353,194,122977,5,2,0:0:0:0:
337,278,123097,1,2,0:0:0:0:
300,366,123217,6,0,P|225:348|155:346,1,127.5,4|0,1:2|0:0,0:0:0:0:
97,265,123577,2,0,P|118:271|139:276,1,42.5,2|0,0:0|0:0,0:0:0:0:
187,217,123817,1,2,3:2:0:0:
192,183,123937,1,2,3:2:0:0:
179,151,124057,1,2,3:2:0:0:
265,211,124177,6,0,P|340:229|410:231,1,127.5,4|0,1:2|0:0,0:0:0:0:
512,68,124537,2,0,P|437:86|367:88,1,127.5,4|0,1:2|0:0,0:0:0:0:
361,92,124897,1,0,1:0:0:0:
313,0,125017,1,0,1:0:0:0:
211,99,125137,6,0,P|144:111|113:107,1,63.7500024318696,4|0,3:1|0:0,0:0:0:0:
75,86,125377,1,2,0:0:0:0:
20,207,125497,2,0,L|191:193,1,127.500004863739,2|0,0:0|0:0,0:0:0:0:
234,295,125857,2,0,P|167:283|136:287,1,63.7500024318696,2|0,0:0|0:0,0:0:0:0:
98,308,126097,1,0,3:0:0:0:
282,357,126337,5,2,0:0:0:0:
356,375,126457,2,0,P|387:324|383:309,1,63.7500024318696,2|8,0:0|1:2,0:0:0:0:
350,177,126697,2,0,B|377:246|342:236|366:301,1,127.500004863739,2|0,0:0|0:0,0:0:0:0:
443,182,127057,5,0,3:0:0:0:
443,182,127177,1,0,0:0:0:0:
443,182,127297,2,0,B|453:152|453:152|450:118,1,63.7500024318696,2|0,0:0|0:0,0:0:0:0:
276,101,127537,2,0,B|266:131|266:131|269:165,1,63.7500024318696,8|0,1:2|0:0,0:0:0:0:
334,302,127777,2,0,B|358:237|323:247|354:168,1,127.500004863739,2|0,0:0|3:0,0:0:0:0:
350,177,128137,1,8,0:0:0:0:
359,101,128257,2,0,L|370:20,1,63.7500024318696,2|0,0:0|0:0,0:0:0:0:
213,52,128497,2,0,P|278:68|362:32,1,127.500004863739,8|2,1:2|0:0,0:0:0:0:
276,101,128857,1,0,0:0:0:0:
179,165,128977,6,0,P|149:154|49:169,1,127.500004863739,0|2,3:0|0:0,0:0:0:0:
11,228,129337,1,0,0:0:0:0:
56,289,129457,2,0,P|85:299|186:285,1,127.500004863739,8|2,1:2|0:0,0:0:0:0:
225,227,129817,1,0,0:0:0:0:
346,292,129937,2,0,L|418:279,1,63.7500024318696,0|8,3:0|0:0,0:0:0:0:
274,328,130177,1,2,0:0:0:0:
267,296,130297,1,0,0:0:0:0:
303,228,130417,2,0,P|265:206|239:206,1,63.7500024318696,8|0,1:2|0:0,0:0:0:0:
416,310,130657,2,0,P|454:332|480:332,1,63.7500024318696,2|0,0:0|0:0,0:0:0:0:
404,106,130897,6,0,P|390:179|382:245,1,127.500004863739,4|6,3:2|3:2,0:0:0:0:
259,85,131377,2,0,P|255:53|249:21,1,63.7500024318696,0|0,1:0|3:0,0:0:0:0:
174,3,131617,1,2,3:2:0:0:
153,27,131737,1,4,3:1:0:0:
154,58,131857,1,0,3:0:0:0:
34,207,132097,2,0,P|28:175|24:144,1,63.7500024318696,8|0,1:2|0:0,0:0:0:0:
23,67,132337,1,8,3:0:0:0:
54,73,132457,1,4,3:0:0:0:
80,90,132577,1,4,3:0:0:0:
96,117,132697,1,0,3:0:0:0:
172,113,132817,6,0,P|192:200|153:268,1,127.500004863739,4|2,3:1|0:0,0:0:0:0:
213,303,133177,2,0,P|147:363|69:364,1,127.500004863739,2|0,0:0|0:0,0:0:0:0:
64,311,133537,2,0,P|32:305|9:284,1,63.7500024318696,2|0,0:0|0:0,0:0:0:0:
213,303,133777,6,0,L|313:319,1,63.7500024318696,0|0,3:0|0:0,0:0:0:0:
403,312,134017,1,2,0:0:0:0:
470,345,134137,2,0,P|490:320|497:289,1,63.7500024318696,2|8,0:0|1:2,0:0:0:0:
377,163,134377,1,0,0:0:0:0:
353,142,134497,2,0,L|366:223,1,63.7500024318696,2|0,0:0|0:0,0:0:0:0:
421,285,134737,6,0,B|404:274|404:274|352:282,1,63.7500024318696,0|0,3:0|0:0,0:0:0:0:
305,62,134977,2,0,B|322:73|322:73|364:66,1,63.7500024318696,2|0,0:0|0:0,0:0:0:0:
419,171,135217,2,0,B|363:167|363:167|350:174|350:174|289:169,1,127.500004863739,8|2,1:2|0:0,0:0:0:0:
268,167,135577,1,0,0:0:0:0:
221,227,135697,1,0,3:0:0:0:
199,203,135817,1,8,0:0:0:0:
192,170,135937,1,0,3:0:0:0:
58,50,136177,5,0,1:0:0:0:
87,140,136297,1,0,1:0:0:0:
99,30,136417,5,0,1:0:0:0:
54,168,136537,1,0,1:0:0:0:
78,101,136657,5,4,1:2:0:0:
78,101,136897,1,4,1:2:0:0:
78,101,137617,5,4,1:2:0:0:
78,101,137857,1,4,1:2:0:0:
120,229,138097,5,8,3:0:0:0:
122,247,138217,1,4,3:0:0:0:
124,265,138337,1,0,3:0:0:0:
126,283,138457,1,0,3:0:0:0:
72,338,138577,6,0,P|49:331|-3:329,1,63.7500024318696,4|0,3:1|0:0,0:0:0:0:
201,286,138817,2,0,P|224:293|276:295,1,63.7500024318696,2|0,0:0|0:0,0:0:0:0:
174,374,139057,2,0,B|164:384|144:385|144:385|157:364|152:324,1,63.7500024318696,8|0,1:2|0:0,0:0:0:0:
120,229,139297,1,2,0:0:0:0:
146,335,139417,2,0,P|205:300|274:299,1,127.500004863739,2|0,0:0|0:0,0:0:0:0:
331,331,139777,1,2,0:0:0:0:
325,362,139897,1,0,0:0:0:0:
368,363,140017,1,8,1:2:0:0:
405,338,140137,1,0,0:0:0:0:
419,296,140257,1,2,0:0:0:0:
407,254,140377,1,0,0:0:0:0:
343,212,140497,6,0,P|322:192|329:128,1,63.7500024318696,0|0,3:0|0:0,0:0:0:0:
384,126,140737,2,0,P|405:146|398:210,1,63.7500024318696,2|0,0:0|0:0,0:0:0:0:
214,177,140977,2,0,P|220:148|279:122,1,63.7500024318696,8|0,1:2|0:0,0:0:0:0:
213,0,141217,2,0,P|221:30|244:50,1,63.7500024318696,2|0,0:0|0:0,0:0:0:0:
384,126,141457,5,0,3:0:0:0:
392,156,141577,1,0,0:0:0:0:
305,187,141697,1,2,0:0:0:0:
314,158,141817,1,0,0:0:0:0:
245,126,141937,1,8,1:2:0:0:
222,146,142057,1,0,0:0:0:0:
119,28,142177,2,0,L|251:52,1,127.500004863739,2|4,0:0|3:2,0:0:0:0:
315,83,142537,6,0,P|364:84|390:63,1,63.7500024318696,2|0,0:0|0:0,0:0:0:0:
332,163,142777,2,0,P|343:193|368:213,1,63.7500024318696,2|8,0:0|1:2,0:0:0:0:
271,220,143017,2,0,P|245:261|250:294,1,63.7500024318696,2|0,0:0|0:0,0:0:0:0:
363,384,143257,6,0,P|342:363|289:356,1,63.7500024318696,2|0,0:0|3:0,0:0:0:0:
262,290,143497,2,0,P|232:281|202:290,1,63.7500024318696,2|0,0:0|0:0,0:0:0:0:
131,260,143737,2,0,P|102:267|70:310,1,63.7500024318696,2|8,0:0|1:2,0:0:0:0:
13,346,143977,6,0,P|41:338|73:295,1,63.7500024318696,2|0,0:0|0:0,0:0:0:0:
109,184,144217,2,0,P|116:212|95:261,1,63.7500024318696,2|0,0:0|3:0,0:0:0:0:
195,369,144457,2,0,P|165:362|143:340,1,63.7500024318696,2|0,0:0|0:0,0:0:0:0:
336,359,144697,2,0,P|366:349|388:326,1,63.7500024318696,2|8,0:0|1:2,0:0:0:0:
389,162,144937,2,0,P|380:193|388:224,1,63.7500024318696,2|0,0:0|0:0,0:0:0:0:
512,291,145177,6,0,L|443:275,1,63.7500024318696,2|0,0:0|3:0,0:0:0:0:
312,240,145417,1,0,1:0:0:0:
236,253,145537,1,0,3:0:0:0:
185,310,145657,1,2,3:2:0:0:
109,318,145777,2,0,B|90:311|75:310|75:310|85:291|127:293,1,63.7500024318696,0|8,1:0|3:0,0:0:0:0:
170,369,146017,2,0,P|185:341|185:310,1,63.7500024318696,4|0,3:0|0:0,0:0:0:0:
102,204,146257,5,6,3:2:0:0:
40,187,146377,1,2,0:0:0:0:
9,130,146497,1,2,0:0:0:0:
24,115,146617,5,2,0:0:0:0:
14,76,146737,1,10,1:2:0:0:
35,41,146857,1,2,0:0:0:0:
55,47,146977,5,2,0:0:0:0:
71,51,147097,1,2,0:0:0:0:
119,91,147217,5,2,3:2:0:0:
172,127,147337,1,2,0:0:0:0:
236,115,147457,1,2,0:0:0:0:
238,93,147577,5,2,0:0:0:0:
274,76,147697,1,10,1:2:0:0:
287,37,147817,1,2,0:0:0:0:
268,25,147937,5,2,0:0:0:0:
249,14,148057,1,2,0:0:0:0:
183,52,148177,6,0,P|170:81|196:139,1,63.7500024318696,0|0,3:0|0:0,0:0:0:0:
243,144,148417,2,0,P|261:169|324:176,1,63.7500024318696,2|0,0:0|0:0,0:0:0:0:
360,149,148657,1,8,1:2:0:0:
476,49,148897,1,2,0:0:0:0:
476,49,149017,1,0,3:0:0:0:
476,49,149137,2,0,L|467:128,1,63.7500024318696,0|0,3:0|0:0,0:0:0:0:
420,221,149377,6,0,P|404:204|409:170,2,42.5000016212464,2|2|2,0:0|0:0|0:0,0:0:0:0:
475,271,149617,2,0,P|490:287|486:322,2,42.5000016212464,10|2|2,1:2|0:0|0:0,0:0:0:0:
404,293,149857,1,2,0:0:0:0:
212,285,150097,5,2,3:2:0:0:
149,329,150217,2,0,P|86:306|90:224,1,127.500004863739,2|2,0:0|0:0,0:0:0:0:
111,184,150577,1,8,1:2:0:0:
111,184,150697,2,0,P|174:161|170:79,1,127.500004863739,2|0,0:0|0:0,0:0:0:0:
157,90,151057,2,0,L|168:185,1,63.7500024318696,2|0,3:2|0:0,0:0:0:0:
240,200,151297,1,2,0:0:0:0:
313,219,151417,2,0,L|218:230,1,63.7500024318696,2|8,0:0|1:2,0:0:0:0:
187,270,151657,2,0,P|153:332|189:381,1,127.500004863739,2|0,0:0|0:0,0:0:0:0:
255,383,152017,6,0,B|334:378|281:342|369:339,1,127.500004863739,2|2,3:2|0:0,0:0:0:0:
394,335,152377,1,2,0:0:0:0:
457,377,152497,2,0,P|492:354|476:261,1,127.500004863739,12|2,1:2|0:0,0:0:0:0:
471,259,152857,1,0,1:0:0:0:
436,190,152977,1,2,3:2:0:0:
404,187,153097,1,0,1:0:0:0:
374,200,153217,1,0,3:0:0:0:
255,49,153457,1,8,3:0:0:0:
225,62,153577,1,4,3:0:0:0:
193,59,153697,1,0,3:0:0:0:
293,137,153937,5,4,0:0:0:0:
63,312,161617,6,0,L|456:285,1,382.5,2|0,3:2|0:0,0:0:0:0:
444,285,162817,2,0,P|415:244|426:184,1,85,2|8,0:0|1:2,0:0:0:0:
439,176,163177,2,0,L|453:126,2,42.5,2|2|0,0:0|0:0|0:0,0:0:0:0:
414,211,163537,6,0,L|21:184,1,382.5,2|0,3:2|0:0,0:0:0:0:
32,184,164737,2,0,P|61:143|50:83,1,85,2|8,0:0|1:2,0:0:0:0:
37,75,165097,2,0,L|23:25,2,42.5,2|2|0,0:0|0:0|0:0,0:0:0:0:
61,109,165457,6,0,P|142:150|373:8,1,382.5,2|0,3:2|0:0,0:0:0:0:
370,17,166657,2,0,P|373:85|414:114,1,85,2|8,0:0|1:2,0:0:0:0:
371,109,167017,2,0,P|430:140|476:119,1,85,2|0,0:0|0:0,0:0:0:0:
487,139,167377,6,0,P|396:143|267:382,1,382.5,2|0,3:2|0:0,0:0:0:0:
263,370,168577,2,0,L|379:355,1,85,2|2,3:2|3:2,0:0:0:0:
95,321,169297,5,4,3:2:0:0:
95,321,169777,1,0,3:0:0:0:
95,321,170257,1,0,3:0:0:0:
95,321,170737,1,0,3:0:0:0:
95,321,171217,1,0,3:0:0:0:
95,321,171697,1,0,3:0:0:0:
95,321,172177,1,0,3:0:0:0:
95,321,172657,1,0,3:0:0:0:
3,177,173137,5,0,3:0:0:0:
3,177,173617,1,0,3:0:0:0:
3,177,174097,1,0,3:0:0:0:
3,177,174577,1,0,3:0:0:0:
3,177,175057,1,0,3:0:0:0:
3,177,175537,1,0,3:0:0:0:
3,177,176017,1,0,3:0:0:0:
3,177,176497,1,0,3:0:0:0:
173,170,176977,6,0,P|234:175|273:159,1,85,4|2,3:2|0:0,0:0:0:0:
294,149,177337,1,2,0:0:0:0:
382,56,177697,1,2,0:0:0:0:
448,3,177937,2,0,P|488:37|484:121,1,127.5,2|2,0:0|0:0,0:0:0:0:
413,208,178657,1,2,0:0:0:0:
385,288,178897,6,0,P|336:283|297:249,1,85,2|2,0:0|0:0,0:0:0:0:
282,228,179257,1,2,0:0:0:0:
181,306,179617,1,2,0:0:0:0:
111,354,179857,2,0,P|49:312|59:259,1,127.5,2|2,0:0|0:0,0:0:0:0:
138,171,180577,1,2,0:0:0:0:
65,126,180817,6,0,L|49:37,1,85,2|2,0:0|0:0,0:0:0:0:
24,8,181177,1,2,0:0:0:0:
145,46,181537,1,2,0:0:0:0:
223,78,181777,2,0,L|324:91,1,85,2|2,0:0|0:0,0:0:0:0:
349,94,182137,2,0,P|362:71|359:44,4,42.5,2|2|2|2|2,0:0|0:0|0:0|0:0|0:0,0:0:0:0:
307,88,182737,5,2,0:0:0:0:
256,192,182857,12,0,184417,0:0:0:0:
102,55,184657,6,0,P|114:89|109:49,1,127.500004863739,4|0,3:2|0:0,0:0:0:0:
181,166,185017,6,0,P|203:184|183:158,1,106.25,4|0,3:2|0:0,0:0:0:0:
293,213,185377,6,0,P|315:217|291:206,1,85,4|0,3:2|0:0,0:0:0:0:
400,187,185737,6,0,P|416:180|396:183,1,63.7500024318696,4|0,3:2|0:0,0:0:0:0:
478,127,186097,6,0,P|455:105|425:93,1,63.7500024318696,4|0,3:2|0:0,0:0:0:0:
393,91,186337,2,0,P|362:99|337:119,1,63.7500024318696,4|0,3:2|0:0,0:0:0:0:
404,177,186577,6,0,P|416:235|407:313,1,127.500004863739,4|0,1:0|0:0,0:0:0:0:
402,326,186937,1,0,3:0:0:0:
329,351,187057,1,0,1:0:0:0:
216,195,187297,2,0,P|150:177|138:60,1,191.250007295609,0|0,3:0|1:0,0:0:0:0:
205,44,187777,2,0,B|216:77|216:77|203:105,1,63.7500024318696,0|0,3:0|0:0,0:0:0:0:
143,150,188017,1,0,1:0:0:0:
117,145,188137,1,8,3:0:0:0:
91,141,188257,1,4,3:0:0:0:
66,137,188377,1,0,3:0:0:0:
10,83,188497,6,0,L|33:258,1,127.500004863739,4|4,1:2|1:2,0:0:0:0:
194,302,188977,1,2,0:0:0:0:
214,286,189097,1,2,0:0:0:0:
236,297,189217,1,2,0:0:0:0:
290,243,189337,2,0,P|336:289|299:362,1,127.500004863739,4|2,1:2|0:0,0:0:0:0:
322,344,189697,6,0,P|327:300|348:274,1,63.7500024318696,2|2,0:0|0:0,0:0:0:0:
292,222,189937,2,0,P|317:185|348:173,1,63.7500024318696,2|2,1:2|3:2,0:0:0:0:
326,100,190177,2,0,P|366:81|399:86,1,63.7500024318696,4|0,3:0|0:0,0:0:0:0:
416,11,190417,1,4,3:2:0:0:
84,161,191257,5,0,1:0:0:0:
139,212,191377,2,0,P|209:195|204:95,1,148.750001418591,2|8,0:0|3:0,0:0:0:0:
173,71,191737,1,0,3:0:0:0:
225,127,191857,2,0,L|315:136,1,63.7500024318696,8|0,1:2|0:0,0:0:0:0:
173,71,192097,2,0,L|109:64,1,63.7500024318696,4|4,3:0|3:0,0:0:0:0:
333,197,192337,5,2,3:2:0:0:
364,200,192457,1,2,3:2:0:0:
396,203,192577,1,2,3:2:0:0:
427,206,192697,1,2,3:2:0:0:
504,210,192817,6,0,B|460:208|425:235|415:294|415:294|430:280|448:277,1,170,4|0,1:2|0:0,0:0:0:0:
463,294,193177,6,0,P|406:248|317:255,1,127.5,4|0,1:2|3:0,0:0:0:0:
218,378,193777,1,8,3:0:0:0:
186,374,193897,1,4,3:0:0:0:
139,353,194017,1,2,3:2:0:0:
100,301,194137,1,2,3:2:0:0:
77,224,194257,6,0,P|64:184|75:142,1,85,4|0,3:1|0:0,0:0:0:0:
210,101,194497,1,2,3:2:0:0:
210,101,194617,1,0,0:0:0:0:
210,101,194737,2,0,B|144:105,1,63.7500024318696,8|0,1:2|0:0,0:0:0:0:
80,65,194977,1,2,0:0:0:0:
144,181,195097,2,0,L|300:172,1,127.500004863739,0|0,3:0|0:0,0:0:0:0:
304,190,195457,2,0,P|316:114|312:106,1,63.7500024318696,2|0,3:2|0:0,0:0:0:0:
417,20,195697,2,0,P|405:96|409:104,1,63.7500024318696,10|0,1:2|0:0,0:0:0:0:
318,48,195937,2,0,L|247:33,1,63.7500024318696,2|0,3:2|0:0,0:0:0:0:
402,163,196177,6,0,P|475:184|517:148,1,127.500004863739,4|4,1:2|1:2,0:0:0:0:
328,210,196657,1,0,1:0:0:0:
346,256,196777,1,0,1:0:0:0:
329,303,196897,1,0,1:0:0:0:
297,372,197017,2,0,P|238:345|240:247,1,127.500004863739,4|0,3:1|0:0,0:0:0:0:
188,219,197377,2,0,P|198:293|182:322,1,63.7500024318696,0|0,3:0|0:0,0:0:0:0:
69,352,197617,2,0,P|41:335|22:310,1,63.7500024318696,8|8,1:2|3:0,0:0:0:0:
63,245,197857,1,4,3:0:0:0:
75,215,197977,1,0,3:0:0:0:
65,184,198097,6,0,B|30:95|30:95|95:118,1,127.500004863739,4|2,3:1|0:0,0:0:0:0:
234,88,198457,2,0,B|174:13|174:13|161:80,1,127.500004863739,2|0,0:0|0:0,0:0:0:0:
139,115,198817,2,0,L|173:184,1,63.7500024318696,2|0,0:0|0:0,0:0:0:0:
362,138,199057,6,0,L|221:115,1,127.500004863739,0|2,3:0|0:0,0:0:0:0:
369,113,199417,2,0,P|429:120|446:178,1,127.500004863739,2|0,0:0|0:0,0:0:0:0:
390,230,199777,2,0,B|376:241|384:270|384:270|392:256|408:254,1,63.7500024318696,2|0,0:0|0:0,0:0:0:0:
493,365,200017,6,0,P|461:364|430:355,1,63.7500024318696,0|0,3:0|0:0,0:0:0:0:
321,182,200257,2,0,P|290:173|258:172,1,63.7500024318696,2|0,0:0|0:0,0:0:0:0:
416,271,200497,2,0,P|327:265|277:270,1,127.500004863739,8|2,1:2|0:0,0:0:0:0:
270,286,200857,1,0,0:0:0:0:
88,346,201097,1,8,3:2:0:0:
66,332,201217,2,0,P|43:302|56:260,1,63.7500024318696,2|0,3:2|0:0,0:0:0:0:
109,236,201457,5,8,1:2:0:0:
134,217,201577,1,0,1:0:0:0:
185,160,201697,1,0,1:0:0:0:
175,84,201817,1,0,1:0:0:0:
171,52,201937,5,4,1:2:0:0:
171,52,202177,2,0,L|169:3,1,42.5,4|2,1:2|0:0,0:0:0:0:
171,52,202897,5,4,1:2:0:0:
171,52,203137,1,4,1:2:0:0:
440,322,203617,6,0,P|360:276|236:297,1,191.250007295609,4|0,1:0|0:0,0:0:0:0:
234,294,204097,2,0,L|243:357,1,63.7500024318696,2|2,0:0|0:0,0:0:0:0:
217,338,204337,1,2,3:2:0:0:
155,292,204457,2,0,P|89:280|75:280,1,63.7500024318696,2|2,1:2|0:0,0:0:0:0:
0,181,204697,2,0,P|30:172|62:169,1,63.7500024318696,2|0,1:2|0:0,0:0:0:0:
182,74,204937,5,2,1:2:0:0:
150,67,205057,1,2,1:2:0:0:
118,92,205177,1,2,3:2:0:0:
150,99,205297,1,2,3:2:0:0:
317,7,205537,1,4,3:0:0:0:
317,7,205777,6,0,P|325:78|322:163,1,127.500004863739,4|2,3:1|3:2,0:0:0:0:
490,250,206257,2,0,P|481:178|485:94,1,127.500004863739,0|2,1:0|0:0,0:0:0:0:
482,123,206617,1,2,0:0:0:0:
405,126,206737,2,0,P|404:193|410:225,1,63.7500024318696,0|0,3:0|0:0,0:0:0:0:
478,269,206977,2,0,P|421:297|358:289,1,127.500004863739,2|8,0:0|1:2,0:0:0:0:
295,257,207337,1,0,0:0:0:0:
295,257,207457,1,2,0:0:0:0:
108,299,207697,6,0,P|173:324|236:288,1,127.500004863739,0|2,3:0|0:2,0:0:0:0:
110,198,208177,2,0,P|169:176|226:201,1,127.500004863739,8|2,1:2|0:0,0:0:0:0:
226,201,208537,1,0,0:0:0:0:
294,235,208657,1,0,3:0:0:0:
313,217,208777,2,0,P|325:147|316:92,1,127.500004863739,8|0,0:0|0:0,0:0:0:0:
316,91,209137,2,0,P|342:103|379:101,1,63.7500024318696,8|0,1:2|0:0,0:0:0:0:
387,25,209377,2,0,P|361:13|324:15,1,63.7500024318696,2|0,0:0|0:0,0:0:0:0:
255,43,209617,5,0,3:0:0:0:
80,120,209857,1,2,0:0:0:0:
255,43,210097,1,8,1:2:0:0:
213,229,210337,1,2,0:0:0:0:
204,253,210457,2,0,L|196:346,1,63.7500024318696,0|0,0:0|3:0,0:0:0:0:
258,364,210697,1,8,0:0:0:0:
282,358,210817,1,2,0:0:0:0:
423,229,211057,1,8,1:2:0:0:
401,242,211177,1,0,0:0:0:0:
375,245,211297,1,2,0:0:0:0:
255,96,211537,6,0,P|165:78|89:107,1,127.500004863739,0|2,3:0|0:0,0:0:0:0:
131,85,211897,1,0,0:0:0:0:
78,30,212017,2,0,P|17:98|4:179,1,127.500004863739,8|2,1:2|0:0,0:0:0:0:
6,131,212377,1,0,3:0:0:0:
57,187,212497,2,0,P|61:222|45:270,1,63.7500024318696,0|0,3:0|3:0,0:0:0:0:
131,254,212737,2,0,P|128:286|114:314,1,63.7500024318696,2|0,3:2|0:0,0:0:0:0:
186,340,212977,1,0,1:0:0:0:
393,256,213217,1,2,0:0:0:0:
393,256,213337,1,2,0:0:0:0:
393,256,213457,6,0,P|461:285|460:360,2,127.500004863739,4|2|8,3:1|0:0|1:2,0:0:0:0:
213,190,214177,1,2,0:0:0:0:
234,203,214297,2,0,P|292:183|310:124,1,127.500004863739,2|0,0:0|0:0,0:0:0:0:
310,124,214657,2,0,L|237:99,1,63.7500024318696,2|0,0:0|0:0,0:0:0:0:
226,91,214897,1,8,1:2:0:0:
42,143,215137,1,2,0:0:0:0:
54,172,215257,1,2,0:0:0:0:
123,203,215377,6,0,P|137:139|143:65,1,127.500004863739,0|2,3:0|0:0,0:0:0:0:
260,228,215857,2,0,P|266:291|279:353,1,127.500004863739,8|2,1:2|0:0,0:0:0:0:
302,365,216217,1,2,0:0:0:0:
373,338,216337,2,0,P|400:324|451:323,2,63.7500024318696,0|8|0,3:0|0:0|3:0,0:0:0:0:
504,198,216817,1,8,1:2:0:0:
466,201,216937,1,2,0:0:0:0:
432,184,217057,1,2,0:0:0:0:
411,153,217177,1,2,0:0:0:0:
335,143,217297,6,0,P|335:75|378:19,1,127.500004863739,0|2,3:0|0:0,0:0:0:0:
438,68,217657,1,0,0:0:0:0:
438,68,217777,2,0,P|404:126|338:153,1,127.500004863739,8|2,1:2|0:0,0:0:0:0:
308,214,218137,1,0,0:0:0:0:
309,245,218257,1,0,3:0:0:0:
271,246,218377,1,0,0:0:0:0:
238,228,218497,1,2,0:0:0:0:
218,196,218617,1,0,0:0:0:0:
219,132,218737,5,8,1:2:0:0:
198,74,218857,1,0,0:0:0:0:
139,56,218977,1,2,0:0:0:0:
91,94,219097,1,0,0:0:0:0:
79,124,219217,6,0,P|88:183|98:197,1,63.7500024318696,0|0,3:0|0:0,0:0:0:0:
68,221,219457,2,0,P|106:268|121:275,1,63.7500024318696,2|0,0:0|0:0,0:0:0:0:
132,342,219697,2,0,P|187:363|204:362,1,63.7500024318696,8|0,1:2|0:0,0:0:0:0:
332,213,219937,1,2,0:0:0:0:
405,172,220057,1,8,0:0:0:0:
436,246,220177,2,0,P|434:278|428:310,1,63.7500024318696,8|0,3:0|0:0,0:0:0:0:
267,328,220417,2,0,P|249:247|238:136,1,170,4|8,3:0|1:2,0:0:0:0:
273,88,220777,1,2,0:0:0:0:
317,43,220897,1,2,0:0:0:0:
362,37,221017,1,2,0:0:0:0:
391,47,221137,6,0,L|210:38,1,127.500004863739,4|2,3:1|0:0,0:0:0:0:
263,40,221497,1,0,0:0:0:0:
203,88,221617,2,0,L|75:81,1,127.500004863739,10|0,1:2|0:0,0:0:0:0:
70,157,221977,2,0,L|197:163,2,127.500004863739,2|2|2,0:0|0:0|0:0,0:0:0:0:
15,210,222577,2,0,P|0:273|26:339,1,127.500004863739,8|2,1:2|0:0,0:0:0:0:
171,347,223057,6,0,B|241:350|215:308|290:312,1,127.500004863739,0|2,3:0|0:0,0:0:0:0:
289,312,223417,1,0,0:0:0:0:
352,357,223537,2,0,B|382:369|382:369|411:358,1,63.7500024318696,8|0,1:2|0:0,0:0:0:0:
417,281,223777,2,0,B|387:269|387:269|357:279,1,63.7500024318696,2|0,0:0|0:0,0:0:0:0:
289,312,224017,1,0,3:0:0:0:
128,209,224257,1,2,0:0:0:0:
133,183,224377,1,0,0:0:0:0:
154,168,224497,2,0,L|150:241,1,63.7500024318696,8|0,1:2|0:0,0:0:0:0:
91,281,224737,2,0,P|29:251|26:173,1,127.500004863739,2|0,0:0|3:0,0:0:0:0:
141,52,225217,6,0,L|277:69,1,127.500004863739,2|8,0:0|1:2,0:0:0:0:
292,73,225577,1,0,0:0:0:0:
363,46,225697,2,0,P|368:79|354:117,1,63.7500024318696,2|0,0:0|0:0,0:0:0:0:
419,211,225937,2,0,P|414:180|423:150,1,63.7500024318696,0|0,3:0|0:0,0:0:0:0:
491,115,226177,1,2,0:0:0:0:
496,139,226297,1,0,0:0:0:0:
422,230,226417,2,0,L|269:214,1,127.500004863739,8|2,1:2|0:0,0:0:0:0:
186,282,226817,1,2,0:0:0:0:
186,282,226897,6,0,P|126:288|104:207,1,127.500004863739,2|2,3:2|0:0,0:0:0:0:
114,161,227257,1,0,0:0:0:0:
123,137,227377,2,0,P|132:97|134:68,1,63.7500024318696,8|0,1:2|0:0,0:0:0:0:
31,0,227617,1,2,0:0:0:0:
7,75,227737,2,0,B|58:70|58:70|77:76|77:76|149:73,1,127.500004863739,2|8,0:0|0:0,0:0:0:0:
209,62,228097,2,0,L|203:138,1,63.7500024318696,2|0,0:0|0:0,0:0:0:0:
255,181,228337,1,8,1:2:0:0:
281,198,228457,1,8,3:0:0:0:
311,188,228577,1,4,3:0:0:0:
474,89,228817,6,0,B|450:88|429:66|429:66|405:99|375:165|481:204,1,191.250007295609,4|0,3:1|0:0,0:0:0:0:
473,195,229297,2,0,P|497:244|461:333,1,127.500004863739,8|2,1:2|0:0,0:0:0:0:
452,323,229657,2,0,L|282:309,1,127.500004863739,2|0,0:0|0:0,0:0:0:0:
293,307,230017,1,2,0:0:0:0:
106,349,230257,1,8,1:2:0:0:
106,349,230417,2,0,P|42:332|40:249,1,127.500004863739,2|0,0:0|0:0,0:0:0:0:
42,239,230737,5,0,3:0:0:0:
211,151,230977,2,0,P|275:134|277:51,1,127.500004863739,2|8,0:0|1:2,0:0:0:0:
107,25,231457,2,0,L|111:99,1,63.7500024318696,2|0,0:0|0:0,0:0:0:0:
74,156,231697,2,0,B|42:161|42:161|12:148,2,63.7500024318696,0|8|2,3:0|0:0|3:2,0:0:0:0:
243,67,232177,2,0,P|311:48|407:88,1,127.500004863739,8|2,1:2|0:0,0:0:0:0:
494,202,232657,6,0,P|512:262|500:324,1,127.500004863739,0|2,3:0|0:0,0:0:0:0:
483,343,233017,1,0,0:0:0:0:
458,336,233137,1,8,1:2:0:0:
280,263,233377,2,0,B|266:292|266:292|269:323,1,63.7500024318696,2|0,0:0|0:0,0:0:0:0:
344,307,233617,1,0,3:0:0:0:
344,307,233737,2,0,L|171:290,1,127.500004863739,8|0,0:0|0:0,0:0:0:0:
141,279,234097,2,0,P|133:303|152:354,1,63.7500024318696,8|0,1:2|0:0,0:0:0:0:
166,360,234337,1,2,0:0:0:0:
264,196,234577,6,0,P|285:98|292:28,1,127.500004863739,0|2,3:0|0:0,0:0:0:0:
58,32,235057,2,0,P|67:94|82:156,1,127.500004863739,8|2,1:2|0:0,0:0:0:0:
101,174,235417,1,0,0:0:0:0:
169,140,235537,1,0,3:0:0:0:
195,122,235657,6,0,P|205:73|209:38,1,63.7500024318696,8|2,0:0|0:0,0:0:0:0:
196,29,235897,1,0,0:0:0:0:
268,165,236017,2,0,P|278:214|282:249,1,63.7500024318696,8|0,1:2|1:0,0:0:0:0:
395,144,236257,2,0,P|358:122|316:121,1,63.7500024318696,2|0,0:0|0:0,0:0:0:0:
268,165,236497,5,6,3:2:0:0:
247,189,236617,1,0,0:0:0:0:
216,198,236737,1,2,0:0:0:0:
334,348,236977,2,0,P|417:348|439:310,1,127.500004863739,8|2,1:2|0:0,0:0:0:0:
409,290,237337,2,0,P|365:246|378:186,1,127.500004863739,2|0,0:0|0:0,0:0:0:0:
391,151,237697,2,0,B|413:177|413:177|410:206,1,63.7500024318696,2|0,0:0|0:0,0:0:0:0:
350,253,237937,2,0,L|187:243,1,127.500004863739,8|2,1:2|0:0,0:0:0:0:
81,374,238417,6,0,P|50:294|41:222,1,127.500004863739,0|2,3:0|0:0,0:0:0:0:
260,124,238897,2,0,P|246:186|221:244,1,127.500004863739,8|2,1:2|0:0,0:0:0:0:
205,264,239257,1,0,0:0:0:0:
133,238,239377,1,0,3:0:0:0:
117,217,239497,6,0,P|101:176|96:140,1,63.7500024318696,8|2,0:0|3:2,0:0:0:0:
261,46,239857,1,8,1:2:0:0:
322,37,239977,1,0,1:0:0:0:
377,67,240097,1,0,1:0:0:0:
402,125,240217,1,0,1:0:0:0:
347,178,240337,5,4,1:2:0:0:
347,178,240577,1,4,1:2:0:0:
347,178,241297,5,4,1:2:0:0:
347,178,241537,1,4,1:2:0:0:
347,178,242257,6,0,B|354:193|341:203|341:203|340:189|338:177,1,42.5,4|0,1:0|0:0,0:0:0:0:
