osu file format v14

[General]
AudioFilename: audio.ogg
AudioLeadIn: 0
PreviewTime: 63217
Countdown: 0
SampleSet: Soft
StackLeniency: 0.7
Mode: 0
LetterboxInBreaks: 0
WidescreenStoryboard: 1

[Editor]
DistanceSpacing: 0.5
BeatDivisor: 4
GridSize: 8
TimelineZoom: 1.6

[Metadata]
Title:Dakara Boku wa Ongaku o Yameta
TitleUnicode:だから僕は音楽を辞めた
Artist:Yorushika
ArtistUnicode:ヨルシカ
Creator:[Hatsune Miku]
Version:Dalou's Hard
Source:
Tags:SuperDalouBot n-buna ナブナ suis スイ japanese pop jpop j-pop thats that's why i gave up on music
BeatmapID:3090009
BeatmapSetID:1508883

[Difficulty]
HPDrainRate:4
CircleSize:4
OverallDifficulty:6
ApproachRate:8
SliderMultiplier:1.5
SliderTickRate:1

[Events]
//Background and Video events
0,0,"bg.jpg",0,0
//Break Periods
2,77337,84067
2,169497,181987
//Storyboard Layer 0 (Background)
//Storyboard Layer 1 (Fail)
//Storyboard Layer 2 (Pass)
//Storyboard Layer 3 (Foreground)
//Storyboard Layer 4 (Overlay)
//Storyboard Sound Samples

[TimingPoints]
337,480,4,2,0,30,1,0
2257,-100,4,2,0,45,0,0
16657,-100,4,2,0,30,0,0
17377,-100,4,2,0,45,0,0
17617,-83.3333333333333,4,2,0,75,0,0
32977,-100,4,2,0,60,0,0
56017,-90.9090909090909,4,2,0,60,0,0
59977,-90.9090909090909,4,2,0,40,0,0
61297,-90.9090909090909,4,2,0,30,0,0
61777,-90.9090909090909,4,2,0,60,0,0
63697,-76.9230769230769,4,2,0,80,0,1
75217,-76.9230769230769,4,2,0,80,0,0
77137,-83.3333333333333,4,2,0,80,0,0
92017,-83.3333333333333,4,2,0,60,0,0
92497,-100,4,2,0,60,0,0
115537,-90.9090909090909,4,2,0,60,0,0
119497,-90.9090909090909,4,2,0,40,0,0
120817,-90.9090909090909,4,2,0,30,0,0
121297,-90.9090909090909,4,2,0,60,0,0
125137,-76.9230769230769,4,2,0,80,0,1
136657,-76.9230769230769,4,2,0,80,0,0
138577,-83.3333333333333,4,2,0,80,0,0
146617,-83.3333333333333,4,2,0,70,0,0
146977,-83.3333333333333,4,2,0,60,0,0
147217,-83.3333333333333,4,2,0,80,0,0
147577,-83.3333333333333,4,2,0,70,0,0
147937,-83.3333333333333,4,2,0,60,0,0
148177,-83.3333333333333,4,2,0,80,0,0
153937,-100,4,2,0,50,0,0
161617,-100,4,2,0,60,0,0
169297,-100,4,2,0,40,0,0
184657,-90.9090909090909,4,2,0,60,0,0
190417,-83.3333333333333,4,2,0,60,0,1
191377,-83.3333333333333,4,2,0,80,0,1
192337,-83.3333333333333,4,2,0,60,0,1
192817,-83.3333333333333,4,2,0,80,0,1
194017,-83.3333333333333,4,2,0,60,0,1
194257,-76.9230769230769,4,2,0,80,0,1
201937,-76.9230769230769,4,2,0,80,0,0
202417,-76.9230769230769,4,2,0,40,0,0
202897,-76.9230769230769,4,2,0,80,0,0
205777,-83.3333333333333,4,2,0,80,0,1
221137,-83.3333333333333,4,2,0,80,0,0
228817,-90.9090909090909,4,2,0,80,0,0
242257,-100,4,2,0,60,0,0

[Colours]
Combo1 : 102,102,255
Combo2 : 255,126,64

[HitObjects]
233,160,2257,6,0,L|326:150,1,75,0|0,3:0|0:0,0:0:0:0:
253,66,2737,2,0,L|160:76,1,75,0|0,3:0|0:0,0:0:0:0:
76,69,3217,1,0,3:0:0:0:
76,69,3337,2,0,B|92:103|92:103|83:158,1,75,0|0,0:0|0:0,0:0:0:0:
50,173,3697,2,0,P|46:214|68:259,1,75,0|0,3:0|0:0,0:0:0:0:
142,344,4177,6,0,L|152:263,1,75,0|0,3:0|0:0,0:0:0:0:
245,243,4657,2,0,L|250:198,2,37.5,0|0|0,3:0|0:0|0:0,0:0:0:0:
322,301,5137,1,0,3:0:0:0:
322,301,5257,2,0,B|357:281|357:281|422:294,1,75,0|0,0:0|0:0,0:0:0:0:
426,322,5617,2,0,P|474:324|508:302,1,75,0|0,3:0|0:0,0:0:0:0:
480,190,6097,6,0,L|387:197,1,75,0|0,3:0|0:0,0:0:0:0:
368,163,6457,1,0,0:0:0:0:
368,163,6577,2,0,L|275:170,1,75,0|0,3:0|0:0,0:0:0:0:
200,200,7057,2,0,P|195:161|214:112,1,75,0|0,3:0|0:0,0:0:0:0:
227,17,7537,1,0,3:0:0:0:
139,59,7777,2,0,L|88:68,1,37.5,0|0,0:0|0:0,0:0:0:0:
54,53,8017,6,0,P|67:89|65:138,1,75,0|0,3:0|0:0,0:0:0:0:
30,229,8497,2,0,P|66:215|115:218,1,75,0|0,3:0|0:0,0:0:0:0:
142,243,8857,1,0,0:0:0:0:
142,243,8977,2,0,L|130:332,2,75,0|0|0,3:0|0:0|3:0,0:0:0:0:
215,178,9697,1,0,0:0:0:0:
309,265,9937,6,0,L|216:275,1,75,0|0,3:0|0:0,0:0:0:0:
142,243,10417,2,0,L|90:238,2,37.5,0|0|0,3:0|0:0|0:0,0:0:0:0:
215,178,10897,1,0,3:0:0:0:
215,178,11017,2,0,B|199:144|199:144|208:89,1,75,0|0,0:0|0:0,0:0:0:0:
248,84,11377,2,0,P|252:43|230:-2,1,75,0|0,3:0|0:0,0:0:0:0:
349,45,11857,6,0,L|444:35,1,75,0|0,3:0|0:0,0:0:0:0:
494,103,12337,2,0,L|489:148,2,37.5,0|0|0,3:0|0:0|0:0,0:0:0:0:
401,143,12817,2,0,B|392:183|392:183|408:243,1,75,0|0,3:0|0:0,0:0:0:0:
438,246,13177,1,0,0:0:0:0:
438,246,13297,2,0,L|494:241,2,37.5,0|0|0,3:0|0:0|0:0,0:0:0:0:
337,296,13777,6,0,P|316:274|264:264,1,75,0|0,3:0|0:0,0:0:0:0:
195,321,14257,2,0,P|174:343|122:353,1,75,0|0,3:0|0:0,0:0:0:0:
83,344,14617,1,0,0:0:0:0:
83,344,14737,2,0,B|89:306|89:306|77:260,1,75,0|0,3:0|0:0,0:0:0:0:
34,183,15217,1,0,3:0:0:0:
151,204,15457,1,0,0:0:0:0:
105,117,15697,6,0,B|98:83|98:83|106:35,1,75,0|0,3:0|0:0,0:0:0:0:
198,80,16177,2,0,P|234:94|283:91,1,75
308,63,16537,1,0,0:0:0:0:
308,63,16657,2,0,L|404:48,2,75,2|2|2,0:0|0:0|0:0,0:0:0:0:
368,145,17377,1,2,0:0:0:0:
371,150,17497,1,2,0:0:0:0:
374,155,17617,6,0,L|362:262,1,89.9999972534181,4|2,3:1|0:0,0:0:0:0:
258,263,18097,2,0,B|216:243|216:243|160:258,1,89.9999972534181,8|2,1:2|0:0,0:0:0:0:
142,298,18457,2,0,P|96:311|40:285,1,89.9999972534181,2|0,0:0|0:0,0:0:0:0:
11,268,18817,1,2,0:0:0:0:
34,162,19057,2,0,L|23:109,2,44.999998626709,8|0|2,1:2|0:0|0:0,0:0:0:0:
147,117,19537,6,0,P|200:130|248:108,1,89.9999972534181,0|2,3:0|0:0,0:0:0:0:
332,78,20017,2,0,L|346:179,1,89.9999972534181,8|2,1:2|0:0,0:0:0:0:
384,202,20377,2,0,L|373:301,1,89.9999972534181,2|0,0:0|3:0,0:0:0:0:
364,345,20737,1,0,0:0:0:0:
248,330,20977,1,8,1:2:0:0:
250,323,21097,1,0,0:0:0:0:
252,316,21217,1,2,0:0:0:0:
254,309,21337,1,0,0:0:0:0:
256,302,21457,6,0,L|244:195,1,89.9999972534181,0|2,3:0|0:0,0:0:0:0:
345,167,21937,2,0,B|392:181|392:181|448:167,1,89.9999972534181,8|2,1:2|0:0,0:0:0:0:
484,182,22297,2,0,L|474:78,1,89.9999972534181,2|0,0:0|0:0,0:0:0:0:
470,38,22657,1,2,0:0:0:0:
366,8,22897,1,8,1:2:0:0:
297,91,23137,1,2,0:0:0:0:
188,31,23377,6,0,B|134:25|134:25|106:36|106:36|46:29,2,134.999995880127,0|2|2,3:0|0:0|0:0,0:0:0:0:
200,138,24337,1,0,3:0:0:0:
297,91,24577,1,2,0:0:0:0:
380,160,24817,1,2,1:2:0:0:
384,164,24937,1,0,3:0:0:0:
388,168,25057,1,2,3:2:0:0:
282,221,25297,6,0,L|270:328,1,89.9999972534181,4|2,3:1|0:0,0:0:0:0:
169,345,25777,2,0,L|65:336,1,89.9999972534181,8|2,1:2|0:0,0:0:0:0:
27,352,26137,2,0,B|37:309|37:309|24:248,1,89.9999972534181,2|0,0:0|0:0,0:0:0:0:
17,210,26497,1,2,0:0:0:0:
110,155,26737,2,0,L|176:163,2,44.999998626709,8|0|2,1:2|0:0|0:0,0:0:0:0:
38,61,27217,6,0,B|80:50|80:50|149:60,1,89.9999972534181,0|2,3:0|0:0,0:0:0:0:
232,39,27697,2,0,P|289:41|332:15,1,89.9999972534181,8|2,1:2|0:0,0:0:0:0:
358,62,28057,2,0,P|333:98|321:167,1,89.9999972534181,2|0,0:0|0:0,0:0:0:0:
325,195,28417,1,2,0:0:0:0:
436,159,28657,1,8,1:2:0:0:
439,165,28777,1,0,0:0:0:0:
442,171,28897,1,2,0:0:0:0:
445,177,29017,1,0,0:0:0:0:
448,183,29137,6,0,P|462:233|457:291,1,89.9999972534181,0|2,3:0|0:0,0:0:0:0:
383,346,29617,2,0,L|285:341,1,89.9999972534181,8|2,1:2|0:0,0:0:0:0:
260,298,29977,2,0,L|162:293,1,89.9999972534181,2|0,0:0|0:0,0:0:0:0:
116,290,30337,1,2,0:0:0:0:
14,325,30577,1,8,1:2:0:0:
33,218,30817,1,2,0:0:0:0:
136,186,31057,6,0,L|118:47,2,134.999995880127,0|2|2,3:0|0:0|0:0,0:0:0:0:
173,224,31897,2,0,L|166:282,1,44.999998626709,0|0,1:0|3:0,0:0:0:0:
256,330,32257,1,0,1:0:0:0:
346,271,32497,2,0,L|334:210,2,44.999998626709,0|0|0,1:0|3:0|3:0,0:0:0:0:
256,172,32977,5,4,3:1:0:0:
322,100,33217,2,0,L|421:108,2,75,0|0|0,0:0|3:0|0:0,0:0:0:0:
256,27,33937,2,0,L|210:31,3,37.5,0|0|0|0,3:0|0:0|0:0|0:0,0:0:0:0:
179,59,34417,2,0,L|86:50,1,75,0|0,1:0|0:0,0:0:0:0:
154,153,34897,5,0,3:0:0:0:
59,176,35137,2,0,L|70:278,2,75,0|0|0,0:0|3:0|0:0,0:0:0:0:
27,83,35857,2,0,L|73:79,3,37.5,0|0|0|0,3:0|0:0|0:0|0:0,0:0:0:0:
104,51,36337,2,0,L|197:60,1,75,0|0,1:0|0:0,0:0:0:0:
272,132,36817,5,0,3:0:0:0:
347,70,37057,2,0,L|338:20,2,37.5,0|0|0,0:0|0:0|3:0,0:0:0:0:
364,165,37537,2,0,L|419:185,2,37.5,0|0|0,0:0|0:0|3:0,0:0:0:0:
272,132,38017,1,0,0:0:0:0:
347,70,38257,2,0,B|385:60|385:60|447:77,1,75,0|0,1:0|0:0,0:0:0:0:
505,120,38737,5,0,3:0:0:0:
502,127,38857,1,0,0:0:0:0:
499,134,38977,1,0,0:0:0:0:
496,141,39097,1,0,0:0:0:0:
493,148,39217,2,0,L|501:209,3,37.5,0|0|0|0,3:0|0:0|0:0|0:0,0:0:0:0:
455,209,39697,2,0,L|463:270,2,37.5,0|0|0,3:0|3:0|0:0,0:0:0:0:
364,165,40177,2,0,P|321:161|276:175,1,75,0|0,3:0|0:0,0:0:0:0:
179,183,40657,5,4,3:2:0:0:
245,254,40897,2,0,L|240:336,1,75,0|0,0:0|3:0,0:0:0:0:
326,374,41377,1,0,0:0:0:0:
326,374,41497,2,0,P|361:363|412:359,1,75,0|2,0:0|0:0,0:0:0:0:
421,315,41857,2,0,L|468:324,1,37.5,2|2,0:0|0:0,0:0:0:0:
504,338,42097,2,0,B|512:298|512:298|500:249,1,75,0|0,1:0|0:0,0:0:0:0:
503,155,42577,5,0,3:0:0:0:
412,191,42817,1,0,0:0:0:0:
337,128,43057,2,0,L|341:88,2,37.5,0|0|0,3:0|0:0|0:0,0:0:0:0:
259,187,43537,2,0,L|264:230,3,37.5,2|2|0|2,3:2|0:0|0:0|0:0,0:0:0:0:
226,253,44017,2,0,L|239:345,1,75,2|0,1:2|0:0,0:0:0:0:
131,369,44497,6,0,P|88:342|42:345,1,75,0|0,3:0|0:0,0:0:0:0:
16,351,44857,1,2,0:0:0:0:
26,254,45097,2,0,L|33:198,1,37.5,0|0,0:0|0:0,0:0:0:0:
118,175,45457,2,0,P|160:201|207:199,1,75,0|0,3:0|0:0,0:0:0:0:
232,192,45817,2,0,L|227:143,1,37.5,2|0,0:0|1:0,0:0:0:0:
219,57,46177,1,0,0:0:0:0:
318,89,46417,5,0,3:0:0:0:
319,96,46537,1,0,0:0:0:0:
320,103,46657,1,0,0:0:0:0:
321,110,46777,1,0,0:0:0:0:
322,117,46897,2,0,L|383:124,2,37.5,0|0|0,3:0|0:0|0:0,0:0:0:0:
228,154,47377,1,10,1:2:0:0:
265,248,47617,1,10,1:2:0:0:
359,211,47857,1,0,1:0:0:0:
363,215,47977,1,0,3:0:0:0:
367,219,48097,1,0,3:0:0:0:
453,141,48337,6,0,L|465:307,2,150,4|0|0,3:2|3:0|3:0,0:0:0:0:
272,23,49777,1,0,1:0:0:0:
226,109,50017,1,0,0:0:0:0:
148,49,50257,6,0,B|82:33|82:33|1:56,2,150,0|0|0,3:0|3:0|3:0,0:0:0:0:
200,255,51697,1,0,1:0:0:0:
290,217,51937,1,0,0:0:0:0:
281,314,52177,6,0,L|434:299,2,150,0|0|0,3:0|3:0|3:0,0:0:0:0:
191,353,53377,1,0,0:0:0:0:
109,299,53617,1,0,1:0:0:0:
107,201,53857,1,0,0:0:0:0:
166,112,54097,6,0,L|257:102,1,75,2|0,3:2|0:0,0:0:0:0:
281,130,54457,2,0,L|372:120,1,75,2|0,0:0|0:0,0:0:0:0:
396,148,54817,2,0,L|487:138,1,75,2|2,0:0|3:2,0:0:0:0:
511,228,55297,1,2,0:0:0:0:
456,308,55537,2,0,L|407:302,1,37.5,0|0,1:0|3:0,0:0:0:0:
274,232,56017,6,0,P|226:232|187:252,1,82.5000025177003,6|0,3:2|0:0,0:0:0:0:
117,313,56497,2,0,L|59:303,3,41.2500012588501,2|0|0|0,3:2|0:0|0:0|0:0,0:0:0:0:
26,308,56977,2,0,P|23:259|38:207,1,82.5000025177003,2|0,3:2|0:0,0:0:0:0:
73,135,57457,1,2,1:2:0:0:
174,153,57697,1,4,3:0:0:0:
268,111,57937,6,0,P|295:109|314:103,3,41.2500012588501,2|0|0|0,3:2|0:0|0:0|0:0,0:0:0:0:
352,82,58417,2,0,L|343:175,1,82.5000025177003,2|2,3:2|0:0,0:0:0:0:
388,186,58777,1,0,0:0:0:0:
388,186,58897,2,0,L|396:278,1,82.5000025177003,2|2,3:2|0:0,0:0:0:0:
324,344,59377,1,0,1:0:0:0:
234,293,59617,1,0,0:0:0:0:
256,192,59857,1,6,3:2:0:0:
256,192,59977,12,4,61297,1:2:0:0:
182,174,61777,6,0,P|192:154|200:129,1,41.2500012588501,4|0,1:2|0:0,0:0:0:0:
234,34,62137,2,0,P|246:52|263:72,1,41.2500012588501,4|0,1:2|0:0,0:0:0:0:
329,149,62497,2,0,P|306:150|281:155,1,41.2500012588501,4|0,1:2|0:0,0:0:0:0:
252,250,62857,1,0,3:0:0:0:
253,258,62977,1,4,3:0:0:0:
254,266,63097,1,4,3:0:0:0:
255,274,63217,2,0,L|265:370,1,82.5000025177003,0|0,1:0|3:0,0:0:0:0:
379,367,63697,6,0,P|400:328|457:295,1,97.4999955368044,4|2,3:1|0:0,0:0:0:0:
495,286,64057,1,2,0:0:0:0:
495,286,64177,2,0,L|478:219,1,48.7499977684022,8|0,1:2|0:0,0:0:0:0:
467,187,64417,1,2,0:0:0:0:
512,84,64657,2,0,P|466:73|399:96,1,97.4999955368044,0|2,3:0|0:0,0:0:0:0:
375,118,65017,1,2,0:0:0:0:
375,118,65137,2,0,L|303:112,1,48.7499977684022,8|0,3:2|0:0,0:0:0:0:
288,75,65377,1,2,0:0:0:0:
185,43,65617,5,0,3:0:0:0:
181,58,65737,1,0,0:0:0:0:
177,73,65857,1,2,0:0:0:0:
231,165,66097,1,8,1:2:0:0:
206,269,66337,2,0,P|153:248|92:257,1,97.4999955368044,2|0,0:0|3:0,0:0:0:0:
95,267,66697,1,8,3:2:0:0:
90,243,66817,1,2,0:0:0:0:
18,160,67057,1,8,1:2:0:0:
108,102,67297,1,2,0:0:0:0:
122,97,67417,1,0,0:0:0:0:
136,94,67537,6,0,P|189:88|237:91,1,97.4999955368044,0|2,3:0|0:0,0:0:0:0:
281,67,67897,1,0,0:0:0:0:
281,67,68017,2,0,P|312:109|334:152,1,97.4999955368044,8|2,1:2|0:0,0:0:0:0:
376,179,68377,1,0,0:0:0:0:
376,179,68497,2,0,P|354:227|328:267,1,97.4999955368044,0|2,3:0|0:0,0:0:0:0:
334,287,68857,1,0,0:0:0:0:
339,310,68977,1,8,1:2:0:0:
433,359,69217,1,2,0:0:0:0:
502,262,69457,6,0,L|495:159,2,97.4999955368044,4|6|8,3:2|3:2|1:2,0:0:0:0:
394,223,70177,1,2,3:0:0:0:
395,207,70297,1,4,3:1:0:0:
396,191,70417,2,0,L|403:88,1,97.4999955368044,0|8,3:0|1:2,0:0:0:0:
301,59,70897,2,0,L|293:0,2,48.7499977684022,8|4|0,3:0|3:0|3:0,0:0:0:0:
271,169,71377,6,0,B|242:158|229:146|229:146|162:162,1,97.4999955368044,4|2,3:2|0:0,0:0:0:0:
129,173,71737,1,2,0:0:0:0:
64,89,71977,2,0,L|3:96,2,48.7499977684022,0|2|2,0:0|0:0|0:0,0:0:0:0:
95,45,72337,2,0,P|151:43|205:68,1,97.4999955368044,0|2,3:0|0:0,0:0:0:0:
237,80,72697,1,2,0:0:0:0:
237,80,72817,2,0,L|294:72,1,48.7499977684022,8|0,1:2|0:0,0:0:0:0:
338,64,73057,1,2,0:0:0:0:
443,147,73297,5,0,3:0:0:0:
384,237,73537,1,2,0:0:0:0:
286,195,73777,2,0,P|236:189|179:224,1,97.4999955368044,8|2,1:2|0:0,0:0:0:0:
164,253,74137,1,0,0:0:0:0:
164,253,74257,2,0,L|173:306,2,48.7499977684022,0|8|2,3:0|0:2|3:2,0:0:0:0:
71,310,74737,2,0,L|-1:318,1,48.7499977684022,0|0,1:0|1:0,0:0:0:0:
0,265,74977,2,0,L|54:269,1,48.7499977684022,0|0,1:0|1:0,0:0:0:0:
69,219,75217,5,4,1:2:0:0:
41,111,75457,1,4,1:2:0:0:
360,97,76177,6,0,L|348:202,1,97.4999955368044,4|4,1:2|1:2,0:0:0:0:
346,218,76537,1,0,0:0:0:0:
367,207,76657,1,0,0:0:0:0:
256,192,76897,1,2,0:0:0:0:
299,296,77137,5,4,1:0:0:0:
167,113,84817,6,0,L|272:104,1,89.9999972534181,4|2,3:1|0:0,0:0:0:0:
343,39,85297,2,0,L|447:48,1,89.9999972534181,10|0,1:2|0:0,0:0:0:0:
485,32,85657,2,0,B|475:75|475:75|488:136,1,89.9999972534181,2|0,0:0|0:0,0:0:0:0:
498,172,86017,1,2,0:0:0:0:
422,248,86257,2,0,L|418:303,2,44.999998626709,10|2|2,1:2|0:0|0:0,0:0:0:0:
355,153,86737,6,0,B|313:164|313:164|244:154,1,89.9999972534181,2|2,3:2|0:0,0:0:0:0:
162,175,87217,2,0,P|105:173|62:199,1,89.9999972534181,8|2,1:2|0:0,0:0:0:0:
22,185,87577,2,0,L|32:289,1,89.9999972534181,0|0,0:0|0:0,0:0:0:0:
36,328,87937,1,2,0:0:0:0:
139,358,88177,1,10,1:2:0:0:
145,355,88297,1,0,0:0:0:0:
151,352,88417,1,2,0:0:0:0:
157,349,88537,1,0,0:0:0:0:
163,346,88657,6,0,P|213:332|271:337,1,89.9999972534181,0|2,3:0|0:0,0:0:0:0:
352,367,89137,2,0,L|357:269,1,89.9999972534181,8|2,1:2|0:0,0:0:0:0:
400,244,89497,2,0,L|405:146,1,89.9999972534181,2|0,0:0|0:0,0:0:0:0:
408,100,89857,1,2,0:0:0:0:
339,16,90097,1,8,1:2:0:0:
297,115,90337,1,2,0:0:0:0:
202,47,90577,6,0,L|62:36,2,134.999995880127,0|2|2,3:0|0:0|3:2,0:0:0:0:
250,23,91417,2,0,L|308:16,1,44.999998626709,0|0,1:0|1:0,0:0:0:0:
364,100,91777,1,0,3:0:0:0:
295,183,92017,2,0,L|234:171,2,44.999998626709,8|4|0,3:0|3:0|3:0,0:0:0:0:
155,201,92497,5,4,3:2:0:0:
217,275,92737,2,0,L|222:359,2,75,0|0|0,0:0|3:0|0:0,0:0:0:0:
298,220,93457,2,0,L|294:174,3,37.5,0|0|0|0,3:0|0:0|0:0|0:0,0:0:0:0:
262,145,93937,2,0,L|271:52,1,75,0|0,3:0|0:0,0:0:0:0:
370,18,94417,5,0,3:0:0:0:
453,70,94657,1,0,0:0:0:0:
384,141,94897,2,0,L|388:184,3,37.5,0|0|0|0,3:0|0:0|0:0|0:0,0:0:0:0:
422,212,95377,2,0,L|429:299,1,75,0|0,3:0|0:0,0:0:0:0:
341,330,95857,2,0,P|292:312|248:312,1,75,0|0,3:0|3:0,0:0:0:0:
236,317,96217,1,0,1:0:0:0:
247,285,96337,5,0,1:0:0:0:
162,237,96577,2,0,L|155:187,2,37.5,0|0|0,0:0|0:0|3:0,0:0:0:0:
128,272,96937,2,0,B|93:260|93:260|37:272,1,75
11,290,97297,2,0,P|-2:238|9:192,1,75,0|0,3:0|0:0,0:0:0:0:
75,129,97777,1,0,3:0:0:0:
75,129,97897,2,0,L|64:84,2,37.5,2|2|2,0:0|0:0|0:0,0:0:0:0:
89,175,98257,5,4,3:2:0:0:
89,175,99457,2,0,L|26:170,1,37.5,2|0,0:0|0:0,0:0:0:0:
115,152,99697,2,0,P|156:143|208:155,1,75,2|4,3:2|3:0,0:0:0:0:
284,206,100177,5,4,3:2:0:0:
292,108,100417,2,0,L|298:25,1,75,0|2,0:0|1:2,0:0:0:0:
202,12,100897,1,0,0:0:0:0:
202,12,101017,2,0,P|167:23|116:27,1,75,0|0,0:0|0:0,0:0:0:0:
99,66,101377,2,0,L|52:57,1,37.5,0|0,0:0|0:0,0:0:0:0:
14,67,101617,2,0,B|20:103|20:103|8:153,1,75,2|0,1:2|0:0,0:0:0:0:
27,254,102097,5,0,3:0:0:0:
101,191,102337,1,0,0:0:0:0:
187,235,102577,2,0,L|240:228,2,37.5,2|0|0,1:2|0:0|0:0,0:0:0:0:
173,331,103057,2,0,L|220:337,3,37.5,0|0|2|2,3:0|0:0|0:0|0:0,0:0:0:0:
244,369,103537,2,0,L|300:363,1,37.5,2|0,1:2|0:0,0:0:0:0:
330,358,103777,1,2,0:0:0:0:
446,363,104017,6,0,P|419:320|422:274,1,75,0|0,3:0|0:0,0:0:0:0:
425,250,104377,2,0,L|430:205,1,37.5,0|2,0:0|1:2,0:0:0:0:
360,144,104737,1,0,0:0:0:0:
267,200,104977,2,0,P|223:213|181:199,1,75,0|0,3:0|0:0,0:0:0:0:
147,196,105337,2,0,L|152:245,1,37.5,0|2,0:0|1:2,0:0:0:0:
81,302,105697,1,0,0:0:0:0:
17,227,105937,6,0,B|9:186|9:186|23:134,1,75,0|0,3:0|0:0,0:0:0:0:
53,120,106297,1,0,0:0:0:0:
53,120,106417,2,0,L|45:62,3,37.5,0|0|0|0,1:0|0:0|0:0|3:0,0:0:0:0:
42,34,106897,1,8,1:2:0:0:
136,57,107137,1,8,1:2:0:0:
226,19,107377,1,0,1:0:0:0:
232,16,107497,1,0,3:0:0:0:
238,13,107617,1,0,3:0:0:0:
312,116,107857,6,0,L|478:104,2,150,4|0|0,3:2|1:0|3:0,0:0:0:0:
104,255,109297,1,0,1:0:0:0:
173,323,109537,1,0,0:0:0:0:
233,246,109777,6,0,L|399:234,1,150,0|2,3:0|1:2,0:0:0:0:
463,289,110497,2,0,P|481:238|468:195,1,75,2|2,0:0|3:2,0:0:0:0:
485,120,110977,2,0,P|448:124|416:142,1,75,2|2,0:0|1:2,0:0:0:0:
383,236,111457,1,2,0:0:0:0:
289,172,111697,6,0,L|302:17,1,150,0|0,3:0|1:0,0:0:0:0:
201,42,112417,2,0,B|161:52|161:52|113:35,1,75,2|0,0:0|3:2,0:0:0:0:
33,23,112897,1,2,0:0:0:0:
64,115,113137,1,0,1:0:0:0:
21,202,113377,1,0,3:0:0:0:
79,283,113617,6,0,L|170:273,1,75,2|0,3:2|0:0,0:0:0:0:
185,238,113977,2,0,L|276:228,1,75,2|0,0:0|0:0,0:0:0:0:
286,189,114337,2,0,L|377:179,2,75,2|0|0,0:0|3:0|0:0,0:0:0:0:
224,112,115057,2,0,P|185:104|129:106,1,75,2|2,1:2|0:0,0:0:0:0:
44,82,115537,6,0,P|44:130|64:169,1,82.5000025177003,4|0,3:2|0:0,0:0:0:0:
145,215,116017,1,0,1:0:0:0:
245,192,116257,2,0,L|298:188,1,41.2500012588501,0|0,0:0|0:0,0:0:0:0:
332,206,116497,2,0,P|333:252|313:303,1,82.5000025177003,0|0,3:0|0:0,0:0:0:0:
240,340,116977,1,2,1:2:0:0:
236,336,117097,1,2,0:0:0:0:
232,332,117217,1,2,0:0:0:0:
137,295,117457,6,0,P|110:297|91:303,3,41.2500012588501,0|0|0|0,3:0|0:0|0:0|0:0,0:0:0:0:
50,318,117937,2,0,L|59:225,1,82.5000025177003,0|0,1:0|0:0,0:0:0:0:
95,202,118297,1,0,0:0:0:0:
95,202,118417,2,0,L|87:110,1,82.5000025177003,0|0,3:0|0:0,0:0:0:0:
162,49,118897,1,0,1:0:0:0:
256,90,119137,1,0,0:0:0:0:
256,192,119377,1,4,3:2:0:0:
256,192,119497,12,4,120817,0:0:0:0:
247,116,121297,5,4,3:2:0:0:
164,179,121537,1,0,0:0:0:0:
209,272,121777,1,0,1:0:0:0:
292,209,122017,1,0,3:0:0:0:
337,302,122257,6,0,L|385:313,1,41.2500012588501,0|0,3:0|3:0,0:0:0:0:
425,323,122497,1,0,3:0:0:0:
486,235,122737,2,0,L|438:224,1,41.2500012588501,2|2,0:0|0:0,0:0:0:0:
398,214,122977,1,2,0:0:0:0:
292,209,123217,6,0,P|282:229|274:254,1,41.2500012588501,4|0,1:2|0:0,0:0:0:0:
240,349,123577,2,0,P|228:331|211:311,1,41.2500012588501,2|0,0:0|0:0,0:0:0:0:
145,234,123937,2,0,P|168:233|193:228,1,41.2500012588501,2|2,3:2|0:0,0:0:0:0:
217,186,124177,6,0,P|195:150|198:91,1,82.5000025177003,4|0,1:2|0:0,0:0:0:0:
193,56,124537,2,0,P|157:78|98:75,1,82.5000025177003,4|0,1:2|0:0,0:0:0:0:
63,81,124897,2,0,P|75:114|75:132,1,41.2500012588501,4|0,1:2|1:0,0:0:0:0:
99,168,125137,6,0,P|78:207|21:240,1,97.4999955368044,4|2,3:1|0:0,0:0:0:0:
4,280,125497,1,2,0:0:0:0:
4,280,125617,2,0,L|21:347,1,48.7499977684022,8|0,1:2|0:0,0:0:0:0:
31,378,125857,1,2,0:0:0:0:
126,314,126097,2,0,P|172:325|239:302,1,97.4999955368044,0|2,3:0|0:0,0:0:0:0:
266,285,126457,1,2,0:0:0:0:
266,285,126577,2,0,L|338:291,1,48.7499977684022,8|0,1:2|0:0,0:0:0:0:
363,266,126817,1,2,0:0:0:0:
469,316,127057,5,0,3:0:0:0:
465,301,127177,1,0,0:0:0:0:
461,286,127297,1,2,0:0:0:0:
506,188,127537,1,8,1:2:0:0:
463,89,127777,2,0,P|410:68|349:77,1,97.4999955368044,2|0,0:0|3:0,0:0:0:0:
352,87,128137,1,8,0:0:0:0:
347,63,128257,1,2,0:0:0:0:
247,22,128497,1,8,1:2:0:0:
170,97,128737,1,2,0:0:0:0:
165,111,128857,1,0,0:0:0:0:
162,125,128977,6,0,P|156:178|159:226,1,97.4999955368044,0|2,3:0|0:0,0:0:0:0:
135,270,129337,1,0,0:0:0:0:
135,270,129457,2,0,P|177:301|220:323,1,97.4999955368044,8|2,1:2|0:0,0:0:0:0:
247,365,129817,1,0,0:0:0:0:
247,365,129937,2,0,P|295:343|335:317,1,97.4999955368044,0|2,3:0|0:0,0:0:0:0:
355,323,130297,1,0,0:0:0:0:
378,328,130417,1,8,1:2:0:0:
440,240,130657,1,2,0:0:0:0:
337,142,130897,6,0,L|343:239,1,97.4999955368044,4|6,3:2|3:2,0:0:0:0:
255,300,131377,1,0,1:0:0:0:
239,299,131497,1,0,3:0:0:0:
223,298,131617,1,2,3:2:0:0:
207,297,131737,1,4,0:1:0:0:
191,296,131857,2,0,B|146:291|146:291|93:312,1,97.4999955368044,0|8,3:0|1:2,0:0:0:0:
49,214,132337,2,0,L|-18:205,2,48.7499977684022,8|4|4,3:0|3:0|3:0,0:0:0:0:
160,175,132817,6,0,B|149:146|137:133|137:133|153:66,1,97.4999955368044,4|2,3:1|0:0,0:0:0:0:
164,33,133177,1,2,0:0:0:0:
274,58,133417,2,0,L|267:-3,2,48.7499977684022,0|2|0,0:0|0:0|0:0,0:0:0:0:
318,89,133777,2,0,P|320:145|295:199,1,97.4999955368044,0|2,3:0|0:0,0:0:0:0:
283,231,134137,1,2,0:0:0:0:
283,231,134257,2,0,L|291:288,1,48.7499977684022,8|0,1:2|0:0,0:0:0:0:
299,332,134497,1,2,0:0:0:0:
422,356,134737,5,0,3:0:0:0:
392,250,134977,1,2,0:0:0:0:
283,231,135217,2,0,P|233:237|176:202,1,97.4999955368044,8|2,1:2|0:0,0:0:0:0:
162,173,135577,1,0,0:0:0:0:
162,173,135697,2,0,L|171:120,2,48.7499977684022,0|8|0,3:0|0:0|3:0,0:0:0:0:
98,273,136177,2,0,L|106:345,1,48.7499977684022,0|0,1:0|1:0,0:0:0:0:
150,346,136417,2,0,L|154:292,1,48.7499977684022,0|0,1:0|1:0,0:0:0:0:
204,280,136657,5,4,1:2:0:0:
162,173,136897,1,4,1:2:0:0:
481,133,137617,6,0,L|376:121,1,97.4999955368044,4|4,1:2|1:2,0:0:0:0:
360,119,137977,1,0,0:0:0:0:
371,140,138097,1,8,3:0:0:0:
386,29,138337,1,4,3:0:0:0:
278,40,138577,6,0,L|212:45,1,44.999998626709,4|0,3:1|0:0,0:0:0:0:
191,77,138817,2,0,L|141:72,1,44.999998626709,2|0,0:0|0:0,0:0:0:0:
94,58,139057,2,0,B|114:105|114:105|105:157,1,89.9999972534181,8|2,1:2|0:0,0:0:0:0:
96,196,139417,1,2,0:0:0:0:
52,295,139657,2,0,L|6:288,2,44.999998626709,0|2|0,0:0|0:0|0:0,0:0:0:0:
93,330,140017,2,0,L|143:324,1,44.999998626709,8|0,1:2|0:0,0:0:0:0:
174,364,140257,2,0,L|224:358,1,44.999998626709,2|0,0:0|0:0,0:0:0:0:
284,374,140497,5,0,3:0:0:0:
287,361,140617,1,0,0:0:0:0:
291,348,140737,2,0,L|303:297,1,44.999998626709,2|0,0:0|0:0,0:0:0:0:
363,275,140977,2,0,L|351:224,1,44.999998626709,8|0,1:2|0:0,0:0:0:0:
313,195,141217,2,0,L|301:144,1,44.999998626709,2|0,0:0|0:0,0:0:0:0:
360,115,141457,2,0,L|370:61,3,44.999998626709,0|0|2|0,3:0|0:0|0:0|0:0,0:0:0:0:
421,60,141937,2,0,P|443:106|435:161,1,89.9999972534181,8|2,1:2|0:0,0:0:0:0:
459,274,142417,5,4,3:2:0:0:
459,274,142537,2,0,B|408:260|408:260|355:277,1,89.9999972534181,2|2,0:0|0:0,0:0:0:0:
270,213,143017,1,2,0:0:0:0:
197,305,143257,2,0,L|96:297,2,89.9999972534181,2|2|2,0:0|0:0|0:0,0:0:0:0:
270,213,143977,1,2,0:0:0:0:
194,123,144217,6,0,L|127:129,1,44.999998626709,2|4,0:0|3:2,0:0:0:0:
93,146,144457,2,0,L|103:47,1,89.9999972534181,2|2,0:0|0:0,0:0:0:0:
210,12,144937,1,2,0:0:0:0:
317,57,145177,2,0,L|333:166,1,89.9999972534181,2|2,0:0|1:2,0:0:0:0:
210,227,145657,2,0,L|210:130,1,89.9999972534181,2|2,1:2|3:2,0:0:0:0:
210,87,146017,1,4,3:0:0:0:
317,57,146257,6,0,P|365:48|412:71,1,89.9999972534181,6|2,3:2|0:0,0:0:0:0:
452,81,146617,2,0,P|426:124|436:177,1,89.9999972534181,2|2,0:0|0:0,0:0:0:0:
471,215,146977,1,2,0:0:0:0:
477,229,147097,1,2,0:0:0:0:
481,244,147217,2,0,P|484:292|453:336,1,89.9999972534181,2|2,3:2|0:0,0:0:0:0:
414,350,147577,2,0,P|376:319|318:326,1,89.9999972534181,2|2,0:0|0:0,0:0:0:0:
285,336,147937,1,2,0:0:0:0:
208,248,148177,6,0,L|114:256,1,89.9999972534181,0|2,3:0|0:0,0:0:0:0:
72,142,148657,2,0,L|177:149,1,89.9999972534181,8|2,1:2|0:0,0:0:0:0:
208,50,149137,1,0,3:0:0:0:
312,108,149377,2,0,L|307:140,2,29.9999990844727,2|2|2,0:0|0:0|0:0,0:0:0:0:
320,72,149617,5,10,1:2:0:0:
326,42,149737,1,2,0:0:0:0:
332,12,149857,1,2,0:0:0:0:
443,62,150097,6,0,L|451:123,1,44.999998626709,2|2,3:2|0:0,0:0:0:0:
478,220,150457,2,0,P|439:197|374:208,1,89.9999972534181,2|2,0:0|0:0,0:0:0:0:
334,226,150817,1,0,0:0:0:0:
319,235,150937,1,0,0:0:0:0:
302,240,151057,2,0,P|251:238|211:206,1,89.9999972534181,2|2,3:2|0:0,0:0:0:0:
165,214,151417,2,0,P|183:167|165:111,1,89.9999972534181,2|2,0:0|0:0,0:0:0:0:
54,9,152017,6,0,P|33:69|77:150,1,134.999995880127,0|2,3:0|0:0,0:0:0:0:
102,163,152497,1,12,1:2:0:0:
200,71,152737,1,2,0:0:0:0:
215,73,152857,1,0,1:0:0:0:
230,75,152977,2,0,L|292:68,1,44.999998626709,0|0,3:0|1:0,0:0:0:0:
339,47,153217,1,0,3:0:0:0:
342,63,153337,1,0,0:0:0:0:
345,79,153457,2,0,L|340:131,2,44.999998626709,8|4|0,3:0|3:0|3:0,0:0:0:0:
264,189,153937,5,4,0:0:0:0:
330,261,154177,2,0,L|429:253,2,75,0|0|0,0:0|3:0|0:0,0:0:0:0:
264,334,154897,2,0,L|218:330,3,37.5,0|0|0|0,3:0|0:0|0:0|0:0,0:0:0:0:
187,302,155377,2,0,L|94:311,1,75,2|0,1:2|0:0,0:0:0:0:
169,208,155857,5,0,3:0:0:0:
67,212,156097,2,0,L|71:175,1,37.5,0|0,0:0|0:0,0:0:0:0:
101,136,156337,2,0,L|97:90,3,37.5,0|0|0|0,3:0|0:0|0:0|0:0,0:0:0:0:
128,60,156817,2,0,L|124:14,3,37.5,0|0|0|0,3:0|0:0|0:0|0:0,0:0:0:0:
173,18,157297,2,0,P|204:33|266:27,1,75,2|0,1:2|0:0,0:0:0:0:
363,28,157777,5,0,3:0:0:0:
425,103,158017,2,0,L|475:94,2,37.5,0|0|0,0:0|0:0|3:0,0:0:0:0:
330,120,158497,2,0,L|310:175,2,37.5,0|0|0,0:0|0:0|3:0,0:0:0:0:
363,28,158977,2,0,L|325:-16,2,37.5,0|0|2,0:0|0:0|1:2,0:0:0:0:
458,3,159457,1,0,0:0:0:0:
425,103,159697,5,0,3:0:0:0:
441,203,159937,1,0,0:0:0:0:
448,206,160057,1,0,0:0:0:0:
455,209,160177,2,0,L|516:201,3,37.5,0|0|0|0,3:0|0:0|0:0|0:0,0:0:0:0:
508,250,160657,2,0,P|511:289|496:336,1,75,0|0,3:0|0:0,0:0:0:0:
461,351,161017,1,0,3:0:0:0:
461,351,161137,2,0,B|424:339|424:339|373:347,1,75,2|0,1:2|0:0,0:0:0:0:
276,370,161617,6,0,L|285:274,1,75,2|2,3:2|0:0,0:0:0:0:
344,219,162097,1,0,3:0:0:0:
263,164,162337,2,0,L|253:113,1,37.5,2|0,0:0|0:0,0:0:0:0:
340,65,162697,2,0,L|351:115,1,37.5,0|2,0:0|0:0,0:0:0:0:
244,29,163057,2,0,L|185:20,1,37.5,8|2,1:2|0:0,0:0:0:0:
164,48,163297,2,0,L|105:57,1,37.5,2|0,0:0|0:0,0:0:0:0:
81,35,163537,5,2,3:2:0:0:
45,126,163777,1,2,0:0:0:0:
108,201,164017,2,0,L|148:197,2,37.5,0|0|2,3:0|0:0|0:0,0:0:0:0:
54,282,164497,2,0,L|9:275,2,37.5,0|0|2,3:0|0:0|0:0,0:0:0:0:
122,350,164977,2,0,P|157:333|207:337,1,75,8|2,1:2|0:0,0:0:0:0:
240,348,165337,1,0,0:0:0:0:
240,348,165457,6,0,B|280:333|280:333|333:345,1,75,2|2,3:2|0:0,0:0:0:0:
359,352,165817,1,2,0:0:0:0:
393,260,166057,2,0,L|386:204,1,37.5,2|2,0:0|0:0,0:0:0:0:
408,108,166417,2,0,L|366:135,1,37.5,2|2,3:2|0:0,0:0:0:0:
332,148,166657,2,0,L|282:130,1,37.5,2|0,0:0|0:0,0:0:0:0:
259,103,166897,2,0,P|224:117|168:98,1,75,10|0,1:2|0:0,0:0:0:0:
106,176,167377,5,2,3:2:0:0:
105,183,167497,1,2,0:0:0:0:
104,190,167617,1,2,0:0:0:0:
103,197,167737,1,2,0:0:0:0:
102,204,167857,2,0,L|41:211,3,37.5,2|2|2|2,3:2|0:0|0:0|0:0,0:0:0:0:
16,214,168337,1,0,3:0:0:0:
24,315,168577,1,2,3:2:0:0:
25,322,168697,1,0,0:0:0:0:
26,329,168817,2,0,L|31:385,2,37.5,2|0|0,3:2|0:0|0:0,0:0:0:0:
124,306,169297,5,4,3:2:0:0:
256,192,182737,12,2,184417,0:0:0:0:
134,238,184657,6,0,P|183:237|226:216,1,82.5000025177003,4|0,3:2|0:0,0:0:0:0:
256,192,185017,1,4,3:2:0:0:
369,77,185377,2,0,P|345:119|342:167,1,82.5000025177003,4|0,3:2|0:0,0:0:0:0:
348,205,185737,1,4,3:2:0:0:
425,345,186097,1,4,3:2:0:0:
323,311,186337,1,4,3:2:0:0:
348,205,186577,6,0,L|456:212,1,82.5000025177003,4|0,1:0|0:0,0:0:0:0:
483,213,186937,1,0,3:0:0:0:
483,213,187057,1,0,1:0:0:0:
512,97,187297,2,0,L|404:104,1,82.5000025177003,0|0,3:0|0:0,0:0:0:0:
377,105,187657,1,0,1:0:0:0:
377,105,187777,1,0,3:0:0:0:
267,64,188017,1,0,1:0:0:0:
269,76,188137,1,8,3:0:0:0:
271,88,188257,2,0,L|280:150,1,41.2500012588501,4|0,3:0|3:0,0:0:0:0:
290,198,188497,5,4,1:2:0:0:
175,142,188737,1,4,1:2:0:0:
105,256,188977,2,0,L|56:251,2,41.2500012588501,2|2|2,0:0|0:0|0:0,0:0:0:0:
167,288,189337,6,0,P|221:272|262:284,1,82.5000025177003,4|2,1:2|0:0,0:0:0:0:
309,303,189697,1,2,0:0:0:0:
313,288,189817,1,2,0:0:0:0:
317,274,189937,2,0,L|310:184,1,82.5000025177003,2|4,1:2|3:0,0:0:0:0:
297,70,190417,6,0,P|331:97|393:101,1,89.9999972534181,4|2,3:2|0:0,0:0:0:0:
427,87,190777,1,2,0:0:0:0:
427,87,190897,2,0,L|435:150,1,44.999998626709,0|2,0:0|0:0,0:0:0:0:
441,185,191137,1,2,0:0:0:0:
487,288,191377,2,0,P|441:277|391:297,1,89.9999972534181,2|8,0:0|3:0,0:0:0:0:
358,322,191737,1,0,0:0:0:0:
358,322,191857,2,0,L|293:316,1,44.999998626709,8|0,1:2|0:0,0:0:0:0:
259,313,192097,1,4,3:0:0:0:
175,223,192337,5,2,3:2:0:0:
160,227,192457,1,2,3:2:0:0:
145,231,192577,1,2,3:2:0:0:
34,227,192817,2,0,L|39:288,1,44.999998626709,4|0,1:2|0:0,0:0:0:0:
95,150,193177,2,0,L|90:89,1,44.999998626709,4|0,1:2|0:0,0:0:0:0:
90,87,193417,1,0,3:0:0:0:
89,71,193537,1,0,3:0:0:0:
195,16,193777,1,8,3:0:0:0:
280,96,194017,1,2,3:2:0:0:
294,101,194137,1,2,3:2:0:0:
308,104,194257,6,0,P|361:110|409:107,1,97.4999955368044,6|2,3:2|3:2,0:0:0:0:
465,139,194617,1,0,0:0:0:0:
456,152,194737,2,0,P|424:194|402:237,1,97.4999955368044,8|2,1:2|3:2,0:0:0:0:
346,270,195097,1,0,3:0:0:0:
339,256,195217,2,0,P|318:207|292:166,1,97.4999955368044,0|2,0:0|3:2,0:0:0:0:
301,133,195577,1,0,0:0:0:0:
308,104,195697,1,8,1:2:0:0:
208,52,195937,1,2,3:2:0:0:
111,135,196177,6,0,L|118:238,2,97.4999955368044,4|4|0,1:2|1:2|1:0,0:0:0:0:
222,171,196897,1,0,1:0:0:0:
221,187,197017,1,4,3:1:0:0:
220,203,197137,2,0,L|213:306,1,97.4999955368044,0|0,0:0|3:0,0:0:0:0:
114,353,197617,2,0,B|90:351|90:351|54:359,2,48.7499977684022,8|8|4,1:2|3:0|3:0,0:0:0:0:
213,300,198097,6,0,B|242:311|255:323|255:323|322:307,1,97.4999955368044,4|2,3:1|0:0,0:0:0:0:
355,299,198457,1,2,0:0:0:0:
417,211,198697,2,0,L|478:218,2,48.7499977684022,0|2|0,0:0|0:0|0:0,0:0:0:0:
386,167,199057,2,0,P|330:165|276:190,1,97.4999955368044,0|2,3:0|0:0,0:0:0:0:
244,202,199417,1,2,0:0:0:0:
244,202,199537,2,0,L|187:194,1,48.7499977684022,8|0,1:2|0:0,0:0:0:0:
143,186,199777,1,2,0:0:0:0:
39,124,200017,5,0,3:0:0:0:
97,34,200257,1,2,0:0:0:0:
196,76,200497,2,0,P|246:82|303:47,1,97.4999955368044,8|2,1:2|0:0,0:0:0:0:
341,63,200857,1,0,0:0:0:0:
341,63,200977,2,0,L|332:10,2,48.7499977684022,0|8|2,3:0|3:2|3:2,0:0:0:0:
415,148,201457,2,0,L|406:209,1,48.7499977684022,8|0,1:2|3:0,0:0:0:0:
449,229,201697,2,0,L|440:290,1,48.7499977684022,0|0,1:0|3:0,0:0:0:0:
432,329,201937,5,4,1:2:0:0:
322,262,202177,1,4,1:2:0:0:
55,161,202897,6,0,L|67:266,1,97.4999955368044,4|4,1:2|1:2,0:0:0:0:
69,282,203257,1,0,0:0:0:0:
48,271,203377,1,0,0:0:0:0:
159,212,203617,6,0,B|195:192|233:207|233:207|271:222|310:202,1,146.249993305207,4|0,1:0|0:0,0:0:0:0:
332,146,204097,2,0,L|388:151,1,48.7499977684022,2|2,0:0|0:0,0:0:0:0:
438,114,204337,1,2,3:2:0:0:
437,108,204457,2,0,L|431:45,2,48.7499977684022,2|2|2,1:2|0:0|1:2,0:0:0:0:
458,179,204817,1,0,0:0:0:0:
464,178,204937,2,0,L|527:172,2,48.7499977684022,2|2|2,1:2|1:2|3:2,0:0:0:0:
401,215,205297,1,2,3:2:0:0:
402,221,205417,2,0,L|408:284,1,48.7499977684022,0|4,0:0|3:0,0:0:0:0:
315,328,205777,6,0,L|208:316,1,89.9999972534181,4|2,3:1|3:2,0:0:0:0:
117,325,206257,2,0,B|134:281|134:281|117:227,1,89.9999972534181,0|2,1:0|0:0,0:0:0:0:
84,200,206617,2,0,P|66:160|86:98,1,89.9999972534181,2|0,0:0|0:0,0:0:0:0:
97,76,206977,1,2,0:0:0:0:
90,74,207097,1,0,0:0:0:0:
83,72,207217,2,0,L|30:58,2,44.999998626709,8|0|2,1:2|0:0|0:0,0:0:0:0:
189,24,207697,6,0,P|242:37|290:15,1,89.9999972534181,0|2,3:0|0:2,0:0:0:0:
380,4,208177,2,0,L|394:105,1,89.9999972534181,8|2,1:2|0:0,0:0:0:0:
438,120,208537,2,0,L|427:219,1,89.9999972534181
420,262,208897,1,2,0:0:0:0:
471,366,209137,1,8,1:2:0:0:
464,364,209257,1,0,0:0:0:0:
457,362,209377,1,2,0:0:0:0:
450,360,209497,1,0,0:0:0:0:
443,358,209617,6,0,P|385:354|336:370,1,89.9999972534181,0|2,3:0|0:0,0:0:0:0:
253,313,210097,2,0,B|206:327|206:327|150:313,1,89.9999972534181,8|2,1:2|0:0,0:0:0:0:
114,328,210457,2,0,L|124:224,1,89.9999972534181
128,184,210817,1,2,0:0:0:0:
232,154,211057,1,8,1:2:0:0:
301,237,211297,1,2,0:0:0:0:
391,150,211537,6,0,B|385:96|385:96|396:68|396:68|389:8,2,134.999995880127,2|2|2,3:2|0:0|0:0,0:0:0:0:
407,257,212497,1,0,3:0:0:0:
301,237,212737,1,2,3:2:0:0:
218,309,212977,1,0,1:0:0:0:
222,313,213097,1,0,3:0:0:0:
226,317,213217,1,2,0:0:0:0:
160,214,213457,6,0,L|169:106,1,89.9999972534181,4|2,3:1|0:0,0:0:0:0:
271,93,213937,2,0,L|375:102,1,89.9999972534181,8|2,1:2|0:0,0:0:0:0:
407,73,214297,2,0,B|397:116|397:116|410:177,1,89.9999972534181,2|0,0:0|0:0,0:0:0:0:
397,214,214657,1,2,0:0:0:0:
393,221,214777,1,0,0:0:0:0:
389,228,214897,2,0,L|395:283,2,44.999998626709,8|0|2,1:2|0:0|0:0,0:0:0:0:
273,181,215377,6,0,B|282:137|282:137|266:72,1,89.9999972534181,0|2,3:0|0:0,0:0:0:0:
174,37,215857,2,0,P|137:53|79:41,1,89.9999972534181,8|2,1:2|0:0,0:0:0:0:
37,28,216217,2,0,P|56:80|44:135,1,89.9999972534181,2|8,0:0|0:0,0:0:0:0:
39,166,216577,1,0,3:0:0:0:
12,272,216817,1,8,1:2:0:0:
15,278,216937,1,2,0:0:0:0:
18,284,217057,1,2,0:0:0:0:
129,222,217297,6,0,P|179:208|237:213,1,89.9999972534181,0|2,3:0|0:0,0:0:0:0:
284,296,217777,2,0,L|388:301,1,89.9999972534181,8|2,1:2|0:0,0:0:0:0:
421,275,218137,2,0,B|425:249|409:226|409:226|414:181,1,89.9999972534181
426,135,218497,1,2,0:0:0:0:
461,33,218737,1,8,1:2:0:0:
354,52,218977,1,2,0:0:0:0:
322,155,219217,6,0,L|183:137,2,134.999995880127,2|2|2,3:2|0:0|0:0,0:0:0:0:
365,190,220057,1,8,0:0:0:0:
369,194,220177,2,0,L|422:186,2,44.999998626709,8|0|4,3:0|0:0|3:0,0:0:0:0:
295,280,220657,2,0,L|240:275,2,44.999998626709,8|2|2,1:2|0:0|0:0,0:0:0:0:
170,220,221137,5,4,3:1:0:0:
76,288,221377,2,0,L|70:226,1,44.999998626709,2|0,0:0|0:0,0:0:0:0:
28,209,221617,2,0,P|47:171|44:115,1,89.9999972534181,10|0,1:2|0:0,0:0:0:0:
30,72,221977,1,2,0:0:0:0:
123,20,222217,1,2,0:0:0:0:
213,80,222457,1,2,0:0:0:0:
213,80,222577,2,0,L|322:72,1,89.9999972534181,8|2,1:2|0:0,0:0:0:0:
421,17,223057,5,0,3:0:0:0:
405,123,223297,2,0,L|399:181,1,44.999998626709,2|0,0:0|0:0,0:0:0:0:
358,201,223537,2,0,L|365:251,3,44.999998626709,8|0|2|0,1:2|0:0|0:0|0:0,0:0:0:0:
375,298,224017,2,0,P|321:286|266:289,1,89.9999972534181,0|2,3:0|0:0,0:0:0:0:
173,344,224497,2,0,P|191:295|188:242,1,89.9999972534181,8|2,1:2|0:0,0:0:0:0:
120,176,224977,5,0,3:0:0:0:
192,93,225217,2,0,L|250:99,1,44.999998626709,2|0,0:0|0:0,0:0:0:0:
274,136,225457,2,0,L|324:129,3,44.999998626709,8|0|2|0,1:2|0:0|0:0|0:0,0:0:0:0:
369,110,225937,2,0,L|364:177,1,44.999998626709,0|0,3:0|0:0,0:0:0:0:
364,213,226177,1,2,0:0:0:0:
470,167,226417,1,8,1:2:0:0:
462,7,226777,5,0,0:0:0:0:
462,7,226897,2,0,P|412:0|368:10,1,89.9999972534181,2|2,3:2|0:0,0:0:0:0:
304,89,227377,1,8,1:2:0:0:
213,30,227617,1,2,0:0:0:0:
213,30,227737,2,0,L|122:22,1,89.9999972534181,2|8,0:0|0:0,0:0:0:0:
95,68,228097,2,0,L|39:62,1,44.999998626709,2|0,0:0|0:0,0:0:0:0:
1,40,228337,2,0,B|11:86|11:86|-2:133,1,89.9999972534181,8|4,1:2|3:0,0:0:0:0:
63,218,228817,6,0,L|72:321,1,82.5000025177003,4|0,3:1|0:0,0:0:0:0:
174,331,229297,2,0,B|213:314|213:314|272:326,1,82.5000025177003,8|2,1:2|0:0,0:0:0:0:
291,358,229657,2,0,P|335:369|386:343,1,82.5000025177003,2|0,0:0|0:0,0:0:0:0:
415,330,230017,1,2,0:0:0:0:
415,330,230137,1,0,0:0:0:0:
415,330,230257,2,0,L|472:335,2,41.2500012588501,8|0|0,1:2|0:0|0:0,0:0:0:0:
376,227,230737,6,0,P|330:214|275:237,1,82.5000025177003,0|2,3:0|0:0,0:0:0:0:
201,270,231217,2,0,L|190:177,1,82.5000025177003,8|2,1:2|0:0,0:0:0:0:
145,159,231577,2,0,L|155:75,1,82.5000025177003,0|8,0:0|0:0,0:0:0:0:
164,23,231937,1,2,3:2:0:0:
261,67,232177,2,0,P|302:85|356:74,1,82.5000025177003,8|0,1:2|0:0,0:0:0:0:
444,31,232657,6,0,P|437:78|439:136,1,82.5000025177003,0|2,3:0|0:0,0:0:0:0:
463,159,233017,1,0,0:0:0:0:
463,159,233137,2,0,L|459:266,1,82.5000025177003,8|2,1:2|0:0,0:0:0:0:
356,270,233617,2,0,L|348:176,1,82.5000025177003,0|0,3:0|0:0,0:0:0:0:
307,153,233977,2,0,L|314:98,1,41.2500012588501,0|8,0:0|1:2,0:0:0:0:
225,51,234337,1,2,0:0:0:0:
129,108,234577,6,0,P|76:118|33:104,1,82.5000025177003,0|2,3:0|0:0,0:0:0:0:
1,86,234937,1,0,0:0:0:0:
1,86,235057,2,0,L|10:186,1,82.5000025177003,8|2,1:2|0:0,0:0:0:0:
48,204,235417,1,0,0:0:0:0:
48,204,235537,2,0,L|44:250,2,41.2500012588501,0|8|2,3:0|0:0|0:0,0:0:0:0:
155,228,236017,2,0,L|203:218,2,41.2500012588501,8|0|2,1:2|1:0|0:0,0:0:0:0:
112,327,236497,5,6,3:2:0:0:
207,374,236737,1,2,0:0:0:0:
282,298,236977,2,0,B|296:255|296:255|288:205,1,82.5000025177003,8|2,1:2|0:0,0:0:0:0:
255,177,237337,2,0,P|242:131|265:83,1,82.5000025177003,2|0,0:0|0:0,0:0:0:0:
283,55,237697,1,2,0:0:0:0:
283,55,237817,2,0,L|337:58,1,41.2500012588501,0|8,0:0|1:2,0:0:0:0:
422,100,238177,1,2,0:0:0:0:
463,203,238417,6,0,P|419:214|368:196,1,82.5000025177003,0|2,3:0|0:0,0:0:0:0:
289,154,238897,2,0,P|237:142|196:159,1,82.5000025177003,8|2,1:2|0:0,0:0:0:0:
157,141,239257,2,0,L|167:235,1,82.5000025177003,0|8,0:0|0:0,0:0:0:0:
173,276,239617,1,2,3:2:0:0:
270,326,239857,1,8,1:2:0:0:
270,326,239977,2,0,L|266:376,2,41.2500012588501,0|0|0,1:0|1:0|1:0,0:0:0:0:
320,306,240337,5,4,1:2:0:0:
277,203,240577,1,4,1:2:0:0:
430,17,241297,5,4,1:2:0:0:
387,120,241537,1,4,1:2:0:0:
389,130,241657,1,0,0:0:0:0:
391,140,241777,1,0,3:0:0:0:
200,77,242257,6,0,B|172:80|172:80|139:77,2,37.5,4|0|0,1:0|0:0|0:0,0:0:0:0:
