osu file format v14

[General]
AudioFilename: audio.mp3
AudioLeadIn: 0
PreviewTime: -1
Countdown: 1
SampleSet: Soft
StackLeniency: 0.4
Mode: 0
LetterboxInBreaks: 0
WidescreenStoryboard: 0

[Editor]
DistanceSpacing: 1
BeatDivisor: 4
GridSize: 4
TimelineZoom: 2.2

[Metadata]
Title:Cloudless
TitleUnicode:ただ君に晴れ
Artist:Yorushika
ArtistUnicode:ヨルシカ
Creator:Rieri
Version:Radiant Memories
Source:
Tags:n buna n-buna suis ナブナ nabuna 負け犬にアンコールはいらない tada kimi ni hare
BeatmapID:1652290
BeatmapSetID:787203

[Difficulty]
HPDrainRate:6
CircleSize:4.2
OverallDifficulty:9
ApproachRate:9
SliderMultiplier:1.8
SliderTickRate:1

[Events]
//Background and Video events
0,0,"ybg2.jpg",0,0
//Break Periods
//Storyboard Layer 0 (Background)
//Storyboard Layer 1 (Fail)
//Storyboard Layer 2 (Pass)
//Storyboard Layer 3 (Foreground)
//Storyboard Sound Samples

[TimingPoints]
167,428.571428571429,4,2,1,30,1,0
1881,-142.857142857143,4,2,1,30,0,0
15595,-100,4,2,1,50,0,0
29309,-125,4,2,1,50,0,0
56738,-83.3333333333333,4,2,1,70,0,1
70452,-100,4,2,1,40,0,0
73881,-100,4,2,1,50,0,0
87595,-125,4,2,1,40,0,0
94024,-100,4,2,1,40,0,0
94452,-125,4,2,1,40,0,0
101309,-100,4,2,1,50,0,0
114809,-100,4,2,1,50,0,0
118024,-666.666666666667,4,2,1,50,0,0
118452,-125,4,2,1,50,0,0
121881,-83.3333333333333,4,2,1,70,0,1
135167,-222.222222222222,4,2,1,70,0,1
135595,-111.111111111111,4,2,1,40,0,0
142024,-333.333333333333,4,2,1,40,0,0
142452,-111.111111111111,4,2,1,40,0,0
144595,-90.9090909090908,4,2,1,40,0,0
145024,-111.111111111111,4,2,1,40,0,0
148881,-71.4285714285714,4,2,1,40,0,0
149095,-200,4,2,1,40,0,0
149524,-71.4285714285714,4,2,1,40,0,0
149738,-200,4,2,1,40,0,0
150167,-71.4285714285714,4,2,1,40,0,0
150381,-200,4,2,1,40,0,0
150809,-71.4285714285714,4,2,1,40,0,0
151024,-125,4,2,1,40,0,0
158952,-125,4,2,1,60,0,0
159595,-125,4,2,1,40,0,0
165809,-125,4,2,1,60,0,0
166452,-76.9230769230769,4,2,1,80,0,1
179738,-111.111111111111,4,2,1,80,0,1
180167,-100,4,2,1,60,0,0
196881,-500,4,2,1,60,0,0

[Colours]
Combo1 : 6,162,255
Combo2 : 195,195,195
Combo3 : 164,209,255
Combo4 : 255,169,40
Combo5 : 255,249,11
Combo6 : 122,255,13

[HitObjects]
256,192,1881,6,0,P|294:165|329:165,1,62.9999980773926
387,186,2309,1,0,0:0:0:0:
256,192,2738,6,0,P|298:211|315:241,1,62.9999980773926
326,302,3166,1,0,0:0:0:0:
256,192,3595,70,0,P|260:238|242:268,1,62.9999980773926
195,308,4023,1,0,0:0:0:0:
256,192,4452,6,0,P|218:219|183:219,1,62.9999980773926
124,198,4880,1,0,0:0:0:0:
124,198,5095,1,0,0:0:0:0:
256,192,5309,70,0,P|213:172|196:142,1,62.9999980773926
185,81,5737,1,0,0:0:0:0:
256,192,6166,6,0,P|251:145|269:115,1,62.9999980773926
316,75,6594,1,0,0:0:0:0:
256,192,7023,70,0,P|294:165|328:165,1,62.9999980773926
387,186,7451,1,0,0:0:0:0:
256,192,7880,6,0,P|298:211|315:241,1,62.9999980773926
326,302,8308,1,0,0:0:0:0:
326,302,8523,1,0,0:0:0:0:
256,192,8738,70,0,L|219:255,1,62.9999980773926
182,316,9167,1,0,0:0:0:0:
256,192,9595,6,0,L|182:191,1,62.9999980773926
110,192,10024,1,0,0:0:0:0:
256,192,10452,70,0,L|219:128,1,62.9999980773926
185,65,10881,1,0,0:0:0:0:
256,192,11309,6,0,L|293:129,1,62.9999980773926
329,65,11738,2,0,L|289:138,1,62.9999980773926
256,192,12167,70,0,L|329:192,1,62.9999980773926
400,194,12596,1,0,0:0:0:0:
256,192,13024,6,0,L|292:255,1,62.9999980773926
329,318,13453,1,0,0:0:0:0:
225,380,13667,69,0,0:0:0:0:
225,380,14095,1,0,0:0:0:0:
225,380,14524,1,0,0:0:0:0:
225,380,14952,1,0,0:0:0:0:
103,276,15167,1,0,0:0:0:0:
408,107,15595,21,0,0:0:0:0:
511,211,15809,1,0,0:0:0:0:
494,208,15881,1,0,0:0:0:0:
476,210,15952,1,0,0:0:0:0:
457,216,16024,2,0,P|409:229|361:213,1,90
258,228,16452,5,0,0:0:0:0:
304,108,16667,1,0,0:0:0:0:
309,121,16739,1,0,0:0:0:0:
318,132,16810,1,0,0:0:0:0:
329,143,16882,2,0,P|356:170|370:225,1,90
427,314,17309,5,0,0:0:0:0:
306,319,17524,1,0,0:0:0:0:
313,310,17596,1,0,0:0:0:0:
316,300,17667,1,0,0:0:0:0:
320,288,17739,2,0,P|327:258|377:215,1,90
507,142,18167,5,0,0:0:0:0:
402,146,18381,2,0,L|338:148,1,45
332,149,18595,1,0,0:0:0:0:
251,153,18809,2,0,L|187:155,1,45
103,276,19024,37,0,0:0:0:0:
1,173,19238,1,0,0:0:0:0:
18,176,19310,1,0,0:0:0:0:
36,174,19381,1,0,0:0:0:0:
55,168,19453,2,0,P|103:155|151:171,1,90
251,153,19881,5,0,0:0:0:0:
208,276,20096,1,0,0:0:0:0:
203,263,20168,1,0,0:0:0:0:
194,252,20239,1,0,0:0:0:0:
183,241,20309,2,0,P|155:213|141:158,1,90
85,70,20738,5,0,0:0:0:0:
192,96,20952,1,0,0:0:0:0:
192,96,21168,2,0,P|184:125|134:168,1,90
85,70,21595,1,0,0:0:0:0:
119,334,21809,5,0,0:0:0:0:
93,78,22024,1,0,0:0:0:0:
128,336,22238,1,0,0:0:0:0:
366,175,22452,37,0,0:0:0:0:
496,239,22667,1,0,0:0:0:0:
490,255,22738,1,0,0:0:0:0:
479,269,22809,1,0,0:0:0:0:
464,283,22881,2,0,P|428:318|418:367,1,90
366,175,23309,5,0,0:0:0:0:
245,252,23524,1,0,0:0:0:0:
237,243,23595,1,0,0:0:0:0:
233,231,23666,1,0,0:0:0:0:
229,217,23738,2,0,P|223:174|189:139,1,90
366,175,24167,5,0,0:0:0:0:
347,32,24382,1,0,0:0:0:0:
360,29,24453,1,0,0:0:0:0:
375,32,24524,1,0,0:0:0:0:
392,37,24596,2,0,P|437:49|485:38,1,90
366,175,25024,5,0,0:0:0:0:
363,289,25238,2,0,L|362:346,1,45
273,160,25452,1,0,0:0:0:0:
270,274,25666,2,0,L|269:331,1,45
181,143,25881,37,0,0:0:0:0:
178,257,26095,2,0,L|177:314,1,45
176,334,26309,5,0,0:0:0:0:
152,322,26416,1,0,0:0:0:0:
125,317,26523,1,0,0:0:0:0:
99,320,26630,1,0,0:0:0:0:
74,331,26738,2,0,L|72:388,2,45
25,220,27167,2,0,L|21:124,1,90
107,26,27595,5,0,0:0:0:0:
125,30,27702,1,0,0:0:0:0:
143,33,27809,1,0,0:0:0:0:
161,37,27916,1,0,0:0:0:0:
215,49,28024,6,0,B|260:40|260:40|329:56,1,90
340,66,28345,1,0,0:0:0:0:
340,66,28452,2,0,L|338:123,1,45
201,246,28667,1,0,0:0:0:0:
239,223,28774,1,0,0:0:0:0:
284,220,28881,1,0,0:0:0:0:
325,236,28988,1,0,0:0:0:0:
363,258,29095,1,0,0:0:0:0:
408,261,29202,1,0,0:0:0:0:
449,245,29309,6,0,P|462:207|450:157,1,72
312,84,29738,1,0,0:0:0:0:
384,36,29952,1,0,0:0:0:0:
344,168,30167,2,0,P|296:172|256:156,1,72
200,40,30595,1,0,0:0:0:0:
204,124,30809,1,0,0:0:0:0:
112,48,31024,5,0,0:0:0:0:
204,124,31238,2,0,L|300:128,1,72
100,164,31667,1,0,0:0:0:0:
100,164,31774,1,0,0:0:0:0:
100,164,31881,2,0,L|4:168,1,72
128,280,32309,1,0,0:0:0:0:
180,208,32524,1,0,0:0:0:0:
196,336,32738,70,0,P|244:324|292:340,1,72
408,376,33167,1,0,0:0:0:0:
388,296,33381,1,0,0:0:0:0:
484,204,33595,2,0,P|468:252|480:300,1,72
356,168,34024,1,0,0:0:0:0:
408,100,34238,1,0,0:0:0:0:
276,136,34452,5,0,0:0:0:0:
356,168,34667,1,0,0:0:0:0:
202,190,34881,1,0,0:0:0:0:
189,104,35096,1,0,0:0:0:0:
287,224,35309,2,0,L|277:308,1,72
169,372,35738,1,0,0:0:0:0:
268,384,35952,1,0,0:0:0:0:
115,308,36167,70,0,P|92:341|89:383,1,72
175,242,36595,1,0,0:0:0:0:
91,224,36809,1,0,0:0:0:0:
233,302,37024,2,0,P|255:269|255:221,1,72
174,80,37452,1,0,0:0:0:0:
210,158,37667,1,0,0:0:0:0:
261,52,37881,5,0,0:0:0:0:
210,158,38095,2,0,L|223:239,1,72
351,133,38524,1,0,0:0:0:0:
351,133,38738,2,0,L|364:52,1,72
472,207,39167,2,0,L|464:126,1,72
374,239,39595,69,0,0:0:0:0:
450,307,39809,1,0,0:0:0:0:
472,207,40024,1,0,0:0:0:0:
354,336,40238,2,0,P|316:328|271:332,1,72
215,190,40667,1,0,0:0:0:0:
215,190,40881,2,0,P|250:203|298:194,1,72
158,263,41309,5,0,0:0:0:0:
130,135,41524,2,0,L|143:44,1,72
317,35,41952,1,0,0:0:0:0:
294,24,42059,1,0,0:0:0:0:
269,19,42166,1,0,0:0:0:0:
244,20,42273,1,0,0:0:0:0:
220,28,42380,1,0,0:0:0:0:
358,139,42595,1,0,0:0:0:0:
463,84,42809,2,0,L|471:148,1,36
491,155,43024,70,0,P|478:193|483:235,1,72
384,312,43452,1,0,0:0:0:0:
476,320,43667,1,0,0:0:0:0:
385,218,43881,2,0,P|351:239|307:239,1,72
192,236,44309,1,0,0:0:0:0:
192,236,44524,1,0,0:0:0:0:
288,296,44738,5,0,0:0:0:0:
192,236,44952,1,0,0:0:0:0:
316,124,45167,1,0,0:0:0:0:
302,211,45381,2,0,L|238:203,1,36
109,186,45595,69,0,0:0:0:0:
117,208,45667,1,0,0:0:0:0:
119,232,45738,1,0,0:0:0:0:
116,256,45809,1,0,0:0:0:0:
0,354,46024,1,0,0:0:0:0:
31,242,46238,1,0,0:0:0:0:
96,375,46452,6,0,P|133:371|179:378,1,72
331,322,46881,1,0,0:0:0:0:
256,380,47095,1,0,0:0:0:0:
301,239,47309,2,0,P|338:247|386:239,1,72
468,292,47738,1,0,0:0:0:0:
468,292,47952,1,0,0:0:0:0:
510,192,48167,69,0,0:0:0:0:
371,243,48381,1,0,0:0:0:0:
410,138,48595,1,0,0:0:0:0:
468,292,48809,1,0,0:0:0:0:
468,292,48917,1,0,0:0:0:0:
468,292,49024,1,0,0:0:0:0:
288,205,49238,1,0,0:0:0:0:
357,295,49452,1,0,0:0:0:0:
289,379,49667,2,0,L|251:375,1,36
220,351,49881,6,0,P|183:363|130:351,1,72
32,276,50309,1,0,0:0:0:0:
44,364,50524,1,0,0:0:0:0:
112,232,50738,1,0,0:0:0:0:
112,232,50952,1,0,0:0:0:0:
196,280,51167,2,0,P|199:311|185:365,1,72
112,232,51595,69,0,0:0:0:0:
196,180,51809,1,0,0:0:0:0:
284,228,52024,1,0,0:0:0:0:
196,84,52238,1,0,0:0:0:0:
196,84,52345,1,0,0:0:0:0:
196,84,52452,1,0,0:0:0:0:
196,180,52667,1,0,0:0:0:0:
284,228,52881,2,0,L|368:224,1,72
490,149,53309,6,0,P|458:137|400:143,1,72
355,224,53738,1,0,0:0:0:0:
223,145,53952,1,0,0:0:0:0:
223,145,54059,1,0,0:0:0:0:
223,145,54167,2,0,P|228:178|262:225,1,72
355,224,54595,1,0,0:0:0:0:
502,331,54809,70,0,P|474:354|432:359,1,72
361,155,55238,2,0,P|366:190|350:229,1,72
183,70,55667,1,0,0:0:0:0:
231,267,55881,1,0,0:0:0:0:
231,267,56738,21,0,0:0:0:0:
31,203,56952,1,0,0:0:0:0:
231,138,57167,1,0,0:0:0:0:
108,308,57381,1,0,0:0:0:0:
108,98,57595,2,0,L|140:204,1,107.999996704102
192,356,58024,1,0,0:0:0:0:
192,356,58238,1,0,0:0:0:0:
248,228,58452,21,0,0:0:0:0:
312,339,58667,1,0,0:0:0:0:
453,183,58881,1,0,0:0:0:0:
439,312,59095,1,0,0:0:0:0:
334,130,59309,2,0,L|340:4,1,107.999996704102
144,160,59738,2,0,L|150:286,1,107.999996704102
40,168,60167,5,0,0:0:0:0:
104,57,60382,1,0,0:0:0:0:
245,213,60596,1,0,0:0:0:0:
126,266,60809,1,0,0:0:0:0:
231,84,61024,2,0,L|352:88,1,107.999996704102
512,203,61452,1,0,0:0:0:0:
468,82,61667,1,0,0:0:0:0:
302,211,61881,37,0,0:0:0:0:
338,87,62095,1,0,0:0:0:0:
410,284,62309,1,0,0:0:0:0:
512,203,62524,1,0,0:0:0:0:
408,176,62738,1,0,0:0:0:0:
216,320,62952,5,0,0:0:0:0:
296,64,63167,1,0,0:0:0:0:
256,192,63381,1,0,0:0:0:0:
412,333,63595,5,0,3:0:0:0:
367,129,63809,1,0,3:0:0:0:
282,319,64024,1,0,3:0:0:0:
464,215,64238,1,0,3:0:0:0:
256,192,64452,2,0,L|144:208,1,107.999996704102
32,260,64881,1,0,0:0:0:0:
32,260,65095,1,0,0:0:0:0:
245,121,65309,5,0,3:0:0:0:
38,142,65523,1,0,3:0:0:0:
193,2,65738,1,0,3:0:0:0:
64,15,65952,1,0,3:0:0:0:
149,207,66166,2,0,L|160:324,1,107.999996704102,0|0,3:0|3:0,3:0:0:0:
340,164,66595,2,0,L|329:47,1,107.999996704102,0|0,3:0|3:0,3:0:0:0:
480,216,67024,37,0,0:0:0:0:
340,164,67238,1,0,0:0:0:0:
368,312,67452,1,0,0:0:0:0:
452,76,67667,6,0,B|400:96|400:96|344:80,1,107.999996704102
199,31,68095,1,0,0:0:0:0:
349,81,68309,1,0,0:0:0:0:
97,26,68524,6,0,B|147:11|147:11|199:31,1,107.999996704102
124,192,68952,1,0,0:0:0:0:
144,100,69167,1,0,0:0:0:0:
164,280,69381,1,0,0:0:0:0:
124,192,69595,1,0,0:0:0:0:
144,100,69809,5,0,0:0:0:0:
124,192,70024,1,0,0:0:0:0:
164,280,70238,1,0,0:0:0:0:
144,372,70452,5,0,0:0:0:0:
144,372,71095,2,0,L|256:368,1,90
388,324,71952,5,0,0:0:0:0:
388,324,72381,1,0,0:0:0:0:
388,324,72809,1,0,0:0:0:0:
400,240,73024,1,0,0:0:0:0:
388,324,73238,69,0,0:0:0:0:
412,157,73452,1,0,0:0:0:0:
117,193,73881,21,0,0:0:0:0:
304,180,74095,1,0,0:0:0:0:
290,169,74167,1,0,0:0:0:0:
274,162,74238,1,0,0:0:0:0:
254,158,74310,2,0,P|205:145|172:107,1,90
117,193,74738,5,0,0:0:0:0:
24,42,74952,1,0,0:0:0:0:
21,57,75024,1,0,0:0:0:0:
23,72,75095,1,0,0:0:0:0:
28,88,75167,2,0,P|38:128|20:175,1,90
117,193,75595,5,0,0:0:0:0:
26,338,75809,1,0,0:0:0:0:
37,334,75881,1,0,0:0:0:0:
46,326,75952,1,0,0:0:0:0:
55,316,76024,2,0,P|83:292|134:289,1,90
117,193,76452,5,0,0:0:0:0:
222,197,76666,2,0,L|286:199,1,45
292,200,76880,1,0,0:0:0:0:
373,204,77094,2,0,L|437:206,1,45
300,86,77309,37,0,0:0:0:0:
193,18,77524,1,0,0:0:0:0:
190,35,77596,1,0,0:0:0:0:
192,52,77667,1,0,0:0:0:0:
198,72,77739,2,0,P|211:120|194:168,1,90
214,279,78167,5,0,0:0:0:0:
313,223,78380,1,0,0:0:0:0:
301,212,78452,1,0,0:0:0:0:
287,207,78523,1,0,0:0:0:0:
271,203,78595,2,0,P|231:191|198:152,1,90
86,107,79024,5,0,0:0:0:0:
123,194,79238,1,0,0:0:0:0:
123,194,79452,2,0,P|152:165|202:156,1,90
86,107,79881,1,0,0:0:0:0:
54,335,80095,5,0,0:0:0:0:
96,104,80309,1,0,0:0:0:0:
43,331,80524,1,0,0:0:0:0:
261,263,80738,37,0,0:0:0:0:
379,284,80952,1,0,0:0:0:0:
374,267,81024,1,0,0:0:0:0:
365,252,81095,1,0,0:0:0:0:
351,237,81167,2,0,P|318:198|313:148,1,90
261,263,81595,5,0,0:0:0:0:
179,350,81809,1,0,0:0:0:0:
194,354,81881,1,0,0:0:0:0:
209,353,81952,1,0,0:0:0:0:
225,350,82024,2,0,P|266:343|311:364,1,90
261,263,82452,5,0,0:0:0:0:
212,167,82667,1,0,0:0:0:0:
203,175,82739,1,0,0:0:0:0:
198,186,82810,1,0,0:0:0:0:
195,199,82882,2,0,P|179:232|133:256,1,90
34,164,83309,5,0,0:0:0:0:
40,259,83524,2,0,L|43:313,1,45
128,161,83738,1,0,0:0:0:0:
134,256,83953,2,0,L|137:310,1,45
222,161,84167,37,0,0:0:0:0:
228,256,84382,2,0,L|231:310,1,45
234,334,84595,5,0,0:0:0:0:
260,317,84702,1,0,0:0:0:0:
290,309,84809,1,0,0:0:0:0:
322,311,84916,1,0,0:0:0:0:
351,323,85024,2,0,L|350:375,2,45
427,190,85452,2,0,L|429:284,1,90
356,112,85881,6,0,L|415:105,1,45
289,76,86095,2,0,L|348:83,1,45
163,13,86309,6,0,B|177:57|177:57|155:130,1,90
156,125,86631,1,0,0:0:0:0:
154,125,86738,1,0,0:0:0:0:
17,227,86952,1,0,0:0:0:0:
49,203,87059,1,0,0:0:0:0:
89,197,87166,1,0,0:0:0:0:
127,210,87273,1,0,0:0:0:0:
154,240,87380,1,0,0:0:0:0:
9,354,87595,5,0,0:0:0:0:
159,377,88024,1,0,0:0:0:0:
163,369,88881,1,0,0:0:0:0:
58,259,89095,5,0,0:0:0:0:
61,248,89309,1,0,0:0:0:0:
166,362,89738,69,0,0:0:0:0:
170,354,90595,1,0,0:0:0:0:
58,259,90809,5,0,0:0:0:0:
61,248,91023,1,0,0:0:0:0:
174,345,91452,69,0,0:0:0:0:
178,337,92309,1,0,0:0:0:0:
58,259,92524,5,0,0:0:0:0:
61,248,92738,1,0,0:0:0:0:
182,329,93167,69,0,0:0:0:0:
58,259,93381,5,0,0:0:0:0:
61,248,93809,1,0,0:0:0:0:
184,320,94024,6,0,P|207:334|190:303,1,90
308,264,94452,53,0,0:0:0:0:
456,224,94881,1,0,0:0:0:0:
304,252,95309,5,0,0:0:0:0:
452,212,95738,1,0,0:0:0:0:
360,168,95952,1,0,0:0:0:0:
360,168,96059,1,0,0:0:0:0:
360,168,96167,69,0,0:0:0:0:
379,238,96381,1,0,0:0:0:0:
433,142,96595,1,0,0:0:0:0:
452,212,96809,1,0,0:0:0:0:
433,142,97024,5,0,0:0:0:0:
452,212,97238,1,0,0:0:0:0:
373,94,97452,1,0,0:0:0:0:
452,212,97667,1,0,0:0:0:0:
462,73,97881,69,0,0:0:0:0:
452,212,98095,1,0,0:0:0:0:
313,202,98309,1,0,0:0:0:0:
323,63,98523,1,0,0:0:0:0:
387,138,98738,5,0,0:0:0:0:
313,202,98952,1,0,0:0:0:0:
323,63,99167,1,0,0:0:0:0:
247,127,99381,1,0,0:0:0:0:
227,29,99595,69,0,0:0:0:0:
148,232,99809,2,0,L|152:146,1,72
8,274,100238,1,0,0:0:0:0:
27,361,100452,1,0,0:0:0:0:
148,232,100667,1,0,0:0:0:0:
147,263,100774,1,0,0:0:0:0:
156,293,100881,1,0,0:0:0:0:
173,319,100988,1,0,0:0:0:0:
197,339,101095,1,0,0:0:0:0:
407,244,101309,5,0,0:0:0:0:
407,244,101524,2,0,L|402:340,1,90
302,207,101952,1,0,0:0:0:0:
391,131,102167,1,0,0:0:0:0:
391,131,102381,1,0,0:0:0:0:
302,207,102595,2,0,L|196:201,1,90
64,189,103024,69,0,0:0:0:0:
138,74,103238,2,0,P|81:100|41:94,1,90
134,253,103667,2,0,P|196:258|228:284,1,90
158,331,104095,1,0,0:0:0:0:
279,209,104309,1,0,0:0:0:0:
312,301,104524,1,0,0:0:0:0:
376,176,104738,6,0,L|388:81,1,90
262,35,105167,1,0,0:0:0:0:
348,12,105381,1,0,0:0:0:0:
249,120,105595,2,0,L|139:112,1,90
20,44,106024,1,0,0:0:0:0:
112,21,106238,1,0,0:0:0:0:
45,143,106452,69,0,0:0:0:0:
20,44,106667,1,0,0:0:0:0:
159,113,106881,1,0,0:0:0:0:
134,212,107096,1,0,0:0:0:0:
14,288,107309,2,0,P|54:277|115:302,1,90
195,384,107738,1,0,0:0:0:0:
186,297,107952,1,0,0:0:0:0:
380,366,108167,6,0,L|283:374,1,90
186,297,108595,1,0,0:0:0:0:
286,287,108809,1,0,0:0:0:0:
177,203,109024,2,0,L|80:211,1,90
52,55,109452,1,0,0:0:0:0:
18,146,109667,1,0,0:0:0:0:
141,55,109881,70,0,P|203:58|235:85,1,90
300,186,110309,1,0,0:0:0:0:
326,99,110524,1,0,0:0:0:0:
326,99,110631,1,0,0:0:0:0:
326,99,110738,1,0,0:0:0:0:
208,201,110952,1,0,0:0:0:0:
354,261,111167,2,0,P|403:266|446:240,1,90
446,102,111595,5,0,0:0:0:0:
385,186,111809,1,0,0:0:0:0:
490,195,112024,1,0,0:0:0:0:
344,91,112238,2,0,P|299:84|243:98,1,90
199,165,112667,1,0,0:0:0:0:
176,34,112881,1,0,0:0:0:0:
98,222,113095,6,0,P|75:182|24:166,1,90
273,126,113524,2,0,P|296:86|284:33,1,90
388,283,113952,1,0,0:0:0:0:
498,107,114167,1,0,0:0:0:0:
288,227,114381,1,0,0:0:0:0:
276,256,114488,1,0,0:0:0:0:
274,287,114595,1,0,0:0:0:0:
280,318,114702,1,0,0:0:0:0:
287,330,114809,54,0,P|257:322|192:337,1,90
199,332,115452,6,0,L|202:359,1,22.5
188,241,115881,1,0,0:0:0:0:
44,259,116309,2,0,L|40:298,1,22.5
55,162,116738,1,0,0:0:0:0:
211,138,117167,2,0,L|213:174,1,22.5
209,47,117595,1,0,0:0:0:0:
49,20,118024,6,0,L|48:40,1,20.2499993820191
19,131,118452,54,0,P|52:115|102:120,1,72
160,159,118881,1,0,0:0:0:0:
164,75,119095,1,0,0:0:0:0:
98,224,119309,2,0,P|140:232|171:262,1,72
185,328,119738,1,0,0:0:0:0:
21,260,119952,6,0,P|4:306|9:340,1,72
141,183,120381,2,0,P|149:231|170:258,1,72
221,84,120809,1,0,0:0:0:0:
326,221,121024,1,0,0:0:0:0:
401,76,121238,1,0,0:0:0:0:
401,93,121345,1,0,0:0:0:0:
402,111,121452,1,0,0:0:0:0:
403,129,121559,1,0,0:0:0:0:
404,147,121666,1,0,0:0:0:0:
176,247,121881,5,0,0:0:0:0:
257,137,122095,1,0,0:0:0:0:
46,68,122309,1,0,0:0:0:0:
46,205,122524,1,0,0:0:0:0:
176,26,122738,2,0,L|140:139,1,107.999996704102
99,278,123167,1,0,0:0:0:0:
99,278,123381,1,0,0:0:0:0:
248,211,123595,5,0,2:0:0:0:
464,261,123809,1,0,2:0:0:0:
374,157,124024,1,0,2:0:0:0:
260,347,124238,1,0,2:0:0:0:
393,378,124452,2,0,L|511:369,1,107.999996704102
374,157,124881,2,0,L|256:166,1,107.999996704102
45,169,125309,5,0,2:0:0:0:
37,305,125524,1,0,2:0:0:0:
251,248,125738,1,0,0:0:0:0:
176,133,125952,1,0,2:0:0:0:
165,354,126167,2,0,L|310:368,1,107.999996704102
391,268,126595,1,0,0:0:0:0:
294,171,126809,1,0,0:0:0:0:
491,70,127024,5,0,0:0:0:0:
512,206,127239,1,0,2:0:0:0:
356,49,127453,1,0,0:0:0:0:
294,171,127667,1,0,2:0:0:0:
409,153,127881,1,0,0:0:0:0:
196,61,128095,37,0,0:0:0:0:
316,323,128309,1,0,0:0:0:0:
256,192,128524,1,0,0:0:0:0:
39,227,128738,5,0,2:0:0:0:
100,348,128953,1,0,2:0:0:0:
256,192,129167,1,0,0:0:0:0:
235,327,129381,1,0,2:0:0:0:
134,130,129595,2,0,L|160:288,1,107.999996704102
116,40,130024,1,0,0:0:0:0:
116,40,130238,1,0,0:0:0:0:
248,160,130452,5,0,2:0:0:0:
418,20,130667,1,0,0:0:0:0:
361,233,130881,1,0,2:0:0:0:
281,28,131095,1,0,2:0:0:0:
467,148,131309,2,0,L|456:276,1,107.999996704102
271,135,131738,2,0,L|282:7,1,107.999996704102
340,276,132167,5,0,0:0:0:0:
188,264,132381,1,0,0:0:0:0:
271,135,132595,1,0,0:0:0:0:
123,370,132809,38,0,B|171:346|171:346|247:358,1,107.999996704102
360,328,133238,1,0,0:0:0:0:
225,355,133452,1,0,0:0:0:0:
460,307,133667,6,0,B|412:333|412:333|359:327,1,107.999996704102,0|0,0:0|0:0,0:3:0:0:
368,148,134095,1,0,0:0:0:0:
396,240,134309,1,0,0:0:0:0:
408,64,134524,1,0,0:0:0:0:
368,148,134738,5,0,0:0:0:0:
396,240,134952,1,0,0:0:0:0:
464,172,135167,22,0,P|436:156|400:152,1,60.7499981460572
368,148,135595,6,0,L|368:184,1,20.2499993820191
360,152,135809,2,0,L|356:184,1,20.2499993820191
224,212,136452,70,0,L|228:244,1,20.2499993820191
232,216,136667,2,0,L|240:248,1,20.2499993820191
344,268,137309,6,0,L|340:296,1,20.2499993820191
336,272,137524,2,0,L|324:296,1,20.2499993820191
284,352,138167,70,0,L|288:380,1,20.2499993820191
296,356,138381,2,0,L|300:384,1,20.2499993820191
360,284,139024,6,0,L|364:256,1,20.2499993820191
372,280,139238,2,0,L|384:256,1,20.2499993820191
236,212,139881,70,0,L|240:184,1,20.2499993820191
228,204,140095,2,0,L|224:176,1,20.2499993820191
388,140,140738,6,0,L|400:112,1,20.2499993820191
400,136,140952,2,0,L|432:124,1,20.2499993820191
196,64,141595,70,0,L|188:36,1,20.2499993820191
184,60,141809,2,0,L|164:44,1,20.2499993820191
320,8,142024,38,0,L|316:64,1,40.4999987640381
341,94,142452,53,0,0:0:0:0:
312,93,142559,1,0,0:0:0:0:
285,101,142666,1,0,0:0:0:0:
262,116,142773,1,0,0:0:0:0:
247,155,142881,69,0,0:0:0:0:
268,155,142988,1,0,0:0:0:0:
289,160,143095,1,0,0:0:0:0:
307,172,143202,1,0,0:0:0:0:
301,210,143309,5,0,0:0:0:0:
286,210,143416,1,0,0:0:0:0:
272,213,143523,1,0,0:0:0:0:
259,221,143630,1,0,0:0:0:0:
235,266,143738,2,0,P|180:279|144:268,1,80.9999975280763
138,262,144059,1,0,0:0:0:0:
88,209,144167,70,0,P|78:166|95:115,1,80.9999975280763
151,168,144488,1,0,0:0:0:0:
83,217,144595,6,0,P|67:176|81:117,1,99.0000030212403
151,168,144916,1,0,0:0:0:0:
77,224,145024,70,0,L|22:227,1,40.4999987640381
129,298,145238,1,0,0:0:0:0:
156,302,145345,1,0,0:0:0:0:
187,298,145452,2,0,P|177:346|188:388,1,80.9999975280763
350,226,145881,6,0,P|304:239|279:270,1,80.9999975280763
256,339,146202,1,0,0:0:0:0:
256,339,146309,2,0,P|266:372|277:383,1,40.4999987640381
363,323,146524,1,0,0:0:0:0:
394,330,146631,1,0,0:0:0:0:
426,326,146738,2,0,L|435:359,1,20.2499993820191
453,310,146845,2,0,L|472:341,1,20.2499993820191
473,285,146952,2,0,L|461:231,1,40.4999987640381
443,102,147167,1,0,0:0:0:0:
424,117,147274,1,0,0:0:0:0:
382,134,147381,6,0,B|349:139|319:125|319:125|300:144|300:144|272:128|225:138,1,161.999995056153
143,253,148024,2,0,L|147:196,1,40.4999987640381
110,74,148238,1,0,0:0:0:0:
83,56,148345,1,0,0:0:0:0:
50,56,148452,2,0,P|23:90|19:140,1,80.9999975280763
142,149,148774,1,0,0:0:0:0:
142,149,148881,6,0,L|147:236,1,62.9999980773926
182,384,149095,2,0,L|188:312,1,67.5
128,141,149524,6,0,L|133:231,1,62.9999980773926
199,377,149738,2,0,L|205:305,1,67.5
112,133,150167,6,0,L|117:223,1,62.9999980773926
214,372,150381,2,0,L|220:300,1,67.5
98,127,150809,6,0,L|103:217,1,62.9999980773926
227,368,151024,2,0,L|233:293,1,72
230,212,151345,1,0,0:0:0:0:
243,224,151452,2,0,L|286:218,3,36
368,184,151881,1,0,0:0:0:0:
408,248,152095,1,0,0:0:0:0:
388,308,152309,2,0,L|349:304,3,36
256,384,152738,5,0,0:0:0:0:
214,326,152953,1,0,0:0:0:0:
145,348,153167,1,0,0:0:0:0:
256,384,153381,69,0,0:0:0:0:
214,326,153596,1,0,0:0:0:0:
145,348,153810,1,0,0:0:0:0:
0,384,154024,5,0,0:0:0:0:
0,384,154238,1,0,0:0:0:0:
8,280,154452,69,0,0:0:0:0:
50,222,154667,1,0,0:0:0:0:
119,244,154881,1,0,0:0:0:0:
8,280,155095,5,0,0:0:0:0:
50,222,155310,1,0,0:0:0:0:
119,244,155524,1,0,0:0:0:0:
256,192,155738,69,0,0:0:0:0:
256,192,155952,1,0,0:0:0:0:
256,192,156167,5,0,0:0:0:0:
298,134,156382,1,0,0:0:0:0:
367,156,156596,1,0,0:0:0:0:
256,192,156810,69,0,0:0:0:0:
298,134,157025,1,0,0:0:0:0:
367,156,157239,1,0,0:0:0:0:
512,192,157453,5,0,0:0:0:0:
512,192,157667,1,0,0:0:0:0:
504,88,157881,69,0,0:0:0:0:
462,30,158096,1,0,0:0:0:0:
393,52,158310,1,0,0:0:0:0:
395,124,158524,1,0,0:0:0:0:
463,146,158738,1,0,0:0:0:0:
330,93,158952,5,0,0:0:0:0:
182,291,159167,1,0,0:0:0:0:
256,192,159381,2,0,L|256:240,1,36
256,384,159595,69,0,0:0:0:0:
324,364,159809,1,0,0:0:0:0:
392,340,160024,1,0,0:0:0:0:
392,340,160238,5,0,0:0:0:0:
340,291,160452,1,0,0:0:0:0:
285,244,160667,1,0,0:0:0:0:
285,244,160881,69,0,0:0:0:0:
268,312,161095,1,0,0:0:0:0:
140,284,161309,5,0,0:0:0:0:
120,216,161523,1,0,0:0:0:0:
96,148,161738,1,0,0:0:0:0:
164,128,161952,1,0,0:0:0:0:
232,104,162167,1,0,0:0:0:0:
252,172,162381,1,0,0:0:0:0:
276,240,162596,1,0,0:0:0:0:
208,260,162809,1,0,0:0:0:0:
186,194,163024,70,0,L|180:175,1,18
186,194,164524,6,0,L|325:205,1,108
333,207,164952,1,0,0:0:0:0:
235,117,165167,1,0,0:0:0:0:
314,280,165381,1,0,0:0:0:0:
374,111,165595,1,0,0:0:0:0:
138,273,165809,5,0,0:0:0:0:
374,111,166024,1,0,0:0:0:0:
378,339,166238,1,0,0:0:0:0:
378,339,166345,1,0,0:0:0:0:
378,339,166452,5,0,0:0:0:0:
374,111,166667,1,0,0:0:0:0:
511,293,166881,1,0,0:0:0:0:
294,227,167095,1,0,0:0:0:0:
508,153,167309,2,0,L|394:238,1,116.999994644165
290,321,167738,1,0,0:0:0:0:
290,321,167952,1,0,0:0:0:0:
133,151,168167,5,0,0:0:0:0:
22,240,168381,1,0,0:0:0:0:
212,363,168595,1,0,0:0:0:0:
73,370,168809,1,0,0:0:0:0:
248,227,169024,2,0,L|384:236,1,116.999994644165
133,151,169452,2,0,L|8:160,1,116.999994644165
248,227,169881,5,0,0:0:0:0:
169,15,170095,1,0,0:0:0:0:
308,8,170309,1,0,0:0:0:0:
133,151,170524,1,0,0:0:0:0:
359,138,170738,2,0,L|501:131,1,116.999994644165
308,8,171167,1,0,0:0:0:0:
238,107,171381,1,0,0:0:0:0:
483,201,171595,37,0,0:0:0:0:
461,340,171809,1,0,0:0:0:0:
259,238,172024,1,0,0:0:0:0:
323,361,172238,1,0,0:0:0:0:
373,263,172452,1,0,0:0:0:0:
185,335,172667,5,0,0:0:0:0:
327,49,172881,1,0,0:0:0:0:
256,192,173095,1,0,0:0:0:0:
110,20,173309,5,0,0:0:0:0:
256,192,173523,1,0,0:0:0:0:
34,140,173738,1,0,0:0:0:0:
243,51,173952,1,0,0:0:0:0:
127,245,174167,2,0,L|0:240,1,116.999994644165
152,132,174595,1,0,0:0:0:0:
152,132,174809,1,0,0:0:0:0:
371,116,175024,5,0,0:0:0:0:
292,328,175238,1,0,0:0:0:0:
256,192,175452,1,0,0:0:0:0:
431,335,175667,1,0,0:0:0:0:
482,205,175881,37,0,0:0:0:0:
256,192,176095,1,0,0:0:0:0:
380,0,176309,2,0,L|372:136,1,116.999994644165
256,192,176738,5,0,0:0:0:0:
184,28,176952,1,0,0:0:0:0:
72,184,177167,1,0,0:0:0:0:
216,288,177381,6,0,L|356:280,1,116.999994644165
292,92,177809,1,0,0:0:0:0:
256,192,178024,1,0,0:0:0:0:
360,8,178238,6,0,L|204:0,1,116.999994644165
140,40,178667,1,0,0:0:0:0:
256,192,178881,1,0,0:0:0:0:
152,232,179095,1,0,0:0:0:0:
280,96,179309,1,0,0:0:0:0:
328,272,179524,1,0,0:0:0:0:
464,124,179738,2,0,B|444:152|444:152|464:256,1,121.499996292114
468,264,180167,5,0,0:0:0:0:
468,264,180809,2,0,L|364:256,1,90
212,308,181667,1,0,0:0:0:0:
212,308,182095,1,0,0:0:0:0:
212,308,182524,1,0,0:0:0:0:
196,232,182738,1,0,0:0:0:0:
212,308,182952,5,0,0:0:0:0:
180,152,183167,1,0,0:0:0:0:
376,36,183595,21,0,0:0:0:0:
499,161,183809,1,0,0:0:0:0:
479,157,183881,1,0,0:0:0:0:
457,159,183952,1,0,0:0:0:0:
434,167,184024,2,0,P|376:182|318:163,1,90
213,206,184452,5,0,0:0:0:0:
268,62,184667,1,0,0:0:0:0:
275,77,184739,1,0,0:0:0:0:
285,91,184810,1,0,0:0:0:0:
299,104,184882,2,0,P|331:136|348:202,1,90
432,283,185309,5,0,0:0:0:0:
287,289,185524,1,0,0:0:0:0:
295,279,185596,1,0,0:0:0:0:
299,266,185667,1,0,0:0:0:0:
304,252,185739,2,0,P|312:215|372:164,1,90
476,78,186167,5,0,0:0:0:0:
392,84,186381,2,0,L|324:88,1,45
318,88,186595,1,0,0:0:0:0:
234,94,186809,2,0,L|166:98,1,45
256,193,187024,21,0,0:0:0:0:
482,177,187238,1,0,0:0:0:0:
465,163,187310,1,0,0:0:0:0:
446,155,187381,1,0,0:0:0:0:
422,150,187453,2,0,P|362:134|322:88,1,90
256,193,187881,5,0,0:0:0:0:
143,9,188095,1,0,0:0:0:0:
139,28,188167,1,0,0:0:0:0:
141,46,188238,1,0,0:0:0:0:
148,65,188310,2,0,P|160:113|138:170,1,90
256,193,188738,5,0,0:0:0:0:
180,342,188952,1,0,0:0:0:0:
180,342,189167,2,0,P|213:312|275:309,1,90
243,189,189595,1,0,0:0:0:0:
374,366,189809,5,0,0:0:0:0:
235,186,190024,1,0,0:0:0:0:
386,362,190238,1,0,0:0:0:0:
494,84,190452,37,0,0:0:0:0:
361,0,190667,1,0,0:0:0:0:
358,21,190739,1,0,0:0:0:0:
360,42,190810,1,0,0:0:0:0:
368,66,190882,2,0,P|384:125|363:184,1,90
385,286,191310,5,0,0:0:0:0:
508,217,191523,1,0,0:0:0:0:
493,203,191595,1,0,0:0:0:0:
475,197,191666,1,0,0:0:0:0:
456,192,191738,2,0,P|406:177|365:129,1,90
260,90,192167,5,0,0:0:0:0:
263,218,192380,1,0,0:0:0:0:
279,213,192452,1,0,0:0:0:0:
291,202,192523,1,0,0:0:0:0:
302,191,192595,2,0,P|333:161|384:152,1,90
493,203,193024,5,0,0:0:0:0:
488,302,193238,2,0,L|484:354,1,45
395,225,193452,1,0,0:0:0:0:
390,324,193666,2,0,L|386:376,1,45
302,191,193881,37,0,0:0:0:0:
297,290,194095,2,0,L|293:342,1,45
289,375,194309,5,0,0:0:0:0:
265,353,194416,1,0,0:0:0:0:
236,341,194523,1,0,0:0:0:0:
205,339,194630,1,0,0:0:0:0:
175,346,194738,2,0,L|167:397,2,45
95,203,195167,2,0,L|101:299,1,90
184,156,195595,6,0,L|178:222,1,45
104,60,195809,2,0,L|108:115,1,45
184,32,196024,2,0,B|230:25|230:25|287:40,1,90
256,192,196452,5,0,0:0:0:0:
400,68,196667,1,0,0:0:0:0:
112,316,196881,6,0,L|116:352,1,36
