osu file format v14

[General]
AudioFilename: audio.mp3
AudioLeadIn: 0
PreviewTime: 42259
Countdown: 0
SampleSet: Soft
StackLeniency: 0.7
Mode: 0
LetterboxInBreaks: 0
WidescreenStoryboard: 0

[Editor]
Bookmarks: 9676,20342,31009,43009,64342,75009,85676,99009,120342,131009,141676,153676,164342,172342,193676,204342,213509
DistanceSpacing: 1
BeatDivisor: 2
GridSize: 4
TimelineZoom: 1

[Metadata]
Title:Bakudanma
TitleUnicode:爆弾魔
Artist:Yorushika
ArtistUnicode:ヨルシカ
Creator:Meg
Version:Normal
Source:
Tags:n-buna nbuna suis ナブナ スイ rock iMage-- kuei vick totoizn Akitoshi Laura japanese
BeatmapID:2439523
BeatmapSetID:1130014

[Difficulty]
HPDrainRate:2
CircleSize:3
OverallDifficulty:3
ApproachRate:4
SliderMultiplier:1.2
SliderTickRate:1

[Events]
//Background and Video events
0,0,"BG.png",0,0
//Break Periods
2,64541,73689
2,141875,145356
2,153676,161522
//Storyboard Layer 0 (Background)
//Storyboard Layer 1 (Fail)
//Storyboard Layer 2 (Pass)
//Storyboard Layer 3 (Foreground)
//Storyboard Layer 4 (Overlay)
//Storyboard Sound Samples

[TimingPoints]
343,333.333333333333,4,3,1,50,1,0
9676,-100,4,2,1,60,0,0
20342,-100,4,2,1,60,0,0
30176,-100,4,2,1,60,0,0
30676,-100,4,2,1,60,0,0
31009,-100,4,2,1,60,0,0
43009,-100,4,2,1,70,0,1
64342,-100,4,2,1,60,0,0
75009,-100,4,2,1,60,0,0
84842,-100,4,2,1,60,0,0
99009,-100,4,2,1,70,0,1
120342,-100,4,2,1,60,0,0
131009,-100,4,2,1,60,0,0
141676,-100,4,2,1,60,0,0
147009,-100,4,2,1,60,0,0
162676,-100,4,2,1,70,0,0
172342,-100,4,2,1,80,0,1
193676,-100,4,2,1,70,0,0
204342,-100,4,2,1,50,0,0

[Colours]
Combo1 : 111,111,111
Combo2 : 255,0,0
Combo3 : 255,202,176
Combo4 : 236,215,94

[HitObjects]
256,192,343,5,2,0:0:0:0:
431,28,1009,2,0,B|454:65|454:65|435:161|435:161|457:192,1,180,0|2,0:0|0:0,0:0:0:0:
256,192,3009,5,2,0:0:0:0:
81,356,3675,2,0,B|58:319|58:319|76:222|76:222|54:191,1,180,0|2,0:0|0:0,0:0:0:0:
121,56,5009,2,0,P|179:46|231:74,1,120,2|2,0:0|0:0,0:0:0:0:
256,192,5676,5,2,0:0:0:0:
442,329,6342,2,0,P|357:352|280:309,1,180,0|2,0:0|0:0,0:0:0:0:
80,347,8009,2,0,P|61:290|62:228,1,120,2|2,0:0|0:0,0:0:0:0:
144,70,8842,1,2,0:0:0:0:
262,92,9176,2,0,P|321:87|380:74,1,120,0|0,2:0|2:0,0:0:0:0:
434,49,9676,6,0,P|413:104|421:163,1,120,4|8,3:2|0:0,0:0:0:0:
500,253,10342,1,0,3:0:0:0:
431,353,10676,1,8,0:0:0:0:
431,353,10842,2,0,P|379:327|321:339,1,120,0|0,3:0|0:0,0:0:0:0:
266,365,11342,2,0,L|208:346,1,60,8|0,0:0|0:0,0:0:0:0:
97,301,11842,2,0,P|68:312|39:316,2,60,4|8|0,0:3|0:0|0:0,0:0:0:0:
142,263,12342,6,0,L|132:143,1,120,0|8,3:0|0:0,0:0:0:0:
24,90,13009,1,0,3:0:0:0:
116,15,13342,1,8,0:0:0:0:
116,14,13509,2,0,P|175:20|223:53,1,120,0|0,3:0|0:0,0:0:0:0:
247,109,14009,2,0,L|251:168,1,60,8|4,0:0|0:3,0:0:0:0:
136,202,14509,2,0,L|132:143,2,60,4|8|0,0:3|0:0|0:0,0:0:0:0:
115,257,15009,6,0,P|172:245|227:269,1,120,4|8,3:2|0:0,0:0:0:0:
298,366,15676,1,0,3:0:0:0:
407,316,16009,1,8,0:0:0:0:
407,316,16176,2,0,L|412:196,1,120,0|0,3:0|0:0,0:0:0:0:
433,139,16676,2,0,L|373:146,1,60,8|0,0:0|0:0,0:0:0:0:
258,108,17176,6,0,P|233:94|214:70,2,60,4|8|0,0:3|0:0|0:0,0:0:0:0:
269,228,17842,2,0,P|239:228|211:216,2,60,0|8|0,0:0|0:0|0:0,0:0:0:0:
337,326,18509,1,4,0:3:0:0:
337,326,18676,6,0,P|283:348|224:340,1,120,12|8,3:2|3:0,0:0:0:0:
103,336,19342,1,12,0:0:0:0:
42,235,19676,2,0,B|92:200|156:223|156:223|214:262|268:227,1,240,8|4,0:3|0:0,0:0:0:0:
332,125,20676,5,8,0:0:0:0:
442,172,21009,2,0,P|451:261|472:349,2,180,4|0|8,0:3|0:0|0:0,0:0:0:0:
431,51,22342,2,0,P|460:45|490:44,2,60,4|0|8,0:3|0:0|0:0,0:0:0:0:
319,97,23009,6,0,P|261:110|202:98,1,120,0|8,0:0|0:0,0:0:0:0:
83,75,23676,2,0,P|156:119|148:204,1,180,4|0,0:3|0:0,0:0:0:0:
82,304,24509,2,0,P|53:299|23:299,2,60,0|8|0,0:0|0:0|0:0,0:0:0:0:
130,341,25009,1,4,0:3:0:0:
242,298,25342,2,0,P|300:309|346:347,1,120,8|2,0:0|3:0,0:0:0:0:
444,278,26009,5,8,0:0:0:0:
351,201,26342,2,0,P|359:112|348:23,2,180,4|0|8,0:3|0:0|0:0,0:0:0:0:
341,321,27676,2,0,P|370:320|399:311,2,60,4|0|8,0:3|0:0|0:0,0:0:0:0:
221,301,28342,6,0,P|166:279|107:284,1,120,4|8,0:0|0:0,0:0:0:0:
53,310,28842,2,0,P|12:235|54:159,1,180,4|8,3:2|0:3,0:0:0:0:
115,55,29676,2,0,P|169:77|240:69,1,120,12|0,0:0|0:0,0:0:0:0:
283,46,30176,2,0,P|324:121|282:197,1,180,12|8,0:0|0:0,0:0:0:0:
232,231,30842,1,4,0:3:0:0:
232,231,31009,6,0,L|242:350,2,120,4|8|4,0:0|0:0|0:3,0:0:0:0:
155,137,32009,1,8,0:0:0:0:
239,51,32342,2,0,L|357:35,1,120,4|8,0:3|0:0,0:0:0:0:
417,30,32842,2,0,P|455:74|453:132,1,120,0|4,0:0|0:3,0:0:0:0:
430,188,33342,1,8,0:0:0:0:
366,290,33676,6,0,P|421:310|480:300,2,120,4|8|4,0:3|0:0|0:3,0:0:0:0:
279,206,34676,1,8,0:0:0:0:
161,182,35009,2,0,L|145:300,1,120,4|8,0:3|0:0,0:0:0:0:
111,351,35509,2,0,P|54:342|21:293,1,120,0|4,0:0|0:3,0:0:0:0:
15,234,36009,1,8,0:0:0:0:
6,114,36342,6,0,P|65:114|124:101,1,120,4|8,0:0|0:0,0:0:0:0:
167,60,36842,2,0,P|245:22|318:69,1,180,4|8,0:0|0:3,0:0:0:0:
344,123,37509,1,8,0:3:0:0:
344,123,37676,2,0,P|333:182|332:241,1,120,4|8,0:0|0:0,0:0:0:0:
332,302,38176,2,0,P|404:348|482:311,1,180,4|8,0:0|0:0,0:0:0:0:
482,191,39009,5,8,0:0:0:0:
482,191,39176,2,0,L|422:201,1,60,4|4,0:3|0:3,0:0:0:0:
363,184,39509,2,0,P|328:138|336:80,1,120,12|8,0:0|0:3,0:0:0:0:
392,58,40009,2,0,P|407:83|414:112,1,60,8|2,0:0|3:0,0:0:0:0:
350,63,43009,6,0,L|362:182,1,120,4|8,0:0|0:0,0:0:0:0:
442,272,43676,2,0,P|390:300|330:298,1,120,0|8,0:0|0:0,0:0:0:0:
277,268,44176,2,0,P|218:265|166:294,1,120
124,338,44676,1,8,0:0:0:0:
28,264,45009,2,0,P|32:235|42:207,1,60,0|4,0:0|0:3,0:0:0:0:
76,157,45342,2,0,P|71:127|61:99,1,60,8|0,0:0|0:0,0:0:0:0:
18,56,45676,6,0,L|136:36,1,120,4|8,0:3|0:0,0:0:0:0:
254,16,46342,2,0,P|227:68|232:127,1,120,0|8,0:0|0:0,0:0:0:0:
228,188,46842,2,0,P|254:240|249:299,1,120
223,353,47342,1,8,0:0:0:0:
342,368,47676,2,0,P|371:361|401:359,1,60,0|4,0:0|0:3,0:0:0:0:
460,353,48009,2,0,P|473:326|477:296,1,60,8|0,0:0|0:0,0:0:0:0:
470,237,48342,6,0,P|498:185|499:125,2,120,4|8|0,0:0|0:0|0:0,0:0:0:0:
382,154,49342,1,8,0:0:0:0:
264,182,49676,2,0,P|265:123|294:71,2,120,4|8|0,0:0|0:0|0:0,0:0:0:0:
382,154,50676,1,8,0:0:0:0:
347,268,51009,6,0,P|297:299|238:300,1,120,4|8,0:0|0:0,0:0:0:0:
132,243,51676,1,8,0:3:0:0:
39,319,52009,1,8,0:0:0:0:
39,319,52176,2,0,L|28:199,1,120,4|4,0:0|0:3,0:0:0:0:
32,138,52676,2,0,P|77:100|135:97,1,120,8|12,0:0|0:0,0:0:0:0:
240,156,53342,1,8,0:0:0:0:
356,125,53676,6,0,P|392:77|403:19,1,120,4|8,0:0|0:0,0:0:0:0:
479,111,54342,2,0,L|497:229,1,120,0|8,0:0|0:0,0:0:0:0:
451,267,54842,2,0,P|392:266|352:308,1,120
345,368,55342,1,8,0:0:0:0:
224,362,55676,2,0,L|230:302,1,60,0|4,0:0|0:3,0:0:0:0:
260,250,56009,2,0,L|253:190,1,60,8|0,0:0|0:0,0:0:0:0:
288,141,56342,6,0,P|309:85|300:27,1,120,4|8,0:3|0:0,0:0:0:0:
187,69,57009,2,0,P|127:78|68:85,1,120,0|8,0:0|0:0,0:0:0:0:
28,130,57509,2,0,P|6:185|15:243,1,120
47,294,58009,1,8,0:0:0:0:
156,343,58342,2,0,L|224:330,1,60,0|4,0:0|0:3,0:0:0:0:
272,312,58676,2,0,L|330:323,1,60,8|0,0:0|0:0,0:0:0:0:
384,349,59009,6,0,P|406:294|419:235,1,120,4|8,0:0|0:0,0:0:0:0:
508,154,59676,2,0,P|452:131|393:118,1,120,0|8,0:0|0:0,0:0:0:0:
312,31,60342,2,0,P|289:86|276:145,1,120,4|8,0:3|0:0,0:0:0:0:
188,226,61009,2,0,P|243:248|302:261,1,120,0|8,0:0|0:0,0:0:0:0:
384,349,61676,6,0,P|406:294|419:235,1,120,4|8,0:3|0:0,0:0:0:0:
446,182,62176,1,4,0:3:0:0:
445,182,62342,2,0,P|415:182|385:179,1,60,0|4,0:0|0:3,0:0:0:0:
329,155,62676,2,0,P|299:154|269:157,1,60,8|0,0:0|0:0,0:0:0:0:
213,182,63009,1,8,0:0:0:0:
97,155,63342,2,0,P|67:154|37:157,1,60,8|2,0:0|3:0,0:0:0:0:
18,275,63842,2,0,B|75:293|75:293|131:273|131:273|188:292,1,180,0|4,0:0|0:0,0:0:0:0:
325,55,75009,6,0,P|357:104|351:162,1,120,4|8,0:0|0:0,0:0:0:0:
264,246,75676,2,0,P|351:227|438:246,2,180,4|0|8,0:3|0:0|0:0,0:0:0:0:
174,323,77009,2,0,P|168:352|161:381,2,60,4|0|8,0:3|0:0|0:0,0:0:0:0:
87,237,77676,6,0,P|61:184|87:132,1,120,0|8,3:0|0:0,0:0:0:0:
165,41,78342,2,0,P|80:15|0:50,2,180,4|0|8,0:3|0:0|0:0,0:0:0:0:
249,125,79676,2,0,P|279:128|309:127,1,60,4|0,0:3|0:0,0:0:0:0:
357,91,80009,2,0,P|386:88|416:89,1,60,8|0,0:0|0:0,0:0:0:0:
463,127,80342,6,0,P|473:185|454:241,1,120,2|8,3:0|0:0,0:0:0:0:
342,286,81009,2,0,P|402:349|490:357,2,180,4|0|8,0:3|0:0|0:0,0:0:0:0:
241,220,82342,2,0,P|211:230|171:237,2,60,4|0|8,0:3|0:0|0:0,0:0:0:0:
308,120,83009,5,2,3:0:0:0:
307,120,84342,6,0,P|248:125|188:119,1,120,4|4,0:3|0:3,0:0:0:0:
138,85,84842,2,0,P|105:133|114:191,1,120,12|0,0:0|0:0,0:0:0:0:
146,240,85342,2,0,P|151:270|148:300,1,60,8|8,0:0|0:3,0:0:0:0:
157,359,85676,6,0,P|103:336|43:339,2,120,4|8|4,0:0|0:0|0:3,0:0:0:0:
278,360,86676,1,8,0:0:0:0:
397,373,87009,2,0,P|419:318|407:260,1,120,4|8,0:3|0:0,0:0:0:0:
349,243,87509,2,0,P|326:188|338:130,1,120,0|4,0:0|0:3,0:0:0:0:
397,113,88009,1,8,0:0:0:0:
333,11,88342,6,0,P|392:20|452:21,2,120,4|8|4,0:3|0:0|0:3,0:0:0:0:
239,86,89342,1,8,0:0:0:0:
135,24,89676,2,0,P|112:78|124:136,1,120,4|8,0:3|0:0,0:0:0:0:
183,154,90176,2,0,P|205:208|193:266,1,120,0|4,0:0|0:3,0:0:0:0:
135,284,90676,1,8,0:0:0:0:
235,348,91009,6,0,P|291:330|350:336,1,120,4|8,0:0|0:0,0:0:0:0:
405,359,91509,2,0,P|449:322|451:263,1,120,4|0,0:0|0:0,0:0:0:0:
422,210,92009,1,8,0:3:0:0:
454,94,92342,2,0,L|335:112,1,120,4|0,0:0|0:0,0:0:0:0:
275,122,92842,2,0,P|216:116|164:87,1,120,4|0,0:0|0:0,0:0:0:0:
128,39,93342,1,8,0:3:0:0:
68,143,93676,6,0,L|9:129,2,60,4|0|0,0:0|0:0|0:0,0:0:0:0:
94,196,94176,2,0,L|152:182,2,60,8|0|0,0:0|0:0|0:0,0:0:0:0:
68,249,94676,2,0,L|9:235,2,60,8|0|0,0:0|0:0|0:0,0:0:0:0:
94,302,95176,2,0,L|152:288,2,60,8|0|0,0:0|0:0|0:0,0:0:0:0:
68,355,95676,1,8,0:0:0:0:
186,372,96009,1,8,0:3:0:0:
186,372,96176,6,0,P|229:332|236:274,1,120,4|0,0:0|0:0,0:0:0:0:
225,214,96676,2,0,L|211:94,1,120,8|2,0:0|3:2,0:0:0:0:
301,15,97342,1,8,0:0:0:0:
323,133,97676,2,0,P|378:152|435:136,1,120,2|0,3:2|0:0,0:0:0:0:
481,97,98176,1,4,0:0:0:0:
481,97,98342,2,0,L|466:216,1,120,8|8,0:3|0:0,0:0:0:0:
492,332,99009,6,0,P|441:304|385:319,1,120,4|8,0:0|0:0,0:0:0:0:
272,360,99676,2,0,P|213:349|153:345,1,120,0|8,0:0|0:0,0:0:0:0:
93,351,100176,2,0,P|69:296|79:238,1,120
120,195,100676,1,8,0:0:0:0:
225,137,101009,2,0,L|283:149,1,60,0|4,0:0|0:3,0:0:0:0:
314,200,101342,2,0,L|372:187,1,60,8|0,0:0|0:0,0:0:0:0:
423,154,101676,6,0,P|449:102|441:43,1,120,4|8,0:3|0:0,0:0:0:0:
324,12,102342,2,0,L|206:26,1,120,0|8,0:0|0:0,0:0:0:0:
193,85,102842,2,0,P|133:89|85:51,1,120
45,11,103342,1,8,0:0:0:0:
14,127,103676,2,0,L|22:186,1,60,0|4,0:0|0:3,0:0:0:0:
67,226,104009,2,0,L|75:285,1,60,8|0,0:0|0:0,0:0:0:0:
117,327,104342,6,0,P|68:359|9:366,2,120,4|8|0,0:0|0:0|0:0,0:0:0:0:
173,220,105342,1,8,0:0:0:0:
229,113,105676,2,0,P|278:80|337:73,2,120,4|8|0,0:0|0:0|0:0,0:0:0:0:
173,220,106676,1,8,0:0:0:0:
248,312,107009,6,0,L|367:322,1,120,4|8,0:0|0:0,0:0:0:0:
463,249,107676,1,8,0:3:0:0:
449,129,108009,1,8,0:0:0:0:
449,129,108176,2,0,P|391:143|354:188,1,120,4|4,0:0|0:3,0:0:0:0:
296,203,108676,2,0,L|176:192,1,120,8|4,0:0|0:3,0:0:0:0:
68,140,109342,1,8,0:0:0:0:
153,54,109676,6,0,P|206:80|265:76,1,120,4|8,0:0|0:0,0:0:0:0:
368,15,110342,2,0,P|368:74|375:134,1,120,0|8,0:0|0:0,0:0:0:0:
399,189,110842,2,0,P|359:232|301:237,1,120
246,210,111342,1,8,0:0:0:0:
125,209,111676,2,0,P|125:238|128:268,1,60,0|4,0:0|0:3,0:0:0:0:
99,321,112009,2,0,P|125:335|152:348,1,60,8|0,0:0|0:0,0:0:0:0:
208,369,112342,6,0,P|263:347|322:350,1,120,4|8,0:3|0:0,0:0:0:0:
442,360,113009,2,0,P|462:305|449:248,1,120,0|8,0:0|0:0,0:0:0:0:
455,188,113509,2,0,L|336:207,1,120
277,220,114009,1,8,0:0:0:0:
224,328,114342,2,0,L|165:316,1,60,0|4,0:0|0:3,0:0:0:0:
123,359,114676,2,0,L|64:347,1,60,8|0,0:0|0:0,0:0:0:0:
9,322,115009,6,0,L|25:203,1,120,4|8,0:0|0:0,0:0:0:0:
124,135,115676,2,0,L|107:253,1,120,0|8,0:0|0:0,0:0:0:0:
206,187,116342,2,0,L|222:68,1,120,4|8,0:3|0:0,0:0:0:0:
321,0,117009,2,0,L|304:118,1,120,0|8,0:0|0:0,0:0:0:0:
297,238,117676,6,0,P|348:266|406:256,1,120,4|8,0:3|0:0,0:0:0:0:
450,215,118176,1,8,0:3:0:0:
450,215,118342,2,0,L|425:160,1,60,8|8,0:0|0:3,0:0:0:0:
442,101,118676,2,0,L|386:79,1,60,8|8,0:0|0:3,0:0:0:0:
355,26,119009,1,8,0:0:0:0:
241,34,119342,2,0,L|219:89,1,60,8|2,0:0|3:0,0:0:0:0:
290,186,119842,2,0,B|267:240|267:240|288:359,1,180,0|4,0:0|0:0,0:0:0:0:
408,352,120676,5,8,3:2:0:0:
475,252,121009,2,0,B|498:198|498:198|486:138,1,120,4|8,0:3|3:2,0:0:0:0:
425,33,121676,2,0,B|369:54|369:54|310:44,1,120,0|8,0:0|3:2,0:0:0:0:
232,136,122342,2,0,B|176:115|176:115|117:125,1,120,4|8,0:3|3:2,0:0:0:0:
17,57,123009,6,0,P|-6:112|4:170,1,120,0|8,0:0|3:2,0:0:0:0:
96,246,123676,2,0,P|105:304|83:359,1,120,4|8,0:3|3:2,0:0:0:0:
202,358,124342,2,0,L|323:349,1,120,0|8,0:0|3:2,0:0:0:0:
422,281,125009,2,0,P|396:229|341:208,1,120,4|8,0:3|3:2,0:0:0:0:
229,255,125676,5,4,0:0:0:0:
169,150,126009,1,8,3:2:0:0:
257,69,126342,2,0,L|377:60,2,120,4|8|0,0:3|3:2|0:0,0:0:0:0:
143,29,127342,1,8,3:2:0:0:
35,81,127676,2,0,P|24:139|47:193,1,120,4|8,0:3|3:2,0:0:0:0:
165,208,128342,2,0,L|285:199,1,120,0|8,0:0|3:2,0:0:0:0:
357,294,129009,2,0,L|237:303,1,120,2|8,0:0|3:2,0:0:0:0:
118,318,129676,6,0,P|66:346|7:339,2,120,4|4|4,0:0|0:0|0:0,0:0:0:0:
130,198,130676,1,8,0:0:0:0:
195,97,131009,6,0,P|250:77|308:90,1,120,6|10,0:0|0:0,0:0:0:0:
352,132,131509,2,0,P|371:187|358:245,1,120,2|2,0:0|0:0,0:0:0:0:
317,289,132009,2,0,P|261:308|203:295,1,120,10|2,0:0|0:0,0:0:0:0:
160,254,132509,2,0,P|146:227|140:198,1,60,2|8,0:0|0:0,0:0:0:0:
155,139,132842,1,2,0:0:0:0:
155,138,133009,2,0,P|173:82|158:25,1,120,0|10,0:0|0:0,0:0:0:0:
37,19,133676,6,0,P|18:75|33:132,1,120,2|8,0:0|0:0,0:0:0:0:
89,238,134342,1,2,0:0:0:0:
155,138,134676,1,10,0:0:0:0:
211,244,135009,1,2,0:0:0:0:
277,144,135342,1,10,0:0:0:0:
333,250,135676,1,2,0:0:0:0:
399,150,136009,1,10,0:0:0:0:
455,256,136342,6,0,P|444:314|403:356,1,120,6|8,0:0|0:0,0:0:0:0:
343,360,136842,1,0,0:0:0:0:
343,360,137009,2,0,L|223:348,1,120,2|8,0:0|0:0,0:0:0:0:
167,242,137676,2,0,P|177:183|218:141,1,120,2|8,0:0|0:0,0:0:0:0:
279,138,138176,1,0,0:0:0:0:
279,138,138343,2,0,L|398:149,1,120,2|0,0:0|0:0,0:0:0:0:
464,48,139009,6,0,L|344:36,1,120,2|8,0:0|0:0,0:0:0:0:
284,44,139509,2,0,L|164:32,1,120
104,40,140009,1,8,0:0:0:0:
58,150,140342,2,0,P|48:209|31:266,2,120,2|4|8,0:0|0:3|0:0,0:0:0:0:
176,132,141342,2,0,P|196:188|210:245,1,120,4|4,0:3|0:0,0:0:0:0:
65,321,146676,6,0,P|122:304|182:298,1,120,8|4,0:0|0:0,0:0:0:0:
447,63,148009,2,0,P|389:79|329:85,1,120,8|4,0:0|0:0,0:0:0:0:
65,321,149342,1,4,0:0:0:0:
1,218,149676,6,0,P|54:192|111:206,1,120,4|0,0:0|3:0,0:0:0:0:
155,247,150176,2,0,P|212:261|265:235,1,120,8|0,0:3|3:0,0:0:0:0:
307,192,150676,2,0,L|299:132,1,60,4|2,0:3|3:0,0:0:0:0:
262,51,162842,6,0,L|240:258,1,180,4|8,0:0|0:0,0:0:0:0:
178,331,163676,2,0,P|233:351|291:338,1,120,8|8,0:0|0:0,0:0:0:0:
408,360,164342,6,0,P|395:302|390:242,1,120,4|8,0:0|0:0,0:0:0:0:
462,145,165009,2,0,P|497:100|479:45,1,120,0|8,0:0|0:0,0:0:0:0:
421,28,165509,2,0,L|301:43,1,120
266,92,166009,1,8,0:0:0:0:
204,194,166342,2,0,P|231:208|260:215,1,60,0|4,0:0|0:3,0:0:0:0:
313,185,166676,2,0,P|339:171|368:164,1,60,8|0,0:0|0:0,0:0:0:0:
428,163,167009,6,0,L|439:284,1,120,4|8,0:3|0:0,0:0:0:0:
337,342,167676,2,0,P|278:331|223:351,1,120,0|8,0:0|0:0,0:0:0:0:
167,328,168176,2,0,P|111:348|53:337,1,120
15,290,168676,1,8,0:0:0:0:
38,172,169009,2,0,P|67:178|92:194,1,60,0|4,0:0|0:3,0:0:0:0:
142,227,169342,2,0,P|171:220|196:204,1,60,8|0,0:0|0:0,0:0:0:0:
254,185,169676,6,0,P|278:79|174:48,1,240,4|2,0:3|3:0,0:0:0:0:
54,49,170676,1,4,0:3:0:0:
54,49,170842,2,0,L|70:167,1,120,6|4,3:2|0:3,0:0:0:0:
36,218,171342,2,0,L|52:336,1,120,14|8,3:2|0:0,0:0:0:0:
171,324,172009,1,8,0:0:0:0:
289,305,172342,6,0,P|348:307|400:336,1,120,4|8,0:0|0:0,0:0:0:0:
493,260,173009,2,0,L|478:140,1,120,0|8,0:0|0:0,0:0:0:0:
477,80,173509,2,0,P|427:110|367:114,1,120
318,80,174009,1,8,0:0:0:0:
216,15,174342,2,0,P|205:44|200:73,1,60,0|4,0:0|0:3,0:0:0:0:
148,105,174676,2,0,P|153:134|163:162,1,60,8|0,0:0|0:0,0:0:0:0:
213,195,175009,6,0,P|227:257|200:307,1,120,4|8,0:3|0:0,0:0:0:0:
95,360,175676,2,0,L|71:242,1,120,0|8,0:0|0:0,0:0:0:0:
24,204,176176,2,0,P|10:142|37:92,1,120
83,58,176676,1,8,0:0:0:0:
200,73,177009,2,0,L|259:62,1,60,0|4,0:0|0:3,0:0:0:0:
304,23,177342,2,0,L|363:33,1,60,8|0,0:0|0:0,0:0:0:0:
393,85,177676,6,0,P|449:100|505:80,2,120,4|8|0,0:0|0:0|0:0,0:0:0:0:
305,167,178676,1,8,0:0:0:0:
217,249,179009,2,0,P|160:233|104:253,2,120,4|8|0,0:0|0:0|0:0,0:0:0:0:
305,167,180009,1,8,0:0:0:0:
385,255,180342,6,0,L|397:374,1,120,8|8,0:3|0:0,0:0:0:0:
492,299,181009,1,8,0:3:0:0:
479,179,181342,1,8,0:0:0:0:
479,179,181509,2,0,L|466:60,1,120,4|0,0:0|0:0,0:0:0:0:
424,15,182009,2,0,P|366:19|320:57,1,120,12|4,3:2|0:3,0:0:0:0:
285,172,182676,1,8,0:0:0:0:
249,286,183009,6,0,P|203:324|144:327,1,120,4|8,0:0|0:0,0:0:0:0:
43,263,183676,2,0,P|88:224|147:221,1,120,0|8,0:0|0:0,0:0:0:0:
190,178,184176,2,0,L|167:57,1,120
213,20,184676,1,8,0:0:0:0:
330,43,185009,2,0,L|341:101,1,60,0|4,0:0|0:3,0:0:0:0:
314,155,185342,2,0,L|325:213,1,60,8|0,0:0|0:0,0:0:0:0:
380,237,185676,6,0,P|437:221|495:232,1,120,4|8,0:3|0:0,0:0:0:0:
442,339,186342,2,0,P|384:354|326:343,1,120,0|8,0:0|0:0,0:0:0:0:
272,317,186842,2,0,P|214:301|156:312,1,120
106,345,187342,1,8,0:0:0:0:
22,258,187676,2,0,L|26:198,1,60,0|4,0:0|0:3,0:0:0:0:
2,142,188009,2,0,L|6:82,1,60,8|8,0:0|0:3,0:0:0:0:
55,46,188342,6,0,P|113:55|154:97,1,120,4|8,0:0|0:0,0:0:0:0:
240,13,189009,2,0,P|275:60|274:119,1,120,0|8,0:0|0:0,0:0:0:0:
395,120,189676,2,0,P|386:178|344:219,1,120,4|8,0:3|0:0,0:0:0:0:
428,304,190342,2,0,P|380:339|321:338,1,120,0|8,0:0|0:0,0:0:0:0:
204,364,191009,6,0,L|193:244,1,120,4|4,0:3|0:3,0:0:0:0:
149,203,191509,1,8,0:3:0:0:
149,203,191676,2,0,L|202:175,1,60,8|8,0:0|0:3,0:0:0:0:
228,121,192009,2,0,L|281:148,1,60,8|8,0:0|0:3,0:0:0:0:
307,203,192342,1,8,0:0:0:0:
386,121,192676,2,0,L|439:148,1,60,8|2,0:0|3:0,0:0:0:0:
484,260,193176,2,0,P|498:315|459:358,1,120
400,349,193676,6,0,L|280:341,1,120,4|8,3:2|0:0,0:0:0:0:
200,251,194342,1,0,3:0:0:0:
121,342,194676,1,8,0:0:0:0:
121,342,194842,2,0,P|86:293|82:234,1,120,0|0,3:0|0:0,0:0:0:0:
120,188,195342,2,0,P|128:159|129:129,1,60,8|0,0:0|0:0,0:0:0:0:
59,31,195842,2,0,L|0:44,2,60,4|8|0,0:3|0:0|0:0,0:0:0:0:
119,28,196342,6,0,L|238:40,1,120,0|8,3:0|0:0,0:0:0:0:
338,106,197009,1,0,3:0:0:0:
231,160,197342,1,8,0:0:0:0:
231,160,197509,2,0,P|206:213|212:272,1,120,0|0,3:0|0:0,0:0:0:0:
250,319,198009,2,0,L|309:314,1,60,8|0,0:0|0:0,0:0:0:0:
407,244,198509,2,0,L|466:239,2,60,4|8|0,0:3|0:0|0:0,0:0:0:0:
350,224,199009,6,0,P|325:170|331:111,1,120,4|8,3:2|0:0,0:0:0:0:
435,50,199676,1,0,3:0:0:0:
322,18,200009,1,8,0:0:0:0:
322,18,200176,2,0,L|184:35,1,120,0|0,3:0|0:0,0:0:0:0:
151,64,200676,2,0,P|122:59|93:50,1,60,8|0,0:0|0:0,0:0:0:0:
60,166,201176,6,0,P|31:157|1:151,2,60,4|8|0,0:3|0:0|0:0,0:0:0:0:
170,212,201842,2,0,P|191:191|211:168,2,60,0|8|0,0:0|0:0|0:0,0:0:0:0:
74,284,202509,1,4,0:3:0:0:
74,284,202676,2,0,P|85:340|138:364,1,120,8|0,0:0|3:0,0:0:0:0:
255,338,203342,1,12,0:0:0:0:
374,325,203676,2,0,L|379:205,1,120,8|8,0:3|0:3,0:0:0:0:
329,95,204342,6,0,P|383:73|437:95,2,120,0|0|0,3:0|3:0|3:0,0:0:0:0:
256,192,205342,1,0,3:0:0:0:
182,288,205676,2,0,P|128:310|74:288,2,120,0|0|0,3:0|3:0|3:0,0:0:0:0:
256,192,206676,1,0,3:0:0:0:
159,118,207009,6,0,P|137:64|159:10,2,120,0|0|0,3:0|3:0|3:0,0:0:0:0:
256,192,208009,1,0,3:0:0:0:
352,265,208343,2,0,P|374:319|352:373,2,120,0|0|0,3:0|3:0|3:0,0:0:0:0:
256,192,209343,1,0,3:0:0:0:
182,288,209676,6,0,P|128:310|74:288,1,120,0|0,3:0|3:0,0:0:0:0:
88,168,210342,2,0,P|65:113|87:59,1,120,0|0,3:0|3:0,0:0:0:0:
208,73,211009,2,0,P|262:50|316:72,1,120,0|0,3:0|3:0,0:0:0:0:
302,193,211676,2,0,P|324:247|302:301,1,120,0|0,3:0|3:0,0:0:0:0:
194,353,212342,6,0,P|280:335|363:369,1,180,2|2,0:0|0:0,0:0:0:0:
470,315,213176,2,0,P|460:255|455:196,1,120,2|2,0:0|3:0,0:0:0:0:
