osu file format v14

[General]
AudioFilename: audio.mp3
AudioLeadIn: 0
PreviewTime: 155193
Countdown: 0
SampleSet: Soft
StackLeniency: 0.3
Mode: 0
LetterboxInBreaks: 0
WidescreenStoryboard: 1

[Editor]
Bookmarks: 393,9993,19593,29193,48393,53093,53143,53193,57993,67593,77193,86793,96393,105993,115593,125193,134793,137043,146793,151593,153993,156393,165993,175593,185193
DistanceSpacing: 1.5
BeatDivisor: 4
GridSize: 8
TimelineZoom: 2.1

[Metadata]
Title:Aruku
TitleUnicode:歩く
Artist:Yorushika
ArtistUnicode:ヨルシカ
Creator:Faito
Version:Extreme
Source:
Tags:nbuna jrock j-rock walk rock japanese suis n-buna elma エルマ enerugi
BeatmapID:2317225
BeatmapSetID:1108809

[Difficulty]
HPDrainRate:6
CircleSize:4
OverallDifficulty:9
ApproachRate:9.5
SliderMultiplier:2
SliderTickRate:1

[Events]
//Background and Video events
0,0,"piraruku.jpg",0,0
//Break Periods
2,134993,136518
2,139793,141318
//Storyboard Layer 0 (Background)
//Storyboard Layer 1 (Fail)
//Storyboard Layer 2 (Pass)
//Storyboard Layer 3 (Foreground)
//Storyboard Layer 4 (Overlay)
//Storyboard Sound Samples

[TimingPoints]
393,300,4,2,4,70,1,0
402,-100,4,2,4,70,0,0
9993,-181.818181818181,4,2,4,40,0,0
19593,-117.647058823529,4,2,4,50,0,0
29193,-100,4,2,4,60,0,0
29493,-125,4,2,4,60,0,0
30693,-200,4,2,4,60,0,0
31293,-100,4,2,4,60,0,0
39093,-125,4,2,4,60,0,0
40293,-142.857142857143,4,2,4,60,0,0
43293,-100,4,2,4,70,0,0
48093,-200,4,2,4,70,0,0
48318,-200,4,2,4,5,0,0
48393,-100,4,2,4,80,0,1
57993,-100,4,2,4,80,0,1
66618,-100,4,2,4,5,0,1
66693,-100,4,2,4,80,0,1
66918,-100,4,2,4,5,0,1
66993,-100,4,2,4,80,0,1
67218,-100,4,2,4,5,0,1
67293,-100,4,2,4,80,0,1
67593,-100,4,2,4,70,0,0
77193,-181.818181818182,4,2,4,40,0,0
86793,-125,4,2,4,50,0,0
96393,-100,4,2,4,60,0,0
100593,-100,4,2,4,60,0,0
105993,-125,4,2,4,50,0,0
110793,-100,4,2,4,60,0,0
113643,-66.6666666666667,4,2,4,70,0,0
115593,-100,4,2,4,80,0,1
125193,-100,4,2,4,80,0,1
133818,-100,4,2,4,80,0,1
133893,-100,4,2,4,80,0,1
134118,-100,4,2,4,80,0,1
134193,-100,4,2,4,80,0,1
134418,-100,4,2,4,80,0,1
134493,-100,4,2,4,80,0,1
134793,-166.666666666667,4,2,4,70,0,0
137043,-166.666666666667,4,2,4,40,0,0
138243,-166.666666666667,4,2,4,50,0,0
146793,-100,4,2,4,60,0,0
151593,-100,4,2,4,70,0,0
153993,-100,4,2,4,70,0,0
155493,-66.6666666666667,4,2,4,70,0,0
155718,-66.6666666666667,4,2,4,5,0,0
155793,-100,4,2,4,70,0,0
156018,-66.6666666666667,4,2,4,5,0,0
156093,-200,4,2,4,70,0,0
156318,-200,4,2,4,5,0,0
156393,-83.3333333333333,4,2,4,80,0,1
165993,-83.3333333333333,4,2,4,80,0,1
174618,-83.3333333333333,4,2,4,5,0,1
174693,-83.3333333333333,4,2,4,80,0,1
174918,-83.3333333333333,4,2,4,5,0,1
174993,-83.3333333333333,4,2,4,80,0,1
175218,-83.3333333333333,4,2,4,5,0,1
175293,-83.3333333333333,4,2,4,80,0,1
175593,-100,4,2,4,70,0,0
179418,-100,4,2,4,5,0,0
179493,-100,4,2,4,70,0,0
179718,-100,4,2,4,5,0,0
179793,-100,4,2,4,70,0,0
180318,-100,4,2,4,5,0,0
180393,-100,4,2,4,70,0,0
185193,-100,4,2,4,70,0,0

[Colours]
Combo1 : 249,100,104
Combo2 : 243,251,151
Combo3 : 255,149,202
Combo4 : 152,160,239

[HitObjects]
99,345,393,5,8,0:0:0:0:
217,263,543,1,2,1:2:0:0:
214,287,618,1,2,0:2:0:0:
211,311,693,1,10,0:2:0:0:
87,260,843,1,0,0:0:0:0:
285,165,993,6,0,L|294:273,1,100,0|0,1:0|3:0,0:0:0:0:
409,117,1293,1,8,0:0:0:0:
252,73,1443,1,2,0:2:0:0:
276,74,1518,1,2,0:2:0:0:
300,75,1593,1,2,1:2:0:0:
406,209,1743,1,0,3:0:0:0:
480,50,1893,1,8,0:0:0:0:
480,50,2193,6,0,P|482:78|490:114,1,50,2|0,1:0|0:0,0:0:0:0:
505,140,2343,2,0,P|502:168|495:204,1,50,2|0,3:1|0:0,0:0:0:0:
441,273,2493,1,8,0:0:0:0:
326,224,2643,1,0,1:0:0:0:
348,384,2793,6,0,P|344:285|336:220,1,150,6|0,1:2|0:0,0:0:0:0:
295,157,3093,1,8,0:0:0:0:
152,153,3243,1,0,0:0:0:0:
221,277,3393,1,0,1:0:0:0:
189,88,3543,5,0,3:0:0:0:
55,140,3693,1,8,0:0:0:0:
167,227,3843,1,0,0:0:0:0:
78,330,3993,5,0,1:0:0:0:
56,237,4143,1,0,3:0:0:0:
146,110,4293,1,8,0:0:0:0:
168,17,4443,1,0,0:0:0:0:
56,72,4593,5,2,1:2:0:0:
70,108,4668,1,2,0:2:0:0:
84,144,4743,1,2,1:2:0:0:
98,180,4818,1,2,0:2:0:0:
112,216,4893,5,0,1:0:0:0:
145,195,4968,1,0,1:0:0:0:
178,174,5043,1,0,1:0:0:0:
211,154,5118,1,0,1:0:0:0:
244,134,5193,5,4,0:0:0:0:
351,45,5343,1,2,1:2:0:0:
326,41,5418,1,2,0:2:0:0:
301,37,5493,1,10,0:2:0:0:
347,147,5643,1,0,0:0:0:0:
449,37,5793,6,0,P|456:131|460:165,1,100,0|0,1:0|3:0,0:0:0:0:
288,225,6093,2,0,L|350:231,1,50,10|0,0:1|0:0,0:0:0:0:
358,256,6243,2,0,L|420:262,1,50,2|0,0:1|0:0,0:0:0:0:
485,329,6393,1,0,1:0:0:0:
309,349,6543,1,0,3:0:0:0:
233,178,6693,5,8,0:0:0:0:
181,338,6843,2,0,P|176:315|173:281,1,50
203,202,6993,2,0,P|135:251|60:233,1,150,4|0,1:2|0:0,0:0:0:0:
41,167,7293,2,0,P|98:140|144:125,1,100,8|0,0:0|1:0,0:0:0:0:
372,147,7593,5,2,1:2:0:0:
240,99,7743,1,0,3:0:0:0:
442,15,7893,5,8,0:0:0:0:
493,134,8043,1,0,0:0:0:0:
373,184,8193,1,0,1:0:0:0:
322,65,8343,5,2,3:1:0:0:
289,201,8493,1,10,0:1:0:0:
256,337,8643,1,2,0:1:0:0:
126,253,8793,5,0,1:0:0:0:
219,229,8943,1,0,3:0:0:0:
47,375,9093,1,8,0:0:0:0:
31,284,9243,1,0,0:0:0:0:
122,175,9393,1,0,1:0:0:0:
52,130,9543,6,0,P|36:50|28:4,2,100,0|0|0,1:0|1:0|1:0,0:0:0:0:
128,88,9993,6,0,B|208:64|211:114|289:99,1,165.000005035401,4|0,1:2|3:0,0:0:0:0:
360,40,10593,1,0,0:0:0:0:
360,40,10893,5,0,0:0:0:0:
416,96,11043,1,0,0:0:0:0:
504,45,11193,2,0,P|491:98|487:153,1,110.000003356934,0|0,3:0|0:0,0:0:0:0:
434,226,11643,2,0,P|370:230|313:231,1,110.000003356934,0|0,3:0|0:0,0:0:0:0:
479,357,12093,1,8,0:0:0:0:
479,357,12393,6,0,P|415:361|358:362,1,110.000003356934,0|0,3:0|0:0,0:0:0:0:
296,314,12843,1,0,3:0:0:0:
296,314,13143,5,0,0:0:0:0:
319,233,13293,1,0,0:0:0:0:
387,283,13443,1,0,0:0:0:0:
247,378,13593,6,0,L|238:258,1,110.000003356934,0|0,3:0|0:0,0:0:0:0:
52,358,14043,1,8,0:0:0:0:
52,358,14343,5,0,3:0:0:0:
112,294,14493,2,0,P|163:294|185:299,1,55.0000016784668,0|0,3:0|0:0,0:0:0:0:
36,276,14793,2,0,P|36:220|30:157,1,110.000003356934,4|0,3:2|0:0,0:0:0:0:
82,110,15243,1,0,3:0:0:0:
128,171,15393,2,0,P|172:175|200:182,1,55.0000016784668
238,222,15693,2,0,P|264:215|290:206,1,55.0000016784668
327,132,15993,6,0,P|395:152|450:181,1,110.000003356934,0|0,3:0|0:0,0:0:0:0:
493,63,16443,1,0,3:0:0:0:
493,63,16893,2,0,P|445:71|421:78,1,55.0000016784668,8|0,0:0|0:0,0:0:0:0:
337,43,17193,5,0,3:0:0:0:
258,63,17343,1,0,0:0:0:0:
211,132,17493,2,0,P|226:185|227:193,2,55.0000016784668,8|0|0,0:0|0:0|3:0,0:0:0:0:
177,59,17943,1,0,3:0:0:0:
72,139,18093,2,0,P|90:118|111:100,1,55.0000016784668,8|0,0:0|0:0,0:0:0:0:
156,233,18392,2,0,P|128:228|102:219,1,55.0000016784668,0|0,3:0|0:0,0:0:0:0:
16,216,18693,1,10,0:0:0:0:
16,216,18993,5,0,0:0:0:0:
70,292,19143,1,0,0:0:0:0:
124,367,19293,1,8,0:0:0:0:
217,278,19443,5,8,0:0:0:0:
245,270,19518,1,8,0:0:0:0:
273,262,19593,1,2,3:2:0:0:
365,309,19743,1,0,0:0:0:0:
464,271,19893,2,0,P|467:207|472:165,1,85.0000016212464,8|0,0:0|0:0,0:0:0:0:
483,81,20193,1,0,3:0:0:0:
316,143,20343,1,0,3:0:0:0:
390,211,20493,2,0,P|393:147|398:105,1,85.0000016212464,8|0,0:0|0:0,0:0:0:0:
259,23,20793,6,0,P|323:26|365:31,1,85.0000016212464,2|0,0:0|0:0,0:0:0:0:
108,167,21093,1,8,0:0:0:0:
108,167,21393,1,0,3:0:0:0:
84,248,21543,1,0,3:0:0:0:
13,197,21693,2,0,P|4:123|11:49,1,127.50000243187,8|0,0:0|0:0,0:0:0:0:
65,20,21993,6,0,P|128:25|176:33,1,85.0000016212464,2|0,3:2|0:0,0:0:0:0:
214,148,22293,2,0,P|277:143|325:135,1,85.0000016212464,8|0,0:0|0:0,0:0:0:0:
437,47,22593,1,0,3:0:0:0:
393,114,22743,1,0,3:0:0:0:
460,182,22893,2,0,P|482:127|492:95,1,85.0000016212464,8|0,0:0|0:0,0:0:0:0:
362,189,23193,2,0,P|375:229|392:268,1,85.0000016212464,2|0,0:0|0:0,0:0:0:0:
195,350,23493,1,8,0:0:0:0:
195,350,23793,5,0,3:0:0:0:
220,272,23943,1,0,3:0:0:0:
245,194,24093,1,8,0:0:0:0:
245,194,24243,1,0,0:0:0:0:
71,246,24393,6,0,P|110:261|145:284,1,85.0000016212464,2|0,3:2|0:0,0:0:0:0:
40,163,24693,1,8,0:0:0:0:
40,163,24843,1,0,0:0:0:0:
85,79,24993,1,0,3:0:0:0:
254,116,25143,1,0,3:0:0:0:
181,21,25293,5,8,0:0:0:0:
151,148,25443,1,0,0:0:0:0:
351,136,25593,2,0,L|338:44,1,85.0000016212464,2|0,0:0|0:0,0:0:0:0:
217,211,25893,5,8,0:0:0:0:
318,292,26043,1,0,0:0:0:0:
376,209,26193,1,0,3:0:0:0:
225,298,26343,1,0,3:0:0:0:
267,137,26493,1,8,0:0:0:0:
383,359,26643,1,0,0:0:0:0:
404,282,26793,5,2,3:2:0:0:
282,365,26943,1,8,0:0:0:0:
138,303,27093,1,0,3:0:0:0:
187,374,27243,1,0,3:0:0:0:
318,292,27393,5,8,0:0:0:0:
330,187,27543,1,0,1:0:0:0:
225,298,27693,1,4,0:3:0:0:
103,186,27843,5,8,0:0:0:0:
216,211,27993,1,2,3:2:0:0:
243,97,28143,1,0,3:0:0:0:
318,292,28293,5,8,0:0:0:0:
423,96,28443,1,8,0:3:0:0:
429,136,28518,1,8,0:3:0:0:
437,176,28593,1,8,0:3:0:0:
281,170,28743,1,8,0:3:0:0:
371,29,28893,1,8,0:3:0:0:
512,120,29043,1,8,0:3:0:0:
415,297,29193,6,0,P|366:287|317:282,1,100,4|0,0:0|0:0,0:0:0:0:
47,334,29493,2,0,B|0:168|120:168|54:24,1,320,14|8,0:0|0:0,0:0:0:0:
160,136,30243,1,0,1:0:0:0:
160,136,30543,5,0,3:0:0:0:
288,48,30693,2,0,L|176:56,1,100,8|0,0:0|0:0,0:0:0:0:
184,72,31293,5,8,0:0:0:0:
288,56,31443,1,0,0:0:0:0:
392,40,31593,1,0,1:0:0:0:
429,130,31743,1,0,3:0:0:0:
352,255,31893,6,0,L|336:143,1,100,8|0,0:0|0:0,0:0:0:0:
426,120,32193,1,2,0:0:0:0:
462,223,32343,1,2,0:0:0:0:
225,235,32493,1,8,0:0:0:0:
256,144,32643,6,0,L|243:364,1,200,4|0,2:0|3:0,0:0:0:0:
48,216,33093,1,8,0:0:0:0:
48,216,33393,1,0,0:0:0:0:
123,265,33543,1,0,3:0:0:0:
135,232,33618,1,0,3:0:0:0:
147,199,33693,1,8,0:0:0:0:
88,136,33843,1,0,0:0:0:0:
0,289,33993,6,0,B|41:280|81:286|36:338|117:359|141:357|176:340,1,200,12|8,0:0|0:0,0:0:0:0:
220,271,34443,1,0,0:0:0:0:
393,358,34593,2,0,P|393:269|412:174,1,150,2|0,0:0|0:0,0:0:0:0:
465,169,34893,1,8,0:0:0:0:
312,144,35043,1,0,1:0:0:0:
241,115,35193,6,0,P|229:67|226:17,1,100,0|0,0:0|3:0,0:0:0:0:
145,208,35493,1,8,0:0:0:0:
145,208,35793,2,0,P|120:164|104:117,1,100
40,345,36093,1,8,0:0:0:0:
40,345,36393,5,0,1:0:0:0:
136,304,36543,1,0,3:0:0:0:
224,360,36693,2,0,B|233:286|233:286|270:243|270:243|279:174,1,200,8|0,0:0|0:0,0:0:0:0:
338,122,37143,1,0,0:0:0:0:
461,264,37293,1,8,0:0:0:0:
512,193,37443,2,0,P|511:126|504:76,1,100,2|0,3:1|0:0,0:0:0:0:
361,255,37743,1,0,1:0:0:0:
421,193,37893,2,0,P|422:143|417:94,1,100,8|0,0:0|0:0,0:0:0:0:
248,97,38193,5,0,3:0:0:0:
218,78,38268,1,0,3:0:0:0:
188,59,38343,1,0,3:0:0:0:
156,74,38418,1,0,3:0:0:0:
124,88,38493,1,8,0:0:0:0:
102,195,38643,1,2,0:3:0:0:
184,156,38793,6,0,L|169:281,1,100,12|0,0:0|0:0,0:0:0:0:
99,351,39093,2,0,B|223:334|223:334|270:378|270:378|399:362,1,320,8|8,0:0|0:0,0:0:0:0:
452,276,39843,1,0,1:0:0:0:
452,276,40143,1,0,3:0:0:0:
285,153,40293,6,0,L|303:301,1,139.999995727539,8|0,0:0|0:0,0:0:0:0:
377,289,40743,1,0,0:0:0:0:
436,175,40893,1,0,1:0:0:0:
436,175,41043,1,0,0:0:0:0:
429,61,41193,5,2,1:2:0:0:
364,103,41343,1,0,3:0:0:0:
262,77,41493,1,8,0:0:0:0:
194,113,41643,1,0,0:0:0:0:
235,233,41793,1,0,0:0:0:0:
235,233,41943,2,0,P|202:219|154:218,1,69.9999978637696,2|8,0:1|0:0,0:0:0:0:
97,166,42243,6,0,L|82:309,1,139.999995727539,0|0,1:0|3:0,0:0:0:0:
169,349,42693,1,8,0:0:0:0:
169,349,42993,5,0,0:0:0:0:
293,327,43143,1,0,0:0:0:0:
208,180,43293,2,0,L|221:294,1,100,8|0,0:0|0:0,0:0:0:0:
251,87,43593,5,14,0:0:0:0:
384,65,43743,1,0,1:0:0:0:
405,199,43893,1,8,0:0:0:0:
254,212,44043,1,0,0:0:0:0:
240,113,44193,5,0,1:0:0:0:
477,137,44343,1,0,3:0:0:0:
369,5,44493,1,8,0:0:0:0:
369,5,44643,1,0,0:0:0:0:
30,111,44793,6,0,P|88:99|131:104,1,100,6|0,3:2|0:0,0:0:0:0:
254,212,45093,2,0,P|205:200|155:204,1,100,8|0,0:0|1:0,0:0:0:0:
161,365,45393,1,0,3:0:0:0:
83,243,45543,1,0,3:0:0:0:
314,306,45693,2,0,P|358:262|403:318,1,150,8|0,0:0|0:0,0:0:0:0:
352,383,45993,6,0,P|359:291|395:173,1,200,14|0,1:2|0:0,0:0:0:0:
385,47,46443,5,2,3:2:0:0:
362,47,46518,1,0,3:2:0:0:
309,66,46593,5,10,3:2:0:0:
287,76,46668,1,0,3:2:0:0:
243,116,46743,5,2,3:1:0:0:
227,136,46818,1,0,3:2:0:0:
196,186,46893,5,2,3:1:0:0:
190,211,46968,1,0,3:2:0:0:
184,267,47043,5,2,3:1:0:0:
190,297,47118,1,0,3:2:0:0:
248,345,47193,5,14,3:2:0:0:
165,167,47493,5,14,3:2:0:0:
33,46,47793,5,14,3:2:0:0:
33,46,48093,6,0,L|46:132,1,75,2|0,0:0|0:0,0:0:0:0:
89,206,48393,5,6,0:0:0:0:
156,93,48543,1,0,0:0:0:0:
223,262,48693,2,0,P|228:212|225:162,1,100,8|0,0:0|0:0,0:0:0:0:
306,103,48993,1,2,1:1:0:0:
340,277,49143,1,0,1:0:0:0:
438,188,49293,2,0,L|314:197,1,100,8|0,0:0|0:0,0:0:0:0:
106,299,49593,5,2,3:2:0:0:
273,322,49743,1,0,3:0:0:0:
60,297,49893,2,0,P|53:225|53:184,1,100,8|0,0:1|0:0,0:0:0:0:
243,41,50193,1,2,1:1:0:0:
79,96,50343,1,0,1:0:0:0:
269,34,50493,2,0,P|359:54|389:65,1,100,8|0,0:0|0:0,0:0:0:0:
319,209,50793,5,6,3:2:0:0:
404,157,50943,1,0,3:0:0:0:
357,358,51093,5,8,0:1:0:0:
331,286,51243,1,2,0:2:0:0:
403,262,51393,1,2,1:2:0:0:
429,333,51543,1,2,1:2:0:0:
142,316,51693,5,10,0:1:0:0:
170,232,51843,1,2,0:2:0:0:
256,261,51993,1,2,3:2:0:0:
225,347,52143,1,2,3:2:0:0:
59,376,52293,6,0,P|54:279|50:222,1,150,10|0,0:1|0:0,0:0:0:0:
79,212,52593,2,0,P|74:129|71:81,1,100,2|0,1:1|1:0,0:0:0:0:
183,14,52893,1,8,0:0:0:0:
279,106,53043,1,0,1:0:0:0:
279,106,53118,1,0,1:0:0:0:
279,106,53193,6,0,L|274:218,1,100,0|0,1:2|1:0,0:0:0:0:
277,323,53493,1,8,0:0:0:0:
350,256,53643,1,0,0:0:0:0:
164,152,53793,1,2,3:1:0:0:
165,247,53943,1,0,3:0:0:0:
49,113,54093,2,0,L|179:120,1,100,8|0,0:1|0:0,0:0:0:0:
395,152,54393,5,2,1:2:0:0:
372,45,54543,1,0,1:0:0:0:
480,154,54693,2,0,P|483:219|478:276,1,100,8|0,0:0|0:0,0:0:0:0:
287,265,54993,1,2,3:1:0:0:
380,229,55143,1,0,3:0:0:0:
141,246,55293,1,8,0:1:0:0:
174,338,55443,1,0,0:0:0:0:
32,342,55593,6,0,P|35:292|43:243,1,100,2|0,1:2|1:0,0:0:0:0:
146,106,55893,1,8,0:0:0:0:
243,159,56043,1,0,0:0:0:0:
58,126,56193,5,2,3:1:0:0:
238,48,56343,1,2,3:1:0:0:
249,257,56493,1,10,0:1:0:0:
111,33,56643,6,0,B|226:3|186:69|306:36,1,200,12|0,1:2|1:0,0:0:0:0:
322,158,57093,2,0,P|325:226|330:264,1,100,8|0,0:0|0:0,0:0:0:0:
471,350,57393,5,2,3:2:0:0:
474,330,57468,1,2,0:2:0:0:
477,310,57543,1,2,0:2:0:0:
480,290,57618,1,2,0:2:0:0:
405,250,57693,5,2,3:2:0:0:
398,284,57768,1,2,3:2:0:0:
394,318,57843,1,2,3:2:0:0:
388,351,57918,1,2,3:2:0:0:
321,378,57993,6,0,P|262:370|211:358,1,100,4|0,0:0|0:0,0:0:0:0:
117,280,58293,1,8,0:0:0:0:
210,259,58443,1,0,0:0:0:0:
129,372,58593,1,2,1:1:0:0:
17,255,58743,1,0,1:0:0:0:
0,384,58893,2,0,P|-2:301|4:252,1,100,8|0,0:0|0:0,0:0:0:0:
202,154,59193,5,2,3:2:0:0:
25,87,59343,1,0,3:0:0:0:
124,24,59493,2,0,P|115:70|108:149,1,100,8|0,0:1|0:0,0:0:0:0:
246,7,59793,1,2,1:1:0:0:
26,62,59943,1,0,1:0:0:0:
202,154,60093,1,8,0:0:0:0:
239,33,60243,1,0,0:0:0:0:
109,217,60393,6,0,P|113:307|121:359,1,100,4|0,3:2|3:0,0:0:0:0:
353,358,60693,2,0,P|304:286|181:288,1,200,8|0,0:1|1:0,0:0:0:0:
221,366,61143,1,0,1:0:0:0:
392,172,61293,1,10,0:2:0:0:
435,269,61443,1,0,0:0:0:0:
294,135,61593,5,0,3:0:0:0:
285,233,61743,1,0,3:0:0:0:
185,72,61893,1,10,0:1:0:0:
311,44,62043,1,0,0:0:0:0:
200,259,62193,2,0,P|191:202|189:158,1,100,0|0,1:0|1:0,0:0:0:0:
294,135,62493,1,10,0:0:0:0:
340,315,62643,1,0,1:0:0:0:
25,365,62793,6,0,P|116:350|205:341,1,150,4|0,3:2|0:0,0:0:0:0:
255,371,63093,1,8,0:0:0:0:
457,257,63243,1,0,0:0:0:0:
248,195,63393,1,2,1:0:0:0:
375,229,63543,1,0,1:0:0:0:
220,187,63693,5,8,0:0:0:0:
275,271,63843,1,0,0:0:0:0:
274,84,63993,1,2,3:1:0:0:
117,164,64143,1,0,3:0:0:0:
189,3,64293,6,0,L|192:102,1,100,8|0,0:1|0:0,0:0:0:0:
80,243,64593,2,0,L|84:370,1,100,2|0,1:1|1:0,0:0:0:0:
273,114,64893,1,8,0:0:0:0:
340,355,65043,1,0,0:0:0:0:
206,305,65193,6,0,B|187:257|187:257|207:213,1,100,2|0,3:1|3:0,0:0:0:0:
452,200,65493,2,0,B|472:243|472:243|453:291,1,100,10|0,0:1|0:0,0:0:0:0:
135,111,65793,5,8,0:3:0:0:
154,108,65868,1,0,3:0:0:0:
173,105,65943,1,0,3:0:0:0:
192,102,66018,1,0,3:0:0:0:
214,139,66093,5,0,3:0:0:0:
233,136,66168,1,0,3:0:0:0:
252,133,66243,1,0,3:0:0:0:
271,130,66318,1,0,3:0:0:0:
303,161,66393,6,0,L|322:-7,1,150,12|0,1:2|0:0,0:0:0:0:
395,51,66693,6,0,L|379:201,1,150,12|0,1:2|0:0,0:0:0:0:
457,232,66993,6,0,L|473:82,1,150,12|0,1:2|0:0,0:0:0:0:
461,9,67293,1,12,1:2:0:0:
420,299,67443,1,8,0:3:0:0:
420,299,67518,1,8,0:3:0:0:
420,299,67593,6,0,P|340:293|267:292,1,150,4|0,0:0|0:0,0:0:0:0:
198,353,67893,1,8,0:0:0:0:
75,200,68043,1,0,0:0:0:0:
177,245,68193,1,0,1:0:0:0:
74,308,68343,1,0,3:0:0:0:
65,96,68493,2,0,L|122:91,1,50,10|0,0:1|0:0,0:0:0:0:
139,117,68643,2,0,L|196:112,1,50,2|0,0:1|0:0,0:0:0:0:
289,56,68793,5,0,1:0:0:0:
195,39,68943,1,0,3:0:0:0:
408,208,69093,1,8,0:0:0:0:
453,105,69243,1,0,0:0:0:0:
432,215,69393,1,0,1:0:0:0:
322,154,69543,1,2,3:2:0:0:
330,130,69618,1,2,0:2:0:0:
338,106,69693,1,8,0:1:0:0:
478,23,69843,1,0,0:0:0:0:
192,80,69993,5,6,1:2:0:0:
287,15,70143,1,0,3:0:0:0:
338,106,70293,1,8,0:0:0:0:
239,150,70443,1,0,0:0:0:0:
140,194,70593,1,0,1:0:0:0:
140,194,70743,1,0,3:0:0:0:
360,212,70893,2,0,L|296:218,1,50,10|0,0:1|0:0,0:0:0:0:
284,239,71043,2,0,L|220:245,1,50,2|0,0:1|0:0,0:0:0:0:
149,279,71193,5,0,1:0:0:0:
290,322,71343,1,0,3:0:0:0:
249,148,71493,1,8,0:0:0:0:
67,134,71643,1,2,0:0:0:0:
67,134,71718,1,2,0:0:0:0:
67,134,71793,2,0,P|65:183|65:233,1,100,0|0,1:0|1:0,0:0:0:0:
140,384,72093,2,0,P|135:309|141:234,1,150,10|2,1:2|2:0,0:0:0:0:
169,126,72393,5,4,0:0:0:0:
315,88,72543,1,2,1:2:0:0:
290,83,72618,1,2,0:2:0:0:
265,78,72693,1,8,0:1:0:0:
153,48,72843,1,0,0:0:0:0:
384,42,72993,1,0,1:0:0:0:
359,155,73143,1,0,3:0:0:0:
491,48,73293,2,0,L|487:97,1,50,10|0,0:1|0:0,0:0:0:0:
459,143,73443,2,0,L|455:192,1,50,2|0,1:0|0:0,0:0:0:0:
363,297,73593,5,2,3:2:0:0:
442,268,73743,1,2,3:2:0:0:
260,220,73893,2,0,L|253:153,1,50,10|0,0:1|0:0,0:0:0:0:
226,132,74043,2,0,L|219:65,1,50,2|0,0:1|0:0,0:0:0:0:
285,5,74193,1,0,1:0:0:0:
324,92,74343,1,0,3:0:0:0:
0,64,74493,2,0,B|61:58|61:58|90:70|90:70|146:62,1,150,10|0,0:1|0:0,0:0:0:0:
203,12,74793,5,0,1:0:0:0:
142,220,74943,1,8,0:0:0:0:
210,167,75093,1,0,1:0:0:0:
275,322,75243,1,0,3:0:0:0:
299,243,75393,1,8,0:0:0:0:
436,331,75543,1,0,1:0:0:0:
434,306,75618,1,0,1:0:0:0:
430,281,75693,1,0,1:0:0:0:
202,281,75843,1,8,0:0:0:0:
435,123,75993,5,4,1:2:0:0:
333,116,76143,1,0,1:0:0:0:
386,47,76293,5,8,0:0:0:0:
374,194,76443,1,8,0:0:0:0:
254,105,76593,1,0,3:0:0:0:
412,121,76743,5,0,1:0:0:0:
306,267,76893,1,8,0:3:0:0:
235,103,77043,1,2,0:0:0:0:
131,52,77193,6,0,P|138:127|146:183,1,110.000003356934,4|0,0:0|0:0,0:0:0:0:
76,236,77643,1,0,3:0:0:0:
76,236,78093,1,8,0:0:0:0:
76,236,78393,6,0,P|142:250|193:267,1,110.000003356934,0|0,3:0|0:0,0:0:0:0:
263,232,78843,1,0,3:0:0:0:
263,232,79593,6,0,P|267:306|275:346,1,110.000003356934,2|0,3:2|0:0,0:0:0:0:
349,360,80043,1,0,3:0:0:0:
349,360,80343,1,0,0:0:0:0:
424,343,80493,2,0,L|431:280,1,55.0000016784668,8|0,0:0|0:0,0:0:0:0:
398,217,80793,5,0,3:0:0:0:
463,176,80943,1,0,3:0:0:0:
448,100,81093,1,0,0:0:0:0:
378,66,81243,2,0,P|304:71|259:72,1,110.000003356934,8|0,0:0|0:0,0:0:0:0:
204,118,81693,1,0,3:0:0:0:
204,118,81993,6,0,P|149:116|94:112,1,110.000003356934,2|0,3:2|0:0,0:0:0:0:
13,127,82443,1,0,3:0:0:0:
13,127,82593,2,0,L|5:199,1,55.0000016784668
68,302,82893,2,0,L|61:247,1,55.0000016784668,8|0,0:0|0:0,0:0:0:0:
145,166,83193,6,0,L|149:275,1,110.000003356934,2|0,3:2|0:0,0:0:0:0:
224,331,83643,1,0,3:0:0:0:
224,331,84243,5,0,0:0:0:0:
280,282,84393,2,0,P|325:278|355:273,1,55.0000016784668,2|0,3:2|0:0,0:0:0:0:
458,284,84693,1,8,0:0:0:0:
458,284,84843,1,0,0:0:0:0:
314,191,84993,5,0,3:0:0:0:
406,179,85143,1,0,3:0:0:0:
498,169,85293,1,8,0:0:0:0:
498,169,85443,1,0,0:0:0:0:
430,106,85593,6,0,P|424:58|424:37,1,55.0000016784668,2|0,3:2|0:0,0:0:0:0:
241,143,85893,1,8,0:0:0:0:
241,143,86193,2,0,P|235:95|235:74,1,55.0000016784668,2|0,3:2|0:0,0:0:0:0:
72,51,86493,5,8,0:0:0:0:
36,81,86568,1,8,0:0:0:0:
0,111,86643,1,8,0:0:0:0:
32,144,86718,1,8,0:0:0:0:
64,177,86793,6,0,P|130:180|166:183,1,80,2|0,3:2|0:0,0:0:0:0:
15,356,87093,1,8,0:0:0:0:
15,356,87393,1,0,3:0:0:0:
96,308,87543,1,0,3:0:0:0:
175,371,87693,2,0,P|185:315|206:258,1,80,8|0,0:0|0:0,0:0:0:0:
233,228,87993,5,0,3:0:0:0:
233,228,88143,1,0,0:0:0:0:
128,107,88293,2,0,P|159:131|187:160,1,80,8|0,0:0|0:0,0:0:0:0:
281,297,88593,1,0,3:0:0:0:
281,297,88743,1,0,3:0:0:0:
396,191,88893,2,0,P|358:205|320:215,1,80,8|0,0:0|0:0,0:0:0:0:
191,37,89193,6,0,B|278:25|241:84|342:67,1,160,2|8,3:2|0:0,0:0:0:0:
420,25,89643,1,0,0:0:0:0:
512,169,89793,1,0,3:0:0:0:
512,169,89943,1,0,3:0:0:0:
490,254,90093,2,0,L|378:262,1,80,8|0,0:0|0:0,0:0:0:0:
258,279,90393,6,0,P|281:311|310:338,1,80,2|0,3:2|0:0,0:0:0:0:
124,241,90693,2,0,P|134:279|153:314,1,80,8|0,2:3|0:0,0:0:0:0:
226,358,90993,1,0,3:0:0:0:
226,358,91143,1,0,3:0:0:0:
42,286,91293,2,0,P|37:226|42:166,1,120,10|0,2:0|0:0,0:0:0:0:
65,144,91593,6,0,P|101:141|152:144,1,80,4|0,3:2|0:0,0:0:0:0:
352,58,91893,1,8,0:0:0:0:
352,58,92193,5,0,3:0:0:0:
357,177,92343,1,0,3:0:0:0:
365,298,92493,1,8,0:0:0:0:
365,298,92643,1,0,0:0:0:0:
237,222,92793,6,0,B|221:182|229:143,1,80,2|0,3:2|0:0,0:0:0:0:
495,146,93093,2,0,B|501:185|484:224,1,80,8|0,0:0|0:0,0:0:0:0:
365,298,93393,5,0,1:0:0:0:
357,177,93543,1,0,3:0:0:0:
352,58,93693,1,8,0:0:0:0:
352,58,93843,1,0,1:0:0:0:
188,287,93993,5,2,3:2:0:0:
155,192,94143,1,8,0:0:0:0:
250,159,94293,1,0,3:0:0:0:
282,254,94443,1,0,3:0:0:0:
91,272,94593,5,8,0:0:0:0:
21,196,94743,1,8,2:3:0:0:
34,158,94818,1,8,2:3:0:0:
48,120,94893,1,8,2:3:0:0:
109,37,95043,2,0,P|148:34|188:37,1,80,8|2,0:0|0:0,0:0:0:0:
268,117,95343,1,0,3:0:0:0:
115,22,95493,2,0,P|154:19|194:22,1,80,8|0,0:0|1:0,0:0:0:0:
371,77,95793,5,0,1:0:0:0:
405,225,95943,1,8,0:3:0:0:
333,318,96093,1,8,0:3:0:0:
256,310,96243,1,0,0:0:0:0:
207,246,96393,6,0,P|205:221|206:197,3,50,2|0|0|0,3:2|0:0|0:0|0:0,0:0:0:0:
108,163,96693,2,0,P|110:138|109:114,3,50,8|0|0|0,0:0|0:0|0:0|0:0,0:0:0:0:
30,223,96993,1,2,0:1:0:0:
32,247,97068,1,0,0:0:0:0:
34,271,97143,1,0,0:0:0:0:
36,295,97218,1,0,0:0:0:0:
38,319,97293,6,0,P|84:337|97:345,1,50,8|0,0:0|0:0,0:0:0:0:
187,384,97443,2,0,P|184:359|179:334,3,50,2|0|0|0,1:0|0:0|0:0|0:0,0:0:0:0:
273,326,97743,2,0,P|295:315|319:307,1,50,0|0,3:0|0:0,0:0:0:0:
413,338,97893,5,8,0:0:0:0:
421,314,97968,1,0,0:0:0:0:
429,290,98043,1,0,0:0:0:0:
437,266,98118,1,0,0:0:0:0:
449,233,98193,5,2,1:0:0:0:
449,198,98268,1,0,0:0:0:0:
428,169,98343,1,0,0:0:0:0:
395,156,98418,1,0,0:0:0:0:
360,159,98493,6,0,P|341:176|329:197,3,50,0|0|0|0,1:0|0:0|0:0|0:0,0:0:0:0:
265,257,98793,2,0,P|259:232|246:211,1,50,4|0,0:0|0:0,0:0:0:0:
227,125,98943,2,0,P|250:132|275:132,1,50,0|0,1:0|0:0,0:0:0:0:
379,58,99093,5,10,0:0:0:0:
354,55,99168,1,0,0:0:0:0:
329,52,99243,1,2,0:0:0:0:
304,49,99318,1,0,0:0:0:0:
279,46,99393,1,2,0:1:0:0:
254,43,99468,1,0,0:0:0:0:
229,40,99543,1,2,0:0:0:0:
204,37,99618,1,0,0:0:0:0:
179,34,99693,6,0,P|137:49|108:63,1,50,8|0,0:1|0:0,0:0:0:0:
22,92,99843,2,0,P|64:106|93:120,1,50,2|0,1:0|0:0,0:0:0:0:
167,168,99993,2,0,P|124:182|95:196,3,50,2|0|0|0,1:0|0:0|3:0|0:0,0:0:0:0:
26,217,100293,5,8,0:1:0:0:
27,241,100368,1,0,0:0:0:0:
28,265,100443,1,0,0:0:0:0:
29,289,100518,1,0,0:0:0:0:
31,323,100593,5,2,0:1:0:0:
60,350,100668,1,0,0:0:0:0:
99,351,100743,1,0,0:0:0:0:
135,334,100818,1,0,0:0:0:0:
160,303,100893,5,8,0:0:0:0:
196,286,100968,1,0,0:0:0:0:
235,287,101043,1,0,0:0:0:0:
264,314,101118,1,0,0:0:0:0:
276,351,101193,6,0,P|340:362|353:363,1,50,0|0,1:0|0:0,0:0:0:0:
449,282,101343,2,0,P|385:293|372:294,1,50,0|0,1:0|0:0,0:0:0:0:
276,213,101493,2,0,P|340:224|353:225,3,50,8|0|0|0,0:0|0:0|0:0|0:0,0:0:0:0:
439,197,101793,5,2,0:1:0:0:
445,167,101868,1,0,0:0:0:0:
451,137,101943,1,0,0:0:0:0:
456,107,102018,1,0,0:0:0:0:
463,77,102093,6,0,P|422:58|398:57,1,50,8|0,0:0|0:0,0:0:0:0:
309,142,102243,2,0,P|328:101|329:77,1,50,0|0,3:3|0:0,0:0:0:0:
272,25,102393,2,0,P|231:6|207:5,3,50,2|0|0|0,1:1|0:0|3:0|0:0,0:0:0:0:
85,4,102693,5,8,0:0:0:0:
57,39,102768,1,0,0:0:0:0:
54,83,102843,1,0,0:0:0:0:
72,123,102918,1,0,0:0:0:0:
104,146,102993,5,2,1:0:0:0:
132,181,103068,1,0,0:0:0:0:
135,225,103143,1,0,0:0:0:0:
117,265,103218,1,0,0:0:0:0:
85,288,103293,6,0,P|29:284|14:283,3,50,8|0|0|0,0:0|0:0|0:0|0:0,0:0:0:0:
174,332,103593,2,0,P|174:360|172:385,1,50,0|0,1:2|0:0,0:0:0:0:
217,243,103743,2,0,P|218:218|218:193,1,50,0|0,1:0|0:0,0:0:0:0:
275,326,103893,5,8,0:0:0:0:
305,342,103968,1,0,0:0:0:0:
339,348,104043,1,0,0:0:0:0:
373,340,104118,1,0,0:0:0:0:
403,322,104193,5,2,0:1:0:0:
380,296,104268,1,0,0:0:0:0:
368,262,104343,1,0,0:0:0:0:
376,227,104418,1,0,0:0:0:0:
401,202,104493,2,0,P|466:217|475:221,1,50,8|0,0:1|0:0,0:0:0:0:
409,78,104643,5,2,1:0:0:0:
382,47,104718,1,0,0:0:0:0:
345,31,104793,1,2,2:1:0:0:
306,31,104868,1,0,0:0:0:0:
279,60,104943,1,0,3:0:0:0:
264,45,105018,1,0,0:0:0:0:
249,31,105093,5,8,0:1:0:0:
200,22,105168,1,0,0:0:0:0:
155,44,105243,1,2,0:1:0:0:
130,87,105318,1,0,0:0:0:0:
134,136,105393,6,0,P|175:179|192:201,1,50
318,142,105543,2,0,P|277:185|260:207,1,50,0|0,1:0|0:0,0:0:0:0:
119,320,105693,2,0,P|136:303|153:285,1,50,8|0,0:0|0:0,0:0:0:0:
302,326,105844,2,0,P|285:309|268:291,1,50,0|0,1:0|0:0,0:0:0:0:
113,221,105993,5,8,0:0:0:0:
330,237,106143,1,0,3:0:0:0:
213,372,106293,2,0,B|174:213|284:221|253:59,1,320,4|8,0:0|0:0,0:0:0:0:
184,137,107043,6,0,P|239:189|316:180,1,160,0|0,0:0|3:0,0:0:0:0:
492,12,107493,1,8,0:0:0:0:
492,12,107793,6,0,L|489:91,1,80
389,280,108093,2,0,L|392:201,1,80,8|0,0:0|0:0,0:0:0:0:
512,171,108393,6,0,L|506:363,1,160,6|8,1:2|0:0,0:0:0:0:
386,367,108843,1,0,0:0:0:0:
386,367,109143,2,0,P|315:350|281:350,1,80,2|8,0:1|0:0,0:0:0:0:
244,239,109443,2,0,P|178:271|152:293,1,80,2|0,1:2|0:0,0:0:0:0:
140,384,109743,1,0,3:0:0:0:
21,305,109893,2,0,P|33:267|52:232,1,80,8|0,0:0|0:0,0:0:0:0:
155,181,110193,5,0,0:0:0:0:
40,96,110343,1,0,1:0:0:0:
69,83,110418,1,0,1:0:0:0:
98,70,110493,2,0,L|188:74,1,80,4|0,0:3|0:0,0:0:0:0:
400,340,110793,5,12,1:2:0:0:
430,207,110943,1,0,0:0:0:0:
298,177,111093,1,0,1:0:0:0:
268,308,111243,1,0,1:0:0:0:
365,93,111393,5,0,3:0:0:0:
351,254,111543,1,0,3:0:0:0:
201,160,111693,1,8,0:0:0:0:
201,160,111843,1,0,0:0:0:0:
403,11,111993,6,0,P|339:12|283:18,1,100,4|0,1:2|0:0,0:0:0:0:
64,81,112293,2,0,P|113:81|163:85,1,100,8|0,0:1|0:0,0:0:0:0:
298,177,112593,5,2,1:2:0:0:
240,81,112743,1,0,1:2:0:0:
122,222,112893,2,0,P|177:273|124:324,1,150,8|0,0:0|0:0,0:0:0:0:
65,287,113193,5,2,1:2:0:0:
274,287,113343,1,0,3:0:0:0:
308,286,113418,1,0,0:0:0:0:
343,286,113493,1,0,1:0:0:0:
378,286,113568,1,0,3:0:0:0:
412,286,113643,6,0,L|399:191,1,75.0000028610231,2|0,1:0|3:0,0:0:0:0:
482,176,113793,2,0,L|493:251,1,75.0000028610231,2|0,1:0|3:0,0:0:0:0:
382,207,113943,2,0,L|371:132,1,75.0000028610231,2|0,1:0|3:0,0:0:0:0:
462,97,114093,2,0,L|473:172,1,75.0000028610231,2|0,1:0|3:0,0:0:0:0:
308,208,114243,1,0,1:0:0:0:
270,201,114318,1,0,1:0:0:0:
233,193,114393,5,0,1:0:0:0:
22,66,114693,5,10,0:0:0:0:
80,337,114993,5,8,3:2:0:0:
72,300,115068,1,0,3:0:0:0:
63,263,115143,1,0,3:0:0:0:
55,226,115218,1,0,3:0:0:0:
52,149,115293,5,8,0:0:0:0:
94,165,115368,1,8,0:0:0:0:
139,163,115443,1,8,0:0:0:0:
180,141,115518,1,8,0:0:0:0:
198,101,115593,5,4,0:0:0:0:
88,21,115743,1,0,0:0:0:0:
280,64,115893,2,0,P|280:120|277:170,1,100,8|0,0:0|0:0,0:0:0:0:
404,274,116193,1,2,1:1:0:0:
369,118,116343,1,0,1:0:0:0:
512,193,116493,2,0,L|399:197,1,100,8|0,0:0|0:0,0:0:0:0:
187,178,116793,5,2,3:2:0:0:
298,306,116943,1,0,3:0:0:0:
286,127,117093,2,0,P|278:220|279:252,1,100,8|0,0:1|0:0,0:0:0:0:
369,345,117393,1,2,1:1:0:0:
394,196,117543,1,0,1:0:0:0:
178,296,117693,2,0,P|179:246|185:196,1,100,8|0,0:0|0:0,0:0:0:0:
382,106,117993,5,2,3:2:0:0:
301,228,118143,1,0,3:0:0:0:
146,93,118293,5,10,0:2:0:0:
175,7,118443,1,2,0:2:0:0:
260,37,118593,1,2,1:2:0:0:
231,122,118743,1,2,1:2:0:0:
16,269,118893,5,10,0:2:0:0:
5,169,119043,1,2,0:2:0:0:
105,158,119193,1,2,3:2:0:0:
115,257,119343,1,2,3:2:0:0:
11,62,119493,6,0,P|140:51|181:54,1,150,10|0,0:1|0:0,0:0:0:0:
188,69,119793,2,0,P|237:77|286:73,1,100,2|0,1:0|1:0,0:0:0:0:
452,48,120093,1,8,0:0:0:0:
355,19,120243,1,0,1:0:0:0:
358,48,120318,1,0,1:0:0:0:
362,77,120393,6,0,P|365:123|371:177,1,100,4|0,1:2|1:0,0:0:0:0:
209,314,120693,1,8,0:0:0:0:
200,226,120843,1,0,0:0:0:0:
352,369,120993,1,2,3:1:0:0:
368,261,121143,1,0,3:0:0:0:
109,347,121293,1,8,0:1:0:0:
60,226,121443,1,0,0:0:0:0:
89,232,121518,1,2,0:0:0:0:
118,238,121593,5,2,1:2:0:0:
209,314,121743,1,0,1:0:0:0:
341,250,121893,2,0,L|348:136,1,100,8|0,0:0|0:0,0:0:0:0:
394,22,122193,1,2,3:1:0:0:
427,145,122343,1,0,3:0:0:0:
167,141,122493,1,8,0:1:0:0:
200,24,122643,1,0,0:0:0:0:
250,149,122793,6,0,L|243:253,1,100,2|0,1:2|1:0,0:0:0:0:
122,329,123093,1,8,0:0:0:0:
104,224,123243,1,0,0:0:0:0:
208,383,123393,5,2,3:1:0:0:
345,235,123543,1,2,3:1:0:0:
167,141,123693,1,10,0:1:0:0:
321,357,123843,6,0,B|369:357|401:349|401:349|433:373|433:373|458:365|512:365,1,200,12|0,1:2|1:0,0:0:0:0:
498,176,124293,2,0,P|449:175|399:181,1,100,8|0,0:0|0:0,0:0:0:0:
181,215,124593,5,2,3:2:0:0:
185,239,124668,1,2,0:2:0:0:
189,264,124743,1,2,0:2:0:0:
193,289,124818,1,2,0:2:0:0:
271,293,124893,5,2,3:2:0:0:
263,252,124968,1,2,3:2:0:0:
258,210,125043,1,2,3:2:0:0:
250,169,125118,1,2,3:2:0:0:
206,137,125193,6,0,P|142:137|99:143,1,100,4|0,0:0|0:0,0:0:0:0:
52,336,125493,1,8,0:0:0:0:
156,357,125643,1,0,0:0:0:0:
394,306,125793,1,2,1:1:0:0:
298,348,125943,1,0,1:0:0:0:
283,149,126093,2,0,L|306:287,1,100,8|0,0:0|0:0,0:0:0:0:
83,216,126393,5,2,3:2:0:0:
197,144,126543,1,0,3:0:0:0:
213,258,126693,2,0,P|203:186|198:149,1,100,8|0,0:1|0:0,0:0:0:0:
105,117,126993,1,2,1:1:0:0:
285,128,127143,1,0,1:0:0:0:
147,324,127293,1,8,0:0:0:0:
250,337,127443,1,0,0:0:0:0:
199,158,127593,6,0,P|206:208|213:258,1,100,6|0,3:2|3:0,0:0:0:0:
0,383,127893,2,0,P|17:299|116:243,1,200,8|0,0:1|1:0,0:0:0:0:
147,324,128343,1,0,1:0:0:0:
241,128,128493,5,10,0:1:0:0:
103,149,128643,1,0,0:0:0:0:
91,7,128793,1,2,3:1:0:0:
245,30,128943,1,0,3:0:0:0:
177,200,129093,1,8,0:1:0:0:
335,173,129243,1,0,0:0:0:0:
262,333,129393,2,0,L|269:227,1,100,2|0,1:2|1:0,0:0:0:0:
363,351,129693,1,8,0:0:0:0:
180,287,129843,1,0,1:0:0:0:
387,90,129993,6,0,L|375:251,1,150,4|0,3:2|0:0,0:0:0:0:
429,298,130293,1,8,0:0:0:0:
288,275,130443,1,0,0:0:0:0:
301,126,130593,1,2,1:1:0:0:
160,103,130743,1,0,1:0:0:0:
74,304,130893,5,8,0:0:0:0:
26,164,131043,1,0,0:0:0:0:
165,116,131193,1,4,3:2:0:0:
213,256,131343,1,0,3:0:0:0:
81,103,131493,6,0,L|70:0,1,100,10|0,0:1|0:0,0:0:0:0:
287,25,131793,2,0,L|297:124,1,100,2|0,1:0|1:0,0:0:0:0:
213,178,132093,1,8,0:0:0:0:
387,233,132243,1,0,0:0:0:0:
257,344,132393,6,0,B|313:348|313:348|353:332,1,100,2|0,3:1|3:0,0:0:0:0:
331,151,132693,2,0,B|275:147|275:147|234:162,1,100,10|0,0:1|0:0,0:0:0:0:
81,273,132993,5,8,0:3:0:0:
100,270,133068,1,0,3:0:0:0:
140,263,133143,5,0,3:0:0:0:
163,260,133218,1,0,3:0:0:0:
201,257,133293,5,0,3:0:0:0:
229,253,133368,1,0,3:0:0:0:
272,249,133443,5,0,3:0:0:0:
304,244,133518,1,0,3:0:0:0:
338,266,133593,6,0,L|189:285,1,150,12|0,1:2|0:0,0:0:0:0:
120,221,133893,6,0,L|268:201,1,150,12|0,1:2|0:0,0:0:0:0:
206,137,134193,6,0,L|57:156,1,150,12|0,1:2|0:0,0:0:0:0:
35,243,134493,5,12,1:2:0:0:
164,38,134643,1,8,0:3:0:0:
202,48,134718,1,8,0:3:0:0:
240,58,134793,5,8,0:0:0:0:
462,81,137043,5,8,0:2:0:0:
453,93,138243,2,0,L|446:177,1,59.9999981689454,0|0,3:0|0:0,0:0:0:0:
349,182,138543,1,0,3:0:0:0:
349,182,138693,2,0,L|356:266,2,59.9999981689454,0|0|0,3:0|0:0|0:0,0:0:0:0:
309,71,139143,2,0,B|225:63|269:113|167:101,1,149.999995422363,8|0,0:0|0:0,0:0:0:0:
110,48,139593,5,2,3:2:0:0:
111,45,141843,6,0,B|118:131,1,59.9999981689454,8|0,3:2|0:0,0:0:0:0:
31,130,142143,1,0,3:2:0:0:
31,130,142293,2,0,B|38:216,2,59.9999981689454,0|0|0,3:2|0:0|0:0,0:0:0:0:
122,211,142743,2,0,B|129:297,2,59.9999981689454,0|0|0,3:2|0:0|0:0,0:0:0:0:
48,363,143193,5,0,3:2:0:0:
48,363,143643,5,10,2:2:0:0:
191,343,143793,1,10,2:2:0:0:
306,327,143943,1,8,0:3:0:0:
392,315,144093,1,8,0:3:0:0:
449,305,144243,1,2,0:0:0:0:
477,302,144393,6,0,P|480:359|481:373,2,59.9999981689454,0|0|0,3:0|0:0|0:0,0:0:0:0:
418,227,144843,1,8,3:2:0:0:
418,227,144993,2,0,P|416:197|414:167,1,59.9999981689454
473,27,145293,1,0,3:0:0:0:
473,27,145893,6,0,P|423:32|391:45,1,59.9999981689454,0|0,3:0|0:0,0:0:0:0:
306,78,146193,2,0,P|334:85|362:97,1,59.9999981689454,8|0,0:2|3:0,0:0:0:0:
288,166,146493,2,0,P|258:166|228:173,1,59.9999981689454
67,210,146793,5,2,0:1:0:0:
100,97,146943,1,2,0:1:0:0:
137,84,147243,5,10,0:1:0:0:
96,240,147393,1,2,0:1:0:0:
128,272,147693,5,2,1:1:0:0:
175,66,147843,1,2,0:1:0:0:
213,54,148143,5,2,0:1:0:0:
160,304,148293,1,2,3:1:0:0:
191,331,148593,5,8,2:1:0:0:
230,187,148743,1,8,2:1:0:0:
256,40,148893,1,8,0:0:0:0:
427,197,149043,6,0,B|315:213|339:173|228:187,1,200,4|0,0:0|0:0,0:0:0:0:
140,174,149493,5,2,0:1:0:0:
295,304,149643,1,2,3:1:0:0:
330,104,149793,1,2,1:1:0:0:
116,169,149943,5,10,0:1:0:0:
303,326,150093,1,8,3:2:0:0:
345,86,150243,1,14,1:1:0:0:
345,86,150543,5,2,0:0:0:0:
506,177,150693,2,0,B|421:228|421:228|321:212,1,200,8|8,0:0|0:0,0:0:0:0:
241,156,151143,5,8,0:3:0:0:
224,254,151293,1,8,0:3:0:0:
136,187,151443,1,8,0:3:0:0:
354,72,151593,5,6,0:0:0:0:
447,348,152043,1,8,0:0:0:0:
447,348,152493,1,0,3:0:0:0:
447,348,152943,2,0,L|456:292,1,50,0|0,1:0|1:0,0:0:0:0:
434,288,153093,2,0,P|358:289|310:296,1,100,2|0,3:2|1:0,0:0:0:0:
258,368,153393,5,8,0:0:0:0:
264,280,153543,1,8,3:0:0:0:
290,232,153693,1,0,3:0:0:0:
328,216,153843,1,0,3:0:0:0:
409,246,153993,5,2,2:0:0:0:
430,163,154143,1,2,2:0:0:0:
438,186,154218,1,2,2:0:0:0:
447,209,154293,5,2,2:0:0:0:
447,319,154443,1,2,2:0:0:0:
354,378,154593,1,2,2:0:0:0:
258,316,154743,1,2,2:0:0:0:
258,206,154893,1,2,2:0:0:0:
358,143,155043,1,2,2:0:0:0:
369,12,155193,5,10,0:0:0:0:
369,12,155493,6,0,L|359:300,1,225.000008583069,10|0,0:0|0:0,0:0:0:0:
270,190,155793,6,0,L|276:12,1,150,10|0,0:0|0:0,0:0:0:0:
185,69,156093,6,0,L|182:143,1,75,2|0,0:0|0:0,0:0:0:0:
106,294,156393,5,4,0:0:0:0:
84,206,156543,1,0,0:0:0:0:
342,170,156693,1,8,0:0:0:0:
320,263,156843,1,0,0:0:0:0:
74,87,156993,1,2,1:1:0:0:
179,194,157143,1,0,1:0:0:0:
278,93,157293,1,8,0:0:0:0:
278,93,157443,1,0,0:0:0:0:
475,188,157593,5,6,3:2:0:0:
321,20,157743,1,0,3:0:0:0:
475,102,157893,2,0,P|399:97|336:92,1,119.999996337891,8|0,0:1|0:0,0:0:0:0:
323,314,158193,1,2,1:1:0:0:
338,187,158343,1,0,1:0:0:0:
431,350,158493,1,8,0:0:0:0:
431,350,158643,1,0,0:0:0:0:
215,278,158793,5,6,3:2:0:0:
230,151,158943,1,0,3:0:0:0:
322,314,159093,2,0,P|263:315|203:321,1,119.999996337891,8|0,0:1|0:0,0:0:0:0:
55,59,159393,5,2,1:1:0:0:
188,16,159543,1,2,1:2:0:0:
230,151,159693,1,10,0:2:0:0:
405,59,159843,5,2,0:2:0:0:
272,16,159993,1,2,3:2:0:0:
230,151,160143,1,2,3:2:0:0:
363,190,160293,5,10,0:1:0:0:
339,361,160443,1,0,0:0:0:0:
100,318,160593,1,2,1:2:0:0:
124,147,160743,1,0,1:0:0:0:
215,363,160893,2,0,L|204:236,1,119.999996337891,8|0,0:0|1:0,0:0:0:0:
330,6,161193,6,0,P|407:44|419:129,1,179.999994506836,4|0,1:2|0:0,0:0:0:0:
363,190,161493,2,0,L|237:181,1,119.999996337891,8|0,0:0|0:0,0:0:0:0:
77,68,161793,5,2,3:1:0:0:
131,232,161943,1,0,3:0:0:0:
271,72,162093,1,8,0:1:0:0:
180,66,162243,1,0,0:0:0:0:
264,273,162393,5,6,1:2:0:0:
349,269,162543,1,0,1:0:0:0:
179,152,162693,2,0,L|304:141,1,119.999996337891,10|2,0:2|0:2,0:0:0:0:
512,199,162993,1,2,3:1:0:0:
392,187,163143,1,0,3:0:0:0:
393,65,163293,2,0,L|512:75,1,119.999996337891,8|0,0:1|0:0,0:0:0:0:
476,302,163593,5,0,1:0:0:0:
441,293,163668,1,0,1:0:0:0:
399,268,163743,5,0,1:0:0:0:
358,258,163818,1,0,1:0:0:0:
316,225,163893,5,0,1:0:0:0:
269,213,163968,1,0,1:0:0:0:
221,193,164043,5,0,1:0:0:0:
168,180,164118,1,0,1:0:0:0:
98,140,164193,5,8,3:2:0:0:
98,128,164268,1,8,3:2:0:0:
98,116,164343,1,8,3:2:0:0:
98,104,164418,1,8,3:2:0:0:
98,92,164493,1,8,3:2:0:0:
98,80,164568,1,8,3:2:0:0:
78,46,164643,6,0,L|72:308,1,239.999992675781,12|0,3:2|1:0,0:0:0:0:
125,384,165093,1,8,0:0:0:0:
0,204,165243,1,0,0:0:0:0:
223,73,165393,2,0,L|219:246,1,119.999996337891,0|0,3:0|0:0,0:0:0:0:
434,384,165693,5,2,3:2:0:0:
434,342,165768,1,2,3:2:0:0:
435,300,165843,1,2,3:2:0:0:
436,258,165918,1,2,3:2:0:0:
438,213,165993,6,0,P|388:207|310:208,1,119.999996337891,4|0,0:0|0:0,0:0:0:0:
172,347,166293,1,8,0:0:0:0:
143,229,166443,1,0,0:0:0:0:
329,78,166593,1,2,1:1:0:0:
294,209,166743,1,0,1:0:0:0:
111,104,166893,1,8,0:0:0:0:
111,104,167043,1,0,0:0:0:0:
11,322,167193,6,0,P|60:322|135:326,1,119.999996337891,6|0,3:2|3:0,0:0:0:0:
334,319,167493,1,8,0:1:0:0:
294,209,167643,1,2,0:0:0:0:
260,208,167718,1,2,0:0:0:0:
226,207,167793,1,2,1:1:0:0:
406,269,167943,1,0,1:0:0:0:
267,104,168093,1,8,0:0:0:0:
182,288,168243,1,0,0:0:0:0:
350,36,168393,6,0,P|353:84|369:174,1,119.999996337891,6|0,3:2|3:0,0:0:0:0:
46,249,168693,2,0,P|38:199|32:127,1,119.999996337891,8|0,0:1|0:0,0:0:0:0:
222,61,168993,1,0,1:0:0:0:
210,194,169143,1,0,1:0:0:0:
67,47,169293,1,8,0:2:0:0:
316,188,169443,1,0,0:0:0:0:
339,98,169593,5,2,3:1:0:0:
161,329,169743,1,0,3:0:0:0:
105,136,169893,1,8,0:1:0:0:
105,136,170043,1,0,0:0:0:0:
357,361,170193,1,6,1:2:0:0:
396,197,170343,1,0,1:0:0:0:
435,33,170493,1,8,0:0:0:0:
481,114,170643,2,0,L|419:119,1,59.9999981689454,0|0,1:0|1:0,0:0:0:0:
184,124,170793,6,0,B|161:228|161:228|196:356,1,239.999992675781,4|8,3:2|0:0,0:0:0:0:
303,252,171243,1,0,0:0:0:0:
278,247,171318,1,2,0:0:0:0:
253,242,171393,1,2,1:1:0:0:
116,332,171543,1,0,1:0:0:0:
304,363,171693,1,8,0:0:0:0:
335,175,171843,1,0,0:0:0:0:
60,221,171993,5,6,3:2:0:0:
47,67,172143,1,0,3:0:0:0:
200,53,172293,1,8,0:1:0:0:
214,208,172443,1,0,0:0:0:0:
212,36,172593,5,6,1:2:0:0:
28,52,172743,1,0,1:0:0:0:
43,237,172893,1,8,0:0:0:0:
228,222,173043,1,0,0:0:0:0:
1,140,173193,5,10,2:1:0:0:
26,132,173268,1,2,2:0:0:0:
53,129,173343,1,2,2:0:0:0:
80,125,173418,1,2,2:0:0:0:
142,156,173493,5,10,2:1:0:0:
171,152,173568,1,2,2:0:0:0:
197,148,173643,1,2,2:0:0:0:
225,144,173718,1,2,2:0:0:0:
286,174,173793,5,10,2:1:0:0:
315,168,173868,1,2,2:0:0:0:
342,165,173943,1,2,2:0:0:0:
368,162,174018,1,2,2:0:0:0:
430,192,174093,5,10,2:1:0:0:
459,187,174168,1,2,2:0:0:0:
486,184,174243,1,2,2:0:0:0:
512,180,174318,1,2,2:0:0:0:
512,180,174393,6,0,L|504:359,1,179.999994506836,14|0,2:0|0:0,0:0:0:0:
360,341,174693,6,0,L|368:162,1,179.999994506836,12|0,1:2|0:0,0:0:0:0:
225,144,174993,6,0,L|217:323,1,179.999994506836,12|0,1:2|0:0,0:0:0:0:
72,304,175293,6,0,L|79:124,1,179.999994506836,12|2,1:2|3:2,0:0:0:0:
140,78,175593,5,4,0:0:0:0:
293,43,175743,1,0,1:0:0:0:
268,39,175818,1,2,0:0:0:0:
241,32,175893,2,0,P|237:122|237:147,1,100,8|0,0:0|0:0,0:0:0:0:
352,227,176193,1,0,1:0:0:0:
374,120,176343,1,0,3:0:0:0:
264,283,176493,1,8,0:1:0:0:
309,163,176643,1,0,0:0:0:0:
489,226,176793,5,0,1:0:0:0:
351,314,176943,1,0,3:0:0:0:
221,211,177093,2,0,L|224:111,1,100,8|0,0:0|0:0,0:0:0:0:
28,71,177393,1,0,1:0:0:0:
129,174,177543,1,0,3:0:0:0:
159,65,177693,1,8,0:1:0:0:
42,245,177843,1,0,0:0:0:0:
7,162,177993,6,0,P|56:167|106:174,1,100,6|0,1:2|3:0,0:0:0:0:
328,344,178293,1,8,0:0:0:0:
345,235,178443,1,0,0:0:0:0:
362,126,178593,2,0,P|312:131|262:138,1,100,0|0,1:0|3:0,0:0:0:0:
124,292,178893,1,8,0:1:0:0:
105,173,179043,1,0,0:0:0:0:
86,54,179193,6,0,P|167:62|248:69,1,150,0|0,1:0|0:0,0:0:0:0:
235,68,179493,2,0,P|243:142|248:217,1,150,8|0,0:0|0:0,0:0:0:0:
202,283,179793,1,0,1:0:0:0:
448,170,179943,1,0,1:0:0:0:
397,230,180093,2,0,P|405:304|410:379,1,150,8|0,1:0|1:0,0:0:0:0:
335,366,180393,5,4,0:0:0:0:
505,247,180543,1,2,1:2:0:0:
501,281,180618,1,2,0:2:0:0:
498,316,180693,1,8,0:0:0:0:
310,258,180843,1,0,0:0:0:0:
421,79,180993,1,0,1:0:0:0:
448,170,181143,1,0,3:0:0:0:
301,85,181293,2,0,L|237:90,1,50,10|0,0:1|0:0,0:0:0:0:
222,118,181443,2,0,L|172:121,1,50,2|0,0:1|0:0,0:0:0:0:
68,160,181593,5,0,1:0:0:0:
98,63,181743,1,0,3:0:0:0:
213,226,181893,1,8,0:0:0:0:
149,329,182043,1,0,0:0:0:0:
32,260,182193,1,0,1:0:0:0:
126,235,182343,1,0,3:0:0:0:
283,301,182493,1,8,0:1:0:0:
377,276,182643,1,0,0:0:0:0:
404,381,182793,5,0,1:0:0:0:
490,232,182943,1,8,0:0:0:0:
252,203,183093,1,0,1:0:0:0:
283,301,183243,1,0,3:0:0:0:
417,214,183393,5,8,0:0:0:0:
459,13,183543,1,0,1:0:0:0:
163,144,183693,2,0,P|163:194|165:244,1,100,0|8,1:0|0:0,0:0:0:0:
81,375,183993,5,4,1:2:0:0:
77,206,184143,1,0,1:0:0:0:
72,37,184293,2,0,P|29:61|0:101,2,100,8|8|0,0:0|0:0|3:0,0:0:0:0:
195,45,184743,5,0,1:0:0:0:
317,53,184893,1,8,0:3:0:0:
439,61,185043,1,2,1:0:0:0:
256,144,185193,5,4,0:0:0:0:
