osu file format v14

[General]
AudioFilename: ano natsu ni sake.mp3
AudioLeadIn: 0
PreviewTime: 65363
Countdown: 0
SampleSet: Soft
StackLeniency: 0.4
Mode: 0
LetterboxInBreaks: 0
WidescreenStoryboard: 0

[Editor]
Bookmarks: 18301,30301,42301,90301,99301,114301,129301,141301,253231
DistanceSpacing: 1.3
BeatDivisor: 4
GridSize: 8
TimelineZoom: 1.3

[Metadata]
Title:Ano Natsu ni Sake
TitleUnicode:あの夏に咲け
Artist:Yorushika
ArtistUnicode:ヨルシカ
Creator:Sandrew
Version:Lobelia's Hard
Source:
Tags:ナブナ n-buna nbuna スイ suis 夏草が邪魔をする blooming in that summer the summer grass is getting in my way lobelia
BeatmapID:2019117
BeatmapSetID:633441

[Difficulty]
HPDrainRate:5
CircleSize:4
OverallDifficulty:6
ApproachRate:8
SliderMultiplier:1.3
SliderTickRate:1

[Events]
//Background and Video events
0,0,"52090890_p0.jpg",0,0
//Break Periods
2,90501,98476
//Storyboard Layer 0 (Background)
//Storyboard Layer 1 (Fail)
//Storyboard Layer 2 (Pass)
//Storyboard Layer 3 (Foreground)
//Storyboard Sound Samples

[TimingPoints]
301,375,4,3,0,60,1,0
301,-142.857142857143,4,3,0,60,0,0
3301,-142.857142857143,4,3,0,70,0,0
6301,-142.857142857143,4,2,2,30,0,0
12301,-100,4,3,0,40,0,0
18301,-100,4,3,1,60,0,0
27301,-100,4,3,0,60,0,0
30301,-100,4,3,0,40,0,0
42301,-100,4,3,0,50,0,0
54301,-100,4,3,0,40,0,0
60301,-100,4,3,0,50,0,0
66301,-100,4,3,1,60,0,0
75301,-100,4,3,0,50,0,0
78301,-100,4,3,1,60,0,0
87301,-100,4,3,0,50,0,0
99301,-142.857142857143,4,3,0,50,0,0
102301,-142.857142857143,4,3,0,40,0,0
113551,-142.857142857143,4,2,2,40,0,0
114301,-100,4,3,0,50,0,0
126301,-100,4,2,2,30,0,0
128551,-100,4,3,0,40,0,0
135301,-100,4,3,0,50,0,0
141301,-100,4,3,1,60,0,0
150301,-100,4,3,0,50,0,0
153301,-100,4,3,1,60,0,0
162301,-100,4,3,0,50,0,0
165301,-100,4,3,1,50,0,0
213301,-76.9230769230769,4,3,1,50,0,0
219301,-100,4,3,1,60,0,0
222301,-100,4,3,0,50,0,0
225301,-100,4,3,1,60,0,0
234301,-100,4,3,0,50,0,0
236551,-142.857142857143,4,3,0,50,0,0
237301,-142.857142857143,4,3,1,50,0,0
237488,-100,4,3,1,50,0,0
246301,-100,4,3,0,40,0,0
249301,-100,4,3,0,30,0,0
250613,-142.857142857143,4,2,1,30,0,0
250801,-142.857142857143,4,2,2,25,0,0
252301,-142.857142857143,4,2,1,20,0,0
253238,-142.857142857143,4,2,2,10,0,0

[Colours]
Combo1 : 234,128,21
Combo2 : 100,100,219
Combo3 : 223,223,32
Combo4 : 16,56,175

[HitObjects]
437,57,301,6,0,P|468:121|442:181,1,136.499995834351,4|0,2:0|0:0,0:0:0:0:
385,121,1051,2,0,B|320:109|320:156|254:142,1,136.499995834351,4|0,2:0|0:0,0:0:0:0:
195,85,1801,6,0,P|179:104|173:139,1,45.4999986114502,4|0,2:0|0:0,0:0:0:0:
277,179,2176,2,0,P|268:157|253:141,1,45.4999986114502,0|0,0:0|0:0,0:0:0:0:
111,183,2551,2,0,P|151:206|203:199,1,90.9999972229005,4|0,2:0|0:0,0:0:0:0:
172,123,3113,1,8,0:0:0:0:
91,107,3301,6,0,P|69:114|43:141,1,45.4999986114502,4|8,0:0|0:0,0:0:0:0:
31,207,3676,2,0,P|43:230|66:251,1,45.4999986114502,4|8,0:0|0:0,0:0:0:0:
111,183,4051,1,4,0:0:0:0:
111,183,4238,1,4,2:0:0:0:
27,323,4613,6,0,P|70:326|119:300,1,90.9999972229005,4|8,0:0|0:0,0:0:0:0:
165,243,5176,2,0,P|183:264|191:290,1,45.4999986114502,4|0,0:0|0:0,0:0:0:0:
287,339,6301,6,0,L|287:285,1,45.4999986114502,8|0,3:0|0:0,0:0:0:0:
287,211,6676,1,2,0:0:0:0:
287,211,7051,6,0,L|341:211,1,45.4999986114502,0|0,0:0|0:0,0:0:0:0:
415,211,7426,1,2,0:0:0:0:
415,211,7801,6,0,L|415:265,1,45.4999986114502,0|0,0:0|0:0,0:0:0:0:
415,339,8176,1,2,0:0:0:0:
415,339,8551,6,0,L|361:339,1,45.4999986114502,0|0,0:0|0:0,0:0:0:0:
287,339,8926,1,2,0:0:0:0:
287,339,9301,6,0,L|237:339,2,45.4999986114502,0|0|2,0:0|0:0|0:0,0:0:0:0:
123,338,10051,2,0,L|77:338,2,45.4999986114502,0|0|2,0:0|0:0|0:0,0:0:0:0:
188,187,10801,6,0,L|188:240,2,45.4999986114502,0|0|2,0:0|0:0|0:0,0:0:0:0:
188,23,11551,2,0,L|188:76,1,45.4999986114502,4|0,3:0|0:0,0:0:0:0:
129,125,11926,1,4,3:0:0:0:
58,85,12113,1,0,0:0:0:0:
52,104,12207,1,0,0:0:0:0:
51,133,12301,5,4,2:0:0:0:
60,216,12488,2,0,L|60:284,1,65,0|8,0:0|0:0,0:0:0:0:
144,275,12863,2,0,L|210:275,1,65,0|8,0:0|0:0,0:0:0:0:
293,278,13238,2,0,L|293:350,1,65,0|8,0:0|0:0,0:0:0:0:
374,365,13613,6,0,P|393:304|370:244,1,130,0|0,0:0|0:0,0:0:0:0:
293,213,14176,2,0,L|293:278,1,65,8|0,0:0|0:0,0:0:0:0:
370,244,14551,2,0,B|370:180|370:180|351:147|319:137,1,130,8|8,0:0|0:0,0:0:0:0:
237,147,15113,1,8,0:0:0:0:
218,151,15207,1,8,0:0:0:0:
198,152,15301,6,0,P|180:38|271:79,1,260,4|2,2:0|0:0,0:0:0:0:
269,73,16613,6,0,P|329:55|386:86,1,130,4|8,0:0|0:0,0:0:0:0:
439,148,17176,1,8,0:0:0:0:
321,137,17363,1,8,0:0:0:0:
375,203,17551,1,8,0:0:0:0:
375,203,17926,6,0,L|372:274,1,65,2|2,0:0|0:0,0:0:0:0:
367,352,18301,5,4,0:2:0:0:
441,313,18488,2,0,L|491:260,1,65,0|0,0:0|1:0,0:0:0:0:
372,268,18863,2,0,L|375:203,1,65,0|0,0:0|0:0,0:0:0:0:
297,307,19238,2,0,L|256:254,1,65,0|0,0:0|0:0,0:0:0:0:
367,352,19613,1,0,0:0:0:0:
367,352,19988,5,0,0:0:0:0:
441,313,20176,1,0,1:0:0:0:
372,268,20363,1,0,0:0:0:0:
297,307,20551,2,0,P|235:310|182:349,1,130,8|0,0:0|1:0,0:0:0:0:
181,349,21301,5,8,0:0:0:0:
102,319,21488,1,0,0:0:0:0:
109,234,21676,1,0,1:0:0:0:
191,215,21863,2,0,P|212:188|242:171,1,65,0|0,0:0|0:0,0:0:0:0:
268,251,22238,2,0,P|299:240|334:242,1,65,0|0,0:0|0:0,0:0:0:0:
315,324,22613,1,0,0:0:0:0:
315,324,22988,5,0,0:0:0:0:
238,359,23176,2,0,P|229:327|238:288,1,65,0|0,1:0|0:0,0:0:0:0:
315,324,23551,2,0,P|376:354|443:325,1,130,4|4,1:0|1:0,0:0:0:0:
431,335,24301,5,4,0:2:0:0:
493,278,24488,2,0,P|503:246|497:201,1,65,0|0,0:0|1:0,0:0:0:0:
382,201,24863,2,0,P|377:233|382:266,1,65,0|0,0:0|0:0,0:0:0:0:
484,136,25238,2,0,P|453:126|409:133,1,65,0|0,0:0|0:0,0:0:0:0:
382,201,25613,1,0,0:0:0:0:
382,201,25988,5,0,0:0:0:0:
298,185,26176,1,0,1:0:0:0:
287,101,26363,1,0,0:0:0:0:
364,65,26551,2,0,P|403:49|429:46,1,65,8|0,0:0|0:0,0:0:0:0:
287,101,26926,2,0,P|250:98|219:87,1,65,0|8,1:0|0:0,0:0:0:0:
186,68,27207,1,8,0:0:0:0:
186,68,27301,6,0,P|182:118|91:76,1,195,4|8,0:2|0:0,0:0:0:0:
22,26,28051,2,0,P|7:58|9:98,1,65,0|0,1:0|0:0,0:0:0:0:
90,76,28426,1,0,0:0:0:0:
19,169,28613,6,0,B|58:154|99:160|99:160|135:213|199:200,1,195,8|0,0:0|1:0,0:0:0:0:
175,118,29363,1,0,0:0:0:0:
257,139,29551,2,0,P|249:76|197:36,1,130,8|8,0:0|0:0,0:0:0:0:
175,118,30113,1,8,0:0:0:0:
175,118,30207,1,8,0:0:0:0:
175,118,30301,6,0,P|184:185|245:221,1,130,4|0,0:2|1:0,0:0:0:0:
314,200,30863,1,0,0:0:0:0:
387,157,31051,2,0,P|399:189|394:229,1,65,8|0,0:0|0:0,0:0:0:0:
314,200,31426,1,0,1:0:0:0:
338,280,31613,6,0,P|389:265|463:307,2,130,0|0|0,0:0|0:0|0:0,0:0:0:0:
277,339,32551,1,8,0:0:0:0:
277,339,32738,1,8,0:0:0:0:
197,308,32926,2,0,P|192:278|193:233,1,65,0|0,1:0|0:0,0:0:0:0:
249,181,33301,6,0,P|200:203|121:173,1,130,8|0,0:0|1:0,0:0:0:0:
189,121,33863,1,0,0:0:0:0:
107,99,34051,2,0,P|121:68|147:49,1,65,8|0,0:0|0:0,0:0:0:0:
229,46,34426,1,0,1:0:0:0:
189,121,34613,6,0,P|249:97|313:125,2,130,0|0|0,0:0|0:0|0:0,0:0:0:0:
249,181,35551,1,8,0:0:0:0:
249,181,35738,1,8,0:0:0:0:
199,249,35926,2,0,P|196:287|202:322,1,65,0|0,1:0|0:0,0:0:0:0:
276,350,36301,6,0,P|317:344|377:343,1,97.5,8|0,0:0|0:0,0:0:0:0:
414,348,36676,2,0,P|407:307|409:267,1,65,0|0,1:0|0:0,0:0:0:0:
507,282,37051,2,0,P|509:315|503:346,2,65,8|8|0,0:0|0:0|1:0,0:0:0:0:
354,209,37801,6,0,L|285:202,2,65,8|0|0,0:0|0:0|1:0,0:0:0:0:
422,159,38363,1,0,0:0:0:0:
364,96,38551,2,0,L|281:89,1,65,8|8,0:0|0:0,0:0:0:0:
231,141,38926,2,0,P|211:168|205:200,1,65,0|0,1:0|0:0,0:0:0:0:
326,252,39301,6,0,P|312:221|280:198,1,65,8|0,0:0|0:0,0:0:0:0:
205,198,39676,1,0,1:0:0:0:
205,198,40051,6,0,P|178:220|164:252,1,65,8|8,0:0|0:0,0:0:0:0:
246,271,40426,1,0,1:0:0:0:
246,271,40801,6,0,L|246:340,2,65,8|0|0,0:0|0:0|1:0,0:0:0:0:
82,313,41551,1,8,0:0:0:0:
82,313,41738,1,8,0:0:0:0:
32,243,41926,2,0,P|33:214|47:175,1,65,0|0,1:0|0:0,0:0:0:0:
122,148,42301,6,0,P|64:133|73:64,1,130,4|0,0:2|1:0,0:0:0:0:
148,67,42863,1,0,0:0:0:0:
207,127,43051,2,0,P|240:123|277:128,1,65,8|0,0:0|0:0,0:0:0:0:
341,174,43426,2,0,P|379:178|414:172,1,65,0|0,1:0|0:0,0:0:0:0:
479,132,43801,5,8,0:0:0:0:
404,93,43988,2,0,P|396:58|409:20,1,65,0|0,0:0|1:0,0:0:0:0:
479,132,44363,2,0,P|490:167|479:214,1,65,0|8,0:0|0:0,0:0:0:0:
425,253,44738,1,8,0:0:0:0:
506,276,44926,1,0,1:0:0:0:
445,334,45113,1,0,0:0:0:0:
362,316,45301,6,0,P|325:323|294:320,1,65,8|0,0:0|0:0,0:0:0:0:
220,287,45676,2,0,P|176:282|146:289,1,65,0|0,1:0|0:0,0:0:0:0:
87,335,46051,2,0,P|109:294|76:215,1,130,8|0,0:0|1:0,0:0:0:0:
7,181,46613,6,0,P|57:141|131:152,1,130,0|0,0:0|0:0,0:0:0:0:
183,202,47176,1,0,1:0:0:0:
202,119,47363,2,0,P|232:115|276:120,1,65,0|8,0:0|0:0,0:0:0:0:
330,232,47738,2,0,P|297:238|262:234,1,65,8|0,0:0|1:0,0:0:0:0:
183,202,48113,1,0,0:0:0:0:
202,119,48301,6,0,P|197:84|197:40,1,65,8|0,0:0|0:0,0:0:0:0:
280,47,48676,2,0,P|315:51|349:47,1,65,0|0,1:0|0:0,0:0:0:0:
423,17,49051,2,0,B|441:81|406:81|426:147,1,130,8|0,0:0|1:0,0:0:0:0:
452,224,49613,1,0,0:0:0:0:
508,160,49801,5,8,0:0:0:0:
425,145,49988,1,0,0:0:0:0:
365,205,50176,2,0,P|365:242|379:272,1,65,0|0,1:0|0:0,0:0:0:0:
449,309,50551,2,0,P|483:304|510:287,1,65,8|8,0:0|0:0,0:0:0:0:
452,224,50926,1,0,1:0:0:0:
340,125,51113,2,0,L|295:124,1,32.5,8|8,0:0|0:0,0:0:0:0:
264,121,51301,6,0,P|258:158|179:148,1,130,4|0,0:2|0:0,0:0:0:0:
112,105,51863,2,0,P|96:144|99:172,1,65,8|0,0:0|1:0,0:0:0:0:
149,233,52238,1,0,0:0:0:0:
181,154,52426,1,0,0:0:0:0:
63,246,52613,6,0,P|89:302|152:321,1,130,4|0,1:0|1:0,0:0:0:0:
222,276,53176,1,0,1:0:0:0:
233,359,53363,1,8,0:0:0:0:
317,351,53551,1,8,0:0:0:0:
317,274,53738,1,8,0:0:0:0:
317,274,53832,1,8,0:0:0:0:
317,274,53926,2,0,L|369:269,3,32.5,8|8|8|8,0:0|0:0|0:0|0:0,0:0:0:0:
391,272,54301,6,0,P|397:236|325:180,1,130,4|0,0:2|0:0,0:0:0:0:
254,210,54863,1,8,0:0:0:0:
254,210,55051,2,0,B|238:152|274:152|253:82,1,130,0|2,1:0|0:0,0:0:0:0:
177,119,55613,1,0,0:0:0:0:
177,119,55801,6,0,L|106:113,1,65,8|8,0:0|0:0,0:0:0:0:
27,107,56176,2,0,L|20:177,1,65,0|8,0:0|0:0,0:0:0:0:
15,256,56551,2,0,B|73:260|73:260|86:252|86:252|142:257,1,130,0|2,1:0|0:0,0:0:0:0:
226,264,57113,1,0,0:0:0:0:
304,296,57301,6,0,P|309:264|300:226,1,65,8|8,0:0|0:0,0:0:0:0:
226,264,57676,2,0,P|220:299|226:331,1,65,0|8,0:0|0:0,0:0:0:0:
303,233,58051,6,0,P|307:200|299:162,1,65,0|0,1:0|0:0,0:0:0:0:
227,200,58426,2,0,P|221:235|227:267,1,65,2|0,0:0|0:0,0:0:0:0:
374,340,58801,5,8,0:0:0:0:
374,340,58988,2,0,P|437:325|434:258,1,130,8|8,0:0|0:0,0:0:0:0:
350,185,59551,2,0,P|346:217|350:249,1,65,0|8,1:0|0:0,0:0:0:0:
441,178,59926,1,0,1:0:0:0:
441,178,60113,1,0,0:0:0:0:
470,98,60301,6,0,B|402:84|402:117|339:103,1,130,8|0,0:0|1:0,0:0:0:0:
279,46,60863,2,0,P|258:80|258:118,1,65,0|8,0:0|0:0,0:0:0:0:
297,178,61238,1,0,0:0:0:0:
184,157,61426,2,0,P|175:191|177:229,1,65,0|0,1:0|0:0,0:0:0:0:
241,273,61801,6,0,L|101:266,1,130,8|0,0:0|1:0,0:0:0:0:
27,259,62363,2,0,P|33:300|51:324,1,65,0|8,0:0|0:0,0:0:0:0:
111,266,62738,2,0,P|109:233|92:204,1,65,0|0,0:0|1:0,0:0:0:0:
15,171,63113,1,0,0:0:0:0:
143,131,63301,5,0,1:0:0:0:
48,47,63488,1,0,1:0:0:0:
48,47,63863,5,8,0:0:0:0:
133,25,64051,2,0,L|139:105,1,65,0|8,1:0|0:0,0:0:0:0:
143,131,64332,1,8,0:0:0:0:
143,131,64426,1,8,0:0:0:0:
107,211,64613,2,0,B|178:234|174:192|239:214,1,130,0|8,1:0|0:0,0:0:0:0:
339,237,65176,5,8,0:0:0:0:
246,128,65363,1,8,0:0:0:0:
400,117,65551,1,8,0:0:0:0:
400,117,66301,5,4,0:2:0:0:
483,128,66488,2,0,P|482:95|468:64,1,65,0|0,0:0|1:0,0:0:0:0:
365,39,66863,2,0,P|336:56|317:83,1,65,0|8,0:0|0:0,0:0:0:0:
345,184,67238,2,0,P|374:199|407:203,1,65,0|0,0:0|1:0,0:0:0:0:
400,117,67613,6,0,B|332:121|345:153|272:158,1,130,0|0,0:0|0:0,0:0:0:0:
218,97,68176,2,0,P|215:64|221:29,1,65,0|0,1:0|0:0,0:0:0:0:
278,157,68551,1,8,0:0:0:0:
241,233,68738,1,0,0:0:0:0:
156,223,68926,1,0,1:0:0:0:
142,139,69113,1,0,0:0:0:0:
218,97,69301,6,0,P|153:98|80:83,1,130,8|0,0:0|1:0,0:0:0:0:
10,55,69863,2,0,B|-4:124|27:125|11:188,1,130,0|0,0:0|0:0,0:0:0:0:
8,268,70426,1,0,1:0:0:0:
84,232,70613,6,0,P|115:226|148:232,1,65,0|8,0:0|0:0,0:0:0:0:
217,289,70988,1,0,0:0:0:0:
217,289,71176,2,0,P|251:293|284:287,1,65,0|0,1:0|0:0,0:0:0:0:
331,219,71551,1,4,1:0:0:0:
176,150,71926,1,4,1:0:0:0:
331,219,72301,5,4,0:2:0:0:
403,266,72488,2,0,P|439:281|470:279,1,65,0|0,0:0|1:0,0:0:0:0:
331,219,72863,2,0,P|319:253|322:288,1,65,0|8,0:0|0:0,0:0:0:0:
377,146,73238,2,0,P|342:134|313:135,1,65,0|0,0:0|1:0,0:0:0:0:
452,196,73613,6,0,P|466:138|429:74,1,130,0|0,0:0|0:0,0:0:0:0:
360,37,74176,2,0,P|328:45|286:41,1,65,0|0,1:0|0:0,0:0:0:0:
213,26,74551,1,8,0:0:0:0:
239,106,74738,1,0,0:0:0:0:
167,152,74926,1,0,1:0:0:0:
99,101,75113,1,8,0:0:0:0:
99,101,75207,1,8,0:0:0:0:
99,101,75301,6,0,P|80:165|116:223,1,130,4|0,0:2|0:0,0:0:0:0:
167,152,75863,1,8,0:0:0:0:
181,273,76051,2,0,P|127:256|99:331,1,130,0|0,1:0|0:0,0:0:0:0:
215,350,76613,6,0,B|250:334|259:305|259:305|276:338|308:345,1,130,8|8,0:0|0:0,0:0:0:0:
336,265,77176,1,0,1:0:0:0:
255,206,77363,1,0,0:0:0:0:
255,206,77457,1,0,0:0:0:0:
255,206,77551,2,0,L|250:158,3,32.5,8|8|8|8,0:0|0:0|0:0|0:0,0:0:0:0:
178,239,77926,2,0,L|175:206,3,32.5,8|8|8|8,0:0|0:0|0:0|0:0,0:0:0:0:
109,291,78301,5,4,0:2:0:0:
54,355,78488,2,0,P|82:370|114:374,1,65,0|0,0:0|1:0,0:0:0:0:
192,301,78863,2,0,P|191:269|178:239,1,65,0|8,0:0|0:0,0:0:0:0:
70,214,79238,2,0,P|43:230|24:256,1,65,0|0,0:0|1:0,0:0:0:0:
109,291,79613,6,0,B|139:231|107:226|136:162,1,130,0|0,0:0|0:0,0:0:0:0:
205,117,80176,2,0,P|240:112|276:114,1,65,0|0,1:0|0:0,0:0:0:0:
134,165,80551,1,8,0:0:0:0:
65,115,80738,1,2,0:0:0:0:
95,35,80926,1,0,1:0:0:0:
179,37,81113,1,0,0:0:0:0:
205,117,81301,6,0,P|232:62|300:56,1,130,8|0,0:0|1:0,0:0:0:0:
370,92,81863,2,0,P|379:124|374:240,1,130,0|0,0:0|0:0,0:0:0:0:
318,279,82426,1,0,1:0:0:0:
247,232,82613,6,0,P|214:231|175:238,1,65,0|8,0:0|0:0,0:0:0:0:
124,297,82988,1,0,0:0:0:0:
124,297,83176,2,0,P|90:304|53:294,1,65,0|0,1:0|0:0,0:0:0:0:
16,225,83551,1,4,1:0:0:0:
169,154,83926,1,4,1:0:0:0:
16,225,84301,5,4,0:2:0:0:
83,174,84488,2,0,P|87:141|75:100,1,65,0|0,0:0|1:0,0:0:0:0:
56,28,84863,2,0,P|87:35|119:30,1,65,0|8,0:0|0:0,0:0:0:0:
204,26,85238,2,0,P|196:57|201:89,1,65,0|0,0:0|1:0,0:0:0:0:
208,174,85613,6,0,P|142:159|67:183,1,130,0|0,0:0|0:0,0:0:0:0:
114,252,86176,2,0,P|146:245|181:253,1,65,0|0,1:0|0:0,0:0:0:0:
241,306,86551,1,8,0:0:0:0:
312,261,86738,1,0,0:0:0:0:
292,178,86926,1,0,1:0:0:0:
208,174,87113,1,8,0:0:0:0:
208,174,87207,1,8,0:0:0:0:
208,174,87301,6,0,P|248:162|239:76,1,130,4|0,0:2|0:0,0:0:0:0:
176,42,87863,1,8,0:0:0:0:
109,94,88051,2,0,P|74:89|37:94,2,65,0|0|0,1:0|0:0|0:0,0:0:0:0:
125,225,88613,1,8,0:0:0:0:
125,225,88988,5,8,0:0:0:0:
65,285,89176,2,0,P|56:317|64:352,1,65,0|0,1:0|0:0,0:0:0:0:
142,320,89551,2,0,P|174:327|205:319,1,65,8|8,0:0|0:0,0:0:0:0:
238,293,89832,1,8,0:0:0:0:
238,293,89926,2,0,P|266:297|307:284,1,65,8|8,0:0|0:0,0:0:0:0:
359,222,90207,1,8,0:0:0:0:
359,222,90301,5,4,0:2:0:0:
374,127,99301,6,0,B|402:122|421:99|421:99|442:156|418:234,1,181.999994445801,4|0,0:2|1:0,0:0:0:0:
286,130,100426,1,0,0:0:0:0:
286,130,100613,2,0,P|291:65|358:45,1,136.499995834351,8|0,0:0|1:0,0:0:0:0:
374,127,101363,1,0,0:0:0:0:
338,201,101551,2,0,L|337:235,7,22.7499993057251,8|8|8|8|8|8|8|8,0:0|0:0|0:0|0:0|0:0|0:0|0:0|0:0,0:0:0:0:
337,264,102301,5,4,0:2:0:0:
184,324,102676,1,0,1:0:0:0:
171,243,102863,2,0,P|202:240|229:242,1,45.4999986114502,0|8,0:0|0:0,0:0:0:0:
216,240,103426,2,0,P|226:206|186:161,1,90.9999972229005,0|8,1:0|0:0,0:0:0:0:
120,131,103988,5,0,0:0:0:0:
55,181,104176,2,0,P|49:212|53:240,1,45.4999986114502,0|0,1:0|0:0,0:0:0:0:
120,131,104551,2,0,P|81:102|33:104,1,90.9999972229005,8|0,0:0|1:0,0:0:0:0:
55,181,105113,1,0,0:0:0:0:
97,296,105301,5,8,0:0:0:0:
97,296,105676,1,0,1:0:0:0:
163,342,105863,2,0,P|190:343|224:339,1,45.4999986114502,0|8,0:0|0:0,0:0:0:0:
208,341,106426,2,0,P|209:311|273:289,1,90.9999972229005,0|8,1:0|0:0,0:0:0:0:
336,308,106988,5,0,0:0:0:0:
415,327,107176,2,0,P|418:304|409:271,1,45.4999986114502,0|0,1:0|0:0,0:0:0:0:
494,346,107551,2,0,P|499:301|487:248,1,90.9999972229005,8|0,0:0|1:0,0:0:0:0:
429,202,108113,1,0,0:0:0:0:
336,276,108301,5,8,0:0:0:0:
336,276,108676,1,0,1:0:0:0:
276,219,108863,2,0,P|274:190|278:158,1,45.4999986114502,0|8,0:0|0:0,0:0:0:0:
275,173,109426,2,0,P|240:146|198:160,1,90.9999972229005,0|8,1:0|0:0,0:0:0:0:
141,217,109988,5,0,0:0:0:0:
64,246,110176,2,0,P|58:224|64:192,1,45.4999986114502,0|0,1:0|0:0,0:0:0:0:
130,296,110551,2,0,P|97:324|50:328,1,90.9999972229005,8|0,0:0|1:0,0:0:0:0:
64,246,111113,1,0,0:0:0:0:
211,269,111301,5,8,0:0:0:0:
211,269,111676,1,0,1:0:0:0:
292,267,111863,2,0,P|301:293|304:322,1,45.4999986114502,0|8,0:0|0:0,0:0:0:0:
232,351,112238,1,0,0:0:0:0:
313,339,112426,2,0,P|354:322|402:338,1,90.9999972229005,0|8,1:0|0:0,0:0:0:0:
491,199,113176,5,0,0:0:0:0:
491,199,113551,2,0,P|464:187|401:200,1,90.9999972229005,0|2,0:0|0:0,0:0:0:0:
313,339,114301,6,0,P|299:306|278:286,1,65,4|0,0:2|0:0,0:0:0:0:
193,277,114676,2,0,P|165:298|151:327,1,65,0|0,1:0|0:0,0:0:0:0:
231,352,115051,2,0,L|240:207,1,130,8|0,0:0|1:0,0:0:0:0:
185,157,115613,6,0,L|163:91,1,65,0|0,0:0|0:0,0:0:0:0:
216,28,115988,2,0,L|286:32,1,65,0|0,0:0|1:0,0:0:0:0:
325,103,116363,2,0,L|298:164,1,65,2|8,0:0|0:0,0:0:0:0:
239,222,116738,1,2,0:0:0:0:
185,157,116926,1,0,1:0:0:0:
124,216,117113,1,0,0:0:0:0:
178,281,117301,6,0,P|203:301|245:305,1,65,8|0,0:0|0:0,0:0:0:0:
124,216,117676,2,0,P|101:241|92:280,1,65,0|0,1:0|0:0,0:0:0:0:
239,222,118051,1,8,0:0:0:0:
185,157,118238,1,2,0:0:0:0:
124,216,118426,1,0,1:0:0:0:
178,281,118613,6,0,P|203:301|245:305,1,65,2|8,0:0|0:0,0:0:0:0:
312,272,118988,2,0,P|325:240|321:203,1,65,0|0,0:0|1:0,0:0:0:0:
239,222,119363,2,0,P|258:278|306:346,1,130,2|2,0:0|0:0,0:0:0:0:
381,328,119926,2,0,P|412:335|450:329,1,65,0|0,1:0|0:0,0:0:0:0:
499,266,120301,5,4,0:2:0:0:
459,191,120488,1,0,0:0:0:0:
374,186,120676,1,0,1:0:0:0:
332,259,120863,1,2,0:0:0:0:
381,328,121051,2,0,P|352:342|318:343,1,65,8|0,0:0|0:0,0:0:0:0:
241,376,121426,2,0,P|233:344|241:310,1,65,0|0,1:0|0:0,0:0:0:0:
185,245,121801,6,0,P|214:230|246:227,1,65,8|0,0:0|0:0,0:0:0:0:
332,259,122176,1,0,1:0:0:0:
319,343,122363,1,0,0:0:0:0:
239,313,122551,2,0,P|201:292|119:324,1,130,8|0,0:0|1:0,0:0:0:0:
46,359,123113,1,8,0:0:0:0:
38,340,123207,1,0,0:0:0:0:
36,320,123301,6,0,B|37:286|57:261|57:261|43:232|53:191,1,130,4|0,0:2|0:0,0:0:0:0:
132,221,123863,1,8,0:0:0:0:
116,137,124051,2,0,P|63:109|-4:129,1,130,0|0,1:0|0:0,0:0:0:0:
132,221,124613,6,0,P|184:196|201:129,1,130,4|8,1:0|0:0,0:0:0:0:
154,58,125176,1,0,1:0:0:0:
154,58,125551,2,0,P|182:46|217:45,1,65,8|8,0:0|0:0,0:0:0:0:
235,49,125832,1,8,0:0:0:0:
251,58,125926,1,0,1:0:0:0:
201,129,126113,1,0,1:0:0:0:
285,133,126301,6,0,P|298:168|299:198,1,65,0|0,0:0|0:0,0:0:0:0:
281,278,126676,1,0,0:0:0:0:
281,278,126863,2,0,P|330:239|398:262,2,130,0|0|0,0:0|0:0|0:0,0:0:0:0:
235,349,127801,5,0,0:0:0:0:
156,318,127988,2,0,L|149:278,2,32.5,2|2|2,0:0|0:0|0:0,0:0:0:0:
39,195,128551,2,0,P|40:242|19:305,2,97.5,8|8|8,0:0|0:0|0:0,0:0:0:0:
29,110,129301,6,0,B|102:108|89:147|159:143,1,130,4|0,0:2|0:0,0:0:0:0:
239,131,129863,1,8,0:0:0:0:
239,131,130051,2,0,P|203:72|140:58,1,130,0|2,1:0|0:0,0:0:0:0:
152,143,130613,1,0,0:0:0:0:
152,143,130801,6,0,L|156:219,1,65,8|8,0:0|0:0,0:0:0:0:
159,292,131176,2,0,L|232:287,1,65,0|8,0:0|0:0,0:0:0:0:
290,339,131551,2,0,B|352:336|352:336|365:347|365:347|419:345,1,130,0|2,1:0|0:0,0:0:0:0:
400,261,132113,1,0,0:0:0:0:
480,288,132301,6,0,L|485:220,1,65,8|8,0:0|0:0,0:0:0:0:
405,196,132676,2,0,L|400:261,1,65,0|8,0:0|0:0,0:0:0:0:
484,223,133051,6,0,L|489:153,1,65,0|0,1:0|0:0,0:0:0:0:
411,131,133426,2,0,L|405:195,1,65,2|0,0:0|0:0,0:0:0:0:
321,39,133801,5,8,0:0:0:0:
321,39,133988,2,0,P|275:28|236:100,1,130,8|0,0:0|0:0,0:0:0:0:
315,169,134551,2,0,P|274:167|242:173,1,65,0|8,1:0|0:0,0:0:0:0:
214,280,134926,1,0,1:0:0:0:
214,280,135113,1,0,0:0:0:0:
171,206,135301,6,0,P|138:240|144:331,1,130,8|0,0:0|1:0,0:0:0:0:
214,280,135863,1,0,0:0:0:0:
214,364,136051,2,0,P|261:365|292:361,1,65,8|0,0:0|0:0,0:0:0:0:
349,315,136426,1,0,1:0:0:0:
296,248,136613,1,0,0:0:0:0:
378,316,136801,6,0,L|372:186,1,130,8|0,0:0|1:0,0:0:0:0:
367,102,137363,2,0,P|399:96|437:103,1,65,0|8,0:0|0:0,0:0:0:0:
435,183,137738,2,0,P|404:190|366:184,1,65,0|0,0:0|1:0,0:0:0:0:
294,150,138113,1,0,0:0:0:0:
326,24,138301,5,0,1:0:0:0:
430,100,138488,1,0,1:0:0:0:
430,100,138863,5,8,0:0:0:0:
512,84,139051,2,0,P|501:49|471:27,1,65,0|8,1:0|0:0,0:0:0:0:
340,33,139426,1,8,0:0:0:0:
294,150,139613,2,0,P|261:133|207:196,1,130,0|8,1:0|0:0,0:0:0:0:
303,276,140176,5,8,0:0:0:0:
206,190,140363,1,8,0:0:0:0:
182,318,140551,1,4,0:2:0:0:
266,350,140738,1,8,0:0:0:0:
266,350,140832,1,8,0:0:0:0:
266,350,140926,2,0,P|290:359|305:360,3,32.5,8|8|8|8,0:0|0:0|0:0|0:0,0:0:0:0:
303,276,141301,5,4,0:2:0:0:
373,322,141488,2,0,P|386:292|381:249,1,65,0|0,0:0|1:0,0:0:0:0:
324,200,141863,2,0,P|290:197|252:214,1,65,0|8,0:0|0:0,0:0:0:0:
219,280,142238,2,0,P|227:314|247:339,1,65,0|0,0:0|1:0,0:0:0:0:
303,276,142613,6,0,B|309:210|279:215|290:141,1,130,0|0,0:0|0:0,0:0:0:0:
344,83,143176,1,0,1:0:0:0:
276,32,143363,1,0,0:0:0:0:
221,97,143551,2,0,B|201:123|201:157|201:157|170:135|136:142,1,130,8|0,0:0|1:0,0:0:0:0:
144,57,144113,1,0,0:0:0:0:
68,94,144301,6,0,P|53:132|56:161,1,65,8|0,0:0|0:0,0:0:0:0:
139,141,144676,1,0,1:0:0:0:
115,221,144863,2,0,P|119:256|138:287,1,65,0|0,0:0|0:0,0:0:0:0:
217,285,145238,2,0,P|235:311|269:324,1,65,0|0,0:0|1:0,0:0:0:0:
291,243,145613,6,0,P|359:267|411:245,1,130,0|0,0:0|0:0,0:0:0:0:
447,169,146176,2,0,P|442:135|446:93,1,65,0|0,1:0|0:0,0:0:0:0:
416,24,146551,1,4,1:0:0:0:
353,181,146926,1,4,1:0:0:0:
177,77,147301,5,4,0:2:0:0:
146,153,147488,2,0,P|137:184|142:216,1,65,0|0,0:0|1:0,0:0:0:0:
223,192,147863,2,0,P|255:199|293:190,1,65,0|8,0:0|0:0,0:0:0:0:
258,113,148238,2,0,P|265:81|255:44,1,65,0|0,0:0|1:0,0:0:0:0:
177,77,148613,6,0,P|117:74|66:125,1,130,0|0,0:0|0:0,0:0:0:0:
139,235,149176,5,0,1:0:0:0:
146,153,149363,1,0,0:0:0:0:
12,183,149551,1,8,0:0:0:0:
56,254,149738,1,0,0:0:0:0:
68,119,149926,1,0,1:0:0:0:
12,183,150113,1,8,0:0:0:0:
12,183,150207,1,8,0:0:0:0:
12,183,150301,6,0,P|10:245|30:330,1,130,4|0,0:2|0:0,0:0:0:0:
95,355,150863,1,8,0:0:0:0:
165,269,151051,2,0,P|130:265|93:273,1,65,0|0,1:0|0:0,0:0:0:0:
215,340,151426,1,0,0:0:0:0:
290,303,151613,6,0,L|271:165,1,130,8|8,0:0|0:0,0:0:0:0:
254,81,152176,2,0,L|319:74,1,65,0|0,1:0|0:0,0:0:0:0:
430,117,152551,2,0,L|432:74,3,32.5,8|8|8|8,0:0|0:0|0:0|0:0,0:0:0:0:
427,204,152926,2,0,L|470:207,3,32.5,8|8|8|8,0:0|0:0|0:0|0:0,0:0:0:0:
340,200,153301,5,4,0:2:0:0:
335,290,153488,2,0,L|330:356,1,65,0|0,0:0|1:0,0:0:0:0:
426,294,153863,2,0,L|494:300,1,65,0|8,0:0|0:0,0:0:0:0:
427,204,154238,2,0,L|431:126,1,65,0|0,0:0|1:0,0:0:0:0:
340,200,154613,6,0,B|274:196|274:196|252:259,1,130,0|0,0:0|0:0,0:0:0:0:
335,290,155176,1,0,1:0:0:0:
426,294,155363,1,0,0:0:0:0:
427,204,155551,2,0,L|431:126,1,65,8|0,0:0|0:0,0:0:0:0:
342,135,155926,2,0,L|339:199,1,65,0|0,1:0|0:0,0:0:0:0:
391,65,156301,6,0,P|329:50|270:85,1,130,8|0,0:0|1:0,0:0:0:0:
247,161,156863,2,0,P|220:147|201:117,1,65,0|8,0:0|0:0,0:0:0:0:
202,33,157238,1,0,0:0:0:0:
273,80,157426,1,0,1:0:0:0:
127,75,157613,1,0,0:0:0:0:
127,75,157988,5,0,0:0:0:0:
50,38,158176,2,0,P|41:70|48:107,1,65,0|0,1:0|0:0,0:0:0:0:
110,155,158551,1,4,1:0:0:0:
216,23,158926,1,4,1:0:0:0:
193,191,159301,5,4,0:2:0:0:
199,275,159488,2,0,P|229:270|259:244,1,65,0|0,0:0|1:0,0:0:0:0:
122,237,159863,2,0,P|112:268|123:317,1,65,0|8,0:0|0:0,0:0:0:0:
193,191,160238,2,0,P|172:166|138:152,1,65,0|0,0:0|1:0,0:0:0:0:
199,275,160613,6,0,P|241:261|274:174,1,130,0|0,0:0|0:0,0:0:0:0:
239,110,161176,2,0,L|305:102,1,65,0|0,1:0|0:0,0:0:0:0:
362,163,161551,2,0,P|349:104|387:49,1,130,8|0,0:0|1:0,0:0:0:0:
440,127,162113,1,8,0:0:0:0:
440,127,162207,1,8,0:0:0:0:
440,127,162301,6,0,P|432:223|340:249,1,195,4|8,0:2|0:0,0:0:0:0:
285,194,163051,2,0,P|262:260|294:316,1,130,0|0,1:0|0:0,0:0:0:0:
348,251,163613,2,0,B|282:238|286:274|218:258,1,130,8|8,0:0|0:0,0:0:0:0:
148,213,164176,2,0,P|144:183|140:137,1,65,0|0,1:0|0:0,0:0:0:0:
232,111,164551,2,0,P|230:154|224:194,1,65,8|8,0:0|0:0,0:0:0:0:
143,297,164926,1,10,0:0:0:0:
143,297,165113,1,10,0:0:0:0:
47,192,165301,5,4,0:2:0:0:
140,148,165488,2,0,P|142:184|136:221,1,65,0|0,0:0|1:0,0:0:0:0:
47,192,165863,2,0,P|46:158|51:127,1,65,0|8,0:0|0:0,0:0:0:0:
111,68,166238,2,0,L|184:59,1,65,0|0,0:0|1:0,0:0:0:0:
226,127,166613,6,0,P|227:64|276:25,1,130,0|0,0:0|0:0,0:0:0:0:
367,110,167176,2,0,P|333:112|297:94,1,65,0|0,1:0|0:0,0:0:0:0:
434,57,167551,2,0,P|454:118|422:178,1,130,8|0,0:0|1:0,0:0:0:0:
367,110,168113,1,0,0:0:0:0:
374,244,168301,5,12,0:2:0:0:
374,244,168488,2,0,B|312:263|306:223|243:243,1,130,0|0,0:0|0:0,0:0:0:0:
170,280,169051,2,0,B|156:250|156:250|165:218,1,65,8|0,0:0|0:0,0:0:0:0:
242,180,169426,2,0,B|254:209|254:209|246:241,1,65,0|0,1:0|0:0,0:0:0:0:
77,212,169801,5,8,0:0:0:0:
77,212,169988,2,0,B|97:150|97:150|159:133,1,130,0|0,0:0|0:0,0:0:0:0:
261,154,170551,1,10,0:0:0:0:
251,65,170738,1,10,0:0:0:0:
280,63,170832,1,8,0:0:0:0:
309,61,170926,2,0,L|353:56,3,32.5,8|8|8|8,0:0|0:0|0:0|0:0,0:0:0:0:
429,48,171301,6,0,L|434:89,7,32.5,8|0|0|0|0|0|0|0,0:0|0:0|0:0|0:0|1:0|0:0|0:0|0:0,0:0:0:0:
445,167,172051,2,0,L|452:209,7,32.5,8|0|0|0|0|0|0|0,0:0|0:0|0:0|0:0|1:0|0:0|0:0|0:0,0:0:0:0:
504,270,172801,6,0,P|475:286|441:286,1,65,8|0,0:0|0:0,0:0:0:0:
425,280,173082,1,0,0:0:0:0:
407,271,173176,2,0,P|370:266|338:278,1,65,0|0,1:0|0:0,0:0:0:0:
327,284,173457,1,0,0:0:0:0:
310,295,173551,2,0,P|271:307|240:297,1,65,8|0,0:0|0:0,0:0:0:0:
232,290,173832,1,0,0:0:0:0:
224,272,173926,2,0,L|227:201,1,65,0|0,1:0|0:0,0:0:0:0:
233,98,174301,6,0,L|197:98,7,32.5,4|0|0|0|0|0|0|0,0:2|0:0|0:0|0:0|1:0|0:0|0:0|0:0,0:0:0:0:
127,148,175051,2,0,L|85:149,7,32.5,8|0|0|0|0|0|0|0,0:0|0:0|0:0|0:0|1:0|0:0|0:0|0:0,0:0:0:0:
28,207,175801,6,0,P|18:240|27:280,1,65,8|0,0:0|0:0,0:0:0:0:
29,288,176082,1,0,0:0:0:0:
41,302,176176,1,0,1:0:0:0:
133,256,176363,2,0,B|99:244|99:244|148:222|189:241,1,130,0|8,0:0|0:0,0:0:0:0:
259,296,176926,1,0,1:0:0:0:
276,303,177019,1,8,0:0:0:0:
295,306,177113,1,8,0:0:0:0:
314,305,177207,1,8,0:0:0:0:
333,303,177301,6,0,L|333:232,1,65,4|0,0:2|0:0,0:0:0:0:
334,218,177582,1,0,0:0:0:0:
334,198,177676,1,0,1:0:0:0:
335,110,177863,2,0,B|405:114|395:162|455:163,1,130,0|0,0:0|0:0,0:0:0:0:
469,161,178332,1,0,0:0:0:0:
487,155,178426,2,0,P|496:191|495:229,1,65,0|0,1:0|0:0,0:0:0:0:
428,279,178801,5,8,0:0:0:0:
428,298,178894,1,0,0:0:0:0:
428,317,178988,2,0,P|395:331|359:334,1,65,0|0,0:0|1:0,0:0:0:0:
294,279,179363,1,0,0:0:0:0:
227,217,179551,2,0,P|202:276|232:346,1,130,8|0,0:0|1:0,0:0:0:0:
324,200,180113,1,8,0:0:0:0:
324,200,180207,1,8,0:0:0:0:
324,200,180301,5,4,0:2:0:0:
409,150,180488,2,0,P|408:118|393:73,1,65,0|0,0:0|1:0,0:0:0:0:
334,31,180863,1,0,0:0:0:0:
261,74,181051,2,0,P|248:101|240:140,2,65,8|0|0,0:0|0:0|1:0,0:0:0:0:
334,31,181613,6,0,P|291:38|195:21,1,130,0|0,0:0|0:0,0:0:0:0:
122,7,182176,2,0,P|114:42|112:88,1,65,0|0,1:0|0:0,0:0:0:0:
162,138,182551,1,8,0:0:0:0:
78,152,182738,1,0,0:0:0:0:
65,235,182926,1,0,1:0:0:0:
136,280,183113,1,8,0:0:0:0:
136,280,183207,1,8,0:0:0:0:
136,280,183301,6,0,P|184:298|228:281,2,97.5,4|0|0,0:2|0:0|0:0,0:0:0:0:
269,210,184051,2,0,L|285:360,1,130,8|0,0:0|1:0,0:0:0:0:
366,350,184613,6,0,L|394:216,1,130,0|0,0:0|0:0,0:0:0:0:
413,140,185176,1,0,1:0:0:0:
339,98,185363,1,0,0:0:0:0:
257,128,185551,2,0,P|252:101|254:77,2,43.3333333333333,8|2|2,0:0|0:0|0:0,0:0:0:0:
339,98,185926,1,0,1:0:0:0:
291,8,186113,6,0,P|232:2|175:42,1,130,0|0,0:0|0:0,0:0:0:0:
169,165,186676,1,0,1:0:0:0:
169,165,186863,2,0,P|141:136|58:170,1,130,0|0,0:0|0:0,0:0:0:0:
81,244,187426,2,0,P|111:253|143:248,1,65,0|0,1:0|0:0,0:0:0:0:
261,174,187801,5,4,0:2:0:0:
261,174,188176,1,8,0:0:0:0:
263,289,188363,2,0,P|295:298|332:292,1,65,8|10,0:0|0:0,0:0:0:0:
404,263,188738,1,10,0:0:0:0:
344,181,188926,2,0,L|335:222,3,32.5,10|8|8|8,0:0|0:0|0:0|0:0,0:0:0:0:
325,293,189301,6,0,P|347:328|376:343,1,65,4|0,0:2|0:0,0:0:0:0:
452,333,189676,2,0,P|478:310|488:280,1,65,0|0,1:0|0:0,0:0:0:0:
468,199,190051,1,8,0:0:0:0:
397,152,190238,1,0,0:0:0:0:
337,212,190426,1,0,1:0:0:0:
404,263,190613,1,0,0:0:0:0:
468,199,190801,6,0,P|480:171|476:130,1,65,8|0,0:0|0:0,0:0:0:0:
423,72,191176,1,0,1:0:0:0:
397,152,191363,2,0,P|336:128|276:152,1,130,0|0,0:0|0:0,0:0:0:0:
206,195,191926,2,0,P|194:167|198:126,1,65,0|0,1:0|0:0,0:0:0:0:
113,113,192301,6,0,P|98:144|64:166,1,65,4|0,0:2|0:0,0:0:0:0:
91,245,192676,2,0,P|123:246|151:263,1,65,0|0,1:0|0:0,0:0:0:0:
206,195,193051,1,8,0:0:0:0:
274,244,193238,1,0,0:0:0:0:
220,309,193426,1,0,1:0:0:0:
150,262,193613,1,0,0:0:0:0:
206,195,193801,6,0,P|194:167|198:126,1,65,8|0,0:0|0:0,0:0:0:0:
278,149,194176,1,0,1:0:0:0:
345,199,194363,2,0,P|361:139|328:80,1,130,0|0,0:0|0:0,0:0:0:0:
251,50,194926,2,0,L|180:47,1,65,0|8,1:0|0:0,0:0:0:0:
166,47,195207,1,8,0:0:0:0:
146,47,195301,6,0,P|133:77|131:116,1,65,4|0,0:2|0:0,0:0:0:0:
46,120,195676,2,0,P|56:151|84:181,1,65,0|0,1:0|0:0,0:0:0:0:
36,249,196051,1,8,0:0:0:0:
120,252,196238,1,0,0:0:0:0:
170,184,196426,2,0,P|198:163|213:130,1,65,0|0,1:0|0:0,0:0:0:0:
186,47,196801,5,8,0:0:0:0:
267,69,196988,1,0,0:0:0:0:
351,62,197176,1,0,1:0:0:0:
425,22,197363,2,0,B|450:79|413:91|445:149,1,130,0|0,0:0|0:0,0:0:0:0:
500,212,197926,2,0,P|474:228|433:230,1,65,0|0,1:0|0:0,0:0:0:0:
370,183,198301,6,0,P|397:245|373:303,1,130,8|0,0:0|1:0,0:0:0:0:
312,244,198863,2,0,P|280:254|242:248,2,65,0|0|0,0:0|0:0|0:0,0:0:0:0:
272,169,199426,1,0,1:0:0:0:
190,189,199613,2,0,P|169:216|163:260,1,65,0|8,0:0|0:0,0:0:0:0:
248,342,199988,5,0,1:0:0:0:
312,244,200176,1,0,1:0:0:0:
272,169,200363,1,0,0:0:0:0:
272,169,200457,1,0,0:0:0:0:
272,169,200551,2,0,P|262:151|252:133,3,32.5,8|8|8|8,0:0|0:0|0:0|0:0,0:0:0:0:
167,108,200926,2,0,P|150:114|131:130,3,32.5,8|8|8|8,0:0|0:0|0:0|0:0,0:0:0:0:
238,60,201301,6,0,L|323:47,1,65,4|0,0:2|0:0,0:0:0:0:
345,123,201676,2,0,L|418:127,1,65,0|0,1:0|0:0,0:0:0:0:
399,210,202051,1,8,0:0:0:0:
480,231,202238,1,0,0:0:0:0:
463,314,202426,1,0,1:0:0:0:
380,299,202613,1,0,0:0:0:0:
399,210,202801,6,0,P|362:213|325:209,1,65,8|0,0:0|0:0,0:0:0:0:
262,165,203176,1,0,1:0:0:0:
206,101,203363,2,0,P|220:160|208:227,1,130,0|0,0:0|0:0,0:0:0:0:
130,192,203926,2,0,P|137:162|127:123,1,65,0|8,1:0|0:0,0:0:0:0:
45,128,204301,6,0,P|40:163|45:195,2,65,4|0|0,0:2|0:0|1:0,0:0:0:0:
89,56,204863,1,0,0:0:0:0:
206,101,205051,2,0,P|236:107|272:99,1,65,8|0,0:0|0:0,0:0:0:0:
322,33,205426,1,0,1:0:0:0:
360,107,205613,1,0,0:0:0:0:
409,38,205801,6,0,P|405:107|423:184,1,130,8|0,0:0|1:0,0:0:0:0:
468,233,206363,1,0,0:0:0:0:
394,274,206551,2,0,P|369:280|362:243,1,65,8|0,0:0|0:0,0:0:0:0:
468,233,206926,2,0,P|478:266|474:300,1,65,0|0,1:0|0:0,0:0:0:0:
273,229,207301,6,0,P|310:177|372:166,1,130,4|0,0:2|1:0,0:0:0:0:
357,248,207863,1,0,0:0:0:0:
302,312,208051,2,0,P|241:312|193:263,1,130,8|0,0:0|1:0,0:0:0:0:
273,229,208613,1,0,0:0:0:0:
357,248,208801,6,0,P|387:309|369:366,1,130,8|0,0:0|1:0,0:0:0:0:
302,312,209363,1,0,0:0:0:0:
273,229,209551,2,0,L|266:159,1,65,8|0,0:0|0:0,0:0:0:0:
322,68,209926,1,0,1:0:0:0:
322,68,210301,5,0,1:0:0:0:
380,136,210488,2,0,P|388:165|381:206,2,65,0|0|8,1:0|0:0|0:0,0:0:0:0:
237,76,211051,1,0,1:0:0:0:
237,76,211238,2,0,L|235:38,2,32.5,0|0|0,0:0|0:0|0:0,0:0:0:0:
266,164,211613,6,0,B|200:150|199:188|137:174,1,130,8|8,0:0|0:0,0:0:0:0:
88,105,212176,1,8,0:0:0:0:
18,153,212363,1,8,0:0:0:0:
69,220,212551,2,0,P|72:256|64:285,1,65,8|0,0:0|0:0,0:0:0:0:
256,258,213301,6,0,L|256:343,1,84.4999961318971,0|0,1:0|1:0,0:0:0:0:
256,258,213863,5,0,0:0:0:0:
189,192,214051,2,0,L|105:192,1,84.4999961318971,0|0,1:0|1:0,0:0:0:0:
189,192,214613,5,0,0:0:0:0:
256,125,214801,2,0,L|256:41,1,84.4999961318971,0|0,1:0|1:0,0:0:0:0:
256,125,215363,5,0,0:0:0:0:
322,192,215551,2,0,L|407:192,1,84.4999961318971,0|0,1:0|1:0,0:0:0:0:
481,248,215926,2,0,P|485:269|483:295,3,42.2499980659486,8|8|8|8,0:0|0:0|0:0|0:0,0:0:0:0:
412,340,216301,6,0,L|327:340,1,84.4999961318971,0|0,1:0|1:0,0:0:0:0:
327,340,216863,5,0,0:0:0:0:
234,339,217051,2,0,L|149:339,1,84.4999961318971,0|0,1:0|1:0,0:0:0:0:
149,339,217613,5,0,0:0:0:0:
56,338,217801,2,0,L|56:245,1,84.4999961318971,0|0,1:0|1:0,0:0:0:0:
132,181,218176,2,0,P|162:206|130:220,1,84.4999961318971,0|0,0:0|0:0,0:0:0:0:
49,167,218551,5,4,1:0:0:0:
196,95,218926,1,4,1:0:0:0:
334,168,219301,5,4,0:2:0:0:
267,220,219488,2,0,P|251:189|250:152,1,65,0|0,0:0|1:0,0:0:0:0:
301,91,219863,2,0,P|335:84|370:94,1,65,0|8,0:0|0:0,0:0:0:0:
418,156,220238,2,0,P|415:190|397:223,1,65,0|0,0:0|1:0,0:0:0:0:
334,168,220613,6,0,B|348:237|319:234|336:300,1,130,0|0,0:0|0:0,0:0:0:0:
366,375,221176,2,0,P|334:382|298:371,1,65,0|0,1:0|0:0,0:0:0:0:
255,303,221551,1,8,0:0:0:0:
176,272,221738,1,0,0:0:0:0:
142,349,221926,1,0,1:0:0:0:
220,380,222113,1,0,0:0:0:0:
176,272,222301,6,0,P|117:267|62:310,1,130,4|0,0:2|0:0,0:0:0:0:
142,349,222863,1,8,0:0:0:0:
255,303,223051,2,0,P|261:273|251:236,1,65,0|0,1:0|0:0,0:0:0:0:
176,272,223426,1,0,0:0:0:0:
302,174,223613,6,0,P|251:159|184:193,1,130,8|8,0:0|0:0,0:0:0:0:
339,253,224176,2,0,P|369:266|403:262,1,65,0|0,1:0|0:0,0:0:0:0:
380,151,224551,2,0,L|385:193,3,32.5,8|8|8|8,0:0|0:0|0:0|0:0,0:0:0:0:
425,77,224926,2,0,L|465:68,3,32.5,8|8|8|8,0:0|0:0|0:0|0:0,0:0:0:0:
339,76,225301,5,4,0:2:0:0:
263,38,225488,2,0,P|252:68|262:114,1,65,0|0,0:0|1:0,0:0:0:0:
268,183,225863,2,0,P|236:176|194:187,1,65,0|8,0:0|0:0,0:0:0:0:
120,183,226238,2,0,P|131:153|121:107,1,65,0|0,0:0|1:0,0:0:0:0:
139,38,226613,6,0,P|192:55|271:32,1,130,0|0,0:0|0:0,0:0:0:0:
343,11,227176,1,0,1:0:0:0:
391,80,227363,1,0,0:0:0:0:
260,121,227551,1,8,0:0:0:0:
262,37,227738,1,0,0:0:0:0:
341,148,227926,1,0,1:0:0:0:
391,80,228113,1,0,0:0:0:0:
457,135,228301,6,0,P|401:165|340:147,1,130,8|0,0:0|1:0,0:0:0:0:
260,121,228863,2,0,P|259:155|240:189,1,65,0|0,0:0|0:0,0:0:0:0:
167,215,229238,1,0,0:0:0:0:
98,164,229426,1,0,1:0:0:0:
175,130,229613,1,0,0:0:0:0:
175,130,229988,5,0,0:0:0:0:
98,164,230176,2,0,P|89:131|97:96,1,65,0|0,1:0|0:0,0:0:0:0:
158,46,230551,1,4,1:0:0:0:
323,10,230926,1,4,1:0:0:0:
395,162,231301,5,4,0:2:0:0:
447,95,231488,2,0,P|472:122|477:159,1,65,0|0,0:0|1:0,0:0:0:0:
359,214,231863,2,0,P|371:184|395:162,1,65,0|8,0:0|0:0,0:0:0:0:
512,226,232238,2,0,P|482:236|434:217,1,65,0|0,0:0|1:0,0:0:0:0:
447,95,232613,6,0,P|504:102|471:149,1,130,0|0,0:0|0:0,0:0:0:0:
394,162,233176,1,0,1:0:0:0:
358,85,233363,1,0,0:0:0:0:
308,153,233551,2,0,P|276:160|225:155,1,65,8|0,0:0|0:0,0:0:0:0:
224,155,233832,1,0,0:0:0:0:
207,145,233926,2,0,P|165:140|135:151,1,65,0|8,1:0|0:0,0:0:0:0:
98,221,234207,1,8,0:0:0:0:
98,221,234301,6,0,B|100:304|100:304|120:321|155:317,1,130,4|0,0:2|0:0,0:0:0:0:
220,283,234863,1,8,0:0:0:0:
299,313,235051,2,0,P|305:282|294:244,2,65,0|0|0,1:0|0:0|0:0,0:0:0:0:
231,363,235613,6,0,L|380:353,1,130,8|8,0:0|0:0,0:0:0:0:
445,363,236176,2,0,P|443:336|450:295,1,65,8|8,0:0|0:0,0:0:0:0:
449,216,236551,6,0,L|505:216,1,45.4999986114502,8|0,0:0|0:0,0:0:0:0:
363,183,236926,1,2,0:0:0:0:
363,183,237113,1,2,0:0:0:0:
278,254,237301,5,4,0:2:0:0:
200,287,237488,2,0,P|191:249|200:214,1,65,0|0,0:0|1:0,0:0:0:0:
113,204,237863,2,0,P|101:235|68:257,1,65,0|0,0:0|0:0,0:0:0:0:
85,338,238238,2,0,P|117:337|150:353,1,65,0|0,0:0|0:0,0:0:0:0:
200,287,238613,1,0,0:0:0:0:
200,287,238988,5,0,0:0:0:0:
278,254,239176,1,0,1:0:0:0:
277,339,239363,1,0,0:0:0:0:
200,287,239551,2,0,P|191:249|200:214,1,65,8|0,0:0|0:0,0:0:0:0:
278,254,239926,1,0,1:0:0:0:
278,254,240301,5,8,0:0:0:0:
331,188,240488,1,0,0:0:0:0:
283,117,240676,1,0,1:0:0:0:
202,140,240863,1,0,0:0:0:0:
202,140,241238,6,0,P|167:136|128:138,1,65,0|0,0:0|0:0,0:0:0:0:
283,117,241613,2,0,P|315:118|347:116,1,65,0|0,0:0|0:0,0:0:0:0:
391,44,241988,1,0,0:0:0:0:
313,10,242176,1,0,1:0:0:0:
235,42,242363,1,0,0:0:0:0:
283,117,242551,2,0,P|316:162|348:115,1,130,4|4,1:0|1:0,0:0:0:0:
235,42,243301,6,0,B|167:30|172:60|105:48,1,130,4|0,0:2|1:0,0:0:0:0:
27,19,243863,2,0,P|20:54|28:84,1,65,0|0,0:0|0:0,0:0:0:0:
95,131,244238,1,0,0:0:0:0:
106,48,244426,1,0,1:0:0:0:
13,167,244613,6,0,P|43:204|132:209,1,130,0|0,0:0|0:0,0:0:0:0:
180,152,245176,1,0,1:0:0:0:
243,96,245363,2,0,P|218:157|243:220,1,130,0|0,0:0|0:0,0:0:0:0:
253,227,245832,1,0,0:0:0:0:
270,235,245926,2,0,L|339:229,1,65,0|8,1:0|0:0,0:0:0:0:
409,272,246301,6,0,L|408:308,2,32.5,4|0|0,0:2|0:0|0:0,0:0:0:0:
483,231,246676,2,0,L|466:151,1,65,0|8,0:0|0:0,0:0:0:0:
490,86,247051,2,0,P|430:93|386:152,1,130,0|0,1:0|0:0,0:0:0:0:
304,152,247613,6,0,P|252:115|171:135,1,130,8|0,0:0|0:0,0:0:0:0:
229,196,248176,2,0,P|227:226|209:261,1,65,0|0,1:0|0:0,0:0:0:0:
130,277,248551,2,0,P|101:257|83:233,1,65,8|8,0:0|0:0,0:0:0:0:
77,214,248832,1,8,0:0:0:0:
77,194,248926,1,0,1:0:0:0:
189,122,249113,1,4,0:2:0:0:
101,109,249301,6,0,P|94:75|91:35,2,65,0|0|0,0:0|0:0|0:0,0:0:0:0:
135,187,249863,1,0,0:0:0:0:
189,122,250051,2,0,P|202:91|214:42,2,65,0|0|8,0:0|0:0|0:0,0:0:0:0:
133,206,250613,6,0,B|99:166|57:189|33:227|51:271|89:290|148:307|180:288|204:257|213:216|213:216|366:285|339:162|461:223|461:223|458:246|458:246|466:269|466:269|462:295,1,636.999980560303,4|8,1:2|0:0,0:0:0:0:
