osu file format v14

[General]
AudioFilename: audio.mp3
AudioLeadIn: 0
PreviewTime: 47885
Countdown: 0
SampleSet: Soft
StackLeniency: 0.7
Mode: 2
LetterboxInBreaks: 0
WidescreenStoryboard: 0

[Editor]
DistanceSpacing: 1
BeatDivisor: 4
GridSize: 4
TimelineZoom: 5.099998

[Metadata]
Title:Amy
TitleUnicode:エイミー
Artist:Yorushika
ArtistUnicode:ヨルシカ
Creator:autofanboy
Version:Overcast Skies
Source:
Tags:Eimii 夜しか Suis スイ n-buna nbuna ナブナ Elma エルマ Eruma UPCH-7511 UPCH7511 UPCH-2191 UPCH2191 Rock Pop Japanese JRock J-Rock JPop J-Pop alienflybot AFB
BeatmapID:2483298
BeatmapSetID:1191707

[Difficulty]
HPDrainRate:5.5
CircleSize:4.5
OverallDifficulty:8.2
ApproachRate:8.2
SliderMultiplier:2.25
SliderTickRate:2

[Events]
//Background and Video events
0,0,"Yorushika_Fanart.jpg",0,0
//Break Periods
2,144865,151625
//Storyboard Layer 0 (Background)
//Storyboard Layer 1 (Fail)
//Storyboard Layer 2 (Pass)
//Storyboard Layer 3 (Foreground)
//Storyboard Layer 4 (Overlay)
//Storyboard Sound Samples

[TimingPoints]
670,495.867768595041,4,2,1,40,1,0
1661,476.190476190476,4,2,1,40,1,0
4518,480,4,2,1,40,1,0
9318,495.867768595041,4,2,1,40,1,0
12188,487.80487804878,4,2,1,40,1,0
14147,472.44094488189,4,2,1,40,1,0
16025,480,4,2,1,40,1,0
16025,-100,4,2,2,50,0,0
17225,-100,4,2,1,50,0,0
17465,-100,4,2,2,50,0,0
17705,-100,4,2,1,50,0,0
17945,-100,4,2,2,50,0,0
19625,-100,4,2,1,50,0,0
19865,-100,4,2,2,50,0,0
21545,-100,4,2,1,50,0,0
21785,-100,4,2,2,50,0,0
23225,-100,4,2,99,50,0,0
23465,-100,4,2,1,50,0,0
23705,-100,4,2,2,50,0,0
25625,-100,4,2,99,50,0,0
25865,-100,4,2,2,50,0,0
26345,-100,4,2,2,20,0,0
26585,-100,4,2,2,50,0,0
26825,-100,4,2,2,20,0,0
27065,-100,4,2,2,50,0,0
29945,-100,4,2,2,50,0,0
31385,-100,4,2,2,70,0,0
31505,-100,4,2,2,50,0,0
31625,-100,4,2,2,70,0,0
31745,-100,4,2,2,50,0,0
33065,-100,4,2,2,70,0,0
33305,-100,4,2,1,50,0,0
33545,-100,4,2,2,50,0,0
35225,-100,4,2,2,70,0,0
35345,-100,4,2,2,50,0,0
35465,-100,4,2,2,70,0,0
35585,-100,4,2,2,50,0,0
36905,-100,4,2,2,70,0,0
37145,-100,4,2,1,50,0,0
37385,-100,4,2,2,50,0,0
38105,-100,4,2,2,70,0,0
38225,-100,4,2,2,50,0,0
38345,-100,4,2,1,50,0,0
38465,-100,4,2,2,50,0,0
39065,-100,4,2,0,50,0,0
39305,-100,4,2,2,50,0,0
39545,-100,4,2,1,30,0,0
39665,-100,4,2,2,50,0,0
40985,-100,4,2,1,50,0,0
41225,-100,4,2,2,50,0,0
42425,-100,4,2,1,50,0,0
42665,-100,4,2,2,50,0,0
42905,-100,4,2,2,55,0,0
43145,-100,4,2,1,55,0,0
43265,-100,4,2,2,55,0,0
43625,-100,4,2,2,60,0,0
43865,-100,4,2,1,60,0,0
43985,-100,4,2,2,60,0,0
44585,-100,4,2,2,65,0,0
44825,-100,4,2,1,65,0,0
45065,-100,4,2,2,65,0,0
45785,-100,4,2,1,65,0,0
46025,-100,4,2,2,65,0,0
46505,-100,4,2,2,70,0,0
46745,-100,4,2,1,70,0,0
46985,-100,4,2,2,70,0,0
47945,-10000,4,2,1,40,0,0
48545,-10000,4,2,1,5,0,0
48665,-71.4285714285714,4,2,2,70,0,1
48905,-71.4285714285714,4,2,1,5,0,1
49145,-103.092783505155,4,2,2,70,0,1
49385,-103.092783505155,4,2,1,5,0,1
49625,-71.4285714285714,4,2,2,70,0,1
49865,-71.4285714285714,4,2,1,70,0,1
50105,-100,4,2,2,70,0,1
54425,-100,4,2,1,70,0,1
54665,-100,4,2,2,70,0,1
56105,-100,4,2,2,70,0,0
56345,-71.4285714285714,4,2,2,70,0,1
56585,-71.4285714285714,4,2,1,5,0,1
56825,-103.092783505155,4,2,2,70,0,1
57065,-103.092783505155,4,2,1,5,0,1
57305,-102.040816326531,4,2,2,70,0,1
57545,-102.040816326531,4,2,1,70,0,1
57785,-100,4,2,2,70,0,1
62105,-100,4,2,1,70,0,1
62345,-100,4,2,2,70,0,1
63305,-100,4,2,2,65,0,1
63545,-100,4,2,2,55,0,1
63785,-100,4,2,2,50,0,1
64025,-100,4,2,2,50,0,0
64505,-100,4,2,0,50,0,0
64625,-100,4,2,2,50,0,0
65465,-100,4,2,0,50,0,0
65585,-100,4,2,2,50,0,0
66425,-100,4,2,0,50,0,0
66545,-100,4,2,2,50,0,0
67385,-100,4,2,0,50,0,0
67505,-100,4,2,2,50,0,0
68345,-100,4,2,0,50,0,0
68465,-100,4,2,2,50,0,0
69305,-100,4,2,0,50,0,0
69425,-100,4,2,2,50,0,0
70265,-100,4,2,0,50,0,0
70385,-100,4,2,2,50,0,0
71225,-100,4,2,0,50,0,0
71345,-100,4,2,2,50,0,0
71705,-100,4,2,2,52,0,0
72185,-100,4,2,0,52,0,0
72305,-100,4,2,2,52,0,0
72665,-100,4,2,2,54,0,0
73145,-100,4,2,0,54,0,0
73265,-100,4,2,2,54,0,0
73625,-100,4,2,2,56,0,0
74105,-100,4,2,0,56,0,0
74225,-100,4,2,2,56,0,0
74585,-100,4,2,2,58,0,0
75065,-100,4,2,0,58,0,0
75185,-100,4,2,2,58,0,0
75545,-100,4,2,2,60,0,0
76025,-100,4,2,0,60,0,0
76145,-100,4,2,2,60,0,0
77225,-100,4,2,2,55,0,0
77465,-100,4,2,1,55,0,0
77705,-100,4,2,2,55,0,0
79145,-100,4,2,2,50,0,0
79385,-100,4,2,1,50,0,0
79625,-100,4,2,2,50,0,0
80585,-100,4,2,2,45,0,0
80825,-100,4,2,2,40,0,0
81065,-100,4,2,2,35,0,0
81305,-100,4,2,2,40,0,0
82265,-100,4,2,1,40,0,0
84665,-100,4,2,1,20,0,0
84785,-100,4,2,1,40,0,0
85025,-100,4,2,1,20,0,0
85145,-100,4,2,1,40,0,0
87945,-100,4,2,1,40,0,0
88025,-100,4,2,1,20,0,0
88745,-100,4,2,1,40,0,0
92345,-100,4,2,1,20,0,0
92465,-100,4,2,1,40,0,0
92705,-100,4,2,1,20,0,0
92825,-100,4,2,1,40,0,0
95705,-100,4,2,2,40,0,0
95825,-100,4,2,1,40,0,0
96425,-100,4,2,2,40,0,0
96545,-100,4,2,2,20,0,0
96665,-100,4,2,2,50,0,0
97865,-100,4,2,1,50,0,0
98105,-100,4,2,2,50,0,0
102185,-100,4,2,0,50,0,0
102425,-100,4,2,2,50,0,0
102545,-100,4,2,0,50,0,0
102665,-100,4,2,2,50,0,0
103025,-100,4,2,0,50,0,0
103145,-100,4,2,2,50,0,0
103505,-100,4,2,0,50,0,0
103625,-100,4,2,2,50,0,0
104105,-100,4,2,1,50,0,0
104345,-100,4,2,2,50,0,0
106265,-100,4,2,99,50,0,0
106505,-100,4,2,2,50,0,0
107465,-100,4,2,1,50,0,0
107585,-100,4,2,2,50,0,0
108185,-100,4,2,1,40,0,0
109865,-100,4,2,2,50,0,0
110105,-100,4,2,1,50,0,0
110345,-100,4,2,2,50,0,0
112025,-100,4,2,2,70,0,0
112145,-100,4,2,2,50,0,0
112265,-100,4,2,2,70,0,0
112385,-100,4,2,2,50,0,0
113705,-100,4,2,2,70,0,0
113945,-100,4,2,1,50,0,0
114185,-100,4,2,2,50,0,0
115865,-100,4,2,2,70,0,0
115985,-100,4,2,2,50,0,0
116105,-100,4,2,2,70,0,0
116225,-100,4,2,2,50,0,0
117545,-100,4,2,2,70,0,0
117785,-100,4,2,1,50,0,0
118025,-100,4,2,2,50,0,0
118985,-100,4,2,1,50,0,0
119105,-100,4,2,2,50,0,0
119705,-100,4,2,0,50,0,0
119945,-100,4,2,2,50,0,0
120185,-100,4,2,1,30,0,0
120305,-100,4,2,2,50,0,0
121625,-100,4,2,1,50,0,0
121865,-100,4,2,2,50,0,0
123065,-100,4,2,1,50,0,0
123305,-100,4,2,2,50,0,0
123545,-100,4,2,2,55,0,0
123785,-100,4,2,1,55,0,0
123905,-100,4,2,2,55,0,0
124265,-100,4,2,2,60,0,0
124505,-100,4,2,1,60,0,0
124625,-100,4,2,2,60,0,0
125225,-100,4,2,2,65,0,0
125465,-100,4,2,1,65,0,0
125705,-100,4,2,2,65,0,0
126425,-100,4,2,1,65,0,0
126545,-100,4,2,2,65,0,0
127145,-100,4,2,2,70,0,0
127385,-100,4,2,1,70,0,0
127625,-100,4,2,2,70,0,0
128585,-100,4,2,2,60,0,0
128825,-100,4,2,2,50,0,0
129065,-100,4,2,2,60,0,0
129305,-55.5555555555556,4,2,2,70,0,1
129545,-55.5555555555556,4,2,1,5,0,1
129785,-55.5555555555556,4,2,2,70,0,1
130025,-55.5555555555556,4,2,1,5,0,1
130265,-55.5555555555556,4,2,2,70,0,1
130505,-55.5555555555556,4,2,2,5,0,1
130745,-100,4,2,2,70,0,1
135065,-100,4,2,1,70,0,1
135305,-100,4,2,2,70,0,1
136745,-100,4,2,2,70,0,0
136985,-55.5555555555556,4,2,2,70,0,1
137225,-55.5555555555556,4,2,1,5,0,1
137465,-55.5555555555556,4,2,2,70,0,1
137705,-55.5555555555556,4,2,1,5,0,1
137945,-55.5555555555556,4,2,2,70,0,1
138185,-55.5555555555556,4,2,2,5,0,1
138425,-100,4,2,2,70,0,1
142745,-100,4,2,1,70,0,1
142985,-100,4,2,2,70,0,1
143225,-100,4,2,2,50,0,1
143465,-100,4,2,2,40,0,1
143705,-100,4,2,2,50,0,1
143945,-100,4,2,1,60,0,1
144185,-100,4,2,2,50,0,1
144425,-100,4,2,2,40,0,1
144665,-100,4,2,0,30,0,0
152345,-100,4,2,1,30,0,0
155105,-100,4,2,2,30,0,0
155225,-100,4,2,1,35,0,0
155345,-100,4,2,2,35,0,0
155465,-100,4,2,2,40,0,0
155705,-100,4,2,1,45,0,0
155825,-100,4,2,2,45,0,0
155945,-100,4,2,2,50,0,0
156425,-100,4,2,1,50,0,0
157865,-100,4,2,2,50,0,0
158105,-100,4,2,1,50,0,0
158345,-100,4,2,2,50,0,0
158585,-100,4,2,1,50,0,0
159305,-100,4,2,2,50,0,0
159545,-100,4,2,1,50,0,0
159785,-100,4,2,2,55,0,0
160025,-100,4,2,1,55,0,0
161705,-100,4,2,2,60,0,0
161945,-100,4,2,1,60,0,0
163865,-10000,4,2,1,30,0,0
164345,-10000,4,2,98,30,0,0
164585,-10000,4,2,1,30,0,0
164825,-10000,4,2,98,35,0,0
165065,-10000,4,2,1,35,0,0
165305,-10000,4,2,98,40,0,0
165545,-100,4,2,1,40,0,0
165785,-100,4,2,2,60,0,0
166265,-100,4,2,2,65,0,0
166745,-100,4,2,1,60,0,0
166985,-100,4,2,2,60,0,0
167465,-100,4,2,2,70,0,1
167705,-100,4,2,1,70,0,1
167945,-100,4,2,2,70,0,1
169625,-100,4,2,1,70,0,1
169865,-100,4,2,2,70,0,1
171305,-100,4,2,2,70,0,0
171545,-55.5555555555556,4,2,2,70,0,1
171785,-55.5555555555556,4,2,1,5,0,1
172025,-55.5555555555556,4,2,2,70,0,1
172265,-55.5555555555556,4,2,1,5,0,1
172505,-55.5555555555556,4,2,2,70,0,1
172745,-55.5555555555556,4,2,1,5,0,1
172985,-100,4,2,2,70,0,1
177305,-100,4,2,1,70,0,1
177545,-100,4,2,2,70,0,1
178505,-100,4,2,2,70,0,0
179225,-55.5555555555556,4,2,2,70,0,1
179465,-55.5555555555556,4,2,1,5,0,1
179705,-55.5555555555556,4,2,2,70,0,1
179945,-55.5555555555556,4,2,1,5,0,1
180185,-63.2911392405063,4,2,2,70,0,1
180425,-63.2911392405063,4,2,1,5,0,1
180665,-100,4,2,2,70,0,1
184985,-100,4,2,1,70,0,1
185225,-100,4,2,2,70,0,1
186665,-100,4,2,2,70,0,0
186905,-55.5555555555556,4,2,2,70,0,1
187145,-55.5555555555556,4,2,1,5,0,1
187385,-55.5555555555556,4,2,2,70,0,1
187625,-55.5555555555556,4,2,1,5,0,1
187865,-55.5555555555556,4,2,2,70,0,1
188105,-55.5555555555556,4,2,2,5,0,1
188345,-100,4,2,2,70,0,1
192665,-100,4,2,1,70,0,1
192905,-100,4,2,2,70,0,1
193865,-100,4,2,2,60,0,1
194105,-100,4,2,2,50,0,1
194345,-100,4,2,2,40,0,1
194585,-100,4,2,2,50,0,0
195065,-100,4,2,0,50,0,0
195185,-100,4,2,2,50,0,0
196025,-100,4,2,0,50,0,0
196145,-100,4,2,2,50,0,0
196985,-100,4,2,0,50,0,0
197105,-100,4,2,2,50,0,0
197945,-100,4,2,0,50,0,0
198065,-100,4,2,2,50,0,0
198905,-100,4,2,0,50,0,0
199025,-100,4,2,2,50,0,0
199865,-100,4,2,0,50,0,0
199985,-100,4,2,2,50,0,0
200825,-100,4,2,0,50,0,0
200945,-100,4,2,2,50,0,0
201785,-100,4,2,0,50,0,0
201905,-100,4,2,2,50,0,0
202265,-100,4,2,0,30,0,0
202505,-100,4,2,1,30,0,0
202745,-100,4,2,1,28,0,0
203705,-100,4,2,1,26,0,0
204665,-100,4,2,1,24,0,0
205625,-100,4,2,1,22,0,0
205865,-100,4,2,1,20,0,0
207065,-100,4,2,1,18,0,0
208025,-100,4,2,1,13,0,0
208985,-100,4,2,1,10,0,0
209705,-100,4,2,1,5,0,0

[Colours]
Combo1 : 228,232,237
Combo2 : 199,155,142
Combo3 : 173,167,211
Combo4 : 135,96,89

[HitObjects]
472,348,670,5,8,0:0:0:0:
480,316,1661,1,8,0:0:0:0:
488,284,2375,1,8,0:0:0:0:
256,284,4518,1,8,0:0:0:0:
256,252,5478,1,8,0:0:0:0:
256,220,6198,1,8,0:0:0:0:
40,220,7638,1,0,0:0:0:0:
256,220,7878,1,2,0:0:0:0:
40,220,8358,5,8,0:0:0:0:
32,188,9318,1,8,0:0:0:0:
24,156,10061,1,8,0:0:0:0:
256,156,12188,1,8,0:0:0:0:
256,124,13163,1,8,0:0:0:0:
256,92,13895,1,8,0:0:0:0:
472,92,15328,1,0,0:0:0:0:
256,92,15564,2,0,L|144:84,1,112.5,4|0,0:0|0:0,0:0:0:0:
360,52,16025,6,0,L|368:164,1,112.5,2|0,0:0|0:0,0:0:0:0:
256,196,16505,1,2,0:0:0:0:
368,228,16745,1,0,0:0:0:0:
152,228,16985,2,0,P|72:276|152:328,1,225,2|2,0:0|0:0,0:0:0:0:
368,328,17705,6,0,L|480:336,1,112.5,4|2,0:0|0:0,0:0:0:0:
256,304,18185,1,0,0:0:0:0:
368,272,18425,2,0,L|376:160,1,112.5,2|0,0:0|0:0,0:0:0:0:
160,128,18905,2,0,L|152:16,1,112.5,2|0,0:0|0:0,0:0:0:0:
192,16,19225,1,0,0:0:0:0:
232,16,19305,1,0,0:0:0:0:
272,16,19385,1,2,0:0:0:0:
56,48,19625,1,4,0:0:0:0:
272,80,19865,6,0,L|280:192,1,112.5,2|0,0:0|0:0,0:0:0:0:
168,160,20345,2,0,L|160:272,1,112.5,2|0,0:0|0:0,0:0:0:0:
376,304,20825,2,0,L|264:312,2,112.5,2|0|2,0:0|0:0|0:0,0:0:0:0:
160,344,21545,1,4,0:0:0:0:
240,304,21785,5,2,0:0:0:0:
272,220,22025,1,0,0:0:0:0:
240,136,22265,1,2,0:0:0:0:
160,96,22505,2,0,L|152:60,3,37.5,0|0|0|2,0:0|0:0|0:0|0:0,0:0:0:0:
368,28,22985,2,0,L|144:20,1,225,0|4,0:0|0:0,0:0:0:0:
360,52,23705,5,2,0:0:0:0:
248,84,23945,1,0,0:0:0:0:
360,116,24185,2,0,L|472:124,1,112.5,2|0,0:0|0:0,0:0:0:0:
256,148,24665,2,0,L|248:260,1,112.5,2|0,0:0|0:0,0:0:0:0:
136,292,25145,1,2,0:0:0:0:
352,292,25385,6,0,P|432:244|352:192,1,225
240,160,26105,1,2,0:0:0:0:
464,128,26345,1,2,0:3:0:0:
484,100,26405,1,2,0:3:0:0:
476,72,26495,1,2,0:3:0:0:
448,48,26585,1,2,0:0:0:0:
336,48,26825,2,0,L|308:44,1,28.125,2|2,0:3|0:3,0:0:0:0:
140,72,27065,2,0,L|252:80,1,112.5,2|0,0:0|0:0,0:0:0:0:
308,84,27425,1,0,0:0:0:0:
188,116,27545,6,0,L|180:228,1,112.5,2|0,0:0|0:0,0:0:0:0:
292,260,28025,1,2,0:0:0:0:
180,292,28265,1,0,0:0:0:0:
396,324,28505,2,0,L|284:332,2,112.5,2|0|2,0:0|0:0|0:0,0:0:0:0:
76,324,29225,1,4,0:0:0:0:
292,292,29705,5,2,0:0:0:0:
76,324,29945,1,8,0:0:0:0:
56,272,30065,1,0,0:0:0:0:
60,244,30125,1,0,0:0:0:0:
76,220,30185,1,0,0:0:0:0:
124,188,30305,1,8,0:0:0:0:
184,184,30425,1,8,0:0:0:0:
124,188,30545,1,8,0:0:0:0:
324,216,30665,6,0,L|328:160,1,56.25,2|0,0:0|0:0,0:0:0:0:
128,128,30905,1,8,0:0:0:0:
188,124,31025,1,8,0:0:0:0:
308,96,31145,1,8,0:0:0:0:
368,92,31265,1,0,0:0:0:0:
168,60,31385,5,2,0:1:0:0:
148,112,31505,1,0,0:0:0:0:
168,164,31625,1,2,0:1:0:0:
216,196,31745,1,0,0:0:0:0:
336,228,31865,1,0,0:0:0:0:
372,280,31985,1,0,0:0:0:0:
336,332,32105,1,0,0:0:0:0:
216,364,32225,1,2,0:0:0:0:
336,364,32345,5,8,0:0:0:0:
384,332,32465,1,0,0:0:0:0:
404,280,32585,1,0,0:0:0:0:
384,228,32705,1,0,0:0:0:0:
264,196,32825,2,0,L|260:140,1,56.25,2|0,0:0|0:0,0:0:0:0:
460,108,33065,6,0,L|236:100,1,225,2|0,0:1|0:0,0:0:0:0:
348,68,33785,1,0,0:0:0:0:
360,92,33845,1,0,0:0:0:0:
368,120,33905,1,0,0:0:0:0:
348,172,34025,1,2,0:0:0:0:
300,204,34145,1,0,0:0:0:0:
100,236,34265,6,0,L|96:292,1,56.25,8|0,0:0|0:0,0:0:0:0:
216,324,34505,1,0,0:0:0:0:
276,328,34625,1,0,0:0:0:0:
216,360,34745,1,0,0:0:0:0:
276,364,34865,1,0,0:0:0:0:
356,332,34985,2,0,L|360:276,1,56.25
160,244,35225,5,2,0:1:0:0:
172,188,35345,1,0,0:0:0:0:
208,144,35465,1,2,0:1:0:0:
260,120,35585,1,0,0:0:0:0:
140,152,35705,1,0,0:0:0:0:
104,100,35825,1,0,0:0:0:0:
140,48,35945,1,0,0:0:0:0:
260,16,36065,1,2,0:0:0:0:
140,16,36185,5,8,0:0:0:0:
80,32,36305,1,0,0:0:0:0:
44,76,36425,1,0,0:0:0:0:
32,132,36545,1,0,0:0:0:0:
44,188,36665,1,2,0:0:0:0:
80,232,36785,1,0,0:0:0:0:
268,184,36905,6,0,P|348:232|268:284,1,225,2|0,0:1|0:0,0:0:0:0:
156,252,37625,1,8,0:0:0:0:
168,308,37745,1,0,0:0:0:0:
204,352,37865,1,0,0:0:0:0:
256,376,37985,1,0,0:0:0:0:
376,344,38105,1,2,0:1:0:0:
316,340,38225,1,0,0:0:0:0:
116,308,38345,6,0,L|112:252,1,56.25,4|0,0:0|0:0,0:0:0:0:
216,220,38585,1,8,0:0:0:0:
112,188,38705,1,8,0:0:0:0:
52,184,38825,1,0,0:0:0:0:
112,188,38945,1,0,0:0:0:0:
312,52,39065,6,0,L|424:60,1,112.5,4|0,0:0|0:0,0:0:0:0:
312,92,39545,1,4,0:0:0:0:
292,144,39665,1,0,0:0:0:0:
312,196,39785,1,0,0:0:0:0:
360,228,39905,1,2,0:0:0:0:
480,260,40025,1,8,0:0:0:0:
368,260,40265,1,0,0:0:0:0:
152,264,40505,1,0,0:0:0:0:
368,292,40745,6,0,P|336:192|232:148,1,225,2|0,0:1|0:0,0:0:0:0:
344,116,41465,1,0,0:0:0:0:
380,64,41585,1,0,0:0:0:0:
344,12,41705,1,0,0:0:0:0:
128,44,41945,1,8,0:0:0:0:
240,76,42185,1,0,0:0:0:0:
120,108,42305,1,0,0:0:0:0:
240,140,42425,2,0,L|352:148,1,112.5,4|0,0:0|0:0,0:0:0:0:
136,180,42905,6,0,P|152:260|220:308,1,168.75,4|8,0:0|0:0,0:0:0:0:
320,312,43385,1,8,0:0:0:0:
104,340,43625,2,0,P|49:300|105:244,1,168.75,4|8,0:0|0:0,0:0:0:0:
205,212,44105,1,8,0:0:0:0:
305,208,44225,1,8,0:0:0:0:
205,212,44345,1,8,0:0:0:0:
420,240,44585,6,0,P|500:192|420:140,1,225,4|2,0:0|0:1,0:0:0:0:
204,108,45305,2,0,L|316:100,1,112.5,8|0,0:0|0:0,0:0:0:0:
216,68,45665,1,8,0:0:0:0:
116,36,45785,1,4,0:0:0:0:
228,132,46025,1,8,0:0:0:0:
348,136,46145,1,0,0:0:0:0:
228,168,46265,1,8,0:0:0:0:
348,172,46385,1,0,0:0:0:0:
468,204,46505,6,0,L|244:212,1,225,4|8,0:0|0:0,0:0:0:0:
460,244,47225,1,8,0:0:0:0:
244,276,47465,1,8,0:0:0:0:
460,308,47705,1,8,0:0:0:0:
352,340,47945,2,0,B|352:336|352:336|352:340|352:340|352:336|352:336|352:340|352:340|352:336|352:336|352:340|352:340|352:336,1,28.125
92,368,48665,6,0,P|16:316|92:164,1,295.312490987778,4|0,0:0|0:0,0:0:0:0:
92,196,49145,2,0,L|296:180,1,204.609379839242,8|0,0:0|0:0,0:0:0:0:
296,212,49625,2,0,P|384:164|296:16,1,314.999990386963,2|8,0:1|0:0,0:0:0:0:
184,16,50345,1,0,0:0:0:0:
400,48,50585,5,2,0:1:0:0:
288,80,50825,2,0,L|280:192,1,112.5,0|8,0:0|0:0,0:0:0:0:
496,224,51305,1,0,0:0:0:0:
500,280,51425,1,0,0:0:0:0:
504,336,51545,1,2,0:1:0:0:
392,368,51785,1,0,0:0:0:0:
176,336,52025,2,0,L|288:328,1,112.5,8|0,0:0|0:0,0:0:0:0:
232,296,52385,1,0,0:0:0:0:
112,328,52505,5,2,0:1:0:0:
92,276,52625,1,0,0:0:0:0:
112,224,52745,1,0,0:0:0:0:
160,192,52865,1,0,0:0:0:0:
280,160,52985,1,8,0:0:0:0:
316,108,53105,1,0,0:0:0:0:
280,56,53225,1,0,0:0:0:0:
160,24,53345,1,2,0:1:0:0:
280,56,53465,2,0,L|392:64,1,112.5,2|0,0:1|0:0,0:0:0:0:
176,192,53945,1,8,0:0:0:0:
496,128,54185,6,0,L|272:136,1,225,4|0,0:0|0:0,0:0:0:0:
56,168,54905,2,0,L|48:280,1,112.5,8|0,0:0|0:0,0:0:0:0:
104,284,55265,1,0,0:0:0:0:
224,316,55385,2,0,L|228:260,1,56.25,2|0,0:1|0:0,0:0:0:0:
108,228,55625,2,0,L|104:172,1,56.25,2|0,0:0|0:0,0:0:0:0:
224,140,55865,1,8,0:0:0:0:
252,88,55985,1,0,0:0:0:0:
224,36,56105,1,8,0:0:0:0:
164,24,56225,1,8,0:0:0:0:
368,4,56345,6,0,P|444:56|368:208,1,295.312490987778,4|0,0:0|0:0,0:0:0:0:
368,240,56825,2,0,L|164:224,1,204.609379839242,8|0,0:0|0:0,0:0:0:0:
164,256,57305,2,0,L|384:272,1,220.499997981262,2|8,0:1|0:0,0:0:0:0:
496,304,58025,1,0,0:0:0:0:
176,336,58265,6,0,L|288:344,2,112.5,4|0|8,0:0|0:0|0:0,0:0:0:0:
64,304,58985,1,0,0:0:0:0:
184,272,59105,2,0,L|192:160,1,112.5,2|0,0:1|0:0,0:0:0:0:
72,128,59465,1,2,0:1:0:0:
132,124,59585,1,0,0:0:0:0:
252,92,59705,1,8,0:0:0:0:
192,88,59825,1,0,0:0:0:0:
72,128,59945,2,0,L|68:72,1,56.25
188,40,60185,6,0,L|300:48,2,112.5,2|0|8,0:1|0:0|0:0,0:0:0:0:
404,80,60905,1,0,0:0:0:0:
408,136,61025,1,0,0:0:0:0:
412,192,61145,1,2,0:1:0:0:
300,224,61385,1,0,0:0:0:0:
496,256,61625,1,8,0:0:0:0:
176,224,61865,6,0,P|96:272|176:324,1,225,4|0,0:0|0:0,0:0:0:0:
348,292,62585,1,2,0:1:0:0:
336,236,62705,1,2,0:1:0:0:
300,192,62825,1,2,0:1:0:0:
248,168,62945,1,2,0:1:0:0:
128,136,63065,1,8,0:0:0:0:
248,168,63305,2,0,L|256:112,1,56.25,2|2,0:1|0:1,0:0:0:0:
136,80,63545,2,0,L|136:136,1,56.25,8|2,0:0|0:1,0:0:0:0:
16,104,63785,2,0,L|8:48,1,56.25,8|2,0:0|0:1,0:0:0:0:
224,16,64025,6,0,L|336:24,1,112.5,4|4,0:0|0:0,0:0:0:0:
224,56,64505,1,2,0:0:0:0:
220,112,64625,1,0,0:0:0:0:
216,168,64745,1,0,0:0:0:0:
432,200,64985,2,0,L|440:312,1,112.5,4|4,0:0|0:0,0:0:0:0:
328,344,65465,1,2,0:0:0:0:
388,348,65585,1,0,0:0:0:0:
448,352,65705,1,0,0:0:0:0:
232,384,65945,6,0,L|224:272,1,112.5,4|4,0:0|0:0,0:0:0:0:
336,240,66425,1,2,0:0:0:0:
340,184,66545,1,0,0:0:0:0:
344,128,66665,1,0,0:0:0:0:
128,160,66905,2,0,L|16:152,1,112.5,4|4,0:0|0:0,0:0:0:0:
128,120,67385,1,2,0:0:0:0:
68,116,67505,1,0,0:0:0:0:
8,112,67625,1,0,0:0:0:0:
224,80,67865,6,0,L|232:192,1,112.5,4|4,0:0|0:0,0:0:0:0:
120,224,68345,1,2,0:0:0:0:
60,228,68465,1,0,0:0:0:0:
120,224,68585,1,0,0:0:0:0:
336,256,68825,2,0,L|224:264,1,112.5,4|4,0:0|0:0,0:0:0:0:
336,296,69305,1,2,0:0:0:0:
396,300,69425,1,0,0:0:0:0:
336,296,69545,1,0,0:0:0:0:
120,328,69785,6,0,L|112:216,1,112.5,4|4,0:0|0:0,0:0:0:0:
224,184,70265,1,2,0:0:0:0:
284,180,70385,1,0,0:0:0:0:
344,176,70505,1,0,0:0:0:0:
128,144,70745,2,0,L|120:32,1,112.5,4|4,0:0|0:0,0:0:0:0:
232,60,71225,1,2,0:0:0:0:
352,64,71345,1,8,0:0:0:0:
232,92,71465,1,8,0:0:0:0:
352,96,71585,1,8,0:0:0:0:
472,128,71705,6,0,L|480:240,1,112.5,4|4,0:0|0:0,0:0:0:0:
368,272,72185,1,2,0:0:0:0:
308,276,72305,1,2,0:0:0:0:
188,308,72425,1,2,0:0:0:0:
248,312,72545,1,2,0:0:0:0:
368,344,72665,2,0,L|376:232,1,112.5,4|4,0:0|0:0,0:0:0:0:
264,200,73145,1,2,0:0:0:0:
204,196,73265,1,2,0:0:0:0:
324,164,73385,1,2,0:0:0:0:
384,160,73505,1,2,0:0:0:0:
264,128,73625,6,0,L|152:120,1,112.5,4|4,0:0|0:0,0:0:0:0:
264,88,74105,1,2,0:0:0:0:
204,84,74225,1,2,0:0:0:0:
84,52,74345,1,2,0:0:0:0:
24,48,74465,1,2,0:0:0:0:
144,16,74585,2,0,L|152:128,1,112.5,4|4,0:0|0:0,0:0:0:0:
40,160,75065,1,2,0:0:0:0:
100,164,75185,1,2,0:0:0:0:
220,196,75305,1,2,0:0:0:0:
280,200,75425,1,2,0:0:0:0:
160,232,75545,6,0,L|152:344,1,112.5,4|4,0:0|0:0,0:0:0:0:
264,376,76025,1,0,0:0:0:0:
384,344,76145,1,2,0:0:0:0:
420,292,76265,1,2,0:0:0:0:
384,240,76385,1,2,0:0:0:0:
264,208,76505,1,2,0:1:0:0:
480,176,76745,1,2,0:0:0:0:
380,172,76865,1,2,0:0:0:0:
480,176,76985,1,2,0:1:0:0:
160,240,77225,6,0,P|80:192|160:140,1,225,4|2,0:0|0:1,0:0:0:0:
376,108,77945,1,8,0:0:0:0:
264,172,78185,1,2,0:1:0:0:
312,140,78305,1,8,0:0:0:0:
332,88,78425,1,8,0:0:0:0:
312,36,78545,1,8,0:0:0:0:
192,5,78665,2,0,L|188:61,1,56.25,2|0,0:1|0:0,0:0:0:0:
308,92,78905,1,2,0:0:0:0:
348,96,78985,1,2,0:0:0:0:
308,92,79065,1,2,0:0:0:0:
152,124,79145,6,0,L|376:132,1,225,4|2,0:0|0:1,0:0:0:0:
160,164,79865,1,8,0:0:0:0:
48,196,80105,1,0,0:0:0:0:
44,252,80225,1,0,0:0:0:0:
40,308,80345,1,2,0:1:0:0:
256,340,80585,1,2,0:1:0:0:
40,372,80825,1,2,0:1:0:0:
256,340,81065,1,2,0:1:0:0:
40,372,81305,5,4,0:0:0:0:
32,340,82265,1,8,0:0:0:0:
24,308,82985,1,8,0:0:0:0:
248,308,84425,2,0,L|360:300,1,112.5,2|0,0:0|0:0,0:0:0:0:
232,268,84785,2,0,L|344:260,1,112.5,2|0,0:0|0:0,0:0:0:0:
472,228,85145,1,8,0:0:0:0:
480,196,86105,1,8,0:0:0:0:
488,164,86825,1,8,0:0:0:0:
200,188,87785,2,0,L|196:164,3,25,0|0|2|0,0:0|0:0|0:0|0:0,0:0:0:0:
152,128,88025,1,0,0:0:0:0:
352,96,88745,1,4,0:0:0:0:
136,64,88985,5,8,0:0:0:0:
120,96,89945,1,8,0:0:0:0:
136,128,90665,1,8,0:0:0:0:
312,272,92105,2,0,L|200:280,1,112.5,2|0,0:0|0:0,0:0:0:0:
72,312,92465,2,0,L|184:320,1,112.5,2|0,0:0|0:0,0:0:0:0:
312,352,92825,1,8,0:0:0:0:
328,320,93785,1,8,0:0:0:0:
312,288,94505,1,8,0:0:0:0:
96,288,94985,5,0,0:0:0:0:
312,288,95225,1,8,0:0:0:0:
200,320,95465,1,0,0:0:0:0:
180,268,95585,1,0,0:0:0:0:
200,216,95705,1,2,0:0:0:0:
248,184,95825,1,0,0:0:0:0:
356,216,95945,2,0,L|360:160,1,56.25,4|0,0:0|0:0,0:0:0:0:
252,128,96185,1,8,0:0:0:0:
360,96,96305,1,8,0:0:0:0:
420,92,96425,1,2,0:0:0:0:
360,96,96545,1,2,0:0:0:0:
160,64,96665,6,0,L|152:176,1,112.5,6|0,0:0|0:0,0:0:0:0:
264,208,97145,1,10,0:0:0:0:
152,240,97385,1,0,0:0:0:0:
368,240,97625,2,0,P|448:288|368:340,1,225,2|10,0:0|0:0,0:0:0:0:
152,340,98345,5,2,0:1:0:0:
148,284,98465,1,0,0:0:0:0:
144,228,98585,1,2,0:0:0:0:
256,196,98825,1,0,0:0:0:0:
40,260,99065,2,0,L|32:148,1,112.5,10|0,0:0|0:0,0:0:0:0:
92,144,99425,1,0,0:0:0:0:
212,112,99545,1,2,0:0:0:0:
272,108,99665,1,0,0:0:0:0:
212,112,99785,1,0,0:0:0:0:
428,172,100025,2,0,L|436:60,1,112.5,10|0,0:0|0:0,0:0:0:0:
220,28,100505,6,0,L|108:36,1,112.5,2|0,0:0|0:0,0:0:0:0:
220,68,100985,2,0,L|108:76,1,112.5,10|0,0:0|0:0,0:0:0:0:
324,108,101465,2,0,L|332:220,1,112.5,2|0,0:0|0:0,0:0:0:0:
220,252,101945,1,10,0:0:0:0:
436,284,102185,6,0,L|324:292,1,112.5,2|2,0:0|0:0,0:0:0:0:
452,324,102545,2,0,L|456:380,1,56.25,2|0,0:0|0:0,0:0:0:0:
240,352,102905,1,10,0:0:0:0:
368,320,103025,2,0,L|372:264,1,56.25,2|0,0:0|0:0,0:0:0:0:
292,232,103265,1,2,0:0:0:0:
232,228,103385,1,0,0:0:0:0:
292,232,103505,1,2,0:0:0:0:
172,196,103625,2,0,L|164:84,1,112.5,2|8,0:0|0:0,0:0:0:0:
264,52,103985,1,8,0:0:0:0:
164,20,104105,1,4,0:0:0:0:
380,52,104345,5,2,0:0:0:0:
268,84,104585,1,0,0:0:0:0:
380,116,104825,2,0,L|388:228,1,112.5,10|0,0:0|0:0,0:0:0:0:
172,260,105305,2,0,L|284:268,1,112.5,2|0,0:0|0:0,0:0:0:0:
396,300,105785,1,10,0:0:0:0:
180,332,106025,6,0,P|124:328|36:200,1,225
252,168,106745,1,10,0:0:0:0:
140,136,106985,1,0,0:0:0:0:
252,168,107225,1,2,0:0:0:0:
272,116,107345,1,0,0:0:0:0:
268,88,107405,1,0,0:0:0:0:
252,64,107465,1,4,0:0:0:0:
204,32,107585,1,0,0:0:0:0:
144,28,107705,1,10,0:0:0:0:
24,60,107825,1,8,0:0:0:0:
144,92,107945,1,8,0:0:0:0:
264,124,108065,1,8,0:0:0:0:
144,156,108185,6,0,L|136:268,1,112.5,8|0,0:0|0:0,0:0:0:0:
248,300,108905,1,0,0:0:0:0:
32,332,109145,2,0,L|24:220,1,112.5,8|0,0:0|0:0,0:0:0:0:
136,188,109625,1,0,0:0:0:0:
432,156,109865,6,0,L|208:148,1,225,4|2,0:0|0:0,0:0:0:0:
420,272,110585,1,8,0:0:0:0:
468,240,110705,1,0,0:0:0:0:
484,216,110765,1,0,0:0:0:0:
488,188,110825,1,0,0:0:0:0:
468,136,110945,1,8,0:0:0:0:
408,132,111065,1,8,0:0:0:0:
468,136,111185,1,8,0:0:0:0:
268,164,111305,6,0,L|264:108,1,56.25,2|0,0:0|0:0,0:0:0:0:
464,76,111545,1,8,0:0:0:0:
404,72,111665,1,8,0:0:0:0:
284,40,111785,1,8,0:0:0:0:
224,36,111905,1,0,0:0:0:0:
424,4,112025,5,2,0:1:0:0:
444,56,112145,1,0,0:0:0:0:
424,108,112265,1,2,0:1:0:0:
376,140,112385,1,0,0:0:0:0:
256,172,112505,1,0,0:0:0:0:
220,224,112625,1,0,0:0:0:0:
256,276,112745,1,0,0:0:0:0:
376,308,112865,1,2,0:0:0:0:
256,340,112985,5,8,0:0:0:0:
196,336,113105,1,0,0:0:0:0:
256,308,113225,1,0,0:0:0:0:
196,304,113345,1,0,0:0:0:0:
76,272,113465,2,0,L|72:216,1,56.25,2|0,0:0|0:0,0:0:0:0:
304,188,113705,6,0,P|384:140|304:88,1,225,2|2,0:1|0:1,0:0:0:0:
192,56,114425,1,0,0:0:0:0:
188,84,114485,1,0,0:0:0:0:
184,112,114545,1,0,0:0:0:0:
264,144,114665,2,0,L|272:200,1,56.25,2|0,0:0|0:0,0:0:0:0:
72,232,114905,5,8,0:0:0:0:
132,236,115025,1,0,0:0:0:0:
252,268,115145,2,0,L|256:212,1,56.25
196,180,115385,1,0,0:0:0:0:
136,176,115505,1,0,0:0:0:0:
76,144,115625,2,0,L|72:88,1,56.25
272,56,115865,5,2,0:1:0:0:
332,60,115985,1,0,0:0:0:0:
272,92,116105,1,2,0:1:0:0:
212,96,116225,1,0,0:0:0:0:
332,128,116345,1,0,0:0:0:0:
392,132,116465,1,0,0:0:0:0:
332,128,116585,1,0,0:0:0:0:
212,160,116705,1,2,0:0:0:0:
332,192,116825,5,8,0:0:0:0:
352,244,116945,1,0,0:0:0:0:
332,296,117065,1,0,0:1:0:0:
284,328,117185,1,0,0:0:0:0:
164,360,117305,2,0,L|160:304,1,56.25,2|0,0:0|0:0,0:0:0:0:
360,272,117545,6,0,L|136:264,1,225,2|0,0:1|0:0,0:0:0:0:
248,232,118265,1,8,0:0:0:0:
236,176,118385,1,0,0:0:0:0:
200,132,118505,1,0,0:0:0:0:
148,108,118625,1,0,0:0:0:0:
88,104,118745,1,2,0:0:0:0:
148,108,118865,1,0,0:0:0:0:
348,76,118985,6,0,L|352:132,1,56.25,4|0,0:0|0:0,0:0:0:0:
232,164,119225,1,8,0:0:0:0:
352,196,119345,1,8,0:0:0:0:
272,228,119465,2,0,L|268:284,1,56.25
468,316,119705,6,0,L|356:324,1,112.5,4|0,0:0|0:0,0:0:0:0:
244,356,120185,1,4,0:0:0:0:
196,324,120305,1,0,0:0:0:0:
176,272,120425,1,0,0:0:0:0:
196,220,120545,1,0,0:0:0:0:
316,188,120665,1,8,0:0:0:0:
428,188,120905,1,0,0:0:0:0:
212,156,121145,1,0,0:0:0:0:
428,188,121385,6,0,P|508:140|428:88,1,225,2|0,0:1|0:0,0:0:0:0:
316,56,122105,1,0,0:0:0:0:
376,52,122225,1,0,0:0:0:0:
436,48,122345,1,0,0:0:0:0:
220,16,122585,1,8,0:0:0:0:
332,80,122825,1,0,0:0:0:0:
212,84,122945,1,0,0:0:0:0:
92,88,123065,2,0,L|84:200,1,112.5,4|0,0:0|0:0,0:0:0:0:
300,232,123545,6,0,L|132:244,1,168.75,4|8,0:0|0:0,0:0:0:0:
232,276,124025,1,0,0:0:0:0:
448,308,124265,2,0,P|503:268|447:212,1,168.75,4|8,0:0|0:0,0:0:0:0:
347,180,124745,1,8,0:0:0:0:
247,176,124865,1,8,0:0:0:0:
347,180,124985,1,8,0:0:0:0:
132,116,125225,6,0,L|356:108,1,225,4|2,0:0|0:1,0:0:0:0:
140,76,125945,2,0,L|132:188,1,112.5,8|0,0:0|0:0,0:0:0:0:
252,220,126305,1,8,0:0:0:0:
132,252,126425,2,0,L|128:308,1,56.25,4|0,0:0|0:0,0:0:0:0:
208,340,126665,1,8,0:0:0:0:
328,308,126785,1,0,0:0:0:0:
208,276,126905,1,8,0:0:0:0:
88,244,127025,1,0,0:0:0:0:
208,212,127145,6,0,P|152:208|64:80,1,225,4|8,0:0|0:0,0:0:0:0:
280,48,127865,1,8,0:0:0:0:
64,16,128105,1,8,0:0:0:0:
280,48,128345,1,2,0:1:0:0:
328,80,128465,1,2,0:0:0:0:
348,132,128585,1,2,0:0:0:0:
328,184,128705,1,2,0:0:0:0:
208,216,128825,2,0,L|204:272,1,56.25,10|2,0:0|0:0,0:0:0:0:
84,240,129065,2,0,L|80:296,1,56.25,2|2,0:0|0:0,0:0:0:0:
300,328,129305,6,0,P|416:296|300:152,1,379.687488412857,4|0,0:0|0:0,0:0:0:0:
300,120,129785,2,0,P|416:152|300:296,1,379.687488412857,8|0,0:0|0:0,0:0:0:0:
300,328,130265,2,0,P|428:320|300:204,1,404.999987640381,2|8,0:1|0:0,0:0:0:0:
412,236,130985,1,0,0:0:0:0:
196,204,131225,5,2,0:1:0:0:
308,172,131465,2,0,L|316:60,1,112.5,0|8,0:0|0:0,0:0:0:0:
100,28,131945,1,0,0:0:0:0:
160,32,132065,1,0,0:0:0:0:
220,36,132185,1,2,0:1:0:0:
332,68,132425,1,0,0:0:0:0:
116,100,132665,2,0,L|108:212,1,112.5,8|0,0:0|0:0,0:0:0:0:
168,216,133025,1,0,0:0:0:0:
288,184,133145,5,2,0:1:0:0:
308,236,133265,1,0,0:0:0:0:
288,288,133385,1,0,0:0:0:0:
240,320,133505,1,0,0:0:0:0:
120,288,133625,1,8,0:0:0:0:
84,236,133745,1,0,0:0:0:0:
120,184,133865,1,0,0:0:0:0:
240,152,133985,1,2,0:1:0:0:
120,120,134105,2,0,L|232:112,1,112.5,2|0,0:1|0:0,0:0:0:0:
16,52,134585,1,8,0:0:0:0:
336,80,134825,6,0,P|416:128|336:180,1,225,4|0,0:0|0:0,0:0:0:0:
120,212,135545,2,0,L|232:220,1,112.5,8|0,0:0|0:0,0:0:0:0:
292,224,135905,1,0,0:0:0:0:
172,256,136025,2,0,L|164:312,1,56.25,2|0,0:1|0:0,0:0:0:0:
284,344,136265,2,0,L|284:287,1,56.25,2|0,0:0|0:0,0:0:0:0:
404,316,136505,1,8,0:0:0:0:
388,260,136625,1,0,0:0:0:0:
348,216,136745,1,8,0:0:0:0:
288,192,136865,1,8,0:0:0:0:
48,244,136985,6,0,P|52:192|304:48,1,379.687488412857,4|0,0:0|0:0,0:0:0:0:
304,80,137465,2,0,P|300:132|48:276,1,379.687488412857,8|0,0:0|0:0,0:0:0:0:
48,308,137945,2,0,P|176:300|48:184,1,404.999987640381,2|8,0:1|0:0,0:0:0:0:
160,152,138665,1,0,0:0:0:0:
480,184,138905,6,0,L|488:72,1,112.5,4|0,0:0|0:0,0:0:0:0:
376,40,139385,1,8,0:0:0:0:
488,8,139625,1,0,0:0:0:0:
368,40,139745,2,0,L|360:152,1,112.5,2|0,0:1|0:0,0:0:0:0:
480,184,140105,2,0,L|484:240,1,56.25,2|0,0:1|0:0,0:0:0:0:
364,272,140345,1,8,0:0:0:0:
304,276,140465,1,0,0:0:0:0:
424,308,140585,1,0,0:0:0:0:
364,312,140705,1,0,0:0:0:0:
244,344,140825,6,0,L|236:232,1,112.5,2|0,0:1|0:0,0:0:0:0:
348,200,141305,1,8,0:0:0:0:
132,168,141545,1,0,0:0:0:0:
192,164,141665,1,0,0:0:0:0:
252,160,141785,2,0,L|260:48,1,112.5,2|0,0:1|0:0,0:0:0:0:
44,16,142265,1,8,0:0:0:0:
364,80,142505,6,0,L|140:96,1,225,4|0,0:0|0:0,0:0:0:0:
356,160,143225,1,2,0:1:0:0:
408,184,143345,1,2,0:1:0:0:
444,228,143465,1,2,0:1:0:0:
456,284,143585,1,2,0:1:0:0:
336,316,143705,2,0,L|332:260,1,56.25,8|2,0:0|0:1,0:0:0:0:
452,228,143945,1,4,0:0:0:0:
340,228,144185,1,2,0:1:0:0:
124,196,144425,1,2,0:1:0:0:
444,164,144665,5,4,0:0:0:0:
28,336,152345,6,0,L|20:224,1,112.5,8|0,0:0|0:0,0:0:0:0:
80,220,152705,1,0,0:0:0:0:
200,252,152825,2,0,L|208:140,1,112.5,8|0,0:0|0:0,0:0:0:0:
148,136,153185,1,0,0:0:0:0:
268,168,153305,2,0,L|276:56,1,112.5,8|0,0:0|0:0,0:0:0:0:
216,52,153665,1,0,0:0:0:0:
96,84,153785,1,8,0:0:0:0:
36,80,153905,1,0,0:0:0:0:
96,84,154025,1,2,0:0:0:0:
312,20,154265,5,8,0:0:0:0:
332,72,154385,1,0,0:0:0:0:
312,124,154505,1,0,0:0:0:0:
264,156,154625,1,0,0:0:0:0:
144,188,154745,1,8,0:0:0:0:
108,240,154865,1,0,0:0:0:0:
144,292,154985,1,2,0:0:0:0:
264,324,155105,1,2,0:0:0:0:
144,356,155225,6,0,L|136:300,1,56.25,8|2,0:0|0:0,0:0:0:0:
256,272,155465,2,0,L|252:216,1,56.25,2|2,0:0|0:0,0:0:0:0:
372,184,155705,2,0,L|376:128,1,56.25,8|2,0:0|0:0,0:0:0:0:
496,96,155945,2,0,L|504:40,1,56.25,2|2,0:0|0:0,0:0:0:0:
304,8,156185,6,0,P|224:56|304:108,1,225,4|8,0:0|0:0,0:0:0:0:
352,140,156785,1,0,0:0:0:0:
372,192,156905,1,0,0:0:0:0:
352,244,157025,1,0,0:0:0:0:
232,276,157145,1,8,0:0:0:0:
292,280,157265,1,0,0:0:0:0:
412,312,157385,1,0,0:0:0:0:
352,316,157505,1,0,0:0:0:0:
232,348,157625,1,10,0:0:0:0:
192,352,157705,1,0,0:0:0:0:
232,348,157785,1,0,0:0:0:0:
388,384,157865,6,0,P|468:336|388:284,1,225,2|2,0:0|0:0,0:0:0:0:
172,252,158585,2,0,L|168:196,1,56.25,8|0,0:0|0:0,0:0:0:0:
248,164,158825,1,0,0:0:0:0:
288,160,158905,1,0,0:0:0:0:
248,164,158985,1,0,0:0:0:0:
92,132,159065,1,8,0:0:0:0:
204,100,159305,2,0,L|208:44,1,56.25,2|2,0:0|0:0,0:0:0:0:
148,16,159545,1,8,0:0:0:0:
464,384,159785,6,0,L|240:376,1,225,4|0,0:0|0:0,0:0:0:0:
412,28,160505,2,0,L|420:140,1,112.5,8|0,0:0|0:0,0:0:0:0:
204,172,160985,1,8,0:0:0:0:
264,176,161105,1,0,0:0:0:0:
384,208,161225,1,8,0:0:0:0:
444,212,161345,1,0,0:0:0:0:
384,208,161465,1,8,0:0:0:0:
84,240,161705,6,0,P|4:288|84:340,1,225,4|0,0:0|0:0,0:0:0:0:
300,372,162425,1,8,0:0:0:0:
360,368,162545,1,0,0:3:0:0:
372,340,162625,1,0,0:3:0:0:
360,312,162705,1,0,0:3:0:0:
328,288,162785,1,8,0:0:0:0:
208,256,162905,2,0,L|96:248,1,112.5,8|0,0:0|0:0,0:0:0:0:
216,216,163265,1,8,0:0:0:0:
336,184,163385,2,0,L|340:128,1,56.25,8|8,0:0|0:0,0:0:0:0:
220,96,163625,2,0,L|216:40,1,56.25,8|8,0:0|0:0,0:0:0:0:
336,9,163865,6,0,B|336:5|336:5|336:9|336:9|336:5|336:5|336:9|336:9|336:5|336:5|336:9|336:9|336:5|336:5|336:9|336:9|336:5|336:5|336:9|336:9|336:5|336:5|336:9|336:9|336:5|336:5|336:9|336:9|336:5|336:5|336:9|336:9|336:5|336:5|336:9|336:9|336:5|336:5|336:9|336:9,1,78.75,8|2,0:0|0:0,0:0:0:0:
36,40,165785,6,0,L|148:48,1,112.5,4|0,0:0|0:0,0:0:0:0:
476,80,166265,2,0,L|364:88,1,112.5,4|0,0:0|0:0,0:0:0:0:
148,120,166745,1,8,0:0:0:0:
364,152,166985,1,0,0:0:0:0:
148,184,167225,1,0,0:0:0:0:
88,188,167345,1,0,0:0:0:0:
288,220,167465,6,0,P|368:268|288:320,1,225,4|0,0:0|0:0,0:0:0:0:
176,352,168185,1,8,0:0:0:0:
392,384,168425,1,0,0:0:0:0:
396,328,168545,1,0,0:0:0:0:
400,272,168665,1,2,0:1:0:0:
288,240,168905,1,0,0:0:0:0:
72,208,169145,1,8,0:0:0:0:
376,176,169385,6,0,L|152:160,1,225,4|0,0:0|0:0,0:0:0:0:
360,64,170105,2,0,L|472:56,1,112.5,8|0,0:0|0:0,0:0:0:0:
412,24,170465,1,0,0:0:0:0:
292,52,170585,2,0,L|288:108,1,56.25,2|0,0:1|0:0,0:0:0:0:
168,140,170825,2,0,L|164:196,1,56.25,2|0,0:0|0:0,0:0:0:0:
284,228,171065,1,8,0:0:0:0:
344,232,171185,1,0,0:0:0:0:
284,228,171305,1,8,0:0:0:0:
224,232,171425,1,8,0:0:0:0:
488,292,171545,6,0,P|484:240|232:96,1,379.687488412857,4|0,0:0|0:0,0:0:0:0:
232,128,172025,2,0,P|348:160|232:304,1,379.687488412857,8|0,0:0|0:0,0:0:0:0:
232,336,172505,2,0,P|411:305|488:116,1,404.999987640381,2|8,0:1|0:0,0:0:0:0:
376,84,173225,1,0,0:0:0:0:
56,52,173465,6,0,L|48:164,1,112.5,4|0,0:0|0:0,0:0:0:0:
160,196,173945,1,8,0:0:0:0:
272,228,174185,1,0,0:0:0:0:
152,260,174305,2,0,L|264:268,1,112.5,2|0,0:1|0:0,0:0:0:0:
384,300,174665,2,0,L|388:244,1,56.25,2|0,0:1|0:0,0:0:0:0:
268,212,174905,1,8,0:0:0:0:
208,208,175025,1,0,0:0:0:0:
328,176,175145,1,0,0:0:0:0:
388,172,175265,1,0,0:0:0:0:
268,140,175385,6,0,L|156:132,2,112.5,2|0|8,0:1|0:0|0:0,0:0:0:0:
52,172,176105,1,0,0:0:0:0:
48,116,176225,1,0,0:0:0:0:
44,60,176345,2,0,L|156:52,1,112.5,2|0,0:1|0:0,0:0:0:0:
364,20,176825,1,8,0:0:0:0:
60,20,177065,6,0,P|148:148|204:152,1,225,4|0,0:0|0:0,0:0:0:0:
264,156,177665,1,0,0:0:0:0:
384,188,177785,1,8,0:0:0:0:
440,216,177905,1,0,0:0:0:0:
464,264,178025,1,0,0:0:0:0:
344,296,178145,1,2,0:1:0:0:
224,356,178265,6,0,L|112:348,1,112.5,2|2,0:1|0:1,0:0:0:0:
104,292,178625,1,0,0:0:0:0:
224,260,178745,2,0,L|224:204,1,56.25,8|0,0:0|0:0,0:0:0:0:
344,172,178985,2,0,L|352:116,1,56.25,8|0,0:0|0:0,0:0:0:0:
140,80,179225,6,0,P|24:112|140:256,1,379.687488412857,4|0,0:0|0:0,0:0:0:0:
140,288,179705,2,0,P|24:256|140:112,1,379.687488412857,8|0,0:0|0:0,0:0:0:0:
140,80,180185,2,0,L|496:88,1,355.500008679199,2|8,0:1|0:0,0:0:0:0:
384,120,180905,1,0,0:0:0:0:
168,152,181145,6,0,L|160:264,1,112.5,2|0,0:1|0:0,0:0:0:0:
272,296,181625,1,8,0:0:0:0:
56,328,181865,1,0,0:0:0:0:
116,332,181985,1,0,0:0:0:0:
176,336,182105,1,2,0:1:0:0:
392,368,182345,2,0,L|280:376,2,112.5,0|8|0,0:0|0:0|0:0,0:0:0:0:
176,336,183065,5,2,0:1:0:0:
188,280,183185,1,0,0:0:0:0:
224,236,183305,1,0,0:0:0:0:
276,212,183425,1,0,0:0:0:0:
156,180,183545,1,8,0:0:0:0:
120,128,183665,1,0,0:0:0:0:
156,76,183785,1,0,0:0:0:0:
276,44,183905,6,0,L|164:36,1,112.5,2|0,0:1|0:0,0:0:0:0:
44,68,184265,2,0,L|36:124,1,56.25,2|0,0:1|0:0,0:0:0:0:
156,156,184505,1,8,0:0:0:0:
96,160,184625,1,0,0:0:0:0:
276,244,184745,6,0,P|356:292|276:344,1,225,4|0,0:0|0:0,0:0:0:0:
492,312,185465,2,0,L|500:200,1,112.5,8|0,0:0|0:0,0:0:0:0:
440,196,185825,1,0,0:0:0:0:
320,164,185945,5,2,0:1:0:0:
260,160,186065,1,0,0:0:0:0:
320,164,186185,1,2,0:0:0:0:
260,160,186305,1,0,0:0:0:0:
140,128,186425,1,8,0:0:0:0:
200,124,186545,1,0,0:0:0:0:
140,128,186665,1,8,0:0:0:0:
80,124,186785,1,8,0:0:0:0:
292,40,186905,6,0,P|408:72|292:216,1,379.687488412857,4|0,0:0|0:0,0:0:0:0:
292,248,187385,2,0,P|116:220|36:52,1,379.687488412857,8|0,0:0|0:0,0:0:0:0:
36,20,187865,2,0,P|164:28|36:144,1,404.999987640381,2|8,0:1|0:0,0:0:0:0:
192,112,188585,1,0,0:0:0:0:
496,92,188825,6,0,L|504:204,1,112.5,4|0,0:0|0:0,0:0:0:0:
444,208,189185,1,0,0:0:0:0:
244,240,189305,2,0,L|240:352,1,112.5,4|0,0:0|0:0,0:0:0:0:
440,280,189665,1,4,0:0:0:0:
380,284,189785,1,2,0:1:0:0:
160,316,190025,6,0,L|156:260,1,56.25
276,228,190265,1,8,0:0:0:0:
336,224,190385,1,0,0:0:0:0:
216,192,190505,1,0,0:0:0:0:
156,188,190625,1,0,0:0:0:0:
276,156,190745,5,2,0:1:0:0:
296,104,190865,1,0,0:0:0:0:
276,52,190985,1,0,0:0:0:0:
228,20,191105,1,0,0:0:0:0:
108,52,191225,1,8,0:0:0:0:
48,56,191345,1,0,0:0:0:0:
108,52,191465,1,0,0:0:0:0:
228,84,191585,6,0,L|236:196,1,112.5,2|0,0:1|0:0,0:0:0:0:
356,228,191945,1,2,0:1:0:0:
416,232,192065,1,0,0:0:0:0:
296,264,192185,1,8,0:0:0:0:
236,268,192305,1,0,0:0:0:0:
420,300,192425,6,0,P|500:252|420:200,1,225,4|0,0:0|0:0,0:0:0:0:
204,232,193145,1,2,0:1:0:0:
184,180,193265,1,2,0:1:0:0:
204,128,193385,1,2,0:1:0:0:
252,96,193505,1,2,0:1:0:0:
372,64,193625,1,8,0:0:0:0:
260,28,193865,1,2,0:1:0:0:
200,32,193985,1,2,0:1:0:0:
80,64,194105,1,8,0:0:0:0:
140,68,194225,1,2,0:1:0:0:
260,100,194345,1,8,0:0:0:0:
320,104,194465,1,2,0:1:0:0:
128,132,194585,6,0,L|16:140,1,112.5,4|4,0:0|0:0,0:0:0:0:
128,172,195065,1,2,0:0:0:0:
188,176,195185,1,0,0:0:0:0:
128,172,195305,1,0,0:0:0:0:
344,208,195545,2,0,L|456:216,1,112.5,4|4,0:0|0:0,0:0:0:0:
344,248,196025,1,2,0:0:0:0:
284,252,196145,1,0,0:0:0:0:
344,248,196265,1,0,0:0:0:0:
128,284,196505,6,0,L|120:172,1,112.5,4|4,0:0|0:0,0:0:0:0:
232,140,196985,1,2,0:0:0:0:
172,136,197105,1,0,0:0:0:0:
112,132,197225,1,0,0:0:0:0:
328,164,197465,2,0,L|336:52,1,112.5,4|4,0:0|0:0,0:0:0:0:
224,20,197945,1,2,0:0:0:0:
284,16,198065,1,0,0:0:0:0:
224,20,198185,1,0,0:0:0:0:
440,84,198425,6,0,L|328:92,1,112.5,4|4,0:0|0:0,0:0:0:0:
440,124,198905,1,2,0:0:0:0:
380,128,199025,1,0,0:0:0:0:
320,132,199145,1,0,0:0:0:0:
104,160,199385,2,0,L|216:168,1,112.5,4|4,0:0|0:0,0:0:0:0:
104,200,199865,1,2,0:0:0:0:
164,204,199985,1,0,0:0:0:0:
224,208,200105,1,0,0:0:0:0:
440,180,200345,6,0,L|448:292,1,112.5,4|4,0:0|0:0,0:0:0:0:
336,324,200825,1,2,0:0:0:0:
396,328,200945,1,0,0:0:0:0:
336,324,201065,1,0,0:0:0:0:
120,360,201305,2,0,L|112:248,1,112.5,4|4,0:0|0:0,0:0:0:0:
224,216,201785,1,2,0:0:0:0:
104,184,201905,1,8,0:0:0:0:
224,152,202025,1,8,0:0:0:0:
344,120,202145,1,8,0:0:0:0:
224,92,202265,6,0,L|336:84,2,112.5,4|0|2,0:0|0:0|0:0,0:0:0:0:
440,52,202985,2,0,L|448:276,1,225
336,308,203705,1,2,0:0:0:0:
120,340,203945,6,0,L|344:348,1,225
232,384,204665,1,2,0:0:0:0:
448,316,204905,2,0,L|224:308,1,225
336,276,205625,1,2,0:0:0:0:
120,340,205865,5,0,0:0:0:0:
256,192,206105,12,8,209705,0:0:0:0:
