osu file format v14

[General]
AudioFilename: audio.mp3
AudioLeadIn: 0
PreviewTime: 47705
Countdown: 0
SampleSet: Soft
StackLeniency: 1
Mode: 0
LetterboxInBreaks: 0
WidescreenStoryboard: 1

[Editor]
DistanceSpacing: 0.6
BeatDivisor: 4
GridSize: 4
TimelineZoom: 2.6

[Metadata]
Title:Amy
TitleUnicode:エイミー
Artist:Yorushika
ArtistUnicode:ヨルシカ
Creator:Ryuusei Aika
Version:Six-mat Room, Oscar Wilde and You
Source:
Tags:Rein_Liya Rin_Sa Lunala CoLouRed GlazeE Deca ナブナ nbuna n-buna スイ suis エルマ elma japanese novelty female vocal
BeatmapID:2190855
BeatmapSetID:1048140

[Difficulty]
HPDrainRate:5.8
CircleSize:4
OverallDifficulty:7.2
ApproachRate:8.2
SliderMultiplier:1.8
SliderTickRate:1

[Events]
//Background and Video events
0,0,"BG.jpg",0,0
//Break Periods
2,144865,150905
//Storyboard Layer 0 (Background)
//Storyboard Layer 1 (Fail)
//Storyboard Layer 2 (Pass)
//Storyboard Layer 3 (Foreground)
//Storyboard Layer 4 (Overlay)
//Storyboard Sound Samples

[TimingPoints]
670,495.867768595041,4,2,1,40,1,0
670,-166.666666666667,4,2,1,40,0,0
1661,476.190476190476,4,2,1,40,1,0
4518,480,4,2,1,40,1,0
9318,495.867768595041,4,2,1,40,1,0
12188,487.80487804878,4,2,1,40,1,0
14147,472.44094488189,4,2,1,40,1,0
14147,-166.666666666667,4,2,1,40,0,0
16025,480,4,2,1,25,1,0
16025,-166.666666666667,4,2,1,25,0,0
29225,-100,4,2,1,30,0,0
29945,-100,4,2,1,35,0,0
31385,-125,4,2,1,40,0,0
39065,-125,4,2,1,35,0,0
40625,-125,4,2,1,40,0,0
40745,-125,4,2,1,35,0,0
40985,-125,4,2,1,40,0,0
41225,-125,4,2,1,35,0,0
42785,-125,4,2,1,40,0,0
42905,-111.111111111111,4,2,1,40,0,0
44585,-100,4,2,1,50,0,0
47945,-166.666666666667,4,2,1,50,0,0
48425,-166.666666666667,4,2,1,5,0,0
48665,-71.4285714285714,4,2,1,60,0,0
51785,-83.3333333333333,4,2,1,60,0,0
52985,-83.3333333333333,4,2,1,60,0,0
55385,-83.3333333333333,4,2,1,45,0,0
56345,-71.4285714285714,4,2,1,60,0,0
59465,-83.3333333333333,4,2,1,60,0,0
64025,-90.9090909090909,4,2,1,50,0,0
64505,-111.111111111111,4,2,1,50,0,0
64985,-90.9090909090909,4,2,1,50,0,0
65465,-111.111111111111,4,2,1,50,0,0
65945,-90.9090909090909,4,2,1,50,0,0
66425,-111.111111111111,4,2,1,50,0,0
66905,-90.9090909090909,4,2,1,50,0,0
67385,-111.111111111111,4,2,1,50,0,0
67865,-90.9090909090909,4,2,1,50,0,0
68345,-111.111111111111,4,2,1,50,0,0
68825,-90.9090909090909,4,2,1,50,0,0
69305,-111.111111111111,4,2,1,50,0,0
69785,-90.9090909090909,4,2,1,50,0,0
70265,-111.111111111111,4,2,1,50,0,0
70745,-90.9090909090909,4,2,1,50,0,0
71225,-111.111111111111,4,2,1,50,0,0
71705,-83.3333333333333,4,2,1,60,0,0
81305,-166.666666666667,4,2,1,25,0,0
82265,-166.666666666667,4,2,1,30,0,0
96184,-166.666666666667,4,2,1,35,0,0
96665,-125,4,2,1,35,0,0
108185,-200,4,2,1,25,0,0
109865,-142.857142857143,4,2,1,35,0,0
112025,-125,4,2,1,40,0,0
112625,-125,4,3,0,35,0,0
112865,-125,4,2,1,40,0,0
116585,-125,4,3,0,35,0,0
116825,-125,4,2,1,40,0,0
120305,-125,4,3,0,35,0,0
120665,-125,4,2,1,40,0,0
123545,-111.111111111111,4,2,1,40,0,0
124985,-111.111111111111,4,3,0,40,0,0
125225,-100,4,2,1,40,0,0
129185,-100,4,2,1,5,0,0
129305,-71.4285714285714,4,2,1,60,0,0
132305,-71.4285714285714,4,2,1,5,0,0
132425,-83.3333333333333,4,2,1,60,0,0
136025,-83.3333333333333,4,2,1,45,0,0
136985,-71.4285714285714,4,2,1,60,0,0
140105,-83.3333333333333,4,2,1,60,0,0
144665,-166.666666666667,4,2,1,30,0,0
152345,-142.857142857143,4,2,1,35,0,0
152824,-142.857142857143,4,3,0,35,0,0
154025,-142.857142857143,4,2,1,35,0,0
154505,-125,4,2,1,35,0,0
154745,-125,4,2,1,32,0,0
154985,-125,4,2,1,27,0,0
155225,-125,4,2,1,33,0,0
155705,-125,4,2,1,35,0,0
155945,-125,4,2,1,37,0,0
156185,-111.111111111111,4,2,1,40,0,0
156664,-111.111111111111,4,2,1,33,0,0
157145,-111.111111111111,4,2,1,35,0,0
157625,-55.5555555555555,4,2,1,35,0,0
158105,-111.111111111111,4,2,1,50,0,0
161705,-100,4,2,1,50,0,0
165785,-66.6666666666667,4,2,1,60,0,0
166745,-66.6666666666667,4,2,1,90,0,0
166985,-111.111111111111,4,2,1,45,0,0
167045,-111.111111111111,4,2,1,5,0,0
167225,-111.111111111111,4,2,1,45,0,0
167284,-111.111111111111,4,2,1,5,0,0
167465,-83.3333333333333,4,2,1,60,0,0
170585,-83.3333333333333,4,2,1,45,0,0
171545,-71.4285714285714,4,2,1,60,0,0
175385,-83.3333333333333,4,2,1,60,0,0
179225,-71.4285714285714,4,2,1,60,0,0
182345,-83.3333333333333,4,2,1,60,0,0
185945,-83.3333333333333,4,2,1,45,0,0
186905,-71.4285714285714,4,2,1,60,0,0
190745,-83.3333333333333,4,2,1,60,0,0
194585,-90.9090909090909,4,2,1,50,0,0
195065,-111.111111111111,4,2,1,50,0,0
195545,-90.9090909090909,4,2,1,50,0,0
196025,-111.111111111111,4,2,1,50,0,0
196505,-90.9090909090909,4,2,1,50,0,0
196985,-111.111111111111,4,2,1,50,0,0
197465,-90.9090909090909,4,2,1,50,0,0
197945,-111.111111111111,4,2,1,50,0,0
198425,-90.9090909090909,4,2,1,50,0,0
198905,-111.111111111111,4,2,1,50,0,0
199385,-90.9090909090909,4,2,1,50,0,0
199865,-111.111111111111,4,2,1,50,0,0
200345,-90.9090909090909,4,2,1,50,0,0
200825,-111.111111111111,4,2,1,50,0,0
201305,-90.9090909090909,4,2,1,50,0,0
201785,-111.111111111111,4,2,1,50,0,0
202265,-166.666666666666,4,2,1,40,0,0
205865,-333.333333333331,4,2,1,40,0,0
209465,-333.333333333331,4,2,1,20,0,0

[Colours]
Combo1 : 204,141,130
Combo2 : 108,163,181
Combo3 : 216,184,118
Combo4 : 150,141,186

[HitObjects]
500,180,670,5,0,0:0:0:0:
508,188,1661,1,0,0:0:0:0:
508,188,2375,1,0,0:0:0:0:
512,192,4518,1,0,0:0:0:0:
508,188,5478,1,0,0:0:0:0:
504,184,6198,1,0,0:0:0:0:
258,0,7638,5,0,0:0:0:0:
258,0,7878,1,2,0:0:0:0:
8,184,8358,5,0,0:0:0:0:
4,188,9318,1,0,0:0:0:0:
0,192,10061,1,0,0:0:0:0:
0,192,12188,1,0,0:0:0:0:
4,188,13163,1,0,0:0:0:0:
8,184,13895,1,0,0:0:0:0:
256,384,15328,5,2,0:0:0:0:
256,384,15564,2,0,L|262:324,1,53.9999983520508,2|0,0:3|0:0,0:0:0:0:
295,257,16025,6,0,P|261:285|180:283,3,107.999996704102,0|0|0|0,3:0|3:0|3:0|3:0,0:0:0:0:
131,254,17705,1,2,0:0:0:0:
131,254,18185,2,0,L|137:175,1,53.9999983520508,0|0,0:0|3:0,0:0:0:0:
178,137,18665,1,0,0:0:0:0:
124,80,18905,2,0,L|58:88,1,53.9999983520508,0|0,3:0|0:0,0:0:0:0:
66,82,19265,1,0,0:0:0:0:
62,78,19385,2,0,L|115:71,1,53.9999983520508,0|2,3:0|0:3,0:0:0:0:
193,46,19865,6,0,P|190:19|192:-8,2,53.9999983520508,0|0|0,3:0|0:0|3:0,0:0:0:0:
250,108,20585,1,0,0:0:0:0:
250,108,20825,2,0,L|320:102,1,53.9999983520508,0|0,3:0|0:0,0:0:0:0:
371,60,21305,2,0,L|441:66,1,53.9999983520508,0|0,3:0|0:0,0:0:0:0:
428,68,21785,6,0,P|434:100|426:146,1,53.9999983520508,0|0,3:0|0:0,0:0:0:0:
389,184,22265,2,0,P|399:214|429:250,1,53.9999983520508,0|0,3:0|0:0,0:0:0:0:
411,232,22625,1,0,0:0:0:0:
411,232,22745,1,0,3:0:0:0:
483,284,22985,2,0,L|358:306,1,107.999996704102,0|2,0:0|0:3,0:0:0:0:
314,354,23705,1,0,3:0:0:0:
268,288,23945,6,0,L|277:218,1,53.9999983520508,0|0,0:0|3:0,0:0:0:0:
284,154,24425,1,0,0:0:0:0:
212,186,24665,1,0,3:0:0:0:
212,186,24905,1,0,0:0:0:0:
135,213,25145,1,0,3:0:0:0:
135,213,25265,1,0,0:0:0:0:
135,213,25385,2,0,L|121:320,1,107.999996704102,2|0,0:0|0:0,0:0:0:0:
44,292,26105,1,0,3:0:0:0:
8,219,26345,6,0,P|5:169|35:112,1,107.999996704102,0|0,0:0|0:0,0:0:0:0:
102,83,27065,1,0,3:0:0:0:
73,8,27305,1,0,0:0:0:0:
69,4,27425,1,0,0:0:0:0:
65,0,27545,2,0,L|-4:5,2,53.9999983520508,0|0|0,3:0|0:0|3:0,0:0:0:0:
142,23,28265,1,0,0:0:0:0:
219,46,28505,2,0,P|245:48|272:46,1,53.9999983520508,0|0,3:0|0:0,0:0:0:0:
277,42,28985,1,0,3:0:0:0:
411,22,29225,6,0,P|336:30|316:140,1,180,4|0,3:2|3:0,0:0:0:0:
465,151,29945,2,0,P|423:146|361:177,1,90,12|0,0:0|0:0,0:0:0:0:
354,188,30305,1,8,0:0:0:0:
345,218,30425,1,8,0:0:0:0:
350,248,30545,1,8,0:0:0:0:
367,268,30665,1,8,0:0:0:0:
371,272,30905,5,8,0:3:0:0:
405,262,31025,1,8,3:0:0:0:
434,273,31145,1,0,3:0:0:0:
448,290,31265,1,0,0:0:0:0:
453,307,31385,6,0,L|449:359,2,36,0|0|0,3:0|0:0|3:0,0:0:0:0:
378,345,31745,1,0,0:0:0:0:
374,349,31865,2,0,L|319:355,1,36,2|0,0:0|0:0,0:0:0:0:
263,362,32105,2,0,L|259:310,2,36,0|0|8,0:0|0:0|0:0,0:0:0:0:
188,324,32465,1,0,0:0:0:0:
184,320,32585,2,0,L|129:314,1,36,0|0,0:0|0:0,0:0:0:0:
77,341,32825,1,0,0:0:0:0:
56,352,32945,1,0,0:0:0:0:
35,363,33065,2,0,L|53:209,1,144,0|0,3:0|0:0,0:0:0:0:
0,109,33785,5,0,0:0:0:0:
1,131,33905,1,0,0:0:0:0:
2,153,34025,1,0,3:0:0:0:
29,143,34145,1,0,0:0:0:0:
57,145,34265,1,8,0:0:0:0:
37,41,34505,2,0,P|76:46|114:64,1,72,0|0,0:0|0:0,0:0:0:0:
106,59,34985,2,0,L|155:53,1,36,0|0,0:0|0:0,0:0:0:0:
212,23,35225,6,0,L|215:58,1,36,0|0,3:0|0:0,0:0:0:0:
205,135,35465,1,0,3:0:0:0:
205,135,35585,2,0,L|272:127,1,36,0|0,0:0|0:0,0:0:0:0:
317,142,35825,1,0,0:0:0:0:
317,142,35945,2,0,L|310:74,1,36,0|0,0:0|0:0,0:0:0:0:
291,33,36185,1,8,0:0:0:0:
316,24,36305,1,0,0:0:0:0:
343,22,36425,1,0,0:0:0:0:
369,28,36545,1,0,0:0:0:0:
393,41,36665,1,0,0:0:0:0:
512,83,36905,6,0,P|450:101|441:172,1,144,0|0,3:0|0:0,0:0:0:0:
508,275,37625,1,8,0:0:0:0:
495,311,37745,1,0,0:0:0:0:
482,348,37865,1,0,0:0:0:0:
460,297,37985,1,0,0:0:0:0:
438,246,38105,1,0,3:0:0:0:
425,282,38225,1,0,0:0:0:0:
412,319,38345,1,2,3:0:0:0:
335,246,38585,1,8,0:0:0:0:
335,246,38705,1,8,0:0:0:0:
335,246,38825,2,0,L|344:290,1,36,0|0,0:0|0:0,0:0:0:0:
408,315,39065,6,0,L|261:328,1,144,4|0,3:2|0:0,0:0:0:0:
246,324,39665,1,8,0:0:0:0:
227,312,39785,1,0,3:0:0:0:
216,289,39905,1,0,3:0:0:0:
220,260,40025,1,8,0:0:0:0:
269,199,40265,1,0,0:0:0:0:
145,225,40505,1,0,3:0:0:0:
118,222,40625,1,0,0:0:0:0:
97,205,40745,6,0,L|106:113,1,72,0|0,3:0|0:0,0:0:0:0:
108,129,41225,1,0,3:0:0:0:
21,190,41465,1,0,0:0:0:0:
48,66,41705,2,0,P|72:39|106:17,1,72,0|8,3:0|0:0,0:0:0:0:
106,16,42185,2,0,L|158:20,1,36,0|8,0:0|0:0,0:0:0:0:
235,79,42425,2,0,P|286:86|348:59,1,108,2|0,0:3|0:0,0:0:0:0:
186,142,42905,6,0,P|188:184|180:222,1,80.9999975280763,4|0,3:2|0:0,0:0:0:0:
174,241,43265,1,8,0:0:0:0:
174,241,43385,1,8,0:0:0:0:
268,166,43625,6,0,P|290:201|302:238,1,80.9999975280763,4|0,3:2|0:0,0:0:0:0:
290,267,43985,1,8,2:0:0:0:
266,289,44105,1,8,2:0:0:0:
243,297,44225,1,8,0:3:0:0:
239,293,44345,1,8,0:3:0:0:
377,384,44585,6,0,P|371:291|436:222,1,180,4|0,3:2|3:0,0:0:0:0:
371,136,45305,2,0,P|420:133|467:158,1,90,8|0,0:0|0:0,0:0:0:0:
479,172,45665,1,8,0:0:0:0:
479,172,45785,1,2,3:0:0:0:
429,31,46025,1,8,0:3:0:0:
400,48,46145,1,0,3:0:0:0:
367,57,46265,1,8,0:3:0:0:
334,55,46385,1,0,3:0:0:0:
302,43,46505,6,0,B|235:16|206:93|105:52,1,180,4|0,3:2|0:0,0:0:0:0:
63,21,47225,1,8,0:0:0:0:
178,139,47465,1,8,0:0:0:0:
61,252,47705,2,0,L|55:312,1,45,8|0,0:0|0:0,0:0:0:0:
61,175,47945,6,0,B|127:168|112:238|205:219,1,134.999995880127,0|0,0:0|0:0,0:0:0:0:
323,167,48665,6,0,P|411:164|426:334,2,251.999992309571,6|10|2,3:2|0:0|3:2,0:0:0:0:
264,229,49865,1,0,0:0:0:0:
358,358,50105,2,0,P|415:381|477:373,1,125.999996154785,10|2,0:0|0:0,0:0:0:0:
354,354,50585,5,2,3:2:0:0:
379,281,50825,1,2,0:0:0:0:
239,302,51065,1,10,0:2:0:0:
181,162,51305,2,0,P|187:98|241:53,1,125.999996154785,2|0,0:0|3:0,0:0:0:0:
341,14,51785,5,0,0:0:0:0:
300,79,52025,1,8,0:0:0:0:
327,3,52265,1,0,0:0:0:0:
168,5,52505,5,0,3:0:0:0:
115,11,52625,1,0,0:0:0:0:
78,49,52745,1,0,0:0:0:0:
72,101,52865,1,0,0:0:0:0:
96,136,52985,5,8,0:0:0:0:
90,178,53105,1,0,0:0:0:0:
60,209,53225,1,0,0:0:0:0:
64,213,53345,2,0,P|146:206|221:254,1,161.999995056153,0|0,0:0|0:0,0:0:0:0:
250,318,53945,1,8,0:0:0:0:
36,291,54185,6,0,P|169:280|217:214,1,215.999993408203,12|0,0:0|0:0,0:0:0:0:
379,86,54905,2,0,P|338:57|279:57,1,107.999996704102,8|0,0:0|0:0,0:0:0:0:
168,156,55385,5,2,3:2:0:0:
239,123,55625,1,2,0:0:0:0:
266,293,55865,1,10,0:0:0:0:
225,221,56105,1,8,0:0:0:0:
225,221,56225,1,8,0:0:0:0:
225,221,56345,6,0,P|356:233|415:279,1,188.999994232178,6|0,3:2|0:0,0:0:0:0:
451,137,56825,2,0,P|429:227|455:317,1,188.999994232178,10|0,0:0|0:0,0:0:0:0:
362,144,57305,2,0,P|355:80|389:32,1,125.999996154785,2|0,3:2|0:0,0:0:0:0:
407,25,57665,1,0,0:0:0:0:
438,25,57785,1,10,0:0:0:0:
502,75,58025,1,2,0:0:0:0:
288,8,58265,6,0,P|178:11|140:99,1,188.999994232178,6|0,3:2|0:0,0:0:0:0:
18,20,58745,2,0,P|59:68|69:131,1,125.999996154785,10|2,0:0|0:0,0:0:0:0:
42,232,59105,1,4,3:2:0:0:
30,212,59225,2,0,L|103:207,1,62.9999980773926,0|0,0:0|0:0,0:0:0:0:
165,163,59465,5,0,3:0:0:0:
212,151,59585,1,0,0:0:0:0:
257,167,59705,1,8,0:0:0:0:
276,205,59825,1,0,0:0:0:0:
270,247,59945,1,0,0:0:0:0:
242,273,60065,1,0,0:0:0:0:
176,243,60185,6,0,B|301:225|272:300|403:292,1,215.999993408203,4|8,3:2|0:0,0:0:0:0:
466,250,60905,1,0,0:0:0:0:
466,250,61025,1,0,0:0:0:0:
466,250,61145,2,0,P|470:191|448:150,1,107.999996704102,0|0,3:0|0:0,0:0:0:0:
379,113,61625,1,0,3:0:0:0:
498,91,61865,6,0,P|372:144|255:117,1,215.999993408203,12|0,0:0|0:0,0:0:0:0:
277,123,62465,1,0,0:0:0:0:
270,102,62585,2,0,L|196:109,1,53.9999983520508,8|8,3:0|3:0,0:0:0:0:
172,43,62825,2,0,L|98:36,1,53.9999983520508,0|0,3:0|3:0,0:0:0:0:
51,72,63065,1,0,3:0:0:0:
19,236,63305,5,0,3:0:0:0:
28,288,63425,1,0,3:0:0:0:
65,326,63545,1,8,0:0:0:0:
117,337,63665,1,8,0:0:0:0:
166,318,63785,1,0,3:0:0:0:
63,160,64025,6,0,P|117:168|163:197,1,99.0000030212403,6|6,3:1|3:1,0:0:0:0:
238,372,64505,1,10,0:0:0:0:
238,372,64625,1,0,0:0:0:0:
238,372,64745,1,0,0:0:0:0:
217,247,64985,2,0,P|267:226|322:229,1,99.0000030212403,2|2,3:1|3:1,0:0:0:0:
426,303,65465,2,0,L|507:298,1,80.9999975280763,10|0,0:0|0:0,0:0:0:0:
372,388,65945,6,0,P|351:343|350:294,1,99.0000030212403,2|2,3:1|3:1,0:0:0:0:
425,163,66425,1,10,0:0:0:0:
435,125,66545,1,0,3:0:0:0:
417,90,66665,1,0,0:0:0:0:
381,76,66785,1,0,3:0:0:0:
339,102,66905,2,0,P|289:100|244:81,1,99.0000030212403,2|2,3:1|3:1,0:0:0:0:
104,13,67385,1,10,0:0:0:0:
104,13,67625,1,0,0:0:0:0:
226,3,67865,5,2,3:1:0:0:
121,90,68105,1,2,3:1:0:0:
47,70,68345,1,10,0:0:0:0:
47,70,68465,2,0,L|-12:77,1,40.4999987640381,0|0,3:0|0:0,0:0:0:0:
186,41,68825,1,2,3:1:0:0:
163,210,69065,1,2,3:1:0:0:
22,161,69305,2,0,L|110:166,1,80.9999975280763,10|0,0:0|0:0,0:0:0:0:
301,177,69785,5,2,3:1:0:0:
133,282,70025,1,2,3:1:0:0:
35,239,70265,2,0,L|75:236,1,40.4999987640381,10|0,0:0|3:0,0:0:0:0:
137,286,70505,2,0,L|181:288,1,40.4999987640381,0|0,0:0|3:0,0:0:0:0:
88,349,70745,1,2,3:1:0:0:
242,234,70985,1,2,3:1:0:0:
357,379,71225,1,10,0:0:0:0:
394,384,71345,1,8,0:0:0:0:
432,372,71465,1,8,0:0:0:0:
462,344,71585,1,8,0:0:0:0:
470,305,71705,6,0,P|461:249|467:198,1,107.999996704102,4|4,3:2|3:2,0:0:0:0:
505,79,72185,1,10,0:0:0:0:
501,83,72305,2,0,L|441:86,1,53.9999983520508,8|8,3:2|0:0,0:0:0:0:
443,81,72545,1,8,0:0:0:0:
384,39,72665,6,0,P|314:45|286:69,1,107.999996704102,4|4,3:2|3:2,0:0:0:0:
192,179,73145,1,10,0:0:0:0:
161,191,73265,1,8,0:3:0:0:
129,194,73385,1,0,3:0:0:0:
98,185,73505,1,8,0:3:0:0:
50,127,73625,6,0,L|59:13,1,107.999996704102,4|4,3:1|3:2,0:0:0:0:
129,111,74105,1,2,0:0:0:0:
157,104,74225,1,8,3:0:0:0:
181,82,74345,2,0,P|192:54|196:22,1,53.9999983520508,0|0,3:0|3:0,0:0:0:0:
257,138,74585,6,0,P|318:145|358:180,1,107.999996704102,4|4,3:2|3:2,0:0:0:0:
480,269,75065,2,0,P|368:279|362:263,1,107.999996704102,8|2,0:3|0:0,0:0:0:0:
387,299,75425,1,0,0:0:0:0:
411,224,75545,6,0,L|264:235,1,107.999996704102,4|4,3:2|3:2,0:0:0:0:
109,258,76025,1,0,3:0:0:0:
81,268,76145,1,8,3:0:0:0:
57,249,76265,5,8,0:3:0:0:
98,261,76385,1,8,0:3:0:0:
139,273,76505,1,8,0:3:0:0:
254,372,76745,1,8,3:3:0:0:
296,364,76865,1,8,0:0:0:0:
338,356,76985,1,8,0:0:0:0:
175,349,77225,6,0,P|96:289|105:180,1,215.999993408203,4|0,3:2|3:0,0:0:0:0:
32,83,77945,2,0,P|96:82|149:116,1,107.999996704102,2|0,0:3|0:0,0:0:0:0:
151,122,78305,1,0,3:0:0:0:
196,62,78425,5,8,0:0:0:0:
224,47,78545,1,8,0:0:0:0:
256,51,78665,1,0,3:0:0:0:
276,68,78785,1,0,0:0:0:0:
286,87,78905,2,0,L|322:81,2,35.9999989013672,2|2|2,0:0|0:0|0:0,0:0:0:0:
230,147,79145,6,0,P|334:143|415:223,1,215.999993408203,4|0,3:2|3:0,0:0:0:0:
410,0,79865,2,0,P|418:60|439:115,1,107.999996704102,8|0,0:0|0:0,0:0:0:0:
451,127,80225,1,8,0:0:0:0:
473,143,80345,1,8,0:0:0:0:
508,71,80585,5,8,0:3:0:0:
477,147,80825,1,8,3:0:0:0:
494,226,81065,1,0,3:0:0:0:
345,260,81305,5,4,3:2:0:0:
256,300,82265,1,0,3:0:0:0:
167,260,82985,1,0,0:0:0:0:
256,192,84425,1,2,0:0:0:0:
256,192,84785,1,2,0:0:0:0:
345,124,85145,5,0,3:0:0:0:
256,84,86105,1,0,3:0:0:0:
167,124,86825,1,0,0:0:0:0:
293,33,87845,2,0,L|296:8,2,13.4999995880127,0|0|2,0:0|0:0|0:0,0:0:0:0:
219,351,88745,1,2,0:3:0:0:
188,281,88985,5,0,3:0:0:0:
416,192,89945,1,0,3:0:0:0:
188,103,90665,1,2,0:3:0:0:
300,192,92105,1,2,0:0:0:0:
212,192,92465,1,2,0:0:0:0:
324,103,92825,5,0,3:0:0:0:
96,192,93785,1,0,3:0:0:0:
324,281,94505,1,0,0:0:0:0:
328,285,94985,5,0,0:0:0:0:
216,345,95225,1,8,0:0:0:0:
237,266,95465,1,0,0:0:0:0:
315,372,95705,1,0,3:0:0:0:
315,372,95825,1,0,0:0:0:0:
315,372,95945,6,0,L|384:364,1,53.9999983520508,2|8,0:3|0:0,0:0:0:0:
433,326,96305,1,8,0:0:0:0:
449,336,96425,2,0,L|453:370,1,26.9999991760254,8|8,3:2|3:2,0:0:0:0:
486,236,96665,6,0,L|492:156,1,72,4|0,3:2|0:0,0:0:0:0:
323,29,97145,2,0,P|317:64|333:120,1,72,8|0,0:0|0:0,0:0:0:0:
470,90,97625,2,0,L|305:105,1,144,0|8,3:0|0:0,0:0:0:0:
309,183,98345,1,0,3:0:0:0:
234,124,98585,2,0,L|229:169,2,36
25,42,99065,2,0,P|93:46|143:71,1,108,8|0,0:0|0:0,0:0:0:0:
138,69,99545,1,0,3:2:0:0:
144,77,99665,1,0,0:0:0:0:
147,87,99785,2,0,L|142:132,1,36,0|0,0:0|0:0,0:0:0:0:
106,237,100025,5,8,0:0:0:0:
106,237,100265,1,0,0:0:0:0:
106,237,100505,2,0,P|148:231|185:246,1,72,0|0,3:0|0:0,0:0:0:0:
47,299,100985,1,8,0:0:0:0:
143,217,101225,1,0,0:0:0:0:
229,308,101465,2,0,P|269:306|303:291,1,72,0|0,3:0|0:0,0:0:0:0:
356,247,101945,1,8,0:0:0:0:
452,347,102185,6,0,L|445:249,1,72,0|0,3:0|0:0,0:0:0:0:
452,265,102545,1,0,0:0:0:0:
457,254,102665,2,0,P|468:219|465:183,1,72,0|8,0:0|0:0,0:0:0:0:
429,111,103145,2,0,L|434:69,1,36
231,127,103505,1,0,0:0:0:0:
241,114,103625,2,0,P|299:116|341:139,1,72,2|8,0:3|0:0,0:0:0:0:
375,174,103985,1,8,0:0:0:0:
375,174,104105,1,0,0:3:0:0:
277,36,104345,5,4,3:2:0:0:
133,31,104585,2,0,P|162:44|227:44,1,72,0|8,0:0|0:0,0:0:0:0:
108,105,105065,1,0,0:0:0:0:
108,105,105185,1,0,0:0:0:0:
108,105,105305,2,0,L|15:112,1,72,0|0,3:0|0:0,0:0:0:0:
177,139,105785,1,8,0:0:0:0:
70,93,106025,2,0,L|59:266,1,144,0|0,0:0|0:0,0:0:0:0:
53,361,106745,1,8,0:0:0:0:
1,295,106985,6,0,P|64:333|135:322,1,144,0|0,0:0|0:0,0:0:0:0:
219,277,107705,1,8,0:0:0:0:
254,272,107825,1,8,0:0:0:0:
289,281,107945,1,8,0:0:0:0:
318,302,108065,1,8,0:0:0:0:
338,331,108185,6,0,L|477:340,1,135,0|0,0:0|0:0,0:0:0:0:
404,251,109145,2,0,L|501:244,1,90,0|0,0:0|0:0,0:0:0:0:
497,240,109865,6,0,P|512:177|506:114,1,125.999996154785,4|0,3:2|3:0,0:0:0:0:
248,40,110585,2,0,P|283:34|328:37,1,62.9999980773926,12|0,0:0|3:0,0:0:0:0:
310,34,110945,1,0,0:0:0:0:
382,70,111065,5,8,0:0:0:0:
412,76,111185,1,8,0:0:0:0:
442,68,111305,1,8,3:2:0:0:
464,46,111425,1,8,3:2:0:0:
474,16,111545,5,8,3:0:0:0:
470,12,111665,1,8,3:0:0:0:
466,8,111785,1,8,3:0:0:0:
330,129,112025,5,4,3:2:0:0:
304,126,112145,1,0,0:0:0:0:
281,137,112265,1,0,0:0:0:0:
240,167,112385,5,0,0:0:0:0:
214,170,112505,1,2,0:0:0:0:
191,159,112625,1,0,0:0:0:0:
213,113,112745,5,0,0:0:0:0:
238,116,112865,1,0,3:0:0:0:
257,133,112985,1,8,0:0:0:0:
288,172,113105,5,0,0:0:0:0:
313,182,113225,1,0,0:0:0:0:
339,177,113345,1,0,0:0:0:0:
375,211,113465,5,0,0:0:0:0:
373,225,113585,1,0,0:0:0:0:
371,239,113705,2,0,P|323:269|237:260,1,144,0|0,0:0|0:0,0:0:0:0:
141,219,114425,5,0,0:0:0:0:
117,210,114545,1,0,0:0:0:0:
93,201,114665,1,0,0:0:0:0:
69,192,114785,1,0,0:0:0:0:
45,183,114905,1,8,0:0:0:0:
118,289,115145,6,0,L|114:335,1,36,0|0,0:0|0:0,0:0:0:0:
41,374,115385,2,0,L|37:338,1,36,0|0,0:0|0:0,0:0:0:0:
30,266,115625,1,0,3:0:0:0:
17,94,115865,6,0,P|51:105|93:103,1,72,0|0,3:0|0:0,0:0:0:0:
150,58,116225,1,0,0:0:0:0:
150,58,116345,1,0,0:0:0:0:
176,58,116465,1,0,0:0:0:0:
202,66,116585,1,0,0:0:0:0:
223,83,116705,1,0,0:0:0:0:
237,106,116825,1,8,0:0:0:0:
293,32,117065,1,0,0:0:0:0:
293,32,117185,1,0,0:0:0:0:
293,32,117305,1,0,0:0:0:0:
498,45,117545,6,0,P|433:42|355:79,1,144,2|0,3:0|3:0,0:0:0:0:
263,214,118265,1,8,0:0:0:0:
327,264,118505,1,0,0:0:0:0:
349,261,118625,1,0,0:0:0:0:
371,258,118745,1,0,0:0:0:0:
305,146,118985,2,0,L|397:150,1,72,0|8,0:0|0:0,0:0:0:0:
458,174,119345,1,8,0:0:0:0:
458,174,119465,1,0,0:0:0:0:
473,323,119705,6,0,P|481:286|481:227,2,72,0|0|0,0:0|0:0|0:0,0:0:0:0:
459,335,120305,1,0,0:0:0:0:
442,342,120425,1,0,3:0:0:0:
424,340,120545,1,0,3:0:0:0:
403,325,120665,6,0,L|314:332,1,72,8|0,0:0|0:0,0:0:0:0:
213,340,121145,1,0,3:0:0:0:
284,207,121385,2,0,P|283:244|268:294,1,72,0|0,3:0|0:0,0:0:0:0:
270,281,121865,5,0,0:0:0:0:
133,323,122105,1,0,0:0:0:0:
22,232,122345,2,0,P|17:195|28:159,1,72,0|8,3:0|0:0,0:0:0:0:
105,137,122825,6,0,L|108:101,1,36,0|8,0:0|0:0,0:0:0:0:
108,102,123065,2,0,P|72:86|33:88,1,72,2|0,0:3|0:0,0:0:0:0:
148,28,123545,6,0,P|198:29|247:44,1,80.9999975280763,4|0,3:2|0:0,0:0:0:0:
239,47,123905,1,8,0:0:0:0:
248,59,124025,1,8,0:0:0:0:
162,174,124265,6,0,P|197:149|247:149,1,80.9999975280763,4|0,3:2|0:0,0:0:0:0:
307,178,124625,1,8,0:0:0:0:
329,194,124745,1,8,0:0:0:0:
340,215,124865,1,8,0:0:0:0:
343,234,124985,1,0,0:0:0:0:
459,117,125225,6,0,P|433:197|440:326,1,180,4|0,3:2|3:0,0:0:0:0:
303,358,125945,2,0,P|288:317|237:282,1,90,8|0,0:0|0:0,0:0:0:0:
219,276,126305,1,8,0:0:0:0:
183,282,126425,5,8,0:0:0:0:
175,303,126545,1,8,0:0:0:0:
167,324,126665,2,8,L|115:329,1,45,8|8,3:0|3:0,0:0:0:0:
49,333,126905,1,8,3:0:0:0:
34,96,127145,6,0,P|11:177|6:282,1,180,4|0,3:2|0:0,0:0:0:0:
34,96,127865,1,4,0:3:0:0:
206,173,128105,1,4,0:3:0:0:
97,138,128345,6,0,L|142:136,1,45,0|8,0:0|3:0,0:0:0:0:
105,156,128585,2,0,L|135:121,1,45,8|8,3:0|3:0,0:0:0:0:
218,64,128825,5,8,3:2:0:0:
250,69,128945,1,8,3:0:0:0:
278,86,129065,2,0,L|271:144,1,45,8|0,3:0|0:0,0:0:0:0:
258,270,129305,6,0,P|371:285|381:160,2,251.999992309571,6|10|2,3:2|0:0|3:2,0:0:0:0:
208,203,130505,1,0,0:0:0:0:
106,351,130745,1,10,0:2:0:0:
122,271,130985,1,2,0:0:0:0:
27,335,131225,5,2,3:2:0:0:
115,363,131465,1,2,0:0:0:0:
239,321,131705,1,10,0:0:0:0:
323,192,131945,2,0,P|315:86|249:20,1,188.999994232178,2|0,0:0|0:0,0:0:0:0:
159,0,132425,5,0,0:0:0:0:
20,78,132665,2,0,L|127:71,1,107.999996704102,8|0,0:0|0:0,0:0:0:0:
257,60,133145,5,0,3:0:0:0:
299,59,133265,1,0,0:0:0:0:
335,82,133385,1,0,0:0:0:0:
353,122,133505,1,0,0:0:0:0:
346,164,133625,5,8,0:0:0:0:
324,161,133745,1,0,0:0:0:0:
302,158,133865,1,0,0:0:0:0:
306,162,133985,2,0,P|290:237|289:350,1,161.999995056153,0|0,0:0|0:0,0:0:0:0:
440,379,134585,1,8,0:0:0:0:
215,247,134825,6,0,P|332:249|406:311,1,215.999993408203,12|0,0:0|0:0,0:0:0:0:
512,173,135545,2,0,P|452:173|405:209,1,107.999996704102,8|0,0:0|0:0,0:0:0:0:
326,334,136025,5,2,3:2:0:0:
220,266,136265,1,2,3:2:0:0:
122,384,136505,1,10,0:0:0:0:
193,348,136745,2,0,L|247:340,1,53.9999983520508,8|8,0:0|0:0,0:0:0:0:
144,236,136985,6,0,P|42:252|38:362,1,188.999994232178,6|0,3:2|0:0,0:0:0:0:
68,146,137465,2,0,P|146:196|237:180,1,188.999994232178,10|0,0:0|0:0,0:0:0:0:
410,89,137945,2,0,P|382:37|260:48,1,188.999994232178,2|0,3:2|0:0,0:0:0:0:
146,112,138425,1,10,0:0:0:0:
166,40,138665,1,2,0:0:0:0:
311,130,138905,6,0,B|403:158|375:226|506:258,1,188.999994232178,6|0,3:2|0:0,0:0:0:0:
278,349,139385,2,0,B|260:287|260:287|306:231,1,125.999996154785,10|2,0:0|0:0,0:0:0:0:
172,322,139745,1,4,3:2:0:0:
159,303,139865,2,0,L|234:297,1,62.9999980773926,0|0,0:0|0:0,0:0:0:0:
358,286,140105,5,0,3:0:0:0:
406,276,140225,1,0,0:0:0:0:
433,242,140345,1,8,0:0:0:0:
450,208,140465,1,0,0:0:0:0:
445,175,140585,1,0,0:0:0:0:
424,157,140705,1,0,0:0:0:0:
482,105,140825,6,0,P|374:120|261:96,1,215.999993408203,4|8,3:2|0:0,0:0:0:0:
149,13,141545,1,0,0:0:0:0:
149,13,141665,1,0,0:0:0:0:
149,13,141785,2,0,P|213:6|267:44,1,107.999996704102,0|0,3:0|0:0,0:0:0:0:
250,25,142265,2,0,L|241:98,1,53.9999983520508,0|0,3:0|0:0,0:0:0:0:
180,145,142505,6,0,P|140:231|161:364,1,215.999993408203,4|0,3:2|0:0,0:0:0:0:
317,105,143225,2,0,P|334:203|308:303,1,161.999995056153,8|0,0:0|0:0,0:0:0:0:
262,345,143705,1,8,0:0:0:0:
238,368,143825,2,0,L|181:372,1,53.9999983520508,8|2,0:0|0:3,0:0:0:0:
387,371,144185,5,8,3:0:0:0:
387,371,144305,1,8,3:0:0:0:
387,371,144425,1,8,3:0:0:0:
387,371,144545,1,8,3:0:0:0:
391,338,144665,5,4,3:2:0:0:
466,341,151625,6,0,L|470:315,1,26.9999991760254,2|0,3:0|0:0,0:0:0:0:
501,250,151865,1,8,0:0:0:0:
496,233,151985,1,8,0:3:0:0:
491,216,152105,1,8,3:0:0:0:
432,157,152345,6,0,P|366:169|294:164,1,125.999996154785,0|0,3:0|0:0,0:0:0:0:
176,141,153065,1,0,0:0:0:0:
176,141,153185,1,0,0:0:0:0:
176,141,153305,1,0,0:0:0:0:
247,118,153545,2,0,L|254:69,2,31.4999990386963,0|0|0,0:0|0:0|0:0,0:0:0:0:
191,7,154025,2,0,L|186:38,1,31.4999990386963,0|0,3:0|0:0,0:0:0:0:
115,69,154265,5,0,0:0:0:0:
115,69,154385,1,0,0:0:0:0:
115,69,154505,1,0,0:0:0:0:
115,69,154625,1,0,0:0:0:0:
91,85,154745,5,8,0:0:0:0:
88,99,154865,1,8,0:0:0:0:
85,113,154985,1,8,0:0:0:0:
82,127,155105,1,8,0:0:0:0:
54,160,155225,5,8,0:0:0:0:
83,154,155345,1,8,0:0:0:0:
109,165,155465,1,8,0:0:0:0:
126,188,155585,1,8,0:0:0:0:
102,240,155705,5,8,0:0:0:0:
81,269,155825,1,8,0:0:0:0:
74,304,155945,1,8,0:0:0:0:
79,339,156065,1,8,0:0:0:0:
136,382,156185,6,0,B|217:395|194:336|327:361,1,161.999995056153,0|8,3:0|0:0,0:0:0:0:
312,363,156785,1,8,0:0:0:0:
331,370,156905,1,8,0:0:0:0:
350,377,157025,1,8,0:0:0:0:
395,348,157145,5,8,0:0:0:0:
412,323,157265,1,8,0:0:0:0:
419,294,157385,1,8,0:0:0:0:
417,268,157505,1,8,0:0:0:0:
417,268,157625,6,0,L|421:219,1,40.4999987640381,8|0,3:2|0:0,0:0:0:0:
490,147,157865,1,8,0:0:0:0:
490,147,157985,6,0,L|493:187,2,40.4999987640381,0|2|0,0:0|0:0|3:0,0:0:0:0:
364,61,158345,2,0,P|408:64|462:87,1,80.9999975280763,8|0,0:0|3:0,0:0:0:0:
389,138,158705,2,0,L|279:148,1,80.9999975280763,8|0,3:0|0:0,0:0:0:0:
238,129,159065,1,0,3:0:0:0:
238,129,159305,5,0,3:0:0:0:
267,158,159425,1,8,0:0:0:0:
278,197,159545,1,8,3:2:0:0:
173,3,159785,6,0,P|158:69|162:182,1,161.999995056153,12|0,0:0|0:0,0:0:0:0:
69,332,160505,2,0,L|85:235,1,80.9999975280763,0|0,3:0|3:0,0:0:0:0:
98,239,160865,1,0,0:0:0:0:
113,225,160985,5,8,0:0:0:0:
11,232,161225,1,8,0:0:0:0:
82,144,161465,1,8,0:0:0:0:
160,299,161705,6,0,P|243:334|348:308,1,180,12|8,0:0|0:3,0:0:0:0:
476,198,162425,1,0,3:0:0:0:
431,202,162545,1,8,0:3:0:0:
386,207,162665,1,0,0:0:0:0:
341,212,162785,1,8,3:2:0:0:
297,217,162905,2,0,L|304:160,1,45,2|0,3:0|0:0,0:0:0:0:
367,117,163145,1,0,0:0:0:0:
411,147,163265,5,8,0:0:0:0:
409,200,163385,1,8,0:0:0:0:
381,153,163505,1,8,0:0:0:0:
429,129,163625,1,8,0:0:0:0:
486,142,163745,1,8,0:0:0:0:
486,142,163865,6,2,B|267:271|-2:4|-2:4,1,540,0|0,0:0|0:0,0:0:0:0:
0,5,165545,1,0,0:0:0:0:
0,5,165785,6,2,B|139:80|9:205|9:205,1,202.500007724762,6|2,3:1|0:1,0:1:0:0:
155,376,166265,2,2,B|16:301|146:176|146:176,1,202.500007724762,6|2,3:1|0:1,0:1:0:0:
309,63,166745,1,2,3:1:0:0:
184,164,166985,6,0,L|220:168,1,20.2499993820191,0|0,0:0|0:0,0:0:0:0:
382,120,167225,2,0,L|362:123,1,20.2499993820191,0|0,0:0|0:0,0:0:0:0:
274,353,167465,6,0,B|325:271|245:232|292:136,1,215.999993408203,4|0,3:2|3:0,0:0:0:0:
192,0,168185,2,0,P|211:52|217:127,1,107.999996704102,8|0,0:0|0:0,0:0:0:0:
213,107,168545,1,0,0:0:0:0:
209,111,168665,1,0,0:0:0:0:
133,73,168905,5,0,0:0:0:0:
281,14,169145,1,8,0:0:0:0:
448,165,169385,2,0,P|470:257|421:364,1,215.999993408203,4|0,3:2|3:0,0:0:0:0:
498,105,170105,1,8,0:0:0:0:
355,185,170345,1,0,3:0:0:0:
198,15,170585,6,2,P|145:-6|79:8,1,107.999996704102,2|2,0:1|0:1,0:1:0:0:
284,0,170945,2,2,P|270:54|280:154,1,107.999996704102,2|2,0:1|0:1,0:1:0:0:
326,157,171305,1,10,0:1:0:0:
352,227,171425,1,10,0:0:0:0:
313,291,171545,6,0,B|186:300|257:220|95:246,1,188.999994232178,6|0,3:2|0:0,0:0:0:0:
394,337,172025,2,0,P|490:345|495:264,1,188.999994232178,10|0,0:0|0:0,0:0:0:0:
379,98,172505,2,0,P|268:102|261:206,1,188.999994232178,2|0,3:2|0:0,0:0:0:0:
322,370,172985,1,10,0:0:0:0:
423,262,173225,1,2,0:0:0:0:
322,370,173465,6,0,P|243:378|192:353,1,125.999996154785,6|2,3:2|0:0,0:0:0:0:
61,264,173945,2,0,P|74:310|79:399,1,125.999996154785,2|0,3:2|0:0,0:0:0:0:
17,94,174305,2,2,P|72:44|137:60,1,125.999996154785,6|0,3:2|0:0,0:1:0:0:
192,99,174665,5,0,3:0:0:0:
208,146,174785,1,0,0:0:0:0:
182,189,174905,1,8,0:0:0:0:
132,198,175025,1,0,0:0:0:0:
98,181,175145,1,0,0:0:0:0:
90,143,175265,1,0,0:0:0:0:
121,77,175385,5,4,3:1:0:0:
186,193,175625,2,0,P|234:216|287:216,1,107.999996704102,0|8,0:0|0:0,0:0:0:0:
485,317,176105,5,0,0:0:0:0:
481,321,176225,2,0,L|427:327,1,53.9999983520508,0|0,0:0|3:0,0:0:0:0:
274,292,176585,1,0,0:0:0:0:
362,371,176825,1,0,3:0:0:0:
444,244,177065,6,0,P|471:167|479:87,1,161.999995056153,12|0,0:0|0:0,0:0:0:0:
464,63,177545,1,8,3:0:0:0:
382,38,177785,1,2,3:2:0:0:
240,69,178025,1,2,0:0:0:0:
323,99,178265,5,8,0:0:0:0:
323,99,178385,2,0,B|331:124|331:124|317:148,1,53.9999983520508,0|0,3:0|0:0,0:0:0:0:
246,205,178625,1,8,0:0:0:0:
198,176,178745,1,8,0:0:0:0:
177,125,178865,1,8,0:0:0:0:
136,162,178985,1,8,0:0:0:0:
86,173,179105,1,8,0:0:0:0:
86,173,179225,6,0,P|80:110|101:38,1,125.999996154785,6|0,3:2|0:0,0:0:0:0:
371,217,179705,2,0,P|371:275|271:285,1,125.999996154785,10|0,0:0|0:0,0:0:0:0:
443,48,180185,2,0,P|458:108|452:171,1,125.999996154785,2|0,3:2|0:0,0:0:0:0:
231,360,180665,1,10,0:0:0:0:
280,234,180905,1,2,0:0:0:0:
168,273,181145,5,2,3:2:0:0:
267,148,181385,1,2,0:0:0:0:
358,367,181625,1,10,0:0:0:0:
206,202,181865,2,0,P|153:170|83:201,1,125.999996154785,2|0,0:0|3:0,0:0:0:0:
265,260,182345,5,0,0:0:0:0:
343,287,182585,1,8,0:0:0:0:
406,235,182825,1,0,0:0:0:0:
473,115,183065,5,0,3:0:0:0:
499,77,183185,1,0,0:0:0:0:
488,30,183305,1,0,0:0:0:0:
461,79,183425,1,0,0:0:0:0:
499,115,183545,5,8,0:0:0:0:
512,142,183665,1,0,0:0:0:0:
507,172,183785,1,0,0:0:0:0:
485,189,183905,2,0,B|398:210|421:151|307:175,1,161.999995056153,0|0,0:0|0:0,0:0:0:0:
187,187,184505,1,8,0:0:0:0:
415,213,184745,6,0,P|353:127|246:149,1,215.999993408203,12|0,0:0|0:0,0:0:0:0:
273,351,185465,2,0,P|243:306|234:254,1,107.999996704102,8|0,0:0|0:0,0:0:0:0:
79,45,185945,6,2,P|50:92|40:174,1,107.999996704102,2|2,3:1|0:1,0:1:0:0:
165,216,186305,2,2,P|159:158|110:134,1,107.999996704102,2|2,0:1|0:1,0:1:0:0:
46,160,186665,1,10,0:1:0:0:
21,233,186785,1,10,0:0:0:0:
43,306,186905,6,0,P|102:354|275:328,1,251.999992309571,6|10,3:2|0:0,0:0:0:0:
394,246,187625,1,0,0:0:0:0:
282,46,187865,2,0,P|246:96|245:159,1,125.999996154785,2|0,3:2|0:0,0:0:0:0:
388,335,188345,1,8,0:0:0:0:
506,210,188585,1,2,0:0:0:0:
340,170,188825,6,0,P|305:221|310:283,1,125.999996154785,6|2,3:2|0:0,0:0:0:0:
504,299,189305,2,0,P|455:271|412:207,1,125.999996154785,10|2,0:0|0:0,0:0:0:0:
263,2,189665,2,2,P|324:-8|376:24,1,125.999996154785,4|0,3:2|0:0,0:1:0:0:
403,94,190025,5,0,0:0:0:0:
381,138,190145,1,0,0:0:0:0:
337,159,190265,1,8,0:0:0:0:
289,153,190385,1,0,0:0:0:0:
252,131,190505,1,0,0:0:0:0:
227,96,190625,1,0,0:0:0:0:
218,65,190745,5,0,3:0:0:0:
145,25,190985,1,0,0:0:0:0:
145,25,191105,1,0,0:0:0:0:
145,25,191225,2,0,L|19:36,1,107.999996704102,8|0,0:0|0:0,0:0:0:0:
19,53,191585,1,0,0:0:0:0:
0,71,191705,1,0,3:0:0:0:
115,188,191945,1,0,0:0:0:0:
133,104,192185,1,0,3:0:0:0:
0,169,192425,6,0,P|-26:243|4:381,1,215.999993408203,12|8,0:0|0:0,0:0:0:0:
85,307,193145,1,0,3:0:0:0:
78,360,193265,1,8,0:0:0:0:
203,273,193505,1,8,0:0:0:0:
196,239,193625,1,0,3:0:0:0:
165,350,193865,5,0,0:0:0:0:
165,350,193985,1,0,0:0:0:0:
209,352,194105,5,8,0:0:0:0:
253,346,194225,1,8,0:0:0:0:
289,325,194345,1,8,0:0:0:0:
317,292,194465,1,8,0:0:0:0:
327,250,194585,5,6,3:1:0:0:
470,373,194825,1,6,3:1:0:0:
396,384,195065,2,0,L|400:337,2,40.4999987640381,10|0|0,0:2|3:0|0:0,0:0:0:0:
501,301,195545,1,2,3:1:0:0:
462,123,195785,1,2,3:1:0:0:
437,261,196025,1,10,0:0:0:0:
437,261,196265,1,0,0:0:0:0:
298,185,196505,6,0,P|347:182|414:154,1,99.0000030212403,2|2,3:1|3:1,0:0:0:0:
482,61,196985,1,10,0:0:0:0:
459,33,197105,1,0,3:0:0:0:
425,19,197225,1,0,0:0:0:0:
389,27,197345,1,0,0:0:0:0:
362,52,197465,2,0,P|316:63|257:49,1,99.0000030212403,2|2,3:1|3:1,0:0:0:0:
123,15,197945,1,10,0:0:0:0:
205,0,198185,1,0,0:0:0:0:
101,90,198425,6,0,P|81:122|92:210,1,99.0000030212403,2|2,3:1|3:1,0:0:0:0:
194,320,198905,1,10,0:0:0:0:
228,341,199025,1,0,3:0:0:0:
255,345,199145,1,0,0:0:0:0:
50,339,199385,2,0,P|89:292|133:281,1,99.0000030212403,2|2,3:1|3:1,0:0:0:0:
321,292,199865,2,0,P|358:299|398:335,1,80.9999975280763,10|0,0:0|0:0,0:0:0:0:
226,243,200345,5,2,3:1:0:0:
343,384,200585,1,2,3:1:0:0:
465,353,200825,2,0,L|470:292,1,40.4999987640381,10|0,0:0|3:0,0:0:0:0:
475,238,201065,1,0,0:0:0:0:
357,92,201305,1,2,3:1:0:0:
505,151,201545,2,0,P|419:161|368:149,1,99.0000030212403,2|10,3:1|0:0,0:0:0:0:
367,144,201905,1,8,0:0:0:0:
325,129,202025,1,10,0:0:0:0:
280,135,202145,1,8,0:0:0:0:
241,160,202265,5,4,0:1:0:0:
249,68,202505,1,0,0:0:0:0:
304,12,202745,1,0,0:0:0:0:
249,68,202985,2,0,L|177:72,1,53.9999983520508,0|0,0:0|0:0,0:0:0:0:
116,38,203465,5,0,0:0:0:0:
116,38,203705,1,0,0:0:0:0:
186,14,203945,2,0,P|190:39|190:72,1,53.9999983520508,0|0,0:0|0:0,0:0:0:0:
44,122,204425,6,0,L|46:59,1,53.9999983520508,0|0,0:0|0:0,0:0:0:0:
48,126,204905,2,0,P|126:125|206:155,1,161.999995056153
208,158,205865,6,0,B|476:134|454:352|308:371|308:371,1,404.999987640381
384,384,209705,1,0,0:0:0:0:
