osu file format v14

[General]
AudioFilename: audio.mp3
AudioLeadIn: 0
PreviewTime: 47705
Countdown: 0
SampleSet: Soft
StackLeniency: 1
Mode: 0
LetterboxInBreaks: 0
WidescreenStoryboard: 1

[Editor]
Bookmarks: 10061,103385
DistanceSpacing: 1
BeatDivisor: 8
GridSize: 4
TimelineZoom: 1.3

[Metadata]
Title:Amy
TitleUnicode:エイミー
Artist:Yorushika
ArtistUnicode:ヨルシカ
Creator:Ryuusei Aika
Version:Rein_Liya's Normal
Source:
Tags:Rein_Liya Rin_Sa Lunala CoLouRed GlazeE Deca ナブナ nbuna n-buna スイ suis エルマ elma japanese novelty female vocal
BeatmapID:2190854
BeatmapSetID:1048140

[Difficulty]
HPDrainRate:3
CircleSize:3.5
OverallDifficulty:4
ApproachRate:5
SliderMultiplier:1.3
SliderTickRate:1

[Events]
//Background and Video events
0,0,"BG.jpg",0,0
//Break Periods
2,81515,83930
2,85355,87770
2,89195,91610
2,93035,95450
//Storyboard Layer 0 (Background)
//Storyboard Layer 1 (Fail)
//Storyboard Layer 2 (Pass)
//Storyboard Layer 3 (Foreground)
//Storyboard Layer 4 (Overlay)
//Storyboard Sound Samples

[TimingPoints]
670,495.867768595041,4,2,1,20,1,0
670,-111.111111111111,4,2,1,20,0,0
1661,476.190476190476,4,2,1,20,1,0
1661,-111.111111111111,4,2,1,20,0,0
4518,480,4,2,1,20,1,0
4518,-111.111111111111,4,2,1,20,0,0
9318,495.867768595041,4,2,1,20,1,0
9318,-111.111111111111,4,2,1,20,0,0
10061,-111.111111111111,4,2,1,20,0,0
12188,487.80487804878,4,2,1,20,1,0
12188,-111.111111111111,4,2,1,20,0,0
14147,472.44094488189,4,2,1,20,1,0
14147,-111.111111111111,4,2,1,20,0,0
16025,480,4,2,1,20,1,0
16025,-100,4,2,1,25,0,0
29225,-100,4,2,1,30,0,0
29945,-100,4,2,1,35,0,0
31385,-100,4,2,1,40,0,0
39065,-100,4,2,1,35,0,0
40985,-100,4,2,1,40,0,0
41225,-100,4,2,1,35,0,0
42905,-100,4,2,1,40,0,0
44585,-100,4,2,1,50,0,0
48665,-100,4,2,1,60,0,1
55385,-100,4,2,1,45,0,1
56345,-100,4,2,1,60,0,1
63785,-100,4,2,1,60,0,0
64025,-100,4,2,1,50,0,0
71705,-100,4,2,1,60,0,0
81305,-100,4,2,1,25,0,0
85145,-100,4,2,1,30,0,0
95225,-100,4,2,1,30,0,0
96185,-100,4,2,1,35,0,0
108185,-100,4,2,1,25,0,0
109745,-100,4,2,1,5,0,0
109865,-100,4,2,1,35,0,0
110945,-100,4,2,1,25,0,0
111065,-100,4,2,1,35,0,0
112025,-100,4,2,1,40,0,0
112625,-100,4,3,0,35,0,0
112865,-100,4,2,1,40,0,0
116825,-100,4,2,1,40,0,0
120305,-100,4,3,0,35,0,0
120665,-100,4,2,1,40,0,0
124265,-100,4,2,1,40,0,0
124985,-100,4,3,0,40,0,0
125225,-100,4,2,1,40,0,0
125945,-100,4,2,1,40,0,0
126305,-100,4,2,1,40,0,0
126425,-100,4,2,1,40,0,0
128465,-100,4,2,1,40,0,0
129305,-100,4,2,1,60,0,1
136025,-100,4,2,1,45,0,1
136985,-100,4,2,1,60,0,1
143705,-100,4,2,1,60,0,1
144665,-100,4,2,1,30,0,0
146465,-100,4,2,1,25,0,0
146585,-100,4,2,1,30,0,0
152345,-100,4,2,1,35,0,0
152825,-100,4,3,0,35,0,0
154025,-100,4,2,1,35,0,0
154745,-100,4,2,1,32,0,0
154985,-100,4,2,1,27,0,0
155225,-100,4,2,1,33,0,0
155705,-100,4,2,1,35,0,0
155945,-100,4,2,1,37,0,0
156185,-100,4,2,1,40,0,0
156665,-100,4,2,1,33,0,0
157145,-100,4,2,1,35,0,0
158105,-100,4,2,1,50,0,0
158345,-100,4,2,1,50,0,0
158825,-100,4,2,1,35,0,0
159065,-100,4,2,1,50,0,0
161705,-100,4,2,1,50,0,0
163865,-100,4,2,1,50,0,0
164345,-100,4,2,1,50,0,0
165305,-100,4,2,1,50,0,0
165785,-100,4,2,1,60,0,1
166745,-100,4,2,1,90,0,1
166985,-100,4,2,1,45,0,1
167225,-100,4,2,1,45,0,1
167465,-100,4,2,1,60,0,1
170585,-100,4,2,1,45,0,1
171545,-100,4,2,1,60,0,1
178625,-100,4,2,1,50,0,1
178745,-100,4,2,1,60,0,1
185945,-100,4,2,1,45,0,1
186905,-100,4,2,1,60,0,1
194585,-100,4,2,1,50,0,0
202265,-111.111111111111,4,2,1,20,0,0

[Colours]
Combo1 : 204,141,130
Combo2 : 108,163,181
Combo3 : 216,184,118
Combo4 : 150,141,186

[HitObjects]
128,96,670,6,0,B|213:60|219:134|316:90,1,175.499994644165
352,80,1661,1,0,0:0:0:0:
472,208,2375,2,0,P|416:184|352:216,2,116.999996429443
416,312,3803,2,0,P|360:336|296:304,1,116.999996429443
280,264,4518,6,0,L|144:264,1,116.999996429443
80,184,5478,2,0,L|208:184,1,116.999996429443
256,184,6198,1,0,0:0:0:0:
504,184,7638,2,0,L|440:184,1,58.4999982147217,0|2,0:0|0:0,0:0:0:0:
328,184,8358,6,0,B|352:112|304:64|304:64|264:80|264:112,1,175.499994644165
240,144,9318,1,0,0:0:0:0:
360,272,10061,2,0,P|408:235|413:164,2,116.999996429443
184,272,11735,2,0,L|120:272,1,58.4999982147217
64,272,12188,6,0,P|40:216|72:152,1,116.999996429443
168,136,13163,2,0,P|192:80|160:16,1,116.999996429443
123,0,13895,1,0,0:0:0:0:
264,152,15328,2,0,P|320:172|384:144,1,116.999996429443,2|0,0:0|0:0,0:0:0:0:
416,108,16025,5,0,3:0:0:0:
512,200,16505,2,0,L|512:280,1,65,0|0,3:0|0:0,0:0:0:0:
512,328,16985,1,0,3:0:0:0:
400,264,17465,1,0,3:0:0:0:
400,264,17705,2,0,P|352:272|304:264,1,65,2|0,0:0|3:0,0:0:0:0:
280,240,18185,2,0,B|216:232|192:288|192:288|144:312|64:280,1,195,0|0,0:0|3:0,0:0:0:0:
8,208,19385,2,0,L|8:112,1,65,0|2,3:0|0:3,0:0:0:0:
8,80,19865,5,0,3:0:0:0:
120,152,20345,2,0,L|192:152,1,65,0|0,3:0|0:0,0:0:0:0:
248,152,20825,1,0,3:0:0:0:
352,232,21305,2,0,L|424:232,1,65,0|0,3:0|0:0,0:0:0:0:
480,232,21785,5,0,3:0:0:0:
392,136,22265,1,0,3:0:0:0:
504,80,22745,1,0,3:0:0:0:
504,80,22985,2,0,P|471:19|403:0,1,130,0|2,0:0|0:3,0:0:0:0:
353,15,23705,5,0,3:0:0:0:
280,120,24185,2,0,P|239:129|192:113,1,65,0|0,3:0|0:0,0:0:0:0:
169,82,24665,1,0,3:0:0:0:
144,208,25145,1,0,3:0:0:0:
144,208,25385,2,0,B|176:216|200:208|200:208|208:232|208:232|264:200|320:224,1,195,2|0,0:0|3:0,0:0:0:0:
376,256,26345,1,0,0:0:0:0:
376,256,26585,2,0,P|384:296|368:344,1,65,0|0,3:0|0:0,0:0:0:0:
336,368,27065,1,0,3:0:0:0:
232,288,27545,6,0,P|192:280|144:296,1,65,0|0,3:0|0:0,0:0:0:0:
120,328,28025,1,0,3:0:0:0:
24,240,28505,2,0,P|20:199|32:160,1,65,0|0,3:0|0:0,0:0:0:0:
64,128,28985,1,0,3:0:0:0:
64,128,29225,6,0,P|128:144|192:128,1,130,4|0,3:2|3:0,0:0:0:0:
240,88,29945,1,12,0:0:0:0:
304,200,30425,2,0,L|239:200,1,65,8|8,0:0|0:0,0:0:0:0:
232,264,30905,2,0,L|152:264,1,65,8|0,0:3|3:0,0:0:0:0:
104,264,31385,5,0,3:0:0:0:
104,264,31625,2,0,B|24:256|16:200|16:200|56:192|80:160,1,195,0|8,3:0|0:0,0:0:0:0:
168,64,32825,1,0,0:0:0:0:
168,64,33065,2,0,B|240:48|296:104|296:104|320:72|360:72,1,195,0|8,3:0|0:0,0:0:0:0:
456,16,34265,1,8,0:0:0:0:
508,136,34745,6,0,P|511:177|490:222,1,65
455,243,35225,1,0,3:0:0:0:
455,243,35465,2,0,B|431:259|431:259|407:235|407:235|383:275|271:259,1,195,0|8,3:0|0:0,0:0:0:0:
152,264,36665,1,0,0:0:0:0:
152,264,36905,2,0,P|64:208|128:152,1,195,0|8,3:0|0:0,0:0:0:0:
168,148,37865,2,0,P|232:164|304:148,1,130,0|2,0:0|3:0,0:0:0:0:
344,116,38585,1,8,0:0:0:0:
424,16,39065,5,4,3:2:0:0:
424,16,39305,2,0,B|467:51|467:51|485:218,1,195,0|8,0:0|0:0,0:0:0:0:
492,320,40505,1,0,3:0:0:0:
492,320,40745,2,0,L|412:311,1,65,0|0,3:0|0:0,0:0:0:0:
364,306,41225,1,0,3:0:0:0:
292,196,41705,2,0,L|196:206,1,65,0|8,3:0|0:0,0:0:0:0:
212,268,42185,1,0,0:0:0:0:
212,268,42425,2,0,L|132:259,1,65,2|0,0:3|0:0,0:0:0:0:
84,252,42905,6,0,L|76:323,2,65,4|0|8,3:2|0:0|0:0,0:0:0:0:
20,244,43625,2,0,L|4:100,1,130,4|8,3:2|2:0,0:0:0:0:
104,32,44585,6,0,B|136:32|160:48|160:48|232:16|304:48,1,195,4|8,3:2|0:0,0:0:0:0:
408,104,45785,2,0,L|408:184,1,65,2|8,3:0|0:3,0:0:0:0:
408,232,46265,1,8,0:3:0:0:
408,232,46505,1,4,3:2:0:0:
344,344,46985,2,0,P|312:352|272:344,1,65,0|8,0:0|0:0,0:0:0:0:
243,293,47465,2,0,P|203:285|155:301,1,65,8|8,0:0|0:0,0:0:0:0:
131,333,47945,1,0,0:0:0:0:
32,160,48665,6,0,L|112:160,1,65,6|0,3:2|0:0,0:0:0:0:
160,160,49145,2,0,L|232:160,1,65,10|0,0:0|0:0,0:0:0:0:
288,160,49625,1,2,3:2:0:0:
344,42,50105,2,0,P|384:34|431:50,1,65,10|2,0:0|0:0,0:0:0:0:
456,82,50585,5,2,3:2:0:0:
512,200,51065,1,10,0:2:0:0:
512,200,51305,2,0,L|512:265,1,65,2|0,0:0|3:0,0:0:0:0:
504,328,51785,1,0,0:0:0:0:
504,328,52025,6,0,P|464:336|416:320,1,65,8|0,0:0|0:0,0:0:0:0:
364,228,52745,1,0,3:0:0:0:
364,228,52985,2,0,P|308:204|228:244,2,130,8|0|8,0:0|3:0|0:0,0:0:0:0:
428,236,54185,2,0,P|452:180|412:100,1,130,12|0,0:0|0:0,0:0:0:0:
380,84,54905,1,8,0:0:0:0:
288,176,55385,2,0,P|248:184|200:168,1,65,2|2,3:2|0:0,0:0:0:0:
176,136,55865,1,10,0:0:0:0:
48,164,56345,6,0,L|48:228,1,65,6|0,3:2|0:0,0:0:0:0:
104,260,56825,2,0,L|104:332,1,65,10|0,0:0|0:0,0:0:0:0:
160,356,57305,1,2,3:2:0:0:
240,252,57785,2,0,P|280:244|327:260,1,65,10|2,0:0|0:0,0:0:0:0:
352,292,58265,5,6,3:2:0:0:
464,356,58745,1,10,0:0:0:0:
464,356,58985,2,0,P|480:288|460:224,1,130,2|0,0:0|3:0,0:0:0:0:
428,176,59705,2,0,P|388:168|340:184,1,65,8|0,0:0|0:0,0:0:0:0:
316,216,60185,5,4,3:2:0:0:
244,108,60665,2,0,P|204:116|156:100,1,65,8|0,0:0|0:0,0:0:0:0:
132,68,61145,1,0,3:0:0:0:
52,168,61625,1,0,3:0:0:0:
52,168,61865,6,0,B|20:248|68:296|68:296|140:264|196:296|196:296|228:272|276:280,1,325,12|0,0:0|3:0,0:0:0:0:
364,220,63545,2,0,P|404:212|444:228,1,65,8|0,0:0|3:0,0:0:0:0:
492,228,64025,6,0,L|492:148,1,65,6|6,3:1|3:1,0:0:0:0:
492,100,64505,1,10,0:0:0:0:
364,132,64985,2,0,L|364:52,1,65,2|2,3:1|3:1,0:0:0:0:
364,4,65465,1,10,0:0:0:0:
252,72,65945,6,0,L|171:72,1,65,2|2,3:1|3:1,0:0:0:0:
123,72,66425,1,10,0:0:0:0:
60,184,66905,2,0,L|141:184,1,65,2|2,3:1|3:1,0:0:0:0:
189,184,67385,1,10,0:0:0:0:
320,184,67865,6,0,L|320:264,1,65,2|2,3:1|3:1,0:0:0:0:
320,312,68345,1,10,0:0:0:0:
432,244,68825,2,0,L|432:164,1,65,2|2,3:1|3:1,0:0:0:0:
432,116,69305,1,10,0:0:0:0:
360,8,69785,6,0,L|280:8,1,65,2|2,3:1|3:1,0:0:0:0:
232,8,70265,1,10,0:0:0:0:
144,104,70745,1,2,3:1:0:0:
144,104,70985,1,2,3:1:0:0:
144,104,71225,2,0,P|176:99|208:104,1,65,10|8,0:0|0:0,0:0:0:0:
248,152,71705,6,0,P|312:168|392:144,2,130,4|10|4,3:2|0:0|3:2,0:0:0:0:
136,216,73145,2,0,P|122:152|138:90,2,130,10|4|2,0:0|3:1|0:0,0:0:0:0:
240,288,74585,2,0,P|192:331|130:348,2,130,4|8|4,3:2|0:3|3:2,0:0:0:0:
368,256,76025,2,0,L|448:256,1,65,0|8,3:0|0:3,0:0:0:0:
496,256,76505,2,0,P|504:216|496:176,2,65,8|8|8,0:3|3:3|0:0,0:0:0:0:
464,312,77225,6,0,L|264:312,1,195,4|2,3:2|0:3,0:0:0:0:
136,312,78425,1,8,0:0:0:0:
32,232,78905,1,2,0:0:0:0:
32,232,79145,1,4,3:2:0:0:
81,111,79625,6,0,P|121:119|168:103,1,65,0|8,3:0|0:0,0:0:0:0:
244,32,80345,2,0,P|276:24|316:32,2,65,8|8|8,0:0|0:3|3:0,0:0:0:0:
223,93,81065,1,0,3:0:0:0:
223,93,81305,5,4,3:2:0:0:
256,192,85145,5,0,3:0:0:0:
256,192,88985,5,0,3:0:0:0:
256,192,92825,5,0,3:0:0:0:
256,192,96665,5,4,3:2:0:0:
192,80,97145,2,0,L|128:73,1,65,8|0,0:0|0:0,0:0:0:0:
64,64,97625,1,0,3:0:0:0:
24,184,98105,1,8,0:0:0:0:
24,184,98345,2,0,B|230:205,1,195,0|8,3:0|0:0,0:0:0:0:
280,216,99305,1,0,0:0:0:0:
405,365,100025,2,0,P|365:373|317:357,1,65,8|0,0:0|0:0,0:0:0:0:
293,326,100505,5,0,3:0:0:0:
242,206,100985,2,0,P|202:198|154:214,1,65,8|0,0:0|0:0,0:0:0:0:
130,246,101465,1,0,3:0:0:0:
32,336,101945,1,8,0:0:0:0:
32,336,102185,1,0,3:0:0:0:
40,144,102905,5,8,0:0:0:0:
144,224,103385,2,0,P|184:232|231:216,1,65,0|2,0:0|0:3,0:0:0:0:
231,167,103865,2,0,P|271:159|318:175,1,65,8|0,0:0|0:3,0:0:0:0:
343,207,104345,5,4,3:2:0:0:
459,135,104825,2,0,L|450:55,1,65,8|0,0:0|0:0,0:0:0:0:
443,7,105305,1,0,3:0:0:0:
331,71,105785,1,8,0:0:0:0:
331,71,106025,6,0,B|291:63|251:79|251:79|211:47|211:47|179:63|131:47,1,195,0|8,0:0|0:0,0:0:0:0:
88,76,106985,1,0,0:0:0:0:
88,76,107225,2,0,P|80:116|88:156,1,65
140,172,107705,2,0,P|148:212|132:259,1,65,8|8,0:0|0:0,0:0:0:0:
100,284,108185,5,0,0:0:0:0:
328,243,109145,1,0,0:0:0:0:
328,243,109865,6,0,B|364:236|391:243|391:243|448:184|396:112,1,195,4|12,3:2|0:0,0:0:0:0:
326,20,111065,2,0,P|294:12|254:20,1,65,8|8,0:0|3:2,0:0:0:0:
222,68,111545,2,0,P|190:76|150:68,1,65,8|8,3:0|3:0,0:0:0:0:
112,24,112025,5,4,3:2:0:0:
112,24,112265,2,0,B|73:48|37:44|37:44|56:108|28:164,1,195,0|8,0:0|0:0,0:0:0:0:
4,284,113465,1,0,0:0:0:0:
4,284,113705,2,0,B|68:324|124:284|124:284|164:268|204:292,1,195,0|8,0:0|0:0,0:0:0:0:
292,364,114905,1,8,0:0:0:0:
412,312,115385,2,0,P|424:273|413:223,1,65,0|0,0:0|3:0,0:0:0:0:
384,195,115865,5,0,3:0:0:0:
384,195,116105,2,0,P|344:107|392:19,1,195,0|8,0:0|0:0,0:0:0:0:
264,76,117305,1,0,0:0:0:0:
264,76,117545,2,0,B|208:60|208:60|144:76|56:84,1,195,2|8,3:0|0:0,0:0:0:0:
16,116,118505,2,0,B|0:172|0:172|0:204|32:252,1,130
80,276,119225,1,8,0:0:0:0:
164,176,119705,6,0,B|204:176|228:160|228:160|244:136|268:176|268:176|308:152|356:152|428:184,1,260,0|8,0:0|0:0,0:0:0:0:
492,276,121145,1,0,3:0:0:0:
492,276,121385,2,0,L|424:276,1,65,0|0,3:0|0:0,0:0:0:0:
364,276,121865,1,0,0:0:0:0:
252,340,122345,1,0,3:0:0:0:
252,340,122585,2,0,L|164:340,1,65,8|0,0:0|0:0,0:0:0:0:
124,340,123065,1,2,0:3:0:0:
37,239,123545,6,0,P|13:263|-6:317,2,65,4|0|8,3:2|0:0|0:0,0:0:0:0:
101,239,124265,2,0,P|133:175|109:111,1,130,4|8,3:2|0:0,0:0:0:0:
37,23,125225,6,0,B|85:47|141:31|141:31|189:47|205:103,1,195,4|8,3:2|0:0,0:0:0:0:
249,211,126425,2,0,P|289:219|336:203,1,65,8|8,0:0|3:0,0:0:0:0:
361,171,126905,1,8,3:0:0:0:
361,171,127145,1,4,3:2:0:0:
482,125,127625,5,0,0:0:0:0:
482,125,127865,2,0,L|488:61,1,65,4|4,0:3|0:3,0:0:0:0:
498,3,128345,1,0,0:0:0:0:
440,256,129305,6,0,L|360:256,1,65,6|0,3:2|0:0,0:0:0:0:
312,256,129785,2,0,L|232:256,1,65,10|2,0:0|0:1,0:0:0:0:
184,256,130265,1,2,3:2:0:0:
54,256,130745,6,0,P|46:215|62:167,1,65,10|2,0:2|0:0,0:0:0:0:
94,144,131225,1,2,3:2:0:0:
35,21,131705,1,10,0:0:0:0:
35,21,131945,2,0,L|115:21,1,65,2|0,0:0|0:0,0:0:0:0:
147,69,132425,1,0,0:0:0:0:
147,69,132665,2,0,L|219:69,1,65,8|0,0:0|0:0,0:0:0:0:
275,69,133145,5,0,3:0:0:0:
403,69,133625,2,0,B|435:69|459:61|459:61|467:21|515:21,2,130,8|0|8,0:0|3:0|0:0,0:0:0:0:
368,124,134825,2,0,P|324:176|242:178,1,130,12|0,0:0|0:0,0:0:0:0:
200,188,135545,1,8,0:0:0:0:
118,86,136025,2,0,P|78:78|30:94,1,65,2|2,3:2|0:0,0:0:0:0:
10,126,136505,1,10,0:0:0:0:
0,256,136985,6,0,L|72:256,1,65,6|0,3:2|0:0,0:0:0:0:
128,256,137465,2,0,L|200:256,1,65,10|0,0:0|0:0,0:0:0:0:
256,256,137945,1,2,3:2:0:0:
344,352,138425,2,0,L|431:342,1,65,10|2,0:0|0:0,0:0:0:0:
472,336,138905,5,6,3:2:0:0:
412,220,139385,1,10,0:0:0:0:
412,220,139625,2,0,B|428:172|428:172|408:76,1,130,2|0,0:0|3:0,0:0:0:0:
380,40,140345,2,0,P|340:48|292:32,1,65,8|0,0:0|0:0,0:0:0:0:
268,0,140825,5,4,3:2:0:0:
184,100,141305,2,0,P|144:110|95:98,1,65,8|0,0:0|0:0,0:0:0:0:
69,68,141785,1,0,3:0:0:0:
100,196,142265,1,0,3:0:0:0:
100,196,142505,6,0,B|220:212|284:132|284:132|364:172|308:252,1,325,4|8,3:2|0:0,0:0:0:0:
228,324,144185,2,0,L|148:324,1,65,8|8,3:0|3:0,0:0:0:0:
100,324,144665,6,0,P|68:292|68:228,2,97.5,4|0|0,3:2|3:0|3:0,0:0:0:0:
163,324,145625,1,8,0:0:0:0:
268,248,146105,1,8,3:0:0:0:
268,248,146585,6,0,P|284:205|258:147,2,97.5,0|0|0,3:0|3:0|3:0,0:0:0:0:
204,252,147545,1,8,0:0:0:0:
188,124,148025,2,0,P|148:132|100:108,1,65,8|0,3:0|0:0,0:0:0:0:
60,124,148505,6,0,P|28:156|28:220,2,97.5,0|0|0,3:0|3:0|3:0,0:0:0:0:
125,126,149465,1,8,0:0:0:0:
212,224,149945,1,8,3:0:0:0:
212,224,150425,6,0,L|332:224,2,97.5,0|0|8,0:0|3:0|3:0,0:0:0:0:
212,160,151385,2,0,L|132:160,1,65,8|2,0:0|3:0,0:0:0:0:
148,96,151865,2,0,L|76:96,1,65,8|8,0:0|3:0,0:0:0:0:
20,96,152345,5,0,3:0:0:0:
120,180,152825,2,0,P|80:228|44:311,2,130
176,212,154025,1,0,3:0:0:0:
176,212,154265,6,0,P|149:268|136:358,2,130,0|8|8,0:0|0:0|0:0,0:0:0:0:
304,212,155705,1,8,0:0:0:0:
408,136,156185,6,0,P|360:88|280:96,2,130,0|8|8,3:0|0:0|0:0,0:0:0:0:
304,212,157625,1,8,3:2:0:0:
304,212,157865,2,0,L|168:212,1,130,8|8,0:0|0:0,0:0:0:0:
112,212,158585,1,0,3:0:0:0:
112,212,158825,2,0,P|105:186|112:132,1,65,0|0,0:0|3:0,0:0:0:0:
143,94,159305,2,0,P|183:102|230:86,1,65,0|8,3:0|3:2,0:0:0:0:
255,54,159785,1,12,0:0:0:0:
356,220,160505,1,0,3:0:0:0:
356,220,160985,2,0,P|424:200|488:224,1,130,8|8,0:0|0:0,0:0:0:0:
512,272,161705,1,12,0:0:0:0:
420,364,162185,5,8,0:3:0:0:
420,364,162425,2,0,L|340:364,1,65,0|0,3:0|0:0,0:0:0:0:
292,364,162905,1,2,3:0:0:0:
292,364,163145,2,0,B|187:372|188:283|188:283|235:251,1,195
352,244,164345,1,0,0:0:0:0:
352,244,164825,1,0,0:0:0:0:
352,244,165305,2,0,L|352:172,1,65
352,116,165785,6,2,P|312:64|230:54,1,130,6|6,3:1|3:1,0:1:0:0:
236,180,166745,2,0,L|172:180,1,65,2|0,3:1|0:0,0:0:0:0:
108,180,167225,1,0,0:0:0:0:
108,180,167465,6,0,P|68:228|116:284,1,130,4|0,3:2|3:0,0:0:0:0:
164,292,168185,1,8,0:0:0:0:
268,208,168665,1,0,0:0:0:0:
268,208,168905,2,0,L|356:208,1,65,0|8,0:0|0:0,0:0:0:0:
396,208,169385,6,0,P|436:256|388:312,1,130,4|0,3:2|3:0,0:0:0:0:
340,320,170105,1,8,0:0:0:0:
240,236,170585,2,2,P|200:228|152:244,1,65,2|2,3:2|0:0,0:1:0:0:
128,276,171065,1,10,0:0:0:0:
28,356,171545,6,0,L|28:276,1,65,6|0,3:2|0:0,0:0:0:0:
28,228,172025,2,0,L|28:156,1,65,10|0,0:0|0:0,0:0:0:0:
28,100,172505,1,2,3:2:0:0:
140,168,172985,2,0,P|180:176|227:160,1,65,10|2,0:0|0:0,0:0:0:0:
252,128,173465,1,6,3:2:0:0:
352,208,173945,1,2,3:2:0:0:
352,208,174305,2,2,P|368:256|352:320,1,97.5,6|0,3:2|3:0,0:1:0:0:
304,328,174905,2,0,P|264:320|216:336,1,65,8|0,0:0|0:0,0:0:0:0:
192,368,175385,5,4,3:1:0:0:
120,260,175865,2,0,P|80:268|32:252,1,65,8|0,0:0|0:0,0:0:0:0:
8,221,176345,1,0,3:0:0:0:
92,120,176825,1,0,3:0:0:0:
92,120,177065,6,0,B|124:120|144:116|144:116|208:160|288:116,1,195,12|2,0:0|3:2,0:0:0:0:
396,64,178265,1,8,0:0:0:0:
396,64,178505,2,0,L|404:-16,2,65,0|8|8,0:0|0:0|0:0,0:0:0:0:
388,128,179225,6,0,L|300:136,1,65,6|0,3:2|0:0,0:0:0:0:
276,88,179705,2,0,L|180:80,1,65,10|0,0:0|0:0,0:0:0:0:
148,72,180185,1,2,3:2:0:0:
52,160,180665,2,0,P|43:200|59:247,1,65,10|2,0:0|0:0,0:0:0:0:
92,272,181145,5,2,3:2:0:0:
208,332,181625,1,10,0:0:0:0:
208,332,181865,2,0,L|279:324,1,65,2|0,0:0|3:0,0:0:0:0:
336,316,182345,1,0,0:0:0:0:
336,316,182585,2,0,P|344:275|328:228,1,65,8|0,0:0|0:0,0:0:0:0:
296,203,183065,5,0,3:0:0:0:
428,228,183545,2,0,P|430:174|379:100,2,130,8|0|8,0:0|3:0|0:0,0:0:0:0:
404,288,184745,2,0,P|350:285|276:336,1,130,12|0,0:0|0:0,0:0:0:0:
256,380,185465,1,8,0:0:0:0:
128,380,185945,2,2,L|48:380,1,65,2|2,3:2|3:2,0:1:0:0:
1,380,186425,1,10,0:0:0:0:
0,252,186905,6,0,L|80:252,1,65,6|0,3:2|0:0,0:0:0:0:
128,252,187385,2,0,L|216:252,1,65,10|0,0:0|0:0,0:0:0:0:
256,252,187865,1,2,3:2:0:0:
385,252,188345,6,0,P|411:221|422:171,1,65,10|2,0:0|0:0,0:0:0:0:
407,135,188825,1,6,3:2:0:0:
324,36,189305,1,10,0:0:0:0:
324,36,189545,2,0,P|268:20|188:40,1,130,2|0,0:0|0:0,0:0:0:0:
172,92,190265,2,0,P|132:95|85:75,1,65,8|0,0:0|0:0,0:0:0:0:
62,41,190745,5,0,3:0:0:0:
8,160,191225,2,0,P|2:200|20:246,1,65,8|0,0:0|0:0,0:0:0:0:
53,269,191705,1,0,3:0:0:0:
160,352,192185,1,0,3:0:0:0:
160,352,192425,6,0,B|248:304|264:380|300:336|300:336|344:348|368:320|348:296|340:276|340:276|368:248|352:208,1,325,12|0,0:0|3:0,0:0:0:0:
476,160,194105,2,0,P|443:158|413:146,1,65,8|8,0:0|0:0,0:0:0:0:
384,88,194585,6,0,L|296:88,1,65,6|6,3:1|3:1,0:0:0:0:
256,88,195065,1,10,0:2:0:0:
344,184,195545,2,0,L|256:184,1,65,2|2,3:1|3:1,0:0:0:0:
216,184,196025,1,10,0:0:0:0:
120,272,196505,6,0,L|208:272,1,65,2|2,3:1|3:1,0:0:0:0:
248,272,196985,1,10,0:0:0:0:
152,360,197465,2,0,L|240:360,1,65,2|2,3:1|3:1,0:0:0:0:
280,360,197945,1,10,0:0:0:0:
408,360,198425,6,0,L|408:272,1,65,2|2,3:1|3:1,0:0:0:0:
408,232,198905,1,10,0:0:0:0:
496,328,199385,2,0,L|496:240,1,65,2|2,3:1|3:1,0:0:0:0:
496,200,199865,1,10,0:0:0:0:
473,71,200345,6,0,P|433:79|385:63,1,65,2|2,3:1|3:1,0:0:0:0:
361,31,200825,1,10,0:0:0:0:
312,152,201305,2,0,P|272:144|224:160,1,65,2|2,3:1|3:1,0:0:0:0:
200,192,201785,1,10,0:0:0:0:
200,192,202025,1,10,0:0:0:0:
200,192,202265,6,0,P|144:208|72:184,2,116.999996429443,6|0|2,0:1|0:0|0:1,0:0:0:0:
280,280,203705,2,0,L|344:280,1,58.4999982147217
396,280,204185,6,0,P|437:239|452:168,2,116.999996429443,2|0|2,0:1|0:0|0:1,0:0:0:0:
336,180,205625,2,0,P|328:140|336:108,1,58.4999982147217
340,64,206105,6,0,P|284:48|212:72,1,116.999996429443,2|0,0:1|0:0,0:0:0:0:
136,140,207065,2,0,P|192:155|264:132,1,116.999996429443,2|0,0:1|0:0,0:0:0:0:
356,96,208025,6,0,L|372:232,1,116.999996429443,2|0,0:1|0:0,0:0:0:0:
280,288,208985,2,0,L|264:152,1,116.999996429443,2|0,0:1|0:0,0:0:0:0:
