osu file format v14

[General]
AudioFilename: audio.mp3
AudioLeadIn: 0
PreviewTime: 47705
Countdown: 0
SampleSet: Soft
StackLeniency: 0.4
Mode: 0
LetterboxInBreaks: 0
WidescreenStoryboard: 1

[Editor]
DistanceSpacing: 0.6
BeatDivisor: 4
GridSize: 4
TimelineZoom: 2.1

[Metadata]
Title:Amy
TitleUnicode:エイミー
Artist:Yorushika
ArtistUnicode:ヨルシカ
Creator:Ryuusei Aika
Version:Lunala's Hard
Source:
Tags:Rein_Liya Rin_Sa Lunala CoLouRed GlazeE Deca ナブナ nbuna n-buna スイ suis エルマ elma japanese novelty female vocal
BeatmapID:2248531
BeatmapSetID:1048140

[Difficulty]
HPDrainRate:5
CircleSize:3.5
OverallDifficulty:6
ApproachRate:7
SliderMultiplier:1.6
SliderTickRate:1

[Events]
//Background and Video events
0,0,"BG.jpg",0,0
//Break Periods
2,8078,14428
2,81515,86945
2,88165,94085
//Storyboard Layer 0 (Background)
//Storyboard Layer 1 (Fail)
//Storyboard Layer 2 (Pass)
//Storyboard Layer 3 (Foreground)
//Storyboard Layer 4 (Overlay)
//Storyboard Sound Samples

[TimingPoints]
670,495.867768595041,4,2,1,40,1,0
670,-100,4,2,1,40,0,0
1661,476.190476190476,4,2,1,40,1,0
1661,-100,4,2,1,40,0,0
4518,480,4,2,1,40,1,0
4518,-100,4,2,1,40,0,0
7638,-133.333333333333,4,2,1,40,0,0
9318,495.867768595041,4,2,1,40,1,0
9318,-100,4,2,1,40,0,0
12188,487.80487804878,4,2,1,40,1,0
12188,-100,4,2,1,40,0,0
14147,472.44094488189,4,2,1,40,1,0
14147,-133.333333333333,4,2,1,40,0,0
16025,480,4,2,1,40,1,0
16025,-133.333333333333,4,2,1,25,0,0
16265,-133.333333333333,4,2,1,40,0,0
16505,-133.333333333333,4,2,1,25,0,0
23945,-133.333333333333,4,2,1,40,0,0
24185,-133.333333333333,4,2,1,25,0,0
26825,-133.333333333333,4,2,1,40,0,0
27065,-133.333333333333,4,2,1,25,0,0
27305,-133.333333333333,4,2,1,40,0,0
27545,-133.333333333333,4,2,1,25,0,0
29225,-133.333333333333,4,2,1,30,0,0
29945,-133.333333333333,4,2,1,35,0,0
31385,-111.111111111111,4,2,1,40,0,0
39065,-111.111111111111,4,2,1,35,0,0
40985,-111.111111111111,4,2,1,40,0,0
41225,-111.111111111111,4,2,1,35,0,0
42905,-111.111111111111,4,2,1,40,0,0
44585,-111.111111111111,4,2,1,50,0,0
46745,-111.111111111111,4,2,1,40,0,0
46985,-111.111111111111,4,2,1,50,0,0
47945,-166.666666666667,4,2,1,20,0,0
48665,-83.3333333333333,4,2,1,60,0,1
55385,-83.3333333333333,4,2,1,45,0,1
56345,-83.3333333333333,4,2,1,60,0,1
64025,-83.3333333333333,4,2,1,50,0,0
71705,-83.3333333333333,4,2,1,60,0,0
77225,-100,4,2,1,60,0,0
81305,-133.333333333333,4,2,1,25,0,0
87845,-133.333333333333,4,2,1,40,0,0
95225,-133.333333333333,4,2,1,30,0,0
95465,-133.333333333333,4,2,1,40,0,0
95705,-133.333333333333,4,2,1,30,0,0
96185,-133.333333333333,4,2,1,35,0,0
96665,-133.333333333333,4,2,1,35,0,0
96905,-133.333333333333,4,2,1,40,0,0
97145,-133.333333333333,4,2,1,35,0,0
104225,-133.333333333333,4,2,1,40,0,0
104345,-133.333333333333,4,2,1,35,0,0
107465,-133.333333333333,4,2,1,40,0,0
107705,-133.333333333333,4,2,1,35,0,0
108185,-133.333333333333,4,2,1,25,0,0
108665,-133.333333333333,4,2,1,40,0,0
109145,-133.333333333333,4,2,1,25,0,0
109625,-133.333333333333,4,2,1,40,0,0
109865,-133.333333333333,4,2,1,35,0,0
112025,-111.111111111111,4,2,1,40,0,0
112745,-111.111111111111,4,3,0,35,0,0
112985,-111.111111111111,4,2,1,40,0,0
116585,-111.111111111111,4,3,0,35,0,0
116825,-111.111111111111,4,2,1,40,0,0
124985,-111.111111111111,4,3,0,40,0,0
125225,-111.111111111111,4,2,1,40,0,0
128585,-166.666666666667,4,2,1,40,0,0
129185,-166.666666666667,4,2,1,5,0,0
129305,-83.3333333333333,4,2,1,60,0,1
136025,-83.3333333333333,4,2,1,45,0,1
136985,-83.3333333333333,4,2,1,60,0,1
143345,-83.3333333333333,4,3,0,50,0,1
143465,-83.3333333333333,4,2,1,60,0,1
144665,-133.333333333333,4,2,1,30,0,0
152345,-133.333333333333,4,2,1,35,0,0
153785,-133.333333333333,4,3,0,35,0,0
154025,-133.333333333333,4,2,1,35,0,0
154985,-133.333333333333,4,2,1,27,0,0
155225,-133.333333333333,4,2,1,33,0,0
155945,-133.333333333333,4,2,1,37,0,0
156185,-133.333333333333,4,2,1,40,0,0
157145,-133.333333333333,4,2,1,35,0,0
158105,-133.333333333333,4,2,1,50,0,0
158825,-133.333333333333,4,2,1,35,0,0
159065,-133.333333333333,4,2,1,50,0,0
159785,-111.111111111111,4,2,1,50,0,0
162665,-111.111111111111,4,2,1,40,0,0
162905,-111.111111111111,4,2,1,50,0,0
163145,-111.111111111111,4,2,1,40,0,0
163265,-111.111111111111,4,2,1,50,0,0
163865,-133.333333333333,4,2,1,50,0,0
165785,-100,4,2,1,60,0,0
166025,-100,4,2,1,50,0,0
166265,-100,4,2,1,60,0,0
166745,-100,4,2,1,90,0,0
167225,-100,4,2,1,45,0,0
167465,-100,4,2,1,60,0,0
170585,-100,4,2,1,45,0,0
171545,-100,4,2,1,60,0,0
171905,-100,4,2,1,50,0,0
172025,-100,4,2,1,60,0,0
172865,-100,4,2,1,50,0,0
172985,-100,4,2,1,60,0,0
175625,-100,4,2,1,50,0,0
175865,-100,4,2,1,60,0,0
178025,-100,4,2,1,50,0,0
178265,-100,4,2,1,60,0,0
179225,-83.3333333333333,4,2,1,60,0,1
185945,-83.3333333333333,4,2,1,45,0,1
186905,-83.3333333333333,4,2,1,60,0,1
194585,-83.3333333333333,4,2,1,50,0,0
201785,-100,4,2,1,50,0,0
202265,-125,4,2,1,20,0,0
206105,-133.333333333333,4,2,1,20,0,0
207065,-142.857142857143,4,2,1,20,0,0
207905,-153.846153846154,4,2,1,20,0,0
208985,-166.666666666667,4,2,1,20,0,0
209465,-166.666666666667,4,2,1,15,0,0

[Colours]
Combo1 : 204,141,130
Combo2 : 108,163,181
Combo3 : 216,184,118
Combo4 : 150,141,186

[HitObjects]
168,151,7638,5,0,0:0:0:0:
244,126,7878,1,2,0:0:0:0:
87,87,15328,5,2,0:0:0:0:
87,87,15564,2,0,L|99:188,1,90.0000034332277,2|0,0:3|0:0,0:0:0:0:
75,250,16025,6,0,P|117:218|149:221,1,60.0000022888184,0|0,3:0|0:0,0:0:0:0:
272,308,16505,2,0,P|211:297|143:293,1,120.000004577637,0|0,3:0|3:0,0:0:0:0:
238,182,17465,1,0,3:0:0:0:
292,107,17705,2,0,B|310:51|310:51|271:-8,1,120.000004577637,2|0,0:0|0:0,0:0:0:0:
182,60,18425,2,0,L|108:59,1,60.0000022888184,0|0,3:0|0:0,0:0:0:0:
292,107,18905,2,0,P|349:94|431:86,1,120.000004577637,0|0,3:0|3:0,0:0:0:0:
492,224,19865,6,0,L|483:286,2,60.0000022888184,0|0|0,3:0|0:0|3:0,0:0:0:0:
434,352,20825,2,0,P|341:307|325:305,1,120.000004577637,0|0,3:0|3:0,0:0:0:0:
211,384,21545,2,0,L|283:374,1,60.0000022888184,0|0,0:0|3:0,0:0:0:0:
91,264,22985,6,0,L|71:192,2,60.0000022888184,0|0|2,0:0|3:0|0:3,0:0:0:0:
187,301,23705,6,0,L|284:267,1,60.0000022888184,0|0,3:0|0:0,0:0:0:0:
382,227,24185,2,0,P|323:226|268:170,1,120.000004577637,0|0,3:0|3:0,0:0:0:0:
444,154,25145,1,0,3:0:0:0:
462,248,25385,2,0,L|443:369,1,120.000004577637,2|0,0:0|0:0,0:0:0:0:
369,187,26585,2,0,L|358:111,1,60.0000022888184,0|0,3:0|0:0,0:0:0:0:
276,54,27065,2,0,L|262:121,1,60.0000022888184,0|0,3:0|0:0,0:0:0:0:
147,152,27545,6,0,P|208:176|218:235,1,120.000004577637,0|0,3:0|3:0,0:0:0:0:
180,308,28265,1,0,0:0:0:0:
119,237,28505,2,0,L|51:262,2,60.0000022888184,0|0|0,3:0|0:0|3:0,0:0:0:0:
260,306,29225,2,0,P|319:280|391:312,1,120.000004577637,4|0,3:2|3:0,0:0:0:0:
461,328,29945,2,0,L|459:250,1,60.0000022888184,12|0,0:0|0:0,0:0:0:0:
491,192,30305,1,8,0:0:0:0:
491,192,30425,2,0,L|472:137,1,30.0000011444092,8|8,0:0|0:0,0:0:0:0:
454,88,30665,2,0,L|519:62,2,60.0000022888184,8|8|0,0:0|0:3|3:0,0:0:0:0:
360,127,31385,6,0,P|361:33|477:-1,1,215.999993408203,0|0,3:0|0:0,0:0:0:0:
454,88,32345,1,8,0:0:0:0:
389,244,32825,1,0,0:0:0:0:
296,288,33065,6,0,B|253:291|211:253|211:253|152:295|152:295|101:238|32:257,1,287.999991210938,0|0,3:0|3:0,0:0:0:0:
67,355,34265,1,8,0:0:0:0:
44,254,34505,2,0,L|30:177,2,71.9999978027344
180,257,35225,6,0,P|268:224|355:306,1,215.999993408203,0|0,3:0|0:0,0:0:0:0:
255,323,36185,1,8,0:0:0:0:
437,253,36665,1,0,0:0:0:0:
395,166,36905,6,0,L|412:4,1,143.999995605469,0|0,3:0|0:0,0:0:0:0:
496,70,37625,2,0,L|486:147,1,71.9999978027344,8|0,0:0|0:0,0:0:0:0:
395,166,38105,2,0,P|353:138|312:137,1,71.9999978027344,0|2,3:0|3:0,0:0:0:0:
287,145,38465,1,0,0:0:0:0:
287,145,38585,2,0,L|306:200,2,35.9999989013672,8|8|0,0:0|0:0|0:0,0:0:0:0:
198,92,39065,5,4,3:2:0:0:
135,161,39305,1,0,0:0:0:0:
49,124,39545,2,0,P|56:40|129:10,1,143.999995605469,0|8,0:0|0:0,0:0:0:0:
242,8,40265,2,0,L|324:-1,1,71.9999978027344,0|0,0:0|3:0,0:0:0:0:
198,92,40745,6,0,B|235:145|235:145|189:247,1,143.999995605469,0|0,3:0|3:0,0:0:0:0:
87,270,41465,1,0,0:0:0:0:
155,361,41705,2,0,P|191:327|229:322,1,71.9999978027344,0|8,3:0|0:0,0:0:0:0:
261,222,42185,2,0,P|240:161|208:137,2,71.9999978027344,0|2|0,0:0|0:3|0:0,0:0:0:0:
276,372,42905,5,4,3:2:0:0:
400,330,43145,2,0,L|452:302,2,35.9999989013672,0|8|8,0:0|0:0|0:0,0:0:0:0:
351,202,43625,2,0,L|524:235,1,143.999995605469,4|8,3:2|2:0,0:0:0:0:
474,131,44345,1,8,0:3:0:0:
324,112,44585,6,0,P|254:183|274:243,1,143.999995605469,4|0,3:2|3:0,0:0:0:0:
199,287,45305,1,8,0:0:0:0:
171,205,45545,1,0,0:0:0:0:
277,308,45785,2,0,L|265:413,1,71.9999978027344,2|8,3:0|0:3,0:0:0:0:
258,218,46265,1,8,0:3:0:0:
371,268,46505,6,0,L|357:365,1,71.9999978027344,4|0,3:2|0:0,0:0:0:0:
208,368,46985,1,0,0:0:0:0:
202,280,47225,1,8,0:0:0:0:
195,187,47465,1,8,0:0:0:0:
184,92,47705,1,8,0:0:0:0:
318,43,47945,6,0,P|342:98|304:162,1,119.999996337891
266,95,48665,6,0,L|423:135,1,143.999995605469,6|0,3:2|0:0,0:0:0:0:
434,222,49145,2,0,L|295:187,1,143.999995605469,10|0,0:0|0:0,0:0:0:0:
205,204,49625,2,0,B|253:266|253:266|211:345,1,143.999995605469,2|0,3:2|0:0,0:0:0:0:
153,375,50105,2,0,P|132:322|153:282,1,95.9999970703126,10|2,0:0|0:0,0:0:0:0:
265,152,50585,5,2,3:2:0:0:
283,248,50825,1,2,0:0:0:0:
127,215,51065,1,10,0:2:0:0:
196,98,51305,1,2,0:0:0:0:
196,98,51425,2,0,P|247:66|333:120,1,143.999995605469
387,172,52025,1,8,0:0:0:0:
463,95,52265,1,0,0:0:0:0:
510,209,52505,6,0,L|500:332,1,95.9999970703126,0|0,3:0|0:0,0:0:0:0:
394,350,52985,1,8,0:0:0:0:
306,240,53225,1,0,0:0:0:0:
306,240,53345,2,0,B|280:175|280:175|337:87,1,143.999995605469
395,217,53945,1,8,0:0:0:0:
284,316,54185,6,0,B|212:297|193:330|174:367|93:344,1,191.999994140625,12|0,0:0|0:0,0:0:0:0:
19,275,54905,1,8,0:0:0:0:
61,190,55145,1,0,0:0:0:0:
158,221,55385,2,0,B|187:265|187:265|167:326,2,95.9999970703126,2|2|10,3:2|0:0|0:0,0:0:0:0:
91,92,56105,5,8,0:0:0:0:
91,92,56225,1,8,0:0:0:0:
91,92,56345,2,0,P|205:58|229:11,1,143.999995605469,6|0,3:2|0:0,0:0:0:0:
302,43,56825,2,0,L|278:223,1,143.999995605469,10|0,0:0|0:0,0:0:0:0:
359,245,57305,2,0,L|379:83,1,143.999995605469,2|0,3:2|0:0,0:0:0:0:
462,64,57785,2,0,B|486:112|486:112|457:167,1,95.9999970703126,10|2,0:0|0:0,0:0:0:0:
306,158,58265,5,6,3:2:0:0:
391,104,58505,1,2,0:0:0:0:
359,245,58745,1,10,0:0:0:0:
212,257,58985,1,2,0:0:0:0:
212,257,59105,2,0,L|29:227,1,143.999995605469,4|0,3:2|3:0,0:0:0:0:
17,128,59705,1,8,0:0:0:0:
115,38,59945,5,0,0:0:0:0:
124,29,60065,1,0,0:0:0:0:
135,16,60185,2,0,P|145:84|119:140,1,95.9999970703126,4|0,3:2|0:0,0:0:0:0:
65,216,60665,1,8,0:0:0:0:
195,184,60905,1,0,0:0:0:0:
195,184,61025,2,0,L|354:161,1,143.999995605469
305,246,61625,1,0,3:0:0:0:
145,109,61865,6,0,L|336:81,1,191.999994140625,12|0,0:0|0:0,0:0:0:0:
445,179,62585,1,8,3:0:0:0:
434,215,62705,1,8,3:0:0:0:
409,239,62825,1,0,3:0:0:0:
378,250,62945,1,0,3:0:0:0:
347,247,63065,1,0,3:0:0:0:
282,117,63305,2,0,L|289:-3,2,95.9999970703126,0|8|0,3:0|0:0|3:0,0:0:0:0:
172,216,64025,6,0,L|186:338,1,95.9999970703126,6|6,3:1|3:1,0:0:0:0:
259,374,64505,1,10,0:0:0:0:
254,189,64985,5,2,3:1:0:0:
189,132,65225,1,2,3:1:0:0:
106,161,65465,1,10,0:0:0:0:
236,274,65945,5,2,3:1:0:0:
254,189,66185,1,2,3:1:0:0:
189,132,66425,1,10,0:0:0:0:
154,303,66905,5,2,3:1:0:0:
236,274,67145,1,2,3:1:0:0:
189,132,67385,1,10,0:0:0:0:
319,276,67865,5,2,3:1:0:0:
406,269,68105,1,2,3:1:0:0:
442,190,68345,1,10,0:0:0:0:
269,205,68825,5,2,3:1:0:0:
319,276,69065,1,2,3:1:0:0:
406,269,69305,1,10,0:0:0:0:
306,127,69785,5,2,3:1:0:0:
269,205,70025,1,2,3:1:0:0:
319,275,70265,1,10,0:0:0:0:
392,119,70745,5,2,3:1:0:0:
306,127,70985,1,2,3:1:0:0:
319,275,71225,5,10,0:0:0:0:
317,237,71345,1,8,0:0:0:0:
285,207,71465,1,8,0:0:0:0:
249,205,71585,1,8,0:0:0:0:
216,234,71705,6,0,L|240:353,1,95.9999970703126,4|4,3:2|3:2,0:0:0:0:
107,381,72185,2,0,L|96:331,1,47.9999985351563,10|8,0:0|3:2,0:0:0:0:
61,301,72425,2,0,L|50:244,1,47.9999985351563,8|8,0:0|0:0,0:0:0:0:
23,209,72665,6,0,P|73:223|158:234,1,95.9999970703126,4|4,3:2|3:2,0:0:0:0:
255,105,73145,2,0,L|189:88,1,47.9999985351563,10|8,0:0|0:3,0:0:0:0:
172,68,73385,2,0,L|113:55,1,47.9999985351563,0|8,3:0|0:3,0:0:0:0:
93,31,73625,6,0,P|114:91|121:159,1,95.9999970703126,4|4,3:1|3:2,0:0:0:0:
189,259,74105,2,0,L|252:240,1,47.9999985351563,2|8,0:0|3:0,0:0:0:0:
278,253,74345,2,0,L|333:234,1,47.9999985351563,0|0,3:0|3:0,0:0:0:0:
345,220,74585,6,0,P|308:215|239:201,1,95.9999970703126,4|4,3:2|3:2,0:0:0:0:
357,84,75065,1,8,0:3:0:0:
436,116,75305,1,2,0:0:0:0:
299,147,75545,5,4,3:2:0:0:
357,84,75785,1,4,3:2:0:0:
344,221,76025,2,0,L|337:276,2,47.9999985351563,0|8|8,3:0|3:0|0:3,0:0:0:0:
436,116,76505,1,8,0:3:0:0:
430,203,76745,1,8,3:3:0:0:
357,84,76985,1,8,0:0:0:0:
344,221,77225,6,0,L|182:203,1,160,4|0,3:2|3:0,0:0:0:0:
100,234,77945,2,0,P|106:153|131:129,1,120,2|0,0:3|3:0,0:0:0:0:
165,102,78425,2,0,L|161:37,2,40,8|8|0,0:0|0:0|3:0,0:0:0:0:
237,256,78905,2,0,L|226:311,1,53.3333333333333,2|2,0:0|0:0,0:0:0:0:
216,343,79145,6,0,P|271:308|362:340,1,160,4|0,3:2|3:0,0:0:0:0:
466,364,79865,1,8,0:0:0:0:
400,242,80105,1,0,0:0:0:0:
400,242,80225,1,8,0:0:0:0:
400,242,80345,1,8,0:0:0:0:
341,302,80585,1,8,0:3:0:0:
381,376,80825,1,8,3:0:0:0:
466,364,81065,1,0,3:0:0:0:
474,278,81305,1,4,3:2:0:0:
238,165,87845,6,0,L|241:138,2,15.0000005722046,0|0|2,0:0|0:0|0:0,0:0:0:0:
329,180,94985,6,0,L|324:255,2,60.0000022888184,0|8|0,0:0|0:0|0:0,0:0:0:0:
421,107,95705,2,0,L|414:179,1,60.0000022888184,0|2,3:0|0:3,0:0:0:0:
341,42,96185,2,0,L|384:18,2,30.0000011444092,8|8|8,0:0|0:0|3:2,0:0:0:0:
200,83,96665,6,0,L|222:158,1,60.0000022888184,4|0,3:2|0:0,0:0:0:0:
186,213,97145,2,0,P|226:174|304:192,1,120.000004577637,8|0,0:0|3:0,0:0:0:0:
116,334,98105,1,8,0:0:0:0:
46,273,98345,2,0,L|24:131,2,120.000004577637,0|0|0,3:0|0:0|0:0,0:0:0:0:
154,339,100025,2,0,L|221:328,1,60.0000022888184,8|0,0:0|0:0,0:0:0:0:
265,382,100505,6,0,P|263:314|316:282,1,120.000004577637,0|8,3:0|0:0,0:0:0:0:
436,205,101465,2,0,P|438:273|385:305,1,120.000004577637,0|8,3:0|0:0,0:0:0:0:
333,338,102185,2,0,B|412:296|412:296|520:337,1,180.000006866455,0|8,3:0|0:0,0:0:0:0:
510,193,103625,2,0,L|491:115,1,60.0000022888184,2|8,0:3|0:0,0:0:0:0:
472,95,103985,2,0,L|458:182,1,60.0000022888184,8|0,0:0|0:0,0:0:0:0:
442,197,104345,6,0,P|373:169|312:192,1,120.000004577637,4|8,3:2|0:0,0:0:0:0:
200,58,105305,2,0,L|230:185,1,120.000004577637,0|8,3:0|0:0,0:0:0:0:
172,247,106025,2,0,P|139:197|57:191,1,120.000004577637
89,266,106745,1,8,0:0:0:0:
234,327,107225,2,0,L|299:315,1,60.0000022888184
326,214,107705,2,0,L|304:173,2,30.0000011444092,8|8|8,0:0|0:0|0:0,0:0:0:0:
365,246,108065,5,8,0:0:0:0:
365,246,108185,2,0,P|426:262|481:216,1,120.000004577637
432,57,109145,2,0,P|391:107|408:177,1,120.000004577637
475,128,109865,6,0,L|333:95,1,120.000004577637,4|0,3:2|3:0,0:0:0:0:
228,53,110585,2,0,L|252:121,1,60.0000022888184,12|0,0:0|3:0,0:0:0:0:
237,190,110945,1,0,0:0:0:0:
237,190,111065,2,0,L|259:240,1,30.0000011444092,8|8,0:0|0:0,0:0:0:0:
218,290,111305,2,0,L|138:275,2,60.0000022888184,8|8|8,3:2|3:0|3:0,0:0:0:0:
340,323,112025,6,0,P|408:285|510:362,1,215.999993408203,4|0,3:2|0:0,0:0:0:0:
416,383,112985,1,8,0:0:0:0:
229,330,113465,1,0,0:0:0:0:
165,268,113705,6,0,B|147:171|177:101|177:101|197:172|265:187,1,287.999991210938
351,173,114905,1,8,0:0:0:0:
265,95,115145,2,0,P|271:52|287:16,2,71.9999978027344,0|0|0,0:0|0:0|3:0,0:0:0:0:
382,91,115865,6,0,P|443:163|372:259,1,215.999993408203,0|0,3:0|0:0,0:0:0:0:
292,273,116825,1,8,0:0:0:0:
146,132,117305,1,0,0:0:0:0:
80,233,117545,6,0,L|242:193,1,143.999995605469,2|0,3:0|3:0,0:0:0:0:
292,273,118265,2,0,L|196:297,1,71.9999978027344,8|0,0:0|0:0,0:0:0:0:
353,340,118745,2,0,P|384:296|373:251,1,71.9999978027344
374,230,119105,1,0,0:0:0:0:
374,230,119225,2,0,L|435:253,2,35.9999989013672,8|8|0,0:0|0:0|0:0,0:0:0:0:
313,112,119705,5,0,0:0:0:0:
392,148,119945,1,0,0:0:0:0:
248,165,120185,2,0,P|241:77|309:34,1,143.999995605469,0|8,0:0|0:0,0:0:0:0:
155,76,120905,2,0,L|73:94,1,71.9999978027344,0|0,0:0|3:0,0:0:0:0:
248,165,121385,6,0,P|315:142|411:146,1,143.999995605469,0|0,3:0|0:0,0:0:0:0:
497,180,122105,1,0,0:0:0:0:
434,68,122345,2,0,P|446:13|469:-15,1,71.9999978027344,0|8,3:0|0:0,0:0:0:0:
497,180,122825,2,0,L|516:275,2,71.9999978027344,0|2|0,0:0|0:3|0:0,0:0:0:0:
387,133,123545,5,4,3:2:0:0:
367,262,123785,2,0,L|354:297,2,35.9999989013672,0|8|8,0:0|0:0|0:0,0:0:0:0:
233,233,124265,2,0,L|257:381,1,143.999995605469,4|8,3:2|0:0,0:0:0:0:
138,342,124985,1,0,0:0:0:0:
133,224,125225,6,0,P|168:146|237:130,1,143.999995605469,4|0,3:2|3:0,0:0:0:0:
321,197,125945,1,8,0:0:0:0:
276,61,126185,2,0,L|262:11,2,35.9999989013672,0|8|8,0:0|0:0|0:0,0:0:0:0:
385,147,126665,1,8,3:0:0:0:
253,141,126905,1,8,3:0:0:0:
362,61,127145,6,0,L|453:36,1,71.9999978027344,4|0,3:2|0:0,0:0:0:0:
511,160,127625,1,0,0:0:0:0:
424,148,127865,1,4,0:3:0:0:
327,135,128105,1,4,0:3:0:0:
227,124,128345,1,0,0:0:0:0:
125,190,128585,6,0,P|149:233|228:240,1,119.999996337891,8|0,3:0|0:0,0:0:0:0:
200,167,129305,6,0,B|197:245|197:245|110:310,1,143.999995605469,6|0,3:2|0:0,0:0:0:0:
195,350,129785,2,0,B|257:302|257:302|358:315,1,143.999995605469,10|0,0:0|0:0,0:0:0:0:
390,373,130265,2,0,P|356:288|403:255,1,143.999995605469,2|0,3:2|0:0,0:0:0:0:
467,216,130745,2,0,B|487:270|487:270|441:338,1,95.9999970703126,10|2,0:2|0:0,0:0:0:0:
367,177,131225,5,2,3:2:0:0:
402,86,131465,1,2,0:0:0:0:
467,216,131705,1,10,0:0:0:0:
301,233,131945,1,2,0:0:0:0:
301,233,132065,2,0,L|135:207,1,143.999995605469
28,226,132665,1,8,0:0:0:0:
97,280,132905,1,0,0:0:0:0:
144,148,133145,6,0,P|127:73|92:47,1,95.9999970703126,0|0,3:0|0:0,0:0:0:0:
57,144,133625,1,8,0:0:0:0:
167,231,133865,1,0,0:0:0:0:
167,231,133985,2,0,B|222:266|222:266|305:213,1,143.999995605469
349,116,134585,1,8,0:0:0:0:
478,185,134825,6,0,L|460:383,1,191.999994140625,12|0,0:0|0:0,0:0:0:0:
322,296,135545,1,8,0:0:0:0:
395,251,135785,1,0,0:0:0:0:
358,368,136025,2,0,B|315:383|315:383|235:339,2,95.9999970703126,2|2|10,3:2|0:0|0:0,0:0:0:0:
326,220,136745,5,8,0:0:0:0:
326,220,136865,1,8,0:0:0:0:
326,220,136985,2,0,P|230:213|199:281,1,143.999995605469,6|0,3:2|0:0,0:0:0:0:
224,332,137465,2,0,P|320:339|351:271,1,143.999995605469,10|0,0:0|0:0,0:0:0:0:
275,275,137945,2,0,L|138:319,1,143.999995605469,2|0,3:2|0:0,0:0:0:0:
51,345,138425,2,0,L|74:226,1,95.9999970703126,10|2,0:0|0:0,0:0:0:0:
142,115,138905,5,6,3:2:0:0:
156,206,139145,1,2,0:0:0:0:
10,182,139385,1,10,0:0:0:0:
72,71,139625,1,2,0:0:0:0:
72,71,139745,2,0,P|155:34|218:84,1,143.999995605469,4|0,3:2|3:0,0:0:0:0:
290,148,140345,1,8,0:0:0:0:
197,219,140585,5,0,0:0:0:0:
186,229,140705,1,0,0:0:0:0:
177,239,140825,2,0,L|187:106,1,95.9999970703126,4|0,3:2|0:0,0:0:0:0:
274,50,141305,1,8,0:0:0:0:
382,138,141545,1,0,0:0:0:0:
382,138,141665,2,0,L|367:295,1,143.999995605469
293,206,142265,1,0,3:0:0:0:
463,104,142505,6,0,L|447:311,1,191.999994140625,4|0,3:2|0:0,0:0:0:0:
324,342,143225,1,8,0:0:0:0:
295,332,143345,1,0,0:0:0:0:
271,303,143465,1,0,0:0:0:0:
266,271,143585,1,0,0:0:0:0:
286,235,143705,1,8,0:0:0:0:
382,149,143945,6,0,L|393:280,2,95.9999970703126,2|8|8,0:3|3:0|3:0,0:0:0:0:
298,67,144665,5,4,3:2:0:0:
250,319,145625,1,8,0:0:0:0:
153,109,146585,1,0,3:0:0:0:
396,252,147545,1,8,0:0:0:0:
136,267,148505,1,0,3:0:0:0:
410,139,149465,1,8,0:0:0:0:
154,159,150425,6,0,L|47:140,2,90.0000034332277,0|0|8,0:0|3:0|3:0,0:0:0:0:
247,92,151385,2,0,L|239:17,2,60.0000022888184,8|2|8,0:0|3:0|0:0,0:0:0:0:
318,191,152105,1,8,3:0:0:0:
389,118,152345,6,0,P|257:114|304:294,1,360.000013732911,0|0,3:0|0:0,0:0:0:0:
318,191,154025,2,0,L|63:218,1,240.000009155274,0|8,3:0|0:0,0:0:0:0:
11,260,155225,2,0,P|-1:224|22:161,2,90.0000034332277,8|8|8,0:0|0:0|0:0,0:0:0:0:
104,334,156185,6,0,P|151:273|305:290,1,240.000009155274,0|8,3:0|0:0,0:0:0:0:
398,301,157385,2,0,L|401:216,1,60.0000022888184,8|8,0:0|3:2,0:0:0:0:
373,125,157865,2,0,P|336:183|270:182,2,120.000004577637,8|8|0,0:0|0:0|0:0,0:0:0:0:
290,100,159065,1,0,3:0:0:0:
191,165,159305,2,0,L|115:163,1,60.0000022888184,0|8,3:0|3:2,0:0:0:0:
1,95,159785,6,0,L|169:78,1,143.999995605469,12|0,0:0|0:0,0:0:0:0:
224,25,160505,1,0,3:0:0:0:
156,71,160745,1,0,3:0:0:0:
289,77,160985,1,8,0:0:0:0:
177,151,161225,1,8,0:0:0:0:
224,25,161465,1,8,0:0:0:0:
262,158,161705,6,0,L|235:320,1,143.999995605469,12|8,0:0|0:3,0:0:0:0:
139,261,162425,2,0,L|126:225,2,35.9999989013672,0|8|0,3:0|0:3|0:0,0:0:0:0:
130,382,162905,1,2,3:0:0:0:
253,332,163145,1,0,0:0:0:0:
253,332,163265,1,8,0:0:0:0:
253,332,163385,2,0,L|312:322,1,35.9999989013672,8|8,0:0|0:0,0:0:0:0:
370,345,163625,2,0,L|412:338,1,35.9999989013672,8|8,0:0|0:0,0:0:0:0:
490,291,163865,6,2,P|436:249|437:179,3,120.000004577637
479,54,165785,2,2,L|473:140,1,80,6|2,3:1|0:1,0:1:0:0:
368,12,166265,2,2,L|383:109,1,80,6|2,3:1|0:1,0:1:0:0:
300,136,166745,2,0,P|384:145|390:241,1,160,2|0,3:1|0:0,0:0:0:0:
298,248,167465,6,0,L|491:222,1,160,4|0,3:2|3:0,0:0:0:0:
412,332,168185,1,8,0:0:0:0:
260,321,168425,2,0,P|212:250|240:186,1,160
288,101,169145,1,8,0:0:0:0:
170,142,169385,6,0,B|98:180|98:180|12:118,1,160,4|0,3:2|3:0,0:0:0:0:
8,251,170105,2,0,L|25:361,1,80,8|0,0:0|3:0,0:0:0:0:
34,134,170585,2,0,L|10:25,2,80,2|2|10,3:2|0:0|0:0,0:0:0:0:
135,203,171305,5,10,0:0:0:0:
135,203,171425,1,10,0:0:0:0:
135,203,171545,2,0,P|191:192|240:253,1,120,6|0,3:2|0:0,0:0:0:0:
272,300,172025,2,0,P|209:308|167:250,1,120,10|0,0:0|0:0,0:0:0:0:
235,230,172505,2,0,L|193:375,1,120,2|0,3:2|0:0,0:0:0:0:
294,379,172985,2,0,P|367:357|394:370,1,80,10|2,0:0|0:0,0:0:0:0:
493,351,173465,5,6,3:2:0:0:
414,275,173705,1,2,0:0:0:0:
388,375,173945,1,2,3:2:0:0:
485,232,174185,1,0,0:0:0:0:
485,232,174305,2,2,P|471:133|448:105,1,120,6|0,3:2|3:0,0:1:0:0:
332,68,174905,1,8,0:0:0:0:
276,185,175145,5,0,0:0:0:0:
269,177,175265,1,0,0:0:0:0:
261,167,175385,2,0,L|295:286,1,80,4|0,3:1|0:0,0:0:0:0:
379,172,175865,1,8,0:0:0:0:
168,130,176105,1,0,0:0:0:0:
168,130,176225,2,0,L|204:275,1,120
281,324,176825,1,0,3:0:0:0:
117,299,177065,6,0,L|76:109,1,160,12|8,0:0|3:0,0:0:0:0:
154,36,177785,2,0,P|177:81|151:138,2,80,2|2|8,3:2|0:0|0:0,0:0:0:0:
217,169,178505,1,0,0:0:0:0:
243,143,178625,1,8,0:0:0:0:
281,135,178745,1,8,0:0:0:0:
317,148,178865,1,8,0:0:0:0:
341,179,178985,1,8,0:0:0:0:
186,250,179225,6,0,P|107:268|53:199,1,143.999995605469,6|0,3:2|0:0,0:0:0:0:
130,191,179705,2,0,P|124:271|31:306,1,143.999995605469,10|0,0:0|0:0,0:0:0:0:
62,231,180185,2,0,P|130:282|115:359,1,143.999995605469,2|0,3:2|0:0,0:0:0:0:
226,298,180665,2,0,P|220:357|189:391,1,95.9999970703126,10|2,0:0|0:0,0:0:0:0:
129,334,181145,5,2,3:2:0:0:
210,208,181385,1,2,0:0:0:0:
226,298,181625,1,10,0:0:0:0:
125,165,181865,2,0,P|113:69|207:2,1,191.999994140625,2|0,0:0|0:0,0:0:0:0:
284,32,182585,1,8,0:0:0:0:
211,105,182825,1,0,0:0:0:0:
309,159,183065,6,0,L|426:143,1,95.9999970703126,0|0,3:0|0:0,0:0:0:0:
493,91,183545,1,8,0:0:0:0:
410,223,183785,1,0,0:0:0:0:
410,223,183905,2,0,L|251:250,1,143.999995605469
184,182,184505,1,8,0:0:0:0:
234,88,184745,6,0,P|294:159|264:250,1,191.999994140625,12|0,0:0|0:0,0:0:0:0:
120,266,185465,1,8,0:0:0:0:
184,182,185705,1,0,0:0:0:0:
203,289,185945,2,0,L|210:384,2,95.9999970703126,2|2|10,3:2|0:0|0:0,0:0:0:0:
293,191,186665,5,10,0:0:0:0:
293,191,186785,1,10,0:0:0:0:
293,191,186905,2,0,P|361:214|375:292,1,143.999995605469,6|0,3:2|0:0,0:0:0:0:
344,128,187385,2,0,P|378:198|319:267,1,143.999995605469,10|0,0:0|0:0,0:0:0:0:
427,117,187865,2,0,P|409:187|316:195,1,143.999995605469,2|0,3:2|0:0,0:0:0:0:
344,128,188345,2,0,L|354:20,1,95.9999970703126,10|2,0:0|0:0,0:0:0:0:
502,49,188825,5,6,3:2:0:0:
427,117,189065,1,2,0:0:0:0:
395,21,189305,1,10,0:0:0:0:
512,149,189545,1,2,0:0:0:0:
512,149,189665,2,2,L|499:330,1,143.999995605469,4|0,3:2|0:0,0:1:0:0:
421,360,190265,1,8,0:0:0:0:
326,278,190505,5,0,0:0:0:0:
314,273,190625,1,0,0:0:0:0:
304,268,190745,2,0,L|416:249,1,95.9999970703126,0|0,3:0|0:0,0:0:0:0:
309,374,191225,1,8,0:0:0:0:
187,296,191465,1,0,0:0:0:0:
187,296,191585,2,0,P|61:264|8:276,1,143.999995605469
138,383,192185,1,0,3:0:0:0:
236,232,192425,6,0,P|225:145|143:46,1,191.999994140625,12|8,0:0|0:0,0:0:0:0:
94,118,193145,5,0,3:0:0:0:
127,130,193265,1,8,0:0:0:0:
163,128,193385,1,0,3:0:0:0:
198,112,193505,1,8,0:0:0:0:
214,81,193625,1,0,3:0:0:0:
337,185,193865,1,0,0:0:0:0:
325,190,193985,1,8,0:0:0:0:
314,195,194105,2,0,L|332:133,1,47.9999985351563,8|8,0:0|0:0,0:0:0:0:
311,97,194345,2,0,L|325:45,1,47.9999985351563,8|8,0:0|0:0,0:0:0:0:
347,12,194585,6,0,L|378:114,1,95.9999970703126,6|6,3:1|3:1,0:0:0:0:
413,174,195065,1,10,0:2:0:0:
264,182,195545,5,2,3:1:0:0:
336,133,195785,1,2,3:1:0:0:
413,174,196025,1,10,0:0:0:0:
266,268,196505,5,2,3:1:0:0:
264,182,196745,1,2,3:1:0:0:
336,133,196985,1,10,0:0:0:0:
345,308,197465,5,2,3:1:0:0:
266,268,197705,1,2,3:1:0:0:
336,133,197945,1,10,0:0:0:0:
195,215,198425,5,2,3:1:0:0:
113,243,198665,1,2,3:1:0:0:
47,183,198905,1,10,0:0:0:0:
212,130,199385,5,2,3:1:0:0:
195,215,199625,1,2,3:1:0:0:
113,243,199865,1,10,0:0:0:0:
149,71,200345,5,2,3:1:0:0:
212,130,200585,1,2,3:1:0:0:
195,215,200825,1,10,0:0:0:0:
66,98,201305,5,2,3:1:0:0:
149,71,201545,1,2,3:1:0:0:
195,215,201785,2,0,L|190:271,1,40,10|8,0:0|0:0,0:0:0:0:
208,302,202025,2,0,L|202:366,1,40,10|8,0:0|0:0,0:0:0:0:
197,376,202265,6,0,P|221:341|262:329,1,64,6|2,0:1|0:1,0:0:0:0:
195,215,203225,2,0,P|237:218|271:249,1,64,2|2,0:1|0:1,0:0:0:0:
337,120,204185,2,0,P|355:158|338:204,1,64,2|2,0:1|0:1,0:0:0:0:
488,200,205145,2,0,P|464:235|421:246,1,64,2|2,0:1|0:1,0:0:0:0:
361,138,206105,6,0,L|373:62,1,60.0000022888184,2|2,0:1|0:1,0:0:0:0:
273,151,207065,2,0,L|293:77,1,55.9999982910157,2|2,0:1|0:1,0:0:0:0:
182,162,208025,2,0,L|207:95,1,51.999997619629,2|2,0:1|0:1,0:0:0:0:
91,166,208985,2,0,L|117:118,3,47.9999985351563,2|2|0|0,0:1|0:1|0:0|0:0,0:0:0:0:
