osu file format v14

[General]
AudioFilename: audio.mp3
AudioLeadIn: 0
PreviewTime: 47705
Countdown: 0
SampleSet: Soft
StackLeniency: 0.7
Mode: 0
LetterboxInBreaks: 0
WidescreenStoryboard: 1

[Editor]
Bookmarks: 81305
DistanceSpacing: 1.2
BeatDivisor: 4
GridSize: 4
TimelineZoom: 4.799998

[Metadata]
Title:Amy
TitleUnicode:エイミー
Artist:Yorushika
ArtistUnicode:ヨルシカ
Creator:Ryuusei Aika
Version:Deca's Light Insane
Source:
Tags:Rein_Liya Rin_Sa Lunala CoLouRed GlazeE Deca ナブナ nbuna n-buna スイ suis エルマ elma japanese novelty female vocal
BeatmapID:2190852
BeatmapSetID:1048140

[Difficulty]
HPDrainRate:4.5
CircleSize:3.8
OverallDifficulty:6
ApproachRate:7.5
SliderMultiplier:1.8
SliderTickRate:1

[Events]
//Background and Video events
0,0,"BG.jpg",0,0
//Break Periods
2,81515,94330
2,163955,164945
//Storyboard Layer 0 (Background)
//Storyboard Layer 1 (Fail)
//Storyboard Layer 2 (Pass)
//Storyboard Layer 3 (Foreground)
//Storyboard Layer 4 (Overlay)
//Storyboard Sound Samples

[TimingPoints]
670,495.867768595041,4,2,1,40,1,0
670,-100,4,2,1,40,0,0
1661,476.190476190476,4,2,1,40,1,0
1661,-100,4,2,1,40,0,0
4518,480,4,2,1,40,1,0
4518,-100,4,2,1,40,0,0
9318,495.867768595041,4,2,1,40,1,0
9318,-100,4,2,1,40,0,0
12188,487.80487804878,4,2,1,40,1,0
12188,-100,4,2,1,40,0,0
14147,472.44094488189,4,2,1,40,1,0
14147,-100,4,2,1,40,0,0
16025,480,4,2,1,40,1,0
16025,-125,4,2,1,25,0,0
29225,-125,4,2,1,30,0,0
29945,-125,4,2,1,35,0,0
31385,-125,4,2,1,40,0,0
31625,-111.111111111111,4,2,1,40,0,0
39065,-111.111111111111,4,2,1,35,0,0
40985,-111.111111111111,4,2,1,40,0,0
41225,-111.111111111111,4,2,1,35,0,0
42905,-111.111111111111,4,2,1,40,0,0
44585,-111.111111111111,4,2,1,50,0,0
48665,-100,4,2,1,60,0,0
55385,-100,4,2,1,45,0,0
56345,-100,4,2,1,60,0,0
64025,-100,4,2,1,50,0,0
71705,-100,4,2,1,60,0,0
81305,-100,4,2,1,25,0,0
95225,-200,4,2,1,30,0,0
96185,-125,4,2,1,35,0,0
108185,-166.666666666667,4,2,1,25,0,0
109745,-166.666666666667,4,2,1,5,0,0
109865,-111.111111111111,4,2,1,35,0,0
110945,-111.111111111111,4,2,1,35,0,0
111065,-111.111111111111,4,2,1,35,0,0
112025,-111.111111111111,4,2,1,40,0,0
112625,-111.111111111111,4,3,0,35,0,0
112865,-111.111111111111,4,2,1,40,0,0
116465,-111.111111111111,4,3,0,35,0,0
116825,-111.111111111111,4,2,1,40,0,0
120305,-111.111111111111,4,3,0,35,0,0
120665,-111.111111111111,4,2,1,40,0,0
121385,-111.111111111111,4,2,1,40,0,0
124265,-111.111111111111,4,2,1,40,0,0
124985,-111.111111111111,4,3,0,40,0,0
125225,-111.111111111111,4,2,1,40,0,0
125705,-111.111111111111,4,2,1,40,0,0
126305,-111.111111111111,4,2,1,40,0,0
126425,-100,4,2,1,40,0,0
127025,-100,4,2,1,50,0,0
127145,-100,4,2,1,40,0,0
128465,-100,4,2,1,40,0,0
129185,-100,4,2,1,5,0,0
129305,-100,4,2,1,60,0,0
136025,-100,4,2,1,45,0,0
136985,-100,4,2,1,60,0,0
143345,-100,4,3,0,50,0,0
143465,-100,4,2,1,60,0,0
143705,-100,4,2,1,60,0,0
144665,-166.666666666667,4,2,1,30,0,0
146465,-166.666666666667,4,2,1,25,0,0
146585,-166.666666666667,4,2,1,30,0,0
152345,-125,4,2,1,35,0,0
152825,-125,4,3,0,35,0,0
154025,-125,4,2,1,35,0,0
154745,-125,4,2,1,32,0,0
154985,-125,4,2,1,27,0,0
155225,-125,4,2,1,33,0,0
155705,-125,4,2,1,35,0,0
155945,-125,4,2,1,37,0,0
156185,-125,4,2,1,40,0,0
156665,-125,4,2,1,33,0,0
157145,-125,4,2,1,35,0,0
158105,-125,4,2,1,50,0,0
158345,-125,4,2,1,50,0,0
158825,-125,4,2,1,35,0,0
159065,-125,4,2,1,50,0,0
159145,-125,4,2,1,35,0,0
159305,-125,4,2,1,50,0,0
159665,-125,4,2,1,35,0,0
159785,-125,4,2,1,50,0,0
161705,-100,4,2,1,50,0,0
163865,-100,4,2,1,60,0,0
166745,-100,4,2,1,90,0,0
167225,-100,4,2,1,45,0,0
167465,-100,4,2,1,60,0,0
170585,-100,4,2,1,45,0,0
171545,-100,4,2,1,60,0,0
178625,-100,4,2,1,60,0,0
178745,-100,4,2,1,60,0,0
185945,-100,4,2,1,45,0,0
186905,-100,4,2,1,60,0,0
194585,-100,4,2,1,50,0,0
202265,-100,4,2,1,20,0,0

[Colours]
Combo1 : 204,141,130
Combo2 : 108,163,181
Combo3 : 216,184,118
Combo4 : 150,141,186

[HitObjects]
119,180,16025,38,0,P|159:180|255:250,1,144,0|0,3:0|3:0,0:0:0:0:
294,327,16745,1,0,0:0:0:0:
395,258,16985,2,0,P|328:247|242:217,1,144,0|0,3:0|3:0,0:0:0:0:
210,150,17705,2,0,P|222:116|226:67,1,72,2|0,0:0|3:0,0:0:0:0:
225,66,18185,1,0,0:0:0:0:
305,96,18425,6,0,P|353:103|402:108,1,72,0|0,3:0|0:0,0:0:0:0:
473,72,18905,1,0,3:0:0:0:
437,170,19145,1,0,0:0:0:0:
437,170,19265,1,0,0:0:0:0:
437,170,19385,2,0,P|426:214|431:271,1,72,0|2,3:0|0:3,0:0:0:0:
477,326,19865,1,0,3:0:0:0:
477,326,20105,1,0,0:0:0:0:
434,343,20345,1,0,3:0:0:0:
355,306,20585,1,0,0:0:0:0:
261,384,20825,6,0,B|269:350|269:350|250:300,1,72,0|0,3:0|0:0,0:0:0:0:
202,238,21305,1,0,3:0:0:0:
68,334,21545,2,0,P|110:342|171:357,1,72,0|0,0:0|3:0,0:0:0:0:
147,354,22265,1,0,3:0:0:0:
147,354,22745,1,0,3:0:0:0:
237,330,22985,2,0,P|243:297|254:246,1,72,0|0,0:0|3:0,0:0:0:0:
173,105,23465,1,2,0:3:0:0:
128,194,23705,6,0,P|182:187|296:159,1,144,0|0,3:0|3:0,0:0:0:0:
397,116,24425,1,0,0:0:0:0:
346,290,24665,2,0,P|339:243|337:206,1,72,0|0,3:0|0:0,0:0:0:0:
280,159,25145,1,0,3:0:0:0:
426,246,25385,2,0,P|458:236|512:227,1,72,2|0,0:0|3:0,0:0:0:0:
347,294,25865,2,0,P|301:280|246:278,1,72,0|0,0:0|3:0,0:0:0:0:
128,346,26345,5,0,0:0:0:0:
128,346,26465,1,0,0:0:0:0:
128,346,26585,2,0,P|136:288|156:177,2,144,0|0|0,3:0|3:0|3:0,0:0:0:0:
0,190,27785,2,0,P|39:207|80:213,1,72,0|0,0:0|3:0,0:0:0:0:
230,144,28265,1,0,0:0:0:0:
230,144,28505,2,0,P|236:181|246:225,2,72,0|0|0,3:0|0:0|3:0,0:0:0:0:
313,331,29225,2,0,P|313:273|349:183,1,144,4|0,3:2|3:0,0:0:0:0:
148,43,29945,6,0,P|194:53|252:63,1,72,12|0,0:0|0:0,0:0:0:0:
238,46,30305,1,8,0:0:0:0:
238,46,30425,1,8,0:0:0:0:
238,46,30545,1,8,0:0:0:0:
238,46,30665,1,8,0:0:0:0:
347,1,30905,1,8,0:3:0:0:
347,1,31025,1,8,3:0:0:0:
347,1,31145,1,0,3:0:0:0:
430,88,31385,5,0,3:0:0:0:
430,88,31625,2,0,P|423:145|429:194,1,80.9999975280763,0|2,3:0|0:0,0:0:0:0:
430,178,32345,1,8,0:0:0:0:
323,280,32825,5,0,0:0:0:0:
252,231,33065,2,0,P|171:223|76:249,2,161.999995056153,0|0|0,3:0|0:0|3:0,0:0:0:0:
359,307,34265,1,8,0:0:0:0:
359,310,35225,5,0,3:0:0:0:
314,238,35465,2,0,B|297:155|360:180|333:57,1,161.999995056153,0|0,3:0|0:0,0:0:0:0:
344,60,36065,1,0,0:0:0:0:
345,60,36185,1,8,0:0:0:0:
262,120,36665,5,0,0:0:0:0:
148,188,36905,2,0,P|178:191|320:216,1,161.999995056153,0|0,3:0|0:0,0:0:0:0:
145,205,37625,1,8,0:0:0:0:
59,288,38105,2,0,P|52:233|42:192,1,80.9999975280763,0|2,3:0|3:0,0:0:0:0:
3,94,38585,6,0,P|38:106|60:110,1,40.4999987640381,8|8,0:0|0:0,0:0:0:0:
86,42,38825,2,0,P|112:63|126:68,1,40.4999987640381
194,21,39065,5,4,3:2:0:0:
277,70,39305,2,0,P|265:117|266:171,1,80.9999975280763
276,169,39665,2,0,P|306:164|328:165,2,40.4999987640381,8|0|0,0:0|3:0|3:0,0:0:0:0:
130,180,40025,1,8,0:0:0:0:
270,248,40265,2,0,P|224:239|179:237,1,80.9999975280763,0|0,0:0|3:0,0:0:0:0:
50,361,40745,6,0,P|51:301|22:178,1,161.999995056153,0|0,3:0|3:0,0:0:0:0:
69,114,41465,1,0,0:0:0:0:
69,114,41585,1,0,0:0:0:0:
69,114,41705,1,0,3:0:0:0:
192,47,41945,1,8,0:0:0:0:
192,47,42185,2,0,P|228:38|254:31,1,40.4999987640381,0|8,0:0|0:0,0:0:0:0:
323,24,42425,6,0,P|310:93|305:131,1,80.9999975280763,2|0,0:3|0:0,0:0:0:0:
374,304,42905,6,0,P|338:281|281:273,1,80.9999975280763,4|0,3:2|0:0,0:0:0:0:
223,298,43265,1,8,0:0:0:0:
223,298,43385,1,8,0:0:0:0:
26,253,43625,2,0,P|77:238|143:235,1,80.9999975280763,4|0,3:2|0:0,0:0:0:0:
142,229,43985,1,8,2:0:0:0:
142,229,44105,1,8,2:0:0:0:
142,229,44225,1,8,0:3:0:0:
142,229,44345,1,8,0:3:0:0:
243,137,44585,6,0,P|232:202|222:322,1,161.999995056153,4|0,3:2|3:0,0:0:0:0:
316,302,45305,1,8,0:0:0:0:
414,226,45545,1,0,0:0:0:0:
414,226,45665,1,8,0:0:0:0:
414,226,45785,1,2,3:0:0:0:
284,125,46025,1,8,0:3:0:0:
371,81,46265,1,8,0:3:0:0:
503,244,46505,6,0,B|394:227|475:185|343:157,1,161.999995056153,4|0,3:2|0:0,0:0:0:0:
212,135,47225,1,8,0:0:0:0:
78,203,47465,1,8,0:0:0:0:
198,36,47705,1,8,0:0:0:0:
149,156,48665,6,0,P|215:156|279:267,1,180,6|10,3:2|0:0,0:0:0:0:
368,250,49385,1,0,0:0:0:0:
355,80,49625,2,0,P|350:133|344:173,1,90,2|0,3:2|0:0,0:0:0:0:
459,182,50105,1,10,0:0:0:0:
487,272,50345,1,2,0:0:0:0:
511,27,50585,6,0,P|464:39|420:38,1,90,2|2,3:2|0:0,0:0:0:0:
357,0,51065,1,10,0:2:0:0:
174,42,51305,2,0,P|213:43|280:72,1,90,2|0,0:0|3:0,0:0:0:0:
255,217,51785,1,0,0:0:0:0:
174,177,52025,1,8,0:0:0:0:
250,128,52265,1,0,0:0:0:0:
224,171,52505,2,0,B|187:276|266:224|222:360,1,180,0|8,3:0|0:0,0:0:0:0:
381,241,53225,6,0,P|425:251|480:270,1,90,0|0,0:0|3:0,0:0:0:0:
375,256,53705,1,0,0:0:0:0:
424,348,53945,1,8,0:0:0:0:
179,293,54185,2,0,P|122:302|0:356,1,180,12|0,0:0|0:0,0:0:0:0:
34,224,54905,2,0,P|23:174|8:128,1,90,8|0,0:0|0:0,0:0:0:0:
134,214,55385,5,2,3:2:0:0:
230,185,55625,1,2,0:0:0:0:
289,289,55865,1,10,0:0:0:0:
194,333,56105,1,8,0:0:0:0:
194,333,56225,1,8,0:0:0:0:
194,333,56345,2,0,B|240:231|161:249|208:142,2,180,6|10|2,3:2|0:0|3:2,0:0:0:0:
263,384,57545,1,0,0:0:0:0:
394,256,57785,5,10,0:0:0:0:
289,289,58025,1,2,0:0:0:0:
373,372,58265,6,0,P|409:371|469:385,1,90,6|2,3:2|0:0,0:0:0:0:
477,233,58745,2,0,P|459:193|456:134,1,90,10|2,0:0|0:0,0:0:0:0:
486,75,59105,2,0,P|438:70|382:57,1,90,4|0,3:2|0:0,0:0:0:0:
340,117,59465,1,0,3:0:0:0:
221,10,59705,6,0,P|233:60|237:108,1,90,8|0,0:0|0:0,0:0:0:0:
237,124,60065,1,0,0:0:0:0:
237,124,60185,1,4,3:2:0:0:
165,193,60425,1,0,0:0:0:0:
28,125,60665,1,8,0:0:0:0:
109,72,60905,1,0,0:0:0:0:
109,72,61025,1,0,0:0:0:0:
109,72,61145,2,0,B|128:167|61:144|97:262,1,180,0|0,3:0|3:0,0:0:0:0:
285,332,61865,6,0,P|334:318|476:325,1,180,12|0,0:0|0:0,0:0:0:0:
500,183,62585,2,0,P|486:151|483:133,1,45,8|8,3:0|3:0,0:0:0:0:
512,53,62825,1,0,3:0:0:0:
512,53,62945,1,0,3:0:0:0:
512,53,63065,2,0,P|467:68|402:76,1,90,0|0,3:0|3:0,0:0:0:0:
401,58,63425,1,0,3:0:0:0:
401,58,63545,2,0,P|398:95|396:124,1,45,8|8,0:0|0:0,0:0:0:0:
320,137,63785,2,0,P|330:170|339:205,1,45,0|0,3:0|0:0,0:0:0:0:
329,259,64025,5,6,3:1:0:0:
233,229,64265,1,6,3:1:0:0:
233,229,64505,2,0,P|196:223|126:229,1,90,10|0,0:0|0:0,0:0:0:0:
375,334,64985,1,2,3:1:0:0:
474,267,65225,1,2,3:1:0:0:
474,267,65465,2,0,P|478:228|490:176,1,90,10|0,0:0|0:0,0:0:0:0:
355,32,65945,5,2,3:1:0:0:
438,126,66185,1,2,3:1:0:0:
438,126,66425,2,0,P|390:120|342:103,1,90,10|0,0:0|0:0,0:0:0:0:
190,0,66905,1,2,3:1:0:0:
275,76,67145,1,2,3:1:0:0:
275,76,67385,2,0,P|264:132|260:179,1,90,10|0,0:0|0:0,0:0:0:0:
199,261,67865,5,2,3:1:0:0:
260,366,68105,1,2,3:1:0:0:
260,366,68345,2,0,P|292:380|353:384,1,90,10|0,0:0|0:0,0:0:0:0:
398,231,68825,1,2,3:1:0:0:
295,271,69065,1,2,3:1:0:0:
295,271,69305,2,0,P|314:233|320:166,1,90,10|0,0:0|0:0,0:0:0:0:
245,72,69785,5,2,3:1:0:0:
222,219,70025,1,2,3:1:0:0:
222,219,70265,2,0,P|199:175|196:122,1,90,10|0,0:0|0:0,0:0:0:0:
369,54,70745,5,2,3:1:0:0:
194,135,70985,1,2,3:1:0:0:
270,111,71225,2,0,P|281:143|284:169,1,45,10|8,0:0|0:0,0:0:0:0:
357,168,71465,2,0,P|347:201|347:224,1,45,8|8,0:0|0:0,0:0:0:0:
301,278,71705,5,4,3:2:0:0:
179,222,71945,1,4,3:2:0:0:
168,312,72185,1,10,0:0:0:0:
168,312,72305,1,8,3:2:0:0:
168,312,72425,2,0,P|193:301|239:295,1,45,8|8,0:0|0:0,0:0:0:0:
314,356,72665,5,4,3:2:0:0:
413,301,72905,1,4,3:2:0:0:
413,301,73145,2,0,P|404:270|403:235,1,45,10|8,0:0|0:3,0:0:0:0:
446,193,73385,1,0,3:0:0:0:
446,193,73505,1,8,0:3:0:0:
446,193,73625,1,4,3:1:0:0:
295,192,73865,2,0,P|260:184|197:172,1,90,4|2,3:2|0:0,0:0:0:0:
192,179,74225,5,8,3:0:0:0:
192,179,74345,1,0,3:0:0:0:
192,179,74465,1,0,3:0:0:0:
192,179,74585,1,4,3:2:0:0:
94,109,74825,1,4,3:2:0:0:
22,212,75065,1,8,0:3:0:0:
112,275,75305,1,2,0:0:0:0:
102,192,75545,5,4,3:2:0:0:
225,298,75785,1,4,3:2:0:0:
225,298,76025,2,0,P|255:292|280:291,1,45,0|8,3:0|3:0,0:0:0:0:
340,257,76265,2,0,P|360:266|381:273,1,45,8|8,0:3|0:3,0:0:0:0:
472,315,76505,5,8,0:3:0:0:
502,189,76745,2,0,P|494:216|487:241,1,45,8|8,3:3|0:0,0:0:0:0:
403,354,76985,1,8,0:0:0:0:
403,354,77225,2,0,B|363:252|445:272|392:151,1,180,4|0,3:2|3:0,0:0:0:0:
279,139,77945,2,0,P|318:138|335:76,1,90,2|0,0:3|0:0,0:0:0:0:
321,72,78305,1,0,3:0:0:0:
321,72,78425,2,0,P|289:62|259:54,1,45,8|8,0:0|0:0,0:0:0:0:
203,26,78665,1,0,3:0:0:0:
100,90,78905,6,0,P|88:94|63:99,2,30,2|2|2,0:0|0:0|0:0,0:0:0:0:
132,54,79145,2,0,P|122:139|110:273,1,180,4|0,3:2|3:0,0:0:0:0:
104,334,79865,1,8,0:0:0:0:
196,185,80105,1,0,0:0:0:0:
196,185,80225,1,8,0:0:0:0:
196,185,80345,2,0,P|242:191|296:208,1,90,8|8,0:0|0:3,0:0:0:0:
447,276,80825,1,8,3:0:0:0:
344,147,81065,1,0,3:0:0:0:
299,222,81305,1,4,3:2:0:0:
291,219,95225,6,0,P|236:205|201:206,1,90,8|0,0:0|3:0,0:0:0:0:
194,210,95945,1,2,0:3:0:0:
109,263,96185,2,0,P|108:242|109:216,1,36,8|8,0:0|0:0,0:0:0:0:
28,241,96425,2,0,P|32:227|37:198,1,36,8|8,3:2|3:2,0:0:0:0:
79,107,96665,6,0,P|125:118|230:85,1,144,4|8,3:2|0:0,0:0:0:0:
236,73,97385,1,0,0:0:0:0:
326,35,97625,2,0,P|318:85|308:184,1,144,0|8,3:0|0:0,0:0:0:0:
374,252,98345,6,0,P|332:263|224:319,1,144,0|0,3:0|0:0,0:0:0:0:
237,312,99065,1,8,0:0:0:0:
162,289,99305,1,0,0:0:0:0:
162,289,99425,1,0,0:0:0:0:
162,289,99545,2,0,P|169:258|179:136,1,144,0|8,3:2|0:0,0:0:0:0:
141,78,100265,1,0,0:0:0:0:
280,107,100505,6,0,P|317:99|355:88,2,72,0|0|8,3:0|0:0|0:0,0:0:0:0:
265,103,101225,1,0,0:0:0:0:
323,256,101465,2,0,B|334:225|334:225|323:187,1,72,0|0,3:0|0:0,0:0:0:0:
282,188,101945,1,8,0:0:0:0:
225,311,102185,2,0,B|344:312|270:250|430:253,1,216,0|8,3:0|0:0,0:0:0:0:
498,318,103265,1,0,0:0:0:0:
498,318,103385,2,0,P|500:296|506:272,1,36
500,172,103625,2,0,P|505:189|512:206,1,36,2|0,0:3|0:0,0:0:0:0:
488,93,103865,5,8,0:0:0:0:
488,93,103985,1,8,0:0:0:0:
488,93,104105,1,0,0:3:0:0:
413,143,104345,2,0,P|361:133|244:134,2,144,4|8|0,3:2|0:0|3:0,0:0:0:0:
351,91,105545,1,0,0:0:0:0:
224,197,105785,5,8,0:0:0:0:
177,123,106025,2,0,P|170:95|204:29,1,72,0|0,0:0|3:0,0:0:0:0:
92,188,106505,1,0,0:0:0:0:
92,188,106745,2,0,P|99:160|65:94,1,72,8|0,0:0|0:0,0:0:0:0:
77,104,107225,2,0,B|140:118|140:118|154:136|154:136|234:155,1,144,0|8,0:0|0:0,0:0:0:0:
233,145,107825,1,8,0:0:0:0:
221,169,107945,1,8,0:0:0:0:
222,195,108065,1,8,0:0:0:0:
222,195,108185,2,0,B|323:184|249:148|378:126,1,161.999995056153
426,78,109145,2,0,P|420:132|413:227,1,134.999995880127
439,293,109865,6,0,P|397:294|258:358,1,161.999995056153,4|0,3:2|3:0,0:0:0:0:
83,239,110585,1,12,0:0:0:0:
177,319,110825,1,0,3:0:0:0:
173,308,110945,1,0,0:0:0:0:
169,297,111065,1,8,0:0:0:0:
169,286,111185,1,8,0:0:0:0:
178,275,111305,2,0,P|183:250|186:220,1,40.4999987640381,8|8,3:2|3:2,0:0:0:0:
122,128,111545,2,0,P|126:159|130:180,1,40.4999987640381,8|8,3:0|3:0,0:0:0:0:
196,101,111785,2,0,P|199:133|202:153,1,40.4999987640381,8|0,3:0|0:0,0:0:0:0:
205,155,112025,6,0,P|272:156|324:235,1,161.999995056153,4|2,3:2|0:0,0:0:0:0:
342,238,112625,2,0,P|343:212|347:182,2,40.4999987640381,0|0|0,0:0|0:0|3:0,0:0:0:0:
423,329,112985,1,8,0:0:0:0:
409,333,113705,6,0,B|323:299|240:322|240:322,2,161.999995056153
507,206,114905,1,8,0:0:0:0:
506,216,115385,2,0,P|487:256|482:296,1,80.9999975280763,0|0,0:0|3:0,0:0:0:0:
375,75,115865,6,0,P|406:128|415:229,1,161.999995056153,0|0,3:0|0:0,0:0:0:0:
400,231,116585,2,0,P|375:225|337:223,1,40.4999987640381
262,135,116825,1,8,0:0:0:0:
255,152,117545,6,0,B|219:186|158:195|97:163,1,161.999995056153,2|0,3:0|3:0,0:0:0:0:
16,88,118265,1,8,0:0:0:0:
27,184,118505,1,0,0:0:0:0:
27,184,118745,2,0,P|12:223|10:271,1,80.9999975280763
52,342,119225,1,8,0:0:0:0:
52,342,119345,1,8,0:0:0:0:
52,342,119465,1,0,0:0:0:0:
187,305,119705,6,0,P|246:297|354:309,1,161.999995056153
356,315,120305,2,0,P|363:293|373:272,2,40.4999987640381,0|0|0,0:0|3:0|3:0,0:0:0:0:
393,384,120665,1,8,0:0:0:0:
433,227,120905,2,0,P|424:193|415:129,1,80.9999975280763,0|0,0:0|3:0,0:0:0:0:
479,367,121385,2,0,P|491:310|531:214,1,161.999995056153,0|0,3:0|0:0,0:0:0:0:
493,134,122105,2,0,P|451:124|410:110,1,80.9999975280763,0|0,0:0|3:0,0:0:0:0:
348,176,122585,1,8,0:0:0:0:
276,96,122825,5,0,0:0:0:0:
276,96,122945,1,8,0:0:0:0:
276,96,123065,2,0,P|241:115|188:123,1,80.9999975280763,2|0,0:3|0:0,0:0:0:0:
32,222,123545,2,0,P|65:207|80:137,1,80.9999975280763,4|0,3:2|0:0,0:0:0:0:
76,123,123905,1,8,0:0:0:0:
76,123,124025,1,8,0:0:0:0:
187,311,124265,6,0,P|163:291|155:231,1,80.9999975280763,4|0,3:2|0:0,0:0:0:0:
173,210,124625,1,8,0:0:0:0:
173,210,124745,1,8,0:0:0:0:
173,210,124865,1,8,0:0:0:0:
173,210,124985,1,0,0:0:0:0:
327,287,125225,6,0,B|422:273|357:229|495:217,1,161.999995056153,4|0,3:2|3:0,0:0:0:0:
472,302,125945,1,8,0:0:0:0:
382,211,126185,1,0,0:0:0:0:
382,211,126305,1,8,0:0:0:0:
382,211,126425,2,0,P|379:180|391:150,1,45,8|8,0:0|0:0,0:0:0:0:
312,132,126665,2,8,P|329:106|358:91,1,45,8|8,3:0|3:0,0:0:0:0:
309,26,126905,2,0,P|339:17|370:24,1,45,8|0,3:0|0:0,0:0:0:0:
484,142,127145,6,0,P|432:125|290:126,1,180,4|0,3:2|0:0,0:0:0:0:
230,182,127865,1,4,0:3:0:0:
68,117,128105,1,4,0:3:0:0:
189,28,128345,2,0,P|194:56|196:82,3,45,0|8|8|8,0:0|3:0|3:0|3:0,0:0:0:0:
137,186,128825,1,8,3:2:0:0:
137,186,128945,2,0,P|147:155|159:133,2,45,8|8|0,3:0|3:0|0:0,0:0:0:0:
281,73,129305,6,0,P|326:90|368:215,2,180,6|10|2,3:2|0:0|3:2,0:0:0:0:
212,155,130505,1,0,0:0:0:0:
315,281,130745,1,10,0:2:0:0:
241,320,130985,1,2,0:0:0:0:
57,233,131225,6,0,B|60:189|60:189|100:149,1,90,2|2,3:2|0:0,0:0:0:0:
289,200,131705,1,10,0:0:0:0:
401,259,131945,1,2,0:0:0:0:
401,259,132065,2,0,P|353:243|257:232,1,135
408,274,132665,1,8,0:0:0:0:
512,259,132905,1,0,0:0:0:0:
495,295,133145,2,0,B|522:176|455:223|491:107,1,180,0|8,3:0|0:0,0:0:0:0:
354,50,133865,5,0,0:0:0:0:
354,50,133985,1,0,0:0:0:0:
354,50,134105,2,0,P|401:42|475:31,1,90,0|0,3:0|0:0,0:0:0:0:
495,106,134585,1,8,0:0:0:0:
330,168,134825,2,0,P|294:158|285:22,1,180,12|0,0:0|0:0,0:0:0:0:
354,50,135545,1,8,0:0:0:0:
407,124,135785,1,0,0:0:0:0:
345,320,136025,5,2,3:2:0:0:
331,242,136265,1,2,0:0:0:0:
319,162,136505,1,10,0:0:0:0:
241,280,136745,5,8,0:0:0:0:
241,280,136865,1,8,0:0:0:0:
241,280,136985,2,0,P|285:261|343:259,1,90,6|0,3:2|0:0,0:0:0:0:
393,328,137465,1,10,0:0:0:0:
193,353,137705,2,0,P|145:345|91:340,1,90,0|2,0:0|3:2,0:0:0:0:
29,300,138185,1,0,0:0:0:0:
146,170,138425,2,0,P|149:224|158:271,1,90,10|2,0:0|0:0,0:0:0:0:
267,84,138905,6,0,P|256:130|256:189,1,90,6|2,3:2|0:0,0:0:0:0:
464,261,139385,2,0,B|480:223|480:223|452:170,1,90,10|2,0:0|0:0,0:0:0:0:
501,107,139745,2,0,P|446:98|402:84,1,90,4|0,3:2|0:0,0:0:0:0:
364,22,140105,1,0,3:0:0:0:
281,94,140345,2,0,P|230:102|178:102,1,90,8|0,0:0|0:0,0:0:0:0:
113,236,140825,6,0,B|155:139|71:159|135:39,1,180,4|8,3:2|0:0,0:0:0:0:
243,193,141545,1,0,0:0:0:0:
243,193,141665,2,0,P|286:208|323:313,1,135
323,300,142265,1,0,3:0:0:0:
191,102,142505,6,0,P|237:69|369:90,1,180,4|0,3:2|0:0,0:0:0:0:
453,144,143225,1,8,0:0:0:0:
453,144,143345,1,0,0:0:0:0:
453,144,143465,1,0,0:0:0:0:
483,243,143705,2,0,P|475:272|475:303,1,45,8|8,0:0|0:0,0:0:0:0:
466,366,143945,1,2,0:3:0:0:
319,281,144185,1,8,3:0:0:0:
401,239,144425,1,8,3:0:0:0:
363,355,144665,6,0,P|326:363|278:367,2,80.9999975280763,4|0|0,3:2|3:0|3:0,0:0:0:0:
204,310,145625,1,8,0:0:0:0:
285,251,145985,1,8,0:3:0:0:
285,251,146105,2,0,P|275:213|275:185,1,53.9999983520508,8|0,3:0|0:0,0:0:0:0:
295,159,146465,5,0,3:0:0:0:
295,159,146585,2,0,P|331:159|393:177,2,80.9999975280763,0|0|0,3:0|3:0|3:0,0:0:0:0:
197,67,147545,1,8,0:0:0:0:
127,144,147905,1,8,0:3:0:0:
127,144,148025,2,0,P|122:115|117:102,2,26.9999991760254,8|0|0,3:0|0:0|0:0,0:0:0:0:
42,238,148505,6,0,P|49:196|49:156,2,80.9999975280763,0|0|0,3:0|3:0|3:0,0:0:0:0:
204,168,149465,2,0,P|210:217|216:241,1,53.9999983520508,8|0,0:0|0:0,0:0:0:0:
235,243,149825,1,8,0:3:0:0:
235,243,149945,2,0,P|278:254|306:264,1,53.9999983520508,8|0,3:0|0:0,0:0:0:0:
423,364,150425,6,0,P|367:379|355:384,1,53.9999983520508
465,274,150785,2,0,P|409:289|397:294,1,53.9999983520508,0|0,3:0|0:0,0:0:0:0:
486,198,151145,1,8,3:0:0:0:
333,111,151385,1,8,0:0:0:0:
449,83,151625,2,0,P|452:64|456:57,2,17.9999994506836,2|0|0,3:0|0:0|0:0,0:0:0:0:
420,108,151865,1,8,0:0:0:0:
420,108,151985,1,8,0:3:0:0:
420,108,152105,1,8,3:0:0:0:
385,208,152345,6,0,P|331:197|224:178,1,144,0|0,3:0|0:0,0:0:0:0:
180,117,153065,1,0,0:0:0:0:
127,186,153305,2,0,P|137:220|146:264,1,72
148,277,153665,1,0,0:0:0:0:
148,277,153785,1,0,0:0:0:0:
36,164,154025,6,0,P|20:224|14:320,1,144,0|0,3:0|0:0,0:0:0:0:
148,362,154745,1,8,0:0:0:0:
228,318,154985,1,8,0:0:0:0:
318,365,155225,2,0,P|318:339|317:311,1,36,8|8,0:0|0:0,0:0:0:0:
335,357,155465,2,0,P|336:332|331:303,1,36,8|8,0:0|0:0,0:0:0:0:
398,267,155705,1,8,0:0:0:0:
397,259,155825,1,8,0:0:0:0:
397,248,155945,1,8,0:0:0:0:
397,239,156065,1,8,0:0:0:0:
413,219,156185,6,0,P|379:212|256:182,1,144,0|8,3:0|0:0,0:0:0:0:
262,164,156785,1,8,0:0:0:0:
262,164,156905,1,8,0:0:0:0:
262,164,157025,1,8,0:0:0:0:
262,164,157145,2,0,P|258:137|249:116,1,36,8|8,0:0|0:0,0:0:0:0:
285,147,157385,2,0,P|274:129|259:115,1,36,8|8,0:0|0:0,0:0:0:0:
317,40,157625,1,8,3:2:0:0:
184,195,157865,6,0,P|135:188|38:181,1,144,8|8,0:0|0:0,0:0:0:0:
191,210,158585,1,0,3:0:0:0:
191,210,158705,1,8,3:0:0:0:
191,210,158825,2,0,P|216:203|226:200,2,24,0|0|8,0:0|0:0|0:0,0:0:0:0:
250,233,159065,2,0,P|275:240|285:243,2,24,0|0|0,3:0|0:0|0:0,0:0:0:0:
319,314,159305,1,0,3:0:0:0:
319,314,159425,1,8,0:0:0:0:
319,314,159545,2,0,P|342:305|366:303,1,36,8|0,3:2|0:0,0:0:0:0:
434,352,159785,2,0,P|441:306|461:199,1,144,12|0,0:0|0:0,0:0:0:0:
444,115,160505,1,0,3:0:0:0:
347,59,160745,1,0,3:0:0:0:
223,184,160985,5,8,0:0:0:0:
66,83,161225,1,8,0:0:0:0:
235,2,161465,1,8,0:0:0:0:
129,230,161705,2,0,P|135:174|160:46,1,180,12|8,0:0|0:3,0:0:0:0:
319,161,162425,1,0,3:0:0:0:
319,161,162545,1,8,0:3:0:0:
168,304,162785,1,8,3:2:0:0:
168,304,162905,2,0,P|200:293|323:332,1,135,2|8,3:0|0:0,0:0:0:0:
392,362,163385,5,8,0:0:0:0:
392,349,163505,1,8,0:0:0:0:
395,335,163625,1,8,0:0:0:0:
399,326,163745,1,8,0:0:0:0:
407,298,165785,6,2,P|406:245|325:190,1,135,6|2,3:1|0:1,0:1:0:0:
260,126,166265,2,2,P|264:177|274:228,1,90,6|2,3:1|0:1,0:1:0:0:
444,46,166745,1,2,3:1:0:0:
444,46,167225,1,0,0:0:0:0:
200,70,167465,2,0,B|93:65|147:137|24:131,1,180,4|0,3:2|3:0,0:0:0:0:
348,192,168185,1,8,0:0:0:0:
360,33,168425,5,0,0:0:0:0:
360,33,168545,2,0,P|370:81|381:126,1,90
449,167,168905,1,0,0:0:0:0:
413,274,169145,1,8,0:0:0:0:
236,319,169385,6,0,P|196:292|39:285,1,180,4|0,3:2|3:0,0:0:0:0:
241,335,170105,1,8,0:0:0:0:
352,292,170345,1,0,3:0:0:0:
238,346,170585,1,2,3:2:0:0:
264,249,170825,1,2,0:0:0:0:
198,176,171065,1,10,0:0:0:0:
269,108,171305,5,10,0:0:0:0:
269,108,171425,1,10,0:0:0:0:
269,108,171545,2,0,P|259:69|241:5,1,90,6|0,3:2|0:0,0:0:0:0:
349,199,172025,2,0,P|368:162|381:105,1,90,10|0,0:0|0:0,0:0:0:0:
389,96,172385,1,0,0:0:0:0:
389,96,172505,1,2,3:2:0:0:
467,132,172745,1,0,0:0:0:0:
269,108,172985,1,10,0:0:0:0:
180,141,173225,1,2,0:0:0:0:
93,180,173465,6,0,B|77:137|77:137|96:85,1,90,6|2,3:2|0:0,0:0:0:0:
221,254,173945,2,0,P|274:262|318:270,1,90,2|0,3:2|0:0,0:0:0:0:
385,323,174305,2,2,P|387:279|414:223,1,90,6|0,3:2|0:0,0:1:0:0:
455,170,174665,1,0,3:0:0:0:
385,101,174905,1,8,0:0:0:0:
321,171,175145,1,0,0:0:0:0:
321,171,175265,1,0,0:0:0:0:
321,171,175385,2,0,B|224:175|276:108|140:112,1,180,4|8,3:1|0:0,0:0:0:0:
132,294,176105,5,0,0:0:0:0:
132,294,176225,2,0,P|148:247|160:187,1,90
322,357,176585,1,0,0:0:0:0:
286,249,176825,1,0,3:0:0:0:
75,360,177065,2,0,P|130:338|283:337,1,180,12|8,0:0|3:0,0:0:0:0:
442,364,177785,5,2,3:2:0:0:
442,364,177905,1,0,0:0:0:0:
372,264,178145,1,0,0:0:0:0:
372,264,178265,1,8,0:0:0:0:
493,206,178505,1,0,0:0:0:0:
493,206,178625,1,8,0:0:0:0:
493,206,178745,2,0,P|497:177|499:145,1,45,8|8,0:0|0:0,0:0:0:0:
414,54,178985,2,0,P|428:90|440:126,1,45,8|8,0:0|0:0,0:0:0:0:
401,172,179225,6,0,P|348:175|297:191,1,90,6|0,3:2|0:0,0:0:0:0:
112,308,179705,2,0,P|167:296|190:180,1,180,10|2,0:0|3:2,0:0:0:0:
103,127,180425,1,0,0:0:0:0:
188,57,180665,1,10,0:0:0:0:
272,116,180905,1,2,0:0:0:0:
408,243,181145,6,0,P|447:244|508:257,1,90,2|2,3:2|0:0,0:0:0:0:
378,40,181625,2,0,P|361:88|358:146,1,90,10|2,0:0|0:0,0:0:0:0:
307,192,181985,2,0,B|333:227|333:227|328:299,1,90
249,256,182345,1,0,0:0:0:0:
234,155,182585,2,0,P|178:165|113:179,1,90,8|0,0:0|0:0,0:0:0:0:
123,185,182945,1,0,0:0:0:0:
123,185,183065,1,0,3:0:0:0:
237,63,183305,1,0,0:0:0:0:
357,126,183545,1,8,0:0:0:0:
471,67,183785,5,0,0:0:0:0:
471,67,183905,2,0,P|451:121|449:166,1,90
437,242,184265,1,0,0:0:0:0:
501,352,184505,1,8,0:0:0:0:
333,254,184745,6,0,P|261:260|163:314,1,180,12|0,0:0|0:0,0:0:0:0:
340,270,185465,1,8,0:0:0:0:
431,327,185705,1,0,0:0:0:0:
450,132,185945,5,2,3:2:0:0:
383,182,186185,1,2,3:2:0:0:
430,249,186425,1,10,0:0:0:0:
500,204,186665,1,10,0:0:0:0:
500,204,186785,1,10,0:0:0:0:
500,204,186905,2,0,B|520:97|450:137|484:27,1,180,6|10,3:2|0:0,0:0:0:0:
362,99,187625,5,0,0:0:0:0:
362,99,187745,2,0,P|312:105|259:112,1,90,0|0,0:0|0:1,0:0:0:0:
195,90,188105,1,0,0:0:0:0:
53,131,188345,2,0,P|103:140|154:158,1,90,10|2,0:0|0:0,0:0:0:0:
321,270,188825,6,0,B|342:231|342:231|326:182,1,90,6|2,3:2|0:0,0:0:0:0:
130,237,189305,2,0,B|108:277|108:277|130:329,1,90,10|2,0:0|0:0,0:0:0:0:
198,364,189665,2,2,P|251:342|296:334,1,90,4|0,3:2|0:0,0:1:0:0:
360,360,190025,1,0,0:0:0:0:
449,308,190265,1,8,0:0:0:0:
377,217,190505,1,0,0:0:0:0:
202,143,190745,5,0,3:0:0:0:
159,53,190985,1,0,0:0:0:0:
257,19,191225,1,8,0:0:0:0:
296,115,191465,1,0,0:0:0:0:
296,115,191585,2,0,P|276:172|261:218,1,90
303,286,191945,2,0,P|238:281|198:285,1,90,0|0,0:0|3:0,0:0:0:0:
469,163,192425,6,0,P|402:148|290:112,1,180,12|8,0:0|0:0,0:0:0:0:
131,89,193145,1,0,3:0:0:0:
131,89,193265,1,8,0:0:0:0:
131,89,193385,1,0,3:0:0:0:
131,89,193505,1,8,0:0:0:0:
131,89,193625,2,0,P|142:149|146:188,1,90,0|0,3:0|0:0,0:0:0:0:
88,269,194105,2,0,P|59:265|32:263,1,45,8|8,0:0|0:0,0:0:0:0:
147,333,194345,2,0,P|118:342|91:353,1,45,8|8,0:0|0:0,0:0:0:0:
219,376,194585,5,6,3:1:0:0:
290,250,194825,1,6,3:1:0:0:
290,250,195065,2,0,P|279:214|268:159,1,90,10|0,0:2|0:0,0:0:0:0:
375,332,195545,1,2,3:1:0:0:
421,218,195785,1,2,3:1:0:0:
421,218,196025,2,0,P|434:176|440:124,1,90,10|0,0:0|0:0,0:0:0:0:
377,58,196505,5,2,3:1:0:0:
258,105,196745,1,2,3:1:0:0:
258,105,196985,2,0,P|196:118|156:114,1,90,10|0,0:0|0:0,0:0:0:0:
342,148,197465,1,2,3:1:0:0:
292,24,197705,1,2,3:1:0:0:
292,24,197945,2,0,P|238:7|187:7,1,90,10|0,0:0|0:0,0:0:0:0:
60,133,198425,5,2,3:1:0:0:
18,247,198665,1,2,3:1:0:0:
18,247,198905,2,0,B|2:293|2:293|41:349,1,90,10|0,0:0|0:0,0:0:0:0:
229,309,199385,1,2,3:1:0:0:
176,213,199625,1,2,3:1:0:0:
176,213,199865,2,0,P|124:207|72:198,1,90,10|0,0:0|0:0,0:0:0:0:
21,94,200345,5,2,3:1:0:0:
147,10,200585,1,2,3:1:0:0:
147,10,200825,2,0,P|135:73|128:112,1,90,10|0,0:0|0:0,0:0:0:0:
176,213,201305,1,2,3:1:0:0:
289,117,201545,1,2,3:1:0:0:
218,70,201785,2,0,P|207:114|202:136,1,45,10|8,0:0|0:0,0:0:0:0:
257,192,202025,2,0,P|265:229|266:243,1,45,10|8,0:0|0:0,0:0:0:0:
243,322,202265,5,6,0:1:0:0:
243,322,202505,1,2,0:1:0:0:
371,264,203225,5,2,0:1:0:0:
371,264,203465,1,2,0:1:0:0:
448,364,204185,5,2,0:1:0:0:
448,364,204425,1,2,0:1:0:0:
453,283,205145,5,2,0:1:0:0:
453,283,205385,1,2,0:1:0:0:
298,384,206105,5,2,0:1:0:0:
298,384,206345,1,2,0:1:0:0:
239,322,207065,5,2,0:1:0:0:
239,322,207305,1,2,0:1:0:0:
293,255,208025,5,2,0:1:0:0:
293,255,208265,1,2,0:1:0:0:
214,208,208985,5,2,0:1:0:0:
214,208,209225,1,2,0:1:0:0:
