osu file format v14

[General]
AudioFilename: audio.mp3
AudioLeadIn: 0
PreviewTime: 72120
Countdown: 0
SampleSet: Normal
StackLeniency: 0.3
Mode: 0
LetterboxInBreaks: 0
WidescreenStoryboard: 1

[Editor]
DistanceSpacing: 1.2
BeatDivisor: 6
GridSize: 32
TimelineZoom: 0.9999999

[Metadata]
Title:Ame Haruru
TitleUnicode:雨晴るる
Artist:Yorushika
ArtistUnicode:ヨルシカ
Creator:Chiru-kun
Version:Hard
Source:
Tags:elma eruma エルマ n-buna nbuna nabuna ナブナ suis スイ japanese jpop swing after the rain female vocals vocalist j-pop pop renzthegreat
BeatmapID:2516970
BeatmapSetID:1176385

[Difficulty]
HPDrainRate:5
CircleSize:4
OverallDifficulty:6
ApproachRate:7.5
SliderMultiplier:1.5
SliderTickRate:1

[Events]
//Background and Video events
0,0,"ame1.jpg",0,0
//Break Periods
2,169748,175580
//Storyboard Layer 0 (Background)
//Storyboard Layer 1 (Fail)
//Storyboard Layer 2 (Pass)
//Storyboard Layer 3 (Foreground)
//Storyboard Layer 4 (Overlay)
//Storyboard Sound Samples

[TimingPoints]
-1880,571.428571428572,4,1,1,50,1,0
120,-83.3333333333333,4,1,1,50,0,0
2595,-83.3333333333333,4,1,1,5,0,0
2691,-83.3333333333333,4,1,1,50,0,0
7167,-83.3333333333333,4,1,1,5,0,0
7262,-83.3333333333333,4,1,1,50,0,0
8881,-83.3333333333333,4,1,1,5,0,0
8977,-83.3333333333333,4,1,1,50,0,0
11738,-83.3333333333333,4,1,1,5,0,0
11834,-83.3333333333333,4,1,1,50,0,0
16310,-83.3333333333333,4,1,1,5,0,0
16405,-83.3333333333333,4,1,1,50,0,0
18024,-83.3333333333333,4,1,1,5,0,0
18120,-83.3333333333333,4,1,1,50,0,0
18691,-100,4,2,1,25,0,0
27167,-100,4,2,1,5,0,0
27262,-100,4,2,1,25,0,0
29738,-100,4,2,1,5,0,0
29834,-100,4,2,1,25,0,0
36024,-100,4,1,1,25,0,0
36405,-100,4,1,1,25,0,0
36691,-71.4285714285714,4,1,1,25,0,0
37167,-71.4285714285714,4,1,1,50,0,0
37262,-76.9230769230769,4,1,1,50,0,0
38786,-76.9230769230769,4,1,1,5,0,0
38881,-76.9230769230769,4,1,1,50,0,0
41072,-76.9230769230769,4,1,1,5,0,0
41167,-76.9230769230769,4,1,1,50,0,0
43738,-76.9230769230769,4,1,1,5,0,0
43834,-76.9230769230769,4,1,1,50,0,0
45452,-76.9230769230769,4,1,1,5,0,0
45548,-76.9230769230769,4,1,1,50,0,0
47929,-76.9230769230769,4,1,1,5,0,0
48024,-76.9230769230769,4,1,1,50,0,0
50215,-76.9230769230769,4,1,1,5,0,0
50310,-76.9230769230769,4,1,1,50,0,0
52881,-76.9230769230769,4,1,1,5,0,0
52977,-76.9230769230769,4,1,1,50,0,0
54691,-100,4,1,1,50,0,0
55262,-100,4,2,1,25,0,0
63738,-100,4,2,1,5,0,0
63834,-100,4,2,1,25,0,0
67929,-100,4,2,1,5,0,0
68024,-100,4,2,1,25,0,0
71453,-100,4,2,1,5,0,0
71548,-90.9090909090909,4,2,1,50,0,0
71738,-90.9090909090909,4,2,1,5,0,0
71834,-83.3333333333333,4,2,1,50,0,0
72024,-83.3333333333333,4,2,1,5,0,0
72120,-76.9230769230769,4,1,1,75,0,0
72215,-76.9230769230769,4,1,1,5,0,0
72310,-76.9230769230769,4,1,1,75,0,0
73548,-71.4285714285714,4,1,1,75,0,0
73643,-71.4285714285714,4,1,1,5,0,0
73739,-71.4285714285714,4,1,1,75,0,0
74024,-71.4285714285714,4,1,1,5,0,0
74120,-71.4285714285714,4,1,1,75,0,0
74786,-71.4285714285714,4,1,1,5,0,0
74881,-71.4285714285714,4,1,1,75,0,0
75166,-71.4285714285714,4,1,1,5,0,0
75262,-71.4285714285714,4,1,1,75,0,0
75929,-71.4285714285714,4,1,1,5,0,0
76024,-71.4285714285714,4,1,1,75,0,0
76309,-71.4285714285714,4,1,1,5,0,0
76405,-71.4285714285714,4,1,1,75,0,0
76786,-71.4285714285714,4,1,1,5,0,0
76881,-71.4285714285714,4,1,1,75,0,0
77072,-71.4285714285714,4,1,1,5,0,0
77167,-71.4285714285714,4,1,1,75,0,0
79452,-71.4285714285714,4,1,1,5,0,0
79548,-71.4285714285714,4,1,1,75,0,0
79738,-71.4285714285714,4,1,1,5,0,0
79834,-71.4285714285714,4,1,1,75,0,0
81453,-62.5,4,1,1,75,0,0
81738,-62.5,4,1,1,5,0,0
81834,-62.5,4,1,1,75,0,0
82500,-71.4285714285714,4,1,1,75,0,0
82786,-71.4285714285714,4,1,1,5,0,0
82881,-71.4285714285714,4,1,1,75,0,0
83166,-71.4285714285714,4,1,1,5,0,0
83262,-71.4285714285714,4,1,1,75,0,0
83929,-71.4285714285714,4,1,1,5,0,0
84024,-71.4285714285714,4,1,1,75,0,0
84309,-71.4285714285714,4,1,1,5,0,0
84405,-71.4285714285714,4,1,1,75,0,0
85452,-71.4285714285714,4,1,1,5,0,0
85547,-71.4285714285714,4,1,1,75,0,0
89548,-83.3333333333333,4,1,1,50,0,0
91738,-83.3333333333333,4,1,1,5,0,0
91834,-83.3333333333333,4,1,1,50,0,0
93929,-83.3333333333333,4,1,1,5,0,0
94024,-83.3333333333333,4,1,1,50,0,0
96310,-83.3333333333333,4,1,1,5,0,0
96405,-83.3333333333333,4,1,1,50,0,0
98024,-83.3333333333333,4,1,1,5,0,0
98120,-83.3333333333333,4,1,1,50,0,0
99167,-83.3333333333333,4,1,1,5,0,0
99262,-83.3333333333333,4,1,1,50,0,0
100881,-83.3333333333333,4,1,1,5,0,0
100977,-83.3333333333333,4,1,1,50,0,0
107262,-83.3333333333333,4,1,1,37,0,0
107834,-100,4,1,1,25,0,0
108405,-71.4285714285714,4,1,1,50,0,0
108881,-71.4285714285714,4,1,1,25,0,0
108977,-100,4,2,1,25,0,0
116881,-100,4,2,1,5,0,0
116977,-100,4,2,1,25,0,0
118881,-100,4,2,1,5,0,0
118977,-100,4,2,1,25,0,0
120881,-100,4,2,1,5,0,0
120977,-100,4,2,1,25,0,0
125834,-71.4285714285714,4,2,1,25,0,0
128120,-71.4285714285714,4,1,1,50,0,0
128596,-71.4285714285714,4,1,1,5,0,0
128691,-71.4285714285714,4,1,1,55,0,0
128977,-71.4285714285714,4,1,1,60,0,0
129262,-71.4285714285714,4,1,1,65,0,0
129548,-76.9230769230769,4,1,1,70,0,0
129643,-76.9230769230769,4,1,1,5,0,0
129738,-76.9230769230769,4,1,1,70,0,0
129929,-76.9230769230769,4,1,1,5,0,0
130024,-76.9230769230769,4,1,1,70,0,0
130215,-76.9230769230769,4,1,1,5,0,0
130310,-76.9230769230769,4,1,1,70,0,0
130500,-71.4285714285714,4,1,1,70,0,0
130691,-71.4285714285714,4,1,1,75,0,0
130786,-71.4285714285714,4,1,1,5,0,0
130881,-71.4285714285714,4,1,1,75,0,0
131166,-71.4285714285714,4,1,1,5,0,0
131262,-71.4285714285714,4,1,1,75,0,0
131929,-71.4285714285714,4,1,1,5,0,0
132024,-71.4285714285714,4,1,1,75,0,0
132309,-71.4285714285714,4,1,1,5,0,0
132405,-71.4285714285714,4,1,1,75,0,0
133072,-71.4285714285714,4,1,1,5,0,0
133167,-71.4285714285714,4,1,1,75,0,0
133929,-71.4285714285714,4,1,1,5,0,0
134024,-71.4285714285714,4,1,1,75,0,0
134215,-71.4285714285714,4,1,1,5,0,0
134310,-71.4285714285714,4,1,1,75,0,0
136595,-71.4285714285714,4,1,1,5,0,0
136691,-71.4285714285714,4,1,1,75,0,0
136881,-71.4285714285714,4,1,1,5,0,0
136977,-71.4285714285714,4,1,1,75,0,0
138596,-62.5,4,1,1,75,0,0
138881,-62.5,4,1,1,5,0,0
138977,-62.5,4,1,1,75,0,0
139643,-71.4285714285714,4,1,1,75,0,0
139929,-71.4285714285714,4,1,1,5,0,0
140024,-71.4285714285714,4,1,1,75,0,0
140309,-71.4285714285714,4,1,1,5,0,0
140405,-71.4285714285714,4,1,1,75,0,0
141072,-71.4285714285714,4,1,1,5,0,0
141167,-71.4285714285714,4,1,1,75,0,0
141452,-71.4285714285714,4,1,1,5,0,0
141548,-71.4285714285714,4,1,1,75,0,0
146691,-100,4,2,1,50,0,0
156405,-71.4285714285714,4,2,1,75,0,0
156977,-100,4,2,1,50,0,0
158405,-71.4285714285714,4,2,1,75,0,0
158881,-71.4285714285714,4,2,1,5,0,0
158977,-100,4,2,1,50,0,0
160595,-100,4,2,1,5,0,0
160691,-100,4,2,1,50,0,0
164880,-100,4,2,1,5,0,0
164977,-100,4,2,1,50,0,0
169548,-100,4,2,1,25,0,0
176405,-100,4,1,1,100,0,0
177834,-62.5,4,1,1,100,0,0
178024,-62.5,4,1,1,5,0,0
178120,-62.5,4,1,1,100,0,0
178500,-71.4285714285714,4,1,1,100,0,0
178691,-71.4285714285714,4,1,1,75,0,0
178786,-71.4285714285714,4,1,1,5,0,0
178881,-71.4285714285714,4,1,1,75,0,0
179166,-71.4285714285714,4,1,1,5,0,0
179262,-71.4285714285714,4,1,1,75,0,0
179929,-71.4285714285714,4,1,1,5,0,0
180024,-71.4285714285714,4,1,1,75,0,0
180309,-71.4285714285714,4,1,1,5,0,0
180405,-71.4285714285714,4,1,1,75,0,0
183738,-71.4285714285714,4,1,1,5,0,0
183834,-71.4285714285714,4,1,1,75,0,0
184595,-71.4285714285714,4,1,1,5,0,0
184691,-71.4285714285714,4,1,1,75,0,0
185548,-71.4285714285714,4,1,1,25,0,0
185739,-62.5,4,1,1,100,0,1
186024,-62.5,4,1,1,5,0,0
186120,-62.5,4,1,1,100,0,1
186405,-62.5,4,1,1,100,0,0
186500,-62.5,4,1,1,5,0,0
186596,-62.5,4,1,1,100,0,1
187834,-71.4285714285714,4,1,1,75,0,0
187929,-71.4285714285714,4,1,1,5,0,0
188024,-71.4285714285714,4,1,1,75,0,0
188309,-71.4285714285714,4,1,1,5,0,0
188405,-71.4285714285714,4,1,1,75,0,0
188786,-71.4285714285714,4,1,1,5,0,0
188881,-71.4285714285714,4,1,1,75,0,0
189072,-71.4285714285714,4,1,1,5,0,0
189167,-71.4285714285714,4,1,1,75,0,0
191452,-71.4285714285714,4,1,1,5,0,0
191548,-71.4285714285714,4,1,1,75,0,0
191738,-71.4285714285714,4,1,1,5,0,0
191834,-71.4285714285714,4,1,1,75,0,0
192215,-71.4285714285714,4,1,1,5,0,0
192310,-71.4285714285714,4,1,1,75,0,0
193453,-62.5,4,1,1,75,0,0
193738,-62.5,4,1,1,5,0,0
193834,-62.5,4,1,1,75,0,0
194500,-71.4285714285714,4,1,1,75,0,0
194786,-71.4285714285714,4,1,1,5,0,0
194881,-71.4285714285714,4,1,1,75,0,0
195166,-71.4285714285714,4,1,1,5,0,0
195262,-71.4285714285714,4,1,1,75,0,0
195929,-71.4285714285714,4,1,1,5,0,0
196024,-71.4285714285714,4,1,1,75,0,0
196309,-71.4285714285714,4,1,1,5,0,0
196405,-71.4285714285714,4,1,1,75,0,0
201548,-83.3333333333333,4,1,1,50,0,0
203738,-83.3333333333333,4,1,1,5,0,0
203834,-83.3333333333333,4,1,1,50,0,0
208310,-83.3333333333333,4,1,1,5,0,0
208405,-83.3333333333333,4,1,1,50,0,0
210024,-83.3333333333333,4,1,1,5,0,0
210120,-83.3333333333333,4,1,1,50,0,0
212881,-83.3333333333333,4,1,1,5,0,0
212977,-83.3333333333333,4,1,1,50,0,0
217452,-83.3333333333333,4,1,1,5,0,0
217548,-83.3333333333333,4,1,1,50,0,0
218881,-83.3333333333333,4,1,1,5,0,0
218977,-83.3333333333333,4,1,1,50,0,0
219738,-83.3333333333333,4,1,1,5,0,0
219834,-125,4,2,1,25,0,0
222119,-125,4,2,1,5,0,0

[Colours]
Combo1 : 130,108,168
Combo2 : 192,192,192
Combo3 : 128,128,128
Combo4 : 105,107,186

[HitObjects]
204,344,120,22,0,L|263:354,1,60,0|0,1:0|1:0,1:0:0:0:
299,350,405,2,0,P|377:372|476:385,1,180,6|10,1:2|1:0,1:0:0:0:
510,208,1548,2,0,P|469:203|369:176,1,135,8|2,1:3|1:0,1:0:0:0:
258,206,2310,1,2,1:0:0:0:
258,206,2405,2,0,P|228:198|198:196,1,60,0|0,1:0|1:0,1:0:0:0:
172,220,2691,38,0,P|178:263|155:301,1,90,10|0,1:3|1:0,1:0:0:0:
75,228,3262,2,0,P|67:184|90:146,1,90,10|0,1:0|1:0,1:0:0:0:
182,88,3834,2,0,L|165:-1,2,90,10|0|8,1:3|1:0|1:0,1:0:0:0:
272,118,4691,6,0,L|213:109,1,60,2|0,1:0|1:0,1:0:0:0:
182,88,4977,2,0,P|93:70|4:65,1,180,10|10,1:3|1:0,1:0:0:0:
0,235,6120,2,0,P|41:237|146:257,1,135,10|2,1:3|1:0,1:0:0:0:
212,351,6881,1,0,1:0:0:0:
212,351,6977,2,0,P|241:358|270:360,1,60,2|8,1:0|1:0,1:0:0:0:
306,353,7262,38,0,L|319:263,1,90,10|0,1:3|1:0,1:0:0:0:
243,186,7834,2,0,L|256:96,1,90,10|2,1:0|1:0,1:0:0:0:
227,50,8262,1,2,1:0:0:0:
349,95,8596,1,8,1:0:0:0:
349,95,8691,2,0,P|363:69|357:40,1,60,8|0,1:3|1:0,1:0:0:0:
350,5,8977,21,8,1:0:0:0:
451,22,9167,1,8,1:0:0:0:
451,22,9548,22,0,P|440:111|416:197,1,180,14|10,1:2|1:0,1:0:0:0:
223,186,10691,2,0,P|236:119|241:52,1,135,10|2,1:3|1:0,1:0:0:0:
117,16,11453,1,2,1:0:0:0:
113,20,11548,2,0,P|103:48|98:77,1,60,0|0,1:0|1:0,1:0:0:0:
91,113,11834,6,0,P|69:151|76:195,1,90,10|0,1:3|1:0,1:0:0:0:
177,158,12405,2,0,P|199:120|193:76,1,90,10|0,1:0|1:0,1:0:0:0:
96,27,12977,2,0,L|7:16,2,90,10|0|8,1:3|1:0|1:0,1:0:0:0:
202,16,13834,38,0,L|193:75,1,60,2|0,1:0|1:0,1:0:0:0:
191,110,14120,2,0,P|163:195|156:285,1,180,10|10,1:3|1:0,1:0:0:0:
335,285,15262,2,0,P|338:218|363:154,1,135,10|2,1:3|1:0,1:0:0:0:
480,189,16024,1,0,1:0:0:0:
476,193,16120,2,0,P|465:221|460:250,1,60,2|8,1:0|1:0,1:0:0:0:
481,279,16405,6,0,P|397:378|277:326,1,270,10|0,1:3|1:0,1:0:0:0:
335,281,17453,2,0,B|338:252|338:252|279:241,1,90,2|8,1:0|1:0,1:0:0:0:
244,229,17834,2,0,P|249:257|233:281,1,60,8|0,1:3|1:0,1:0:0:0:
201,301,18120,21,8,1:0:0:0:
118,281,18310,1,8,1:0:0:0:
114,285,18405,1,8,1:3:0:0:
15,267,18691,6,0,P|25:193|76:140,1,150,6|8,1:2|1:3,1:0:0:0:
192,45,19739,1,0,1:0:0:0:
192,45,19834,2,0,P|161:27|115:24,1,75,0|0,1:0|1:0,1:0:0:0:
88,106,20405,1,8,1:3:0:0:
173,139,20691,2,0,P|274:94|332:-4,1,225,0|8,1:0|1:3,1:0:0:0:
321,148,22120,1,8,1:3:0:0:
469,170,22691,1,8,1:3:0:0:
383,278,23167,5,0,1:0:0:0:
383,278,23262,1,0,1:0:0:0:
427,359,23548,2,0,P|464:362|501:370,2,75,0|8|0,1:0|1:3|1:0,1:0:0:0:
338,342,24405,2,0,P|291:337|249:326,1,75,0|0,1:0|1:0,1:0:0:0:
207,260,24977,1,8,1:3:0:0:
140,199,25262,2,0,P|59:275|37:383,1,225,0|8,1:0|1:3,1:0:0:0:
169,261,26691,2,0,P|147:273|124:268,1,50,0|8,1:0|1:3,1:0:0:0:
101,246,26977,2,0,P|77:240|56:253,1,50,8|0,1:3|1:0,1:0:0:0:
32,271,27262,21,8,1:3:0:0:
17,194,27453,1,8,1:3:0:0:
17,194,27834,22,0,P|27:120|79:68,1,150,6|8,1:3|1:3,1:0:0:0:
157,24,28691,2,0,L|167:73,1,50,0|0,1:0|1:0,1:0:0:0:
192,89,28977,2,0,P|168:117|140:131,1,50,0|0,1:0|1:0,1:0:0:0:
127,126,29262,1,0,1:0:0:0:
64,192,29548,2,0,P|82:208|104:220,1,50,8|0,1:3|1:0,1:0:0:0:
133,212,29834,2,0,P|236:252|293:347,1,225,0|8,1:0|1:3,1:0:0:0:
146,369,31262,1,8,1:3:0:0:
133,212,31834,38,0,L|200:196,1,50,8|0,1:3|1:0,1:0:0:0:
210,209,32120,1,0,1:0:0:0:
267,129,32405,1,0,1:0:0:0:
339,263,32977,1,8,1:3:0:0:
407,204,33262,2,0,L|477:191,1,50,0|0,1:0|1:0,1:0:0:0:
482,208,33548,2,0,P|499:240|508:276,1,75,0|0,1:0|1:0,1:0:0:0:
435,331,34120,2,0,P|427:306|414:283,1,50,8|0,1:3|1:0,1:0:0:0:
409,283,34405,1,0,1:3:0:0:
304,232,34691,6,0,L|290:142,1,75,0|0,1:0|1:0,1:0:0:0:
392,121,35262,2,0,L|385:71,1,50,8|0,1:3|1:0,1:0:0:0:
357,60,35548,1,0,1:0:0:0:
361,56,35643,2,0,L|368:32,1,25,8|0,1:3|1:0,1:0:0:0:
377,3,35834,1,8,1:3:0:0:
290,26,36120,1,6,1:0:0:0:
227,90,36405,2,0,P|224:65|215:41,1,50,8|10,1:3|1:3,1:0:0:0:
183,19,36691,2,0,L|78:-1,1,105,14|4,1:2|1:0,1:0:0:0:
18,57,37167,5,0,1:0:0:0:
18,57,37262,2,0,P|6:92|6:128,1,65,0|0,1:0|1:0,1:0:0:0:
27,152,37548,2,0,P|48:198|33:247,1,97.5,10|0,1:0|1:0,1:0:0:0:
86,348,38120,2,0,L|155:358,1,65,10|0,1:3|1:0,1:0:0:0:
243,286,38596,2,0,B|282:288|278:297|314:300,1,65,2|0,1:0|1:0,1:0:0:0:
343,286,38881,2,0,P|355:352|414:386,1,130,2|8,1:0|1:3,1:0:0:0:
483,366,39453,5,0,1:0:0:0:
483,366,39548,2,0,P|493:332|496:298,1,65,0|0,1:0|1:0,1:0:0:0:
472,271,39834,2,0,P|456:222|482:178,1,97.5,10|0,1:0|1:0,1:0:0:0:
437,72,40405,2,0,L|368:59,1,65,10|0,1:3|1:0,1:0:0:0:
271,117,40881,2,0,B|231:114|235:105|199:102,1,65,2|0,1:0|1:0,1:0:0:0:
184,80,41167,2,0,P|140:132|72:132,1,130,2|8,1:0|1:3,1:0:0:0:
41,74,41739,37,0,1:0:0:0:
41,74,41834,1,0,1:0:0:0:
79,8,42024,1,0,1:0:0:0:
79,8,42120,2,0,P|127:10|186:24,1,97.5,10|0,1:0|1:0,1:0:0:0:
150,145,42691,2,0,P|116:140|81:137,1,65,10|0,1:3|1:0,1:0:0:0:
81,254,43167,2,0,P|97:253|113:255,1,32.5,2|8,1:0|1:0,1:0:0:0:
182,291,43453,6,0,P|203:249|250:240,1,97.5,2|0,1:0|1:0,1:0:0:0:
284,259,43834,2,0,P|280:307|269:356,1,97.5,10|0,1:3|1:0,1:0:0:0:
385,370,44405,2,0,P|384:335|392:301,1,65,10|0,1:0|1:0,1:0:0:0:
398,267,44691,2,0,P|433:275|514:283,1,97.5,2|10,1:0|1:3,1:0:0:0:
500,207,45167,1,8,1:0:0:0:
500,207,45262,2,0,P|465:191|451:162,1,65,8|0,1:3|1:0,1:0:0:0:
469,132,45548,1,8,1:0:0:0:
480,57,45739,1,8,1:0:0:0:
480,57,45834,2,0,P|428:60|394:98,1,97.5,8|12,1:3|1:2,1:0:0:0:
316,89,46310,37,0,1:0:0:0:
316,89,46405,2,0,P|284:79|252:75,1,65,0|0,1:0|1:0,1:0:0:0:
214,84,46691,2,0,P|198:39|224:0,1,97.5,10|0,1:0|1:0,1:0:0:0:
107,2,47262,2,0,P|103:34|94:69,1,65,10|0,1:3|1:0,1:0:0:0:
39,169,47739,2,0,L|111:183,1,65,2|0,1:0|1:0,1:0:0:0:
139,170,48024,2,0,P|106:224|119:287,1,130,2|8,1:0|1:3,1:0:0:0:
194,339,48596,5,0,1:0:0:0:
194,339,48691,2,0,P|227:343|257:353,1,65,0|0,1:0|1:0,1:0:0:0:
289,377,48977,2,0,P|322:342|315:296,1,97.5,10|0,1:0|1:0,1:0:0:0:
432,310,49548,2,0,P|436:278|445:243,1,65,10|0,1:3|1:0,1:0:0:0:
506,146,50024,2,0,L|434:132,1,65,2|0,1:0|1:0,1:0:0:0:
402,131,50310,2,0,P|395:68|422:9,1,130,2|8,1:0|1:3,1:0:0:0:
507,6,50881,37,0,1:0:0:0:
507,6,50977,1,0,1:0:0:0:
469,75,51167,1,0,1:0:0:0:
469,75,51262,2,0,P|422:64|372:59,1,97.5,10|0,1:0|1:0,1:0:0:0:
367,176,51834,2,0,P|399:177|430:184,1,65,10|0,1:3|1:0,1:0:0:0:
404,298,52310,2,0,P|390:295|371:295,1,32.5,2|8,1:0|1:0,1:0:0:0:
296,313,52596,2,0,P|284:266|243:243,1,97.5,2|0,1:0|1:0,1:0:0:0:
204,246,52977,6,0,P|191:288|185:342,1,97.5,10|0,1:3|1:0,1:0:0:0:
69,324,53548,2,0,P|79:296|85:249,1,65,10|0,1:0|1:0,1:0:0:0:
85,221,53834,2,0,P|93:173|107:126,1,97.5,2|8,1:0|1:3,1:0:0:0:
191,158,54310,1,8,1:0:0:0:
191,158,54405,1,8,1:3:0:0:
204,246,54691,38,0,L|212:298,1,50,8|8,1:0|1:0,1:0:0:0:
201,324,54977,1,8,1:3:0:0:
116,316,55262,38,0,P|111:292|110:267,1,50,6|0,1:2|1:0,1:0:0:0:
126,241,55548,1,0,1:0:0:0:
107,152,55834,1,8,1:3:0:0:
22,120,56120,2,0,P|23:95|20:70,1,50,0|0,1:0|1:0,1:0:0:0:
0,47,56405,2,0,L|73:40,1,75,0|0,1:0|1:0,1:0:0:0:
164,29,56977,1,8,1:3:0:0:
132,112,57262,2,0,P|238:101|279:2,1,225,0|8,1:0|1:3,1:0:0:0:
425,37,58691,1,8,1:3:0:0:
402,185,59262,1,8,1:3:0:0:
253,132,59834,38,0,P|249:92|240:58,2,75,0|0|8,1:0|1:0|1:3,1:0:0:0:
215,213,60691,2,0,P|217:240|215:262,1,50,0|0,1:0|1:0,1:0:0:0:
207,292,60977,2,0,P|228:304|252:309,1,50,0|0,1:0|1:0,1:0:0:0:
281,301,61262,1,0,1:0:0:0:
329,224,61548,1,8,1:3:0:0:
413,256,61834,2,0,P|381:349|266:383,1,225,0|8,1:0|1:3,1:0:0:0:
101,377,63262,2,0,P|89:355|94:332,1,50,2|8,1:2|1:3,1:0:0:0:
109,305,63548,2,0,P|115:281|102:260,1,50,8|0,1:3|1:3,1:3:0:0:
85,235,63834,2,0,L|78:160,1,75,8|0,1:3|1:0,1:0:0:0:
78,160,64405,6,0,P|126:117|204:135,1,150,0|8,1:0|1:3,1:0:0:0:
288,166,65262,2,0,P|293:141|289:117,1,50,0|0,1:0|1:0,1:0:0:0:
274,91,65548,2,0,P|310:82|347:87,2,75,0|0|8,1:0|1:0|1:3,1:0:0:0:
201,37,66405,2,0,L|151:41,1,50,0|0,1:0|1:0,1:0:0:0:
137,13,66691,2,0,L|288:4,1,150,0|8,1:0|1:3,1:0:0:0:
376,2,67548,2,0,P|375:26|382:51,1,50,0|8,1:0|1:3,1:0:0:0:
401,73,67834,2,0,L|445:86,1,25,8|0,1:3|1:0,1:0:0:0:
447,100,68024,1,8,1:2:0:0:
451,104,68120,1,0,1:0:0:0:
406,182,68405,2,0,P|402:226|412:256,1,75,8|0,1:3|1:0,1:0:0:0:
498,218,68977,38,0,L|506:367,1,150,2|8,1:0|1:3,1:0:0:0:
356,384,70120,2,0,L|347:234,1,150,2|8,1:0|1:3,1:0:0:0:
367,146,70977,2,0,P|342:202|290:235,1,125,6|0,1:0|1:0,1:0:0:0:
268,260,71548,2,0,P|243:264|213:265,1,55,8|0,1:3|1:0,1:0:0:0:
176,264,71834,2,0,P|145:265|116:269,1,60,8|0,1:3|1:0,1:0:0:0:
76,267,72120,2,0,P|43:271|21:272,1,32.5,10|0,1:3|1:0,1:0:0:0:
0,270,72310,37,2,1:0:0:0:
0,270,73548,38,0,L|3:235,1,35,14|0,1:2|1:0,1:0:0:0:
8,192,73739,2,0,P|7:139|17:88,1,105,0|0,1:0|1:0,1:0:0:0:
28,47,74120,2,0,P|80:15|125:18,1,105,8|0,1:0|1:0,1:0:0:0:
218,99,74691,2,0,L|211:133,1,35,0|0,1:0|1:0,1:0:0:0:
203,174,74881,2,0,P|187:224|183:276,1,105,0|0,1:0|1:0,1:0:0:0:
183,312,75262,2,0,P|233:366|264:373,1,105,8|0,1:0|1:0,1:0:0:0:
340,325,75834,6,0,L|343:290,1,35,8|0,1:3|1:0,1:0:0:0:
348,248,76024,2,0,P|347:195|357:144,1,105,0|0,1:0|1:0,1:0:0:0:
366,103,76405,1,8,1:0:0:0:
486,64,76691,2,0,P|498:95|484:126,1,70,0|8,1:0|1:3,1:0:0:0:
476,168,76977,2,0,P|474:184|473:202,1,35,0|0,1:0|1:0,1:0:0:0:
467,244,77167,2,0,L|455:383,1,140,0|8,1:0|1:0,1:0:0:0:
371,375,77739,38,0,L|321:367,1,35,0|0,1:0|1:0,1:0:0:0:
254,354,78024,1,0,1:0:0:0:
249,350,78120,2,0,P|197:347|145:339,1,105,8|0,1:3|1:0,1:0:0:0:
72,382,78596,1,0,1:0:0:0:
68,377,78691,2,0,P|71:325|79:273,1,105,8|0,1:0|1:0,1:0:0:0:
10,172,79262,2,0,P|42:160|60:130,1,70,8|0,1:3|1:0,1:0:0:0:
87,97,79548,2,0,P|79:63|52:41,1,70,0|0,1:0|1:0,1:0:0:0:
11,33,79834,1,8,1:0:0:0:
132,0,80120,2,0,P|158:24|171:52,1,70,0|0,1:0|1:0,1:0:0:0:
159,87,80405,5,8,1:0:0:0:
258,117,80596,1,8,1:0:0:0:
258,117,81262,37,8,1:0:0:0:
159,87,81453,2,0,B|124:81|124:81|106:163,1,120,14|0,1:2|1:0,1:0:0:0:
92,209,81834,1,8,1:3:0:0:
0,120,82120,1,8,1:0:0:0:
103,23,82405,5,8,1:0:0:0:
103,23,82500,2,0,L|115:57,1,35,8|8,1:0|1:3,1:0:0:0:
149,80,82691,2,0,L|131:117,1,35,4|0,1:0|1:0,1:0:0:0:
106,143,82881,2,0,B|105:172|107:196|107:196|96:220|91:246,1,105,0|0,1:0|1:0,1:0:0:0:
117,278,83262,2,0,P|161:289|219:258,1,105,8|0,1:0|1:0,1:0:0:0:
314,189,83834,2,0,L|307:223,1,35,0|0,1:0|1:0,1:0:0:0:
300,264,84024,2,0,B|294:290|284:314|284:314|285:335|280:366,1,105,0|0,1:0|1:0,1:0:0:0:
241,383,84405,2,0,P|166:378|136:346,1,105,8|0,1:0|1:0,1:0:0:0:
69,309,84881,37,8,1:3:0:0:
73,305,84977,1,4,1:0:0:0:
2,279,85167,2,0,B|21:243|31:210|19:217|25:178|44:146,1,140,0|8,1:0|1:0,1:0:0:0:
181,122,85834,1,0,1:0:0:0:
250,152,86024,5,4,1:0:0:0:
253,148,86120,1,8,1:3:0:0:
323,177,86310,2,0,B|343:144|350:109|340:110|350:77|368:44,1,140,0|8,1:0|1:0,1:0:0:0:
253,72,86977,2,0,P|256:106|243:138,1,70,8|0,1:3|1:0,1:0:0:0:
208,162,87262,38,0,P|106:176|50:260,1,210,12|8,1:3|1:0,1:0:0:0:
294,200,88405,2,0,P|366:245|394:333,1,175,8|8,1:3|1:0,1:0:0:0:
280,380,89167,5,8,1:0:0:0:
276,376,89262,1,8,1:0:0:0:
248,303,89453,5,8,1:0:0:0:
244,299,89548,2,0,P|232:209|209:122,1,180,14|10,1:2|1:0,1:0:0:0:
36,176,90691,2,0,P|54:242|62:309,1,135,10|2,1:3|1:0,1:0:0:0:
172,377,91453,1,2,1:0:0:0:
176,373,91548,2,0,P|167:344|166:314,1,60,0|0,1:0|1:0,1:0:0:0:
156,278,91834,2,0,P|161:233|142:193,1,90,10|0,1:3|1:0,1:0:0:0:
36,176,92405,2,0,P|30:220|49:260,1,90,10|0,1:0|1:0,1:0:0:0:
142,193,92977,2,0,L|230:175,2,90,10|0|8,1:3|1:0|1:0,1:0:0:0:
177,90,93834,6,0,L|236:79,1,60,2|0,1:0|1:0,1:0:0:0:
282,71,94120,2,0,P|368:45|458:38,1,180,10|10,1:3|1:0,1:0:0:0:
489,215,95262,2,0,P|426:224|357:247,1,135,10|2,1:3|1:0,1:0:0:0:
303,355,96024,1,0,1:0:0:0:
299,359,96120,2,0,P|273:374|243:375,1,60,2|0,1:0|1:0,1:0:0:0:
208,370,96405,38,0,L|191:281,1,90,10|0,1:3|1:0,1:0:0:0:
82,275,96977,2,0,L|65:186,1,90,10|2,1:0|1:0,1:0:0:0:
13,169,97405,1,10,1:3:0:0:
117,106,97739,1,8,1:0:0:0:
121,102,97834,2,0,P|100:80|100:49,1,60,8|0,1:3|1:0,1:0:0:0:
102,15,98120,37,8,1:0:0:0:
0,28,98310,1,8,1:0:0:0:
0,28,98691,6,0,P|9:102|29:173,1,150,14|0,1:2|1:0,1:0:0:0:
50,203,99262,1,14,1:0:0:0:
225,164,99834,2,0,P|213:120|211:27,1,135,10|2,1:3|1:0,1:0:0:0:
335,48,100596,1,2,1:0:0:0:
339,52,100691,2,0,P|342:81|348:110,1,60,0|0,1:0|1:0,1:0:0:0:
373,137,100977,6,0,P|416:144|454:122,1,90,10|0,1:3|1:0,1:0:0:0:
503,25,101548,2,0,P|459:20|421:43,1,90,10|0,1:0|1:0,1:0:0:0:
373,137,102120,2,0,L|384:226,2,90,10|0|8,1:3|1:0|1:0,1:0:0:0:
474,99,102977,38,0,L|483:158,1,60,2|0,1:0|1:0,1:0:0:0:
476,193,103262,2,0,P|504:278|511:368,1,180,10|10,1:3|1:0,1:0:0:0:
333,384,104405,2,0,P|327:340|301:252,1,135,10|2,1:3|1:0,1:0:0:0:
200,177,105167,1,0,1:0:0:0:
195,173,105262,2,0,P|164:174|136:181,1,60,2|0,1:0|1:0,1:0:0:0:
108,204,105548,6,0,L|94:114,2,90,10|8|8,1:3|1:0|1:3,1:0:0:0:
130,309,106405,2,0,P|160:300|195:297,1,60,10|10,1:0|1:0,1:0:0:0:
224,294,106691,2,0,P|213:262|209:195,1,90,8|8,1:3|1:3,1:0:0:0:
188,100,107262,2,0,P|217:99|247:93,1,60,8|8,1:0|1:3,1:0:0:0:
281,80,107548,1,8,1:0:0:0:
365,110,107834,6,0,L|372:60,2,50,8|8|8,1:3|1:3|1:3,1:3:0:0:
336,188,108405,2,0,P|369:265|316:329,1,175,14|0,1:2|1:0,1:0:0:0:
305,301,108977,22,0,P|354:284|391:277,1,75,0|0,1:0|1:0,1:0:0:0:
466,284,109548,1,8,1:3:0:0:
435,368,109834,2,8,P|392:269|461:186,1,225,8|8,1:3|1:3,1:0:0:0:
487,101,110977,2,0,L|512:105,2,25,0|0|8,1:0|1:0|1:3,1:0:0:0:
469,76,111262,2,0,L|476:20,2,50,8|0|0,1:3|1:0|1:0,1:0:0:0:
417,125,111834,2,0,P|380:141|309:108,1,100,8|0,1:3|1:0,1:0:0:0:
288,64,112405,6,0,P|263:64|238:60,1,50,0|0,1:0|1:0,1:0:0:0:
217,38,112691,1,0,1:0:0:0:
127,25,112977,2,0,L|53:12,1,75,8|0,1:3|1:0,1:0:0:0:
27,98,113548,2,0,P|52:98|77:102,1,50,0|0,1:0|1:0,1:0:0:0:
97,124,113834,2,0,L|185:138,1,75,0|8,1:0|1:3,1:0:0:0:
248,183,114405,2,0,P|281:286|224:380,1,225,0|8,1:0|1:3,1:0:0:0:
104,291,115834,2,0,L|199:273,1,75,10|2,1:3|1:0,1:0:0:0:
260,313,116405,1,10,1:3:0:0:
339,355,116691,38,0,L|392:340,1,50,0|0,1:0|1:0,1:0:0:0:
421,328,116977,2,0,P|369:377|299:360,1,150,0|8,1:2|1:3,1:0:0:0:
329,282,117834,2,0,L|319:233,1,50,0|0,1:0|1:0,1:0:0:0:
295,215,118120,2,0,P|311:196|359:171,1,75,0|0,1:0|1:0,1:0:0:0:
421,111,118691,2,0,P|403:95|381:83,1,50,8|0,1:3|1:0,1:0:0:0:
354,98,118977,6,0,P|285:71|247:8,1,150,0|0,1:0|1:0,1:0:0:0:
337,12,119834,2,0,P|374:9|410:1,1,75,8|0,1:3|1:0,1:0:0:0:
490,42,120405,2,0,P|493:105|504:166,1,125,8|0,1:3|1:0,1:0:0:0:
505,196,120977,2,0,P|510:234|512:270,1,75,8|0,1:3|1:0,1:0:0:0:
484,337,121453,37,0,1:0:0:0:
480,341,121548,2,0,P|455:342|408:357,1,75,0|0,1:0|1:0,1:0:0:0:
318,369,122120,2,0,P|336:338|333:301,1,75,8|0,1:3|1:0,1:0:0:0:
358,213,122691,2,0,P|333:214|279:228,1,75,0|0,1:0|1:0,1:0:0:0:
250,309,123262,1,8,1:3:0:0:
159,304,123548,2,0,P|55:280|1:174,1,225,0|0,1:0|1:0,1:0:0:0:
10,138,124548,6,0,P|51:174|54:228,1,112.5,2|2,1:0|1:0,1:0:0:0:
0,276,125167,2,0,B|-14:315|-14:315|4:343,1,75,8|8,1:3|1:3,1:0:0:0:
28,360,125548,2,0,L|52:363,2,25,8|8|0,1:0|1:3|1:0,1:0:0:0:
89,384,125834,2,8,L|142:376,2,35,8|8|8,1:0|1:0|1:0,1:0:0:0:
161,357,126120,1,0,1:0:0:0:
494,378,128120,6,0,B|507:256|507:256|471:295,1,175,14|0,1:2|1:0,1:0:0:0:
438,318,128691,1,8,1:3:0:0:
325,375,128977,1,8,1:3:0:0:
268,262,129262,1,10,1:3:0:0:
395,202,129548,6,0,L|375:128,1,65,8|8,1:0|1:3,1:0:0:0:
336,134,129834,2,0,L|361:63,1,65,10|8,1:0|1:3,1:0:0:0:
343,38,130120,2,0,L|409:19,1,65,10|8,1:0|1:3,1:0:0:0:
437,5,130405,37,10,1:0:0:0:
433,10,130500,2,0,L|446:55,1,35,8|8,1:0|1:3,1:0:0:0:
482,59,130691,2,0,L|459:90,1,35,14|10,1:2|1:2,1:0:0:0:
433,116,130881,2,0,P|404:157|425:202,1,105,0|0,1:0|1:0,1:0:0:0:
455,231,131262,2,0,P|432:277|436:329,1,105,8|0,1:0|1:0,1:0:0:0:
309,326,131834,2,0,L|274:322,1,35,8|0,1:3|1:0,1:0:0:0:
245,329,132024,2,0,P|195:317|152:344,1,105,0|0,1:0|1:0,1:0:0:0:
139,375,132405,2,0,P|84:369|40:345,1,105,8|0,1:0|1:0,1:0:0:0:
101,234,132977,6,0,L|104:199,1,35,8|0,1:3|1:0,1:0:0:0:
133,168,133167,2,0,P|81:164|29:153,1,105,0|0,1:0|1:0,1:0:0:0:
1,121,133548,1,8,1:0:0:0:
77,20,133834,2,0,P|110:12|141:27,1,70,0|0,1:0|1:0,1:0:0:0:
171,46,134120,2,0,P|188:46|204:50,1,35,8|0,1:3|1:0,1:0:0:0:
240,55,134310,2,0,L|380:65,1,140,0|8,1:0|1:0,1:0:0:0:
462,49,134881,38,0,L|456:102,1,35,0|0,1:0|1:0,1:0:0:0:
496,158,135167,1,0,1:0:0:0:
492,163,135262,2,0,P|489:215|481:267,1,105,8|0,1:3|1:0,1:0:0:0:
507,347,135739,1,0,1:0:0:0:
502,343,135834,2,0,P|450:340|398:332,1,105,8|0,1:0|1:0,1:0:0:0:
303,248,136405,2,8,P|320:218|352:206,1,70,8|8,1:3|1:3,1:3:0:0:
387,181,136691,2,0,P|414:204|421:237,1,70,8|0,1:3|1:0,1:0:0:0:
451,266,136977,1,8,1:0:0:0:
389,375,137262,2,0,P|362:352|355:319,1,70,0|0,1:0|1:0,1:0:0:0:
377,283,137548,5,8,1:0:0:0:
278,266,137739,1,8,1:0:0:0:
278,266,138405,37,8,1:0:0:0:
377,283,138596,2,0,B|412:289|412:289|430:207,1,120,14|0,1:2|1:0,1:0:0:0:
447,161,138977,1,8,1:3:0:0:
318,179,139262,1,8,1:0:0:0:
381,287,139548,5,8,1:0:0:0:
376,283,139643,2,0,L|338:262,1,35,8|8,1:0|1:3,1:0:0:0:
322,230,139834,2,0,L|283:242,1,35,4|0,1:0|1:0,1:0:0:0:
256,267,140024,2,0,P|203:268|152:258,1,105,0|0,1:0|1:0,1:0:0:0:
110,249,140405,2,0,P|78:183|91:151,1,105,8|0,1:0|1:0,1:0:0:0:
193,88,140977,2,0,L|227:95,1,35,8|0,1:3|1:0,1:0:0:0:
269,101,141167,2,0,P|319:117|371:121,1,105,0|0,1:0|1:0,1:0:0:0:
406,123,141548,2,0,P|438:87|430:20,1,105,8|0,1:0|1:0,1:0:0:0:
354,12,142024,37,8,1:3:0:0:
350,16,142120,1,4,1:2:0:0:
278,0,142310,2,0,B|262:35|261:76|270:62|267:106|248:136,1,140,0|8,1:0|1:0,1:0:0:0:
293,256,142977,1,0,1:0:0:0:
222,240,143167,5,12,1:2:0:0:
218,244,143262,1,0,1:0:0:0:
148,226,143453,2,0,B|132:261|131:302|140:288|137:332|118:362,1,140,0|8,1:0|1:0,1:0:0:0:
246,307,144120,2,0,P|243:273|256:241,1,70,8|0,1:3|1:3,1:0:0:0:
294,222,144405,38,0,P|396:208|452:124,1,210,12|8,1:2|1:0,1:0:0:0:
205,176,145548,2,0,P|133:131|119:48,1,175,8|8,1:3|1:0,1:0:0:0:
228,1,146310,5,8,1:0:0:0:
232,5,146405,1,8,1:0:0:0:
264,86,146596,21,8,1:0:0:0:
268,90,146691,2,0,L|282:163,1,75,6|0,1:2|1:0,1:0:0:0:
366,196,147262,2,0,L|352:269,1,75,10|2,1:0|1:3,1:0:0:0:
290,304,147739,2,0,B|262:318|231:319|231:319|217:403|119:422|51:323|119:266,1,325,2|2,1:0|1:0,1:0:0:0:
37,6,149834,2,0,L|12:10,2,25,0|0|0,1:0|1:0|1:0,1:0:0:0:
46,29,150120,2,0,B|113:25|98:48|160:45,2,112.5,10|0|0,1:3|1:0|1:0,1:0:0:0:
57,118,151262,2,0,P|13:150|10:211,1,112.5,2|2,1:2|1:0,1:0:0:0:
2,249,151834,2,0,B|38:266|38:266|63:242,1,75,8|0,1:0|1:0,1:0:0:0:
114,167,152405,38,0,P|138:160|163:159,1,50,10|0,1:3|1:0,1:0:0:0:
192,151,152691,2,0,P|216:149|240:143,1,50,8|0,1:3|1:0,1:0:0:0:
270,134,152977,2,0,P|297:127|326:126,2,50,10|0|0,1:0|1:0|1:0,1:0:0:0:
249,201,153548,1,10,1:3:0:0:
229,290,153834,2,0,L|242:364,1,75,10|8,1:2|1:0,1:0:0:0:
332,378,154405,6,0,L|324:329,1,50,2|10,1:0|1:0,1:0:0:0:
371,252,154881,1,8,1:0:0:0:
433,316,155167,1,8,1:0:0:0:
437,312,155262,2,0,L|511:304,1,75,10|2,1:3|1:0,1:0:0:0:
501,221,155739,38,0,L|485:179,1,25,0|10,1:0|1:3,1:0:0:0:
430,163,156024,2,0,L|435:132,1,25,0|8,1:0|1:3,1:0:0:0:
504,114,156310,21,0,1:0:0:0:
500,110,156405,2,0,B|497:67|497:67|495:65|495:65|488:0,1,105,6|0,1:2|1:0,1:0:0:0:
489,7,156977,22,0,L|439:13,1,50,0|0,1:0|1:0,1:0:0:0:
345,16,157453,2,0,L|354:42,1,25,0|8,1:0|1:0,1:0:0:0:
402,90,157739,2,0,L|391:114,1,25,0|0,1:0|1:0,1:0:0:0:
313,157,158120,1,8,1:3:0:0:
313,157,158405,22,0,B|288:203|220:190|179:125|238:82,1,175,10|0,1:2|1:0,1:0:0:0:
242,71,158977,22,0,L|267:68,2,25,0|0|0,1:0|1:0|1:0,1:0:0:0:
220,50,159262,2,0,L|217:25,2,25,0|0|0,1:0|1:0|1:0,1:0:0:0:
198,75,159548,2,0,P|124:85|49:82,1,150,0|0,1:0|1:0,1:0:0:0:
2,159,160405,6,0,P|7:184|7:211,1,50,10|0,1:3|1:0,1:0:0:0:
13,238,160691,1,10,1:3:0:0:
101,221,160977,2,0,P|101:258|109:295,1,75,8|2,1:0|1:0,1:0:0:0:
164,367,161548,1,2,1:3:0:0:
253,371,161834,1,0,1:0:0:0:
282,285,162120,1,8,1:0:0:0:
209,231,162405,1,2,1:0:0:0:
132,278,162691,38,0,P|181:260|240:273,1,112.5,10|8,1:3|1:0,1:0:0:0:
282,285,163262,2,0,B|301:286|301:286|318:279,1,37.5,8|8,1:0|1:0,1:0:0:0:
311,189,163691,2,0,B|293:197|293:197|275:198,1,37.5,8|10,1:0|1:3,1:0:0:0:
175,130,164215,2,0,L|199:125,1,25,8|8,1:0|1:0,1:0:0:0:
270,124,164500,2,0,B|267:83|267:83|265:81|265:81|259:25,1,100,4|0,1:0|1:0,1:0:0:0:
238,2,164977,5,10,1:2:0:0:
256,192,165072,12,4,169548,1:3:0:0:
270,2,176405,5,8,1:0:0:0:
246,102,176596,1,8,1:0:0:0:
246,102,177262,5,8,1:0:0:0:
270,2,177453,1,8,1:0:0:0:
154,106,177834,38,0,B|141:160|141:160|164:166,1,80,12|0,1:3|1:0,1:0:0:0:
205,179,178120,1,8,1:3:0:0:
317,87,178405,5,8,1:0:0:0:
321,91,178500,2,0,L|341:132,1,35,8|8,1:0|1:3,1:0:0:0:
362,148,178691,2,0,L|347:182,1,35,6|0,1:2|1:0,1:0:0:0:
312,201,178881,2,0,P|313:254|303:305,1,105,0|0,1:0|1:0,1:0:0:0:
291,345,179262,2,0,P|250:381|190:380,1,105,8|0,1:0|1:0,1:0:0:0:
126,281,179834,2,0,L|133:247,1,35,8|0,1:3|1:0,1:0:0:0:
139,205,180024,2,0,P|155:155|159:103,1,105,0|0,1:0|1:0,1:0:0:0:
155,60,180405,2,0,P|121:20|70:10,1,105,8|0,1:0|1:0,1:0:0:0:
18,73,180881,37,8,1:3:0:0:
22,77,180977,1,4,1:0:0:0:
11,154,181167,2,0,B|45:169|86:169|72:161|116:164|146:183,1,140,0|8,1:0|1:0,1:0:0:0:
267,218,181834,1,0,1:0:0:0:
251,289,182024,5,4,1:0:0:0:
255,293,182120,1,8,1:3:0:0:
239,365,182310,2,0,B|273:381|313:376|301:365|344:372|376:384,1,140,0|8,1:0|1:0,1:0:0:0:
395,259,182977,38,0,L|406:188,1,70,10|8,1:3|1:3,1:0:0:0:
401,148,183262,2,0,P|476:185|486:268,1,175,6|0,1:0|1:0,1:0:0:0:
482,310,183834,2,0,P|432:310|390:346,1,105,10|0,1:0|1:0,1:0:0:0:
308,330,184310,2,0,B|274:325|274:325|273:327|273:327|240:324|240:324|238:322|238:322|203:319,1,105,2|0,1:0|1:0,1:0:0:0:
180,285,184691,2,0,L|188:249,2,35,2|0|10,1:3|1:0|1:3,1:0:0:0:
146,309,184977,2,0,L|111:303,2,35,10|10|8,1:0|1:0|1:3,1:0:0:0:
170,342,185262,2,0,L|164:377,2,35,10|0|10,1:0|1:0|1:3,1:0:0:0:
203,315,185548,5,8,1:3:0:0:
308,372,185739,38,0,B|311:343|337:326|337:326|343:292|326:263,1,120,6|0,1:2|1:0,1:0:0:0:
286,237,186120,1,6,1:2:0:0:
198,318,186405,2,0,L|191:278,1,40,8|8,1:3|1:0,1:0:0:0:
175,232,186596,6,0,B|168:161|96:135|96:135|89:54|131:-4,1,280,14|8,1:2|1:0,1:0:0:0:
16,81,187548,1,0,1:0:0:0:
106,169,187834,2,0,L|140:175,1,35,8|0,1:3|1:0,1:0:0:0:
181,184,188024,2,0,P|233:188|283:203,1,105,0|0,1:0|1:0,1:0:0:0:
324,212,188405,1,8,1:0:0:0:
336,337,188691,2,0,P|303:345|273:328,1,70,0|0,1:0|1:0,1:0:0:0:
230,321,188977,2,0,P|213:316|196:314,1,35,8|0,1:3|1:0,1:0:0:0:
153,313,189167,2,0,L|16:286,1,140,0|8,1:0|1:0,1:0:0:0:
40,205,189739,38,0,L|53:162,1,35,0|0,1:0|1:0,1:0:0:0:
121,127,190024,1,0,1:0:0:0:
125,123,190120,2,0,P|138:71|145:20,1,105,14|0,1:2|1:0,1:0:0:0:
59,0,190596,1,0,1:0:0:0:
54,2,190691,2,0,P|43:49|35:104,1,105,8|0,1:0|1:0,1:0:0:0:
1,226,191262,2,0,P|12:258|42:276,1,70,0|0,1:3|1:0,1:0:0:0:
62,313,191548,2,0,P|95:305|117:278,1,70,8|0,1:3|1:0,1:0:0:0:
157,243,191834,1,8,1:0:0:0:
108,149,192120,2,0,P|74:157|55:185,1,70,0|0,1:0|1:0,1:0:0:0:
63,226,192405,5,8,1:0:0:0:
157,243,192596,1,8,1:0:0:0:
157,243,193262,37,8,1:0:0:0:
63,226,193453,2,0,B|28:220|28:220|37:137,1,120,14|0,1:2|1:0,1:0:0:0:
23,89,193834,1,8,1:3:0:0:
119,8,194120,1,8,1:0:0:0:
233,42,194405,5,8,1:0:0:0:
237,38,194500,2,0,L|280:22,1,35,8|8,1:0|1:3,1:0:0:0:
301,0,194691,2,0,L|347:23,1,35,12|0,1:2|1:0,1:0:0:0:
357,46,194881,2,0,B|386:47|410:45|410:45|434:56|460:61,1,105,0|0,1:0|1:0,1:0:0:0:
491,88,195262,2,0,P|499:143|461:187,1,105,8|0,1:0|1:0,1:0:0:0:
357,236,195834,2,0,L|323:229,1,35,0|0,1:0|1:0,1:0:0:0:
281,223,196024,2,0,B|255:217|231:207|231:207|210:208|179:203,1,105,0|0,1:0|1:0,1:0:0:0:
136,195,196405,2,0,P|87:209|58:252,1,105,8|0,1:0|1:0,1:0:0:0:
51,336,196881,37,8,1:3:0:0:
55,333,196977,1,4,1:0:0:0:
126,350,197167,2,0,B|141:313|141:273|132:287|134:242|151:212,1,140,0|8,1:0|1:0,1:0:0:0:
223,110,197834,1,0,1:0:0:0:
297,130,198024,5,12,1:2:0:0:
301,126,198120,1,0,1:0:0:0:
376,143,198310,2,0,B|385:108|387:71|376:80|381:33|391:4,1,139.999995727539,0|8,1:0|1:0,1:0:0:0:
511,44,198977,2,0,L|440:55,1,70,8|0,1:3|1:0,1:0:0:0:
416,88,199262,38,0,P|500:144|513:245,1,210,12|8,1:3|1:0,1:0:0:0:
286,335,200405,2,0,P|369:321|414:249,1,175,8|8,1:3|1:0,1:0:0:0:
321,164,201167,5,8,1:0:0:0:
317,168,201262,1,8,1:0:0:0:
269,238,201453,21,8,1:0:0:0:
265,242,201548,2,0,P|237:164|231:64,1,180,6|10,1:2|1:0,1:0:0:0:
411,43,202691,2,0,P|413:84|440:175,1,135,10|2,1:3|1:0,1:0:0:0:
478,285,203453,1,2,1:0:0:0:
474,289,203548,2,0,P|442:291|414:300,1,60,0|0,1:0|1:0,1:0:0:0:
379,300,203834,38,0,P|356:260|364:217,1,90,10|0,1:3|1:0,1:0:0:0:
436,139,204405,2,0,P|457:177|447:220,1,90,10|0,1:0|1:0,1:0:0:0:
379,300,204977,2,0,L|291:317,2,90,10|0|8,1:3|1:0|1:0,1:0:0:0:
307,219,205834,6,0,L|248:231,1,60,2|0,1:0|1:0,1:0:0:0:
219,253,206120,2,0,P|130:276|42:287,1,180,10|10,1:3|1:0,1:0:0:0:
0,111,207262,2,0,P|43:106|132:76,1,135,10|2,1:3|1:0,1:0:0:0:
229,0,208024,1,0,1:0:0:0:
234,3,208120,2,0,P|242:31|246:59,1,60,2|8,1:0|1:0,1:0:0:0:
223,89,208405,38,0,L|311:69,1,90,10|0,1:3|1:0,1:0:0:0:
378,153,208977,2,0,L|466:133,1,90,10|2,1:0|1:0,1:0:0:0:
504,94,209405,1,2,1:0:0:0:
399,23,209739,1,8,1:0:0:0:
395,19,209834,2,0,P|367:11|341:25,1,60,8|0,1:3|1:0,1:0:0:0:
314,50,210120,5,8,1:0:0:0:
217,74,210310,1,8,1:0:0:0:
217,74,210691,38,0,P|126:83|40:106,1,180,14|10,1:2|1:0,1:0:0:0:
99,274,211834,2,0,P|163:255|230:246,1,135,10|2,1:3|1:0,1:0:0:0:
334,317,212596,1,0,1:0:0:0:
331,322,212691,2,0,P|302:331|273:336,1,60,2|0,1:0|1:0,1:0:0:0:
237,346,212977,6,0,P|198:368|154:361,1,90,10|0,1:3|1:0,1:0:0:0:
198,262,213548,2,0,P|235:238|279:245,1,90,10|0,1:0|1:0,1:0:0:0:
386,236,214120,2,0,L|473:218,2,90,10|0|8,1:3|1:0|1:0,1:0:0:0:
327,326,214977,38,0,L|268:339,1,60,2|0,1:0|1:0,1:0:0:0:
234,351,215262,2,0,P|145:374|58:384,1,180,10|10,1:3|1:0,1:0:0:0:
23,205,216405,2,0,P|66:203|162:171,1,135,10|2,1:3|1:0,1:0:0:0:
227,72,217167,1,0,1:0:0:0:
231,68,217262,2,0,P|259:59|288:55,1,60,2|0,1:0|1:0,1:0:0:0:
321,71,217548,6,0,L|333:160,2,90,10|0|8,1:3|1:0|1:0,1:0:0:0:
321,71,218405,1,2,1:0:0:0:
390,51,218596,2,0,B|449:36|449:36|456:63,1,90,2|0,1:0|1:0,1:0:0:0:
454,100,218977,2,0,L|483:93,2,30,0|0|0,1:3|1:3|1:3,1:0:0:0:
472,130,219262,2,0,P|452:199|388:236,1,150,10|0,1:0|1:0,1:0:0:0:
377,258,219834,38,0,P|339:236|286:218,1,100,14|0,1:3|1:0,1:0:0:0:
155,112,220977,2,0,P|193:90|248:78,1,100,2|0,1:0|1:0,1:0:0:0:
341,58,221834,6,0,L|330:-1,1,60,2|0,1:0|1:0,1:0:0:0:
