osu file format v14

[General]
AudioFilename: audio.mp3
AudioLeadIn: 0
PreviewTime: 87430
Countdown: 1
SampleSet: Soft
StackLeniency: 0.7
Mode: 0
LetterboxInBreaks: 0
WidescreenStoryboard: 0

[Editor]
Bookmarks: 22485,43584,54134,119408,129958,140507
DistanceSpacing: 2
BeatDivisor: 4
GridSize: 4
TimelineZoom: 1.8

[Metadata]
Title:Mea no Kyouiku
TitleUnicode:メアの教育
Artist:Yorukichi
ArtistUnicode:よるきち
Creator:SkyDevil
Version:Insane
Source:
Tags:mair mare mares upbringing education diarays
BeatmapID:1600557
BeatmapSetID:761118

[Difficulty]
HPDrainRate:6
CircleSize:4
OverallDifficulty:8
ApproachRate:8.6
SliderMultiplier:1.7
SliderTickRate:1

[Events]
//Background and Video events
0,0,"mair.jpg",0,0
//Break Periods
2,43784,53459
//Storyboard Layer 0 (Background)
//Storyboard Layer 1 (Fail)
//Storyboard Layer 2 (Pass)
//Storyboard Layer 3 (Foreground)
//Storyboard Sound Samples

[TimingPoints]
1387,329.67032967033,4,2,1,70,1,0
1387,-133.333333333333,4,2,1,70,0,0
11936,-100,4,2,1,80,0,0
75233,329.67032967033,5,2,1,100,1,0
85123,329.67032967033,4,2,1,100,1,0
85452,-100,4,1,1,50,0,0
85782,-100,4,1,1,60,0,0
86112,-100,4,1,1,70,0,0
86441,-100,4,1,1,80,0,0
87760,-100,4,1,1,70,0,1
108859,-100,4,2,1,80,0,0
128639,-100,4,2,1,50,0,0
128969,-100,4,2,1,60,0,0
129298,-100,4,2,1,70,0,0
129628,-100,4,2,1,80,0,0
132595,-200,4,2,1,80,0,0
133419,-100,4,2,1,80,0,0
140507,-133.333333333333,4,2,1,80,0,0
148419,-133.333333333333,4,2,1,50,0,0
148749,-133.333333333333,4,2,1,60,0,0
149079,-133.333333333333,4,2,1,70,0,0
149408,-133.333333333333,4,2,1,80,0,0
150892,-133.333333333333,4,1,1,60,0,0
151057,-100,4,1,1,70,0,1
172155,-100,4,2,1,100,0,0

[Colours]
Combo1 : 41,98,245
Combo2 : 231,231,231
Combo3 : 153,153,153

[HitObjects]
144,80,1387,6,0,L|224:48,2,63.7500024318696
72,152,1881,2,0,P|48:192|72:272,1,127.500004863739
232,288,2540,2,0,B|248:248|228:212|228:212|228:136,1,127.500004863739
304,96,3035,5,0,0:0:0:0:
396,136,3200,1,0,0:0:0:0:
400,144,3282,1,0,0:0:0:0:
404,152,3365,2,0,P|408:192|400:228,1,63.7500024318696
360,308,3694,2,0,P|352:344|360:380,1,63.7500024318696
448,340,4024,6,0,L|488:272,2,63.7500024318696
272,336,4518,2,0,P|280:272|332:220,1,127.500004863739
400,80,5178,2,0,B|368:56|332:60|332:60|252:72,1,127.500004863739
260,168,5672,1,0,0:0:0:0:
364,160,5837,2,0,B|392:176|428:164|428:164|464:148|504:176,1,127.500004863739
508,252,6332,1,0,0:0:0:0:
468,328,6496,1,0,0:0:0:0:
384,276,6661,6,0,P|352:260|308:252,2,63.7500024318696,2|0|0,0:0|0:0|0:0,0:0:0:0:
320,356,7156,2,0,B|284:360|252:336|252:336|184:328,1,127.500004863739
256,164,7815,2,0,P|316:140|388:164,1,127.500004863739
320,228,8310,1,0,0:0:0:0:
196,232,8474,1,0,0:0:0:0:
188,228,8557,1,0,0:0:0:0:
180,224,8639,2,0,P|168:192|168:160,1,63.7500024318696
200,80,8969,2,0,P|204:52|192:20,1,63.7500024318696
116,64,9299,6,0,P|80:56|52:36,2,63.7500024318696
264,136,9793,2,0,P|328:144|388:180,1,127.500004863739
436,336,10452,1,0,0:0:0:0:
352,368,10617,5,0,0:0:0:0:
68,288,10947,1,0,0:0:0:0:
424,120,11277,1,0,0:0:0:0:
152,32,11606,1,4,0:0:0:0:
288,280,11936,5,4,0:0:0:0:
348,208,12101,1,0,0:0:0:0:
352,188,12183,1,0,0:0:0:0:
356,168,12266,1,2,1:2:0:0:
256,100,12430,1,0,0:0:0:0:
368,80,12595,1,0,0:0:0:0:
244,184,12760,1,0,0:0:0:0:
240,204,12843,1,0,0:0:0:0:
236,224,12925,1,2,1:2:0:0:
360,288,13090,1,0,0:0:0:0:
472,208,13255,6,0,P|488:160|484:120,1,85
316,44,13585,2,0,P|300:92|304:132,1,85,2|0,1:2|0:0,0:0:0:0:
496,180,13914,6,0,P|512:132|508:92,1,85
292,72,14244,2,0,P|276:120|280:160,1,85,2|0,1:2|0:0,0:0:0:0:
384,216,14573,5,0,0:0:0:0:
344,328,14738,1,0,0:0:0:0:
320,332,14821,1,0,0:0:0:0:
296,336,14903,2,0,L|200:352,1,85,2|0,1:2|0:0,0:0:0:0:
84,300,15233,1,0,0:0:0:0:
92,172,15397,1,0,0:2:0:0:
116,168,15480,1,0,0:0:0:0:
144,164,15562,2,0,L|240:148,1,85,2|0,1:2|0:0,0:0:0:0:
316,92,15892,6,0,L|404:84,1,85
336,228,16222,2,0,L|248:236,1,85,2|0,1:2|0:0,0:0:0:0:
400,328,16551,1,0,0:0:0:0:
416,316,16634,2,0,P|448:276|460:228,1,85,2|0,1:2|0:0,0:0:0:0:
452,232,16881,2,0,P|448:204|408:156,1,85,2|0,1:2|0:0,0:0:0:0:
304,148,17211,5,4,0:0:0:0:
192,160,17376,1,0,0:0:0:0:
169,162,17458,1,0,0:0:0:0:
144,164,17540,2,0,L|24:176,1,85,2|0,1:2|0:0,0:0:0:0:
128,256,17870,1,0,0:0:0:0:
240,236,18035,1,0,0:0:0:0:
263,234,18117,1,0,0:0:0:0:
288,232,18199,2,0,L|408:220,1,85,2|0,1:2|0:0,0:0:0:0:
428,140,18529,6,0,P|388:124|344:128,1,85
384,320,18859,2,0,P|423:303|451:269,1,85,2|0,1:2|0:0,0:0:0:0:
376,80,19189,6,0,P|336:96|308:130,1,85
463,325,19519,2,0,P|479:285|475:241,1,85,2|0,1:2|0:0,0:0:0:0:
420,176,19848,5,0,0:0:0:0:
336,204,20013,1,0,0:0:0:0:
316,208,20095,1,0,0:0:0:0:
296,212,20178,1,2,1:2:0:0:
188,196,20343,1,0,0:0:0:0:
244,284,20507,1,0,0:0:0:0:
244,120,20672,1,0,0:0:0:0:
224,116,20755,1,0,0:0:0:0:
204,112,20837,1,2,1:2:0:0:
112,144,21002,1,0,0:0:0:0:
108,236,21167,6,0,L|132:332,1,85,0|0,0:0|1:0,0:0:0:0:
308,344,21496,2,0,L|284:248,1,85,0|0,0:2|1:0,0:0:0:0:
184,180,21826,6,0,L|208:276,1,85
376,256,22073,1,0,0:0:0:0:
376,256,22156,2,0,L|352:160,1,85,0|0,1:0|1:0,0:0:0:0:
264,72,22403,1,0,1:0:0:0:
264,72,22485,6,0,P|192:40|100:68,1,170,4|0,0:0|1:0,0:0:0:0:
64,164,22980,2,0,B|104:188|140:172|140:172|244:180,1,170
340,160,23474,1,0,1:0:0:0:
428,96,23639,2,0,P|460:156|412:240,1,170
304,288,24134,5,0,1:0:0:0:
196,264,24299,1,0,0:0:0:0:
196,264,24381,1,0,0:0:0:0:
196,264,24463,2,0,L|96:256,1,85
48,164,24793,1,0,1:0:0:0:
116,76,24958,1,0,0:0:0:0:
216,120,25123,6,0,L|388:132,1,170,0|0,0:0|1:0,0:0:0:0:
460,212,25617,2,0,B|440:244|408:256|372:252|372:252|344:336,1,170
256,256,26112,1,0,1:0:0:0:
164,316,26277,2,0,P|144:264|32:240,1,170
64,328,26771,5,0,1:0:0:0:
240,356,26936,2,0,L|424:328,1,170
416,324,27348,1,2,0:0:0:0:
424,316,27430,2,0,P|436:260|420:216,1,85,2|0,1:2|0:0,0:0:0:0:
396,128,27760,6,0,B|380:88|400:52|400:52|392:0|336:0,1,170,0|0,0:0|1:0,0:0:0:0:
304,88,28255,2,0,B|288:136|312:168|312:168|344:220|308:264,1,170
220,308,28749,1,0,1:0:0:0:
136,232,28914,2,0,P|100:160|144:80,1,170
236,36,29408,5,0,1:0:0:0:
344,68,29573,1,0,0:0:0:0:
360,72,29656,1,0,0:0:0:0:
376,76,29738,1,0,0:0:0:0:
348,204,29903,1,0,0:0:0:0:
268,112,30068,1,0,1:0:0:0:
460,72,30233,1,0,0:0:0:0:
428,180,30397,6,0,B|440:224|408:264|408:264|392:352,1,170,2|0,0:0|1:2,0:0:0:0:
256,276,30892,2,0,L|288:92,1,170,2|0,0:0|0:2,0:0:0:0:
156,100,31387,1,0,1:0:0:0:
128,228,31551,1,4,0:0:0:0:
196,344,31716,6,0,P|275:362|332:305,1,170,2|0,0:0|1:0,0:0:0:0:
364,200,32211,2,0,B|388:108|388:108|392:52|344:32,1,170,2|2,1:2|1:2,1:0:0:0:
188,52,32705,1,0,1:0:0:0:
164,56,32788,1,0,1:0:0:0:
140,64,32870,1,0,1:0:0:0:
120,76,32952,1,0,0:0:0:0:
104,92,33035,6,0,P|84:136|84:188,1,85
88,184,33282,1,0,0:0:0:0:
96,196,33365,2,0,P|96:248|76:284,1,85,0|0,1:0|0:0,0:0:0:0:
192,352,33694,2,0,P|192:300|212:264,1,85
312,240,34024,1,0,1:0:0:0:
416,204,34189,6,0,P|448:124|408:48,1,170
308,88,34683,1,0,1:0:0:0:
252,188,34848,2,0,B|228:212|224:240|236:272|236:272|220:368,1,170
148,220,35343,2,0,P|164:172|188:136,1,85,0|0,1:0|0:0,0:0:0:0:
272,80,35672,5,0,0:0:0:0:
384,88,35837,1,0,0:0:0:0:
404,88,35919,1,0,0:0:0:0:
424,96,36002,1,0,1:0:0:0:
384,192,36167,1,0,0:0:0:0:
400,200,36249,1,0,0:0:0:0:
412,216,36332,2,0,B|436:256|428:312,1,85
304,280,36661,1,0,1:0:0:0:
284,168,36826,6,0,P|320:104|416:96,1,170
488,172,37321,2,0,P|504:216|504:260,1,85,0|0,1:0|0:0,0:0:0:0:
424,328,37650,1,0,0:0:0:0:
416,332,37733,2,0,P|364:352|316:348,1,85,0|0,1:0|0:0,0:0:0:0:
324,344,37980,2,0,P|284:324|236:332,1,85,0|0,1:0|0:0,0:0:0:0:
136,360,38310,6,0,P|88:296|104:208,1,170,0|0,0:0|1:0,0:0:0:0:
152,116,38804,2,0,B|196:128|208:164|208:164|304:200,1,170
396,144,39299,1,0,1:0:0:0:
304,80,39463,2,0,L|144:20,1,170
48,76,39958,5,0,1:0:0:0:
84,180,40123,2,0,B|100:216|80:256|80:256|48:300|84:348,1,170
176,292,40617,2,0,P|212:276|268:280,1,85,0|0,1:0|0:0,0:0:0:0:
352,336,40947,6,0,B|384:300|376:260|376:260|404:160,1,170,0|0,0:0|1:0,0:0:0:0:
268,104,41441,2,0,L|220:272,1,170
92,264,41936,1,0,1:0:0:0:
88,136,42101,1,4,0:0:0:0:
188,56,42266,6,0,P|244:16|336:44,1,170,0|0,0:0|1:0,0:0:0:0:
412,200,42760,2,0,P|356:240|264:200,1,170,0|0,1:0|1:0,0:0:0:0:
144,116,43255,1,0,1:0:0:0:
120,112,43337,1,0,1:0:0:0:
96,112,43419,1,0,1:0:0:0:
76,116,43502,1,0,0:0:0:0:
56,124,43584,1,4,0:0:0:0:
96,96,54134,6,0,L|48:268,1,170,4|0,0:0|0:0,0:0:0:0:
144,340,54628,2,0,L|192:168,1,170
380,80,55288,1,0,0:0:0:0:
380,80,55947,5,0,0:0:0:0:
388,100,56029,1,0,0:0:0:0:
396,120,56112,1,0,0:0:0:0:
436,224,56277,1,0,0:0:0:0:
376,316,56441,2,0,P|328:348|284:344,1,85
200,312,56771,6,0,B|172:288|128:296|128:296|68:304|48:256,1,170,4|0,0:0|0:0,0:0:0:0:
48,76,57430,1,0,0:0:0:0:
152,36,57595,2,0,P|236:24|320:40,1,170
452,260,58584,6,0,P|408:312|308:276,1,170
264,176,59079,2,0,P|232:132|204:108,1,85
96,48,59408,6,0,B|76:80|88:128|88:128|56:228,1,170,4|0,0:0|1:0,0:0:0:0:
172,192,59903,2,0,B|144:276|144:276|112:308|121:354,1,170
232,340,60397,1,0,1:0:0:0:
256,232,60562,2,0,L|304:64,1,170
416,76,61057,5,0,1:0:0:0:
360,176,61222,1,0,0:0:0:0:
354,201,61304,1,0,0:0:0:0:
348,226,61387,1,0,0:0:0:0:
424,312,61551,1,0,0:0:0:0:
456,220,61716,1,0,1:0:0:0:
296,312,61881,1,0,0:0:0:0:
160,224,62046,6,0,P|153:142|214:87,1,170,2|0,0:0|1:0,0:0:0:0:
376,72,62540,2,0,B|392:124|352:160|352:160|324:244,1,170,2|0,0:0|0:0,0:0:0:0:
232,312,63035,2,0,P|196:324|136:316,1,85,0|4,1:0|0:0,0:0:0:0:
20,344,63365,6,0,B|4:292|32:256|32:256|52:144,1,170,2|0,0:0|1:0,0:0:0:0:
108,56,63859,2,0,P|184:32|288:68,1,170,2|2,1:2|1:2,0:0:0:0:
372,160,64354,1,0,1:0:0:0:
384,180,64436,1,0,1:0:0:0:
392,204,64518,1,0,1:0:0:0:
392,228,64601,1,0,0:0:0:0:
388,256,64683,6,0,P|364:296|328:324,1,85
324,324,64930,1,0,0:0:0:0:
316,328,65013,1,0,1:0:0:0:
184,304,65178,1,0,0:0:0:0:
168,312,65260,1,0,0:0:0:0:
152,316,65343,1,0,0:0:0:0:
112,196,65507,1,0,0:0:0:0:
84,196,65590,1,0,0:0:0:0:
60,188,65672,1,0,1:0:0:0:
132,68,65837,6,0,P|192:40|296:76,1,170
368,148,66332,1,0,1:0:0:0:
472,112,66496,2,0,B|492:156|472:196|472:196|468:284,1,170
360,336,66991,1,0,1:0:0:0:
248,288,67156,1,0,0:0:0:0:
136,336,67321,6,0,P|84:328|48:312,1,85,4|0,0:0|0:0,0:0:0:0:
36,296,67568,1,0,0:0:0:0:
28,272,67650,1,0,1:0:0:0:
40,112,67815,1,0,0:0:0:0:
56,92,67897,1,0,0:0:0:0:
80,76,67980,2,0,P|128:64|192:76,1,85
240,148,68310,1,0,1:0:0:0:
304,60,68474,6,0,P|348:132|324:216,1,170,4|0,0:0|0:0,0:0:0:0:
208,256,68969,2,0,L|120:272,1,85,0|0,1:0|0:0,0:0:0:0:
32,196,69299,1,0,0:0:0:0:
40,180,69381,2,0,P|72:152|124:152,1,85,0|0,1:0|0:0,0:0:0:0:
128,156,69628,2,0,P|172:156|208:124,1,85,0|0,1:0|0:0,0:0:0:0:
264,40,69958,6,0,P|332:16|428:40,1,170,0|0,0:0|1:0,0:0:0:0:
472,156,70452,2,0,B|432:180|388:160|388:160|348:140|296:168,1,170
232,244,70947,1,0,1:0:0:0:
152,320,71112,6,0,P|80:352|28:288,1,170
8,184,71606,1,0,1:0:0:0:
68,92,71771,2,0,L|248:60,1,170
344,116,72266,2,0,P|308:160|272:168,1,85,0|0,1:0|0:0,0:0:0:0:
164,152,72595,6,0,P|136:220|184:300,1,170,0|0,0:0|1:0,0:0:0:0:
336,328,73090,2,0,B|352:284|332:248|332:248|412:176,1,170
448,96,73584,1,0,1:0:0:0:
360,48,73749,1,4,0:0:0:0:
308,136,73914,6,0,P|248:160|160:108,1,170,0|0,0:0|1:0,0:0:0:0:
48,60,74408,2,0,B|20:100|40:148|40:148|32:232,1,170
84,348,74903,1,0,1:0:0:0:
196,276,75068,1,0,1:0:0:0:
224,268,75150,1,0,1:0:0:0:
252,272,75233,6,0,P|308:280|276:200,1,170,0|0,0:0|1:0,0:0:0:0:
220,364,75892,1,0,1:0:0:0:
184,84,76222,1,0,0:0:0:0:
68,276,76551,1,0,1:0:0:0:
272,128,76881,6,0,B|308:104|352:136|352:136|392:156|440:124,1,170,0|0,0:0|1:0,0:0:0:0:
220,48,77540,1,0,1:0:0:0:
192,248,77870,2,0,P|124:276|52:224,1,170,0|0,0:0|1:0,0:0:0:0:
324,44,78529,6,0,L|488:140,1,170,4|0,0:0|1:0,0:0:0:0:
292,328,79189,1,0,1:0:0:0:
176,124,79518,1,0,0:0:0:0:
396,232,79848,1,0,1:0:0:0:
84,212,80178,6,0,P|28:164|48:72,1,170,0|0,0:0|1:0,0:0:0:0:
380,96,80837,1,0,1:0:0:0:
276,312,81167,2,0,B|232:336|196:312|196:312|152:288|108:320,1,170,0|0,0:0|1:0,0:0:0:0:
20,224,81661,1,0,0:0:0:0:
96,104,81826,6,0,L|280:76,1,170,4|0,0:0|1:0,0:0:0:0:
480,308,82485,1,0,1:0:0:0:
192,184,82815,1,0,0:0:0:0:
480,112,83145,1,0,1:0:0:0:
256,316,83474,6,0,P|184:344|104:308,1,170,0|0,0:0|1:0,0:0:0:0:
8,140,84134,1,0,1:0:0:0:
228,64,84463,2,0,B|272:48|312:72|312:72|352:100|412:80,1,170,0|0,0:0|1:0,0:0:0:0:
484,312,85123,6,0,P|440:336|380:344,1,85,4|0,0:0|0:0,0:0:0:0:
308,292,85452,1,8,0:0:0:0:
288,276,85535,1,0,0:0:0:0:
264,268,85617,1,0,0:0:0:0:
240,268,85699,1,0,0:0:0:0:
216,272,85782,1,8,0:0:0:0:
192,280,85864,1,0,0:0:0:0:
168,280,85947,1,0,0:0:0:0:
144,276,86029,1,0,0:0:0:0:
124,264,86112,2,0,L|64:252,3,42.5,8|0|0|0,0:0|0:0|0:0|0:0,0:0:0:0:
8,276,86441,5,8,0:0:0:0:
97,82,86605,1,8,0:0:0:0:
290,172,86770,1,8,0:0:0:0:
199,365,86935,1,8,0:0:0:0:
36,104,87595,5,0,0:0:0:0:
120,48,87760,2,0,P|168:40|240:48,1,85,4|0,1:2|0:0,0:0:0:0:
276,92,88007,1,0,0:0:0:0:
276,92,88090,2,0,P|324:108|376:92,1,85,8|0,1:0|0:0,0:0:0:0:
444,48,88419,1,0,0:0:0:0:
468,192,88584,1,0,0:0:0:0:
408,304,88749,2,0,P|360:336|320:332,1,85,8|0,1:0|0:0,0:0:0:0:
216,288,89079,6,0,B|172:272|132:288|132:288|84:308|28:268,1,170,0|8,0:0|1:0,0:0:0:0:
16,140,89573,1,0,0:0:0:0:
112,52,89738,2,0,L|288:28,1,170,0|8,0:0|1:0,0:0:0:0:
424,64,90232,1,0,0:0:0:0:
444,92,90315,1,0,0:0:0:0:
452,128,90397,6,0,P|452:180|424:220,1,85
392,272,90644,1,0,0:0:0:0:
392,272,90727,2,0,L|288:304,1,85,8|0,1:0|0:0,0:0:0:0:
124,280,91057,1,0,0:0:0:0:
284,196,91221,1,0,0:0:0:0:
212,352,91386,1,8,1:0:0:0:
160,180,91551,1,0,0:0:0:0:
248,68,91716,6,0,P|328:44|388:132,1,170,0|8,0:0|1:0,0:0:0:0:
68,352,92375,1,0,0:0:0:0:
8,248,92540,1,0,0:0:0:0:
64,132,92705,1,8,1:0:0:0:
92,284,92870,1,0,0:0:0:0:
12,72,93035,6,0,P|48:56|108:64,1,85
128,64,93282,1,0,0:0:0:0:
160,80,93364,1,8,1:0:0:0:
272,124,93529,2,0,B|316:148|356:128|356:128|392:104|468:140,1,170
488,236,94024,1,8,1:0:0:0:
424,336,94188,1,0,0:0:0:0:
304,324,94353,6,0,P|256:300|160:320,1,127.5
160,320,94683,2,0,P|104:336|52:324,1,85,8|0,1:0|0:0,0:0:0:0:
100,216,95013,2,0,L|272:180,1,170,0|8,0:0|1:0,0:0:0:0:
380,140,95507,1,0,0:0:0:0:
288,64,95672,6,0,B|232:48|196:84|196:84|100:108,1,170,0|8,0:0|1:0,0:0:0:0:
24,160,96166,2,0,P|4:248|52:312,1,170
212,264,96661,2,0,P|280:256|316:272,1,85,8|4,1:0|0:2,0:0:0:0:
368,340,96991,6,0,B|400:308|400:264|400:264|440:160,1,170,0|8,0:0|1:0,0:0:0:0:
408,68,97485,1,0,0:0:0:0:
292,92,97650,2,0,P|244:104|196:100,1,85
176,92,97897,1,0,0:0:0:0:
152,72,97980,1,8,1:0:0:0:
120,200,98144,5,0,0:0:0:0:
128,228,98227,1,0,0:0:0:0:
120,260,98309,2,0,P|104:312|112:356,1,85,4|0,0:2|0:0,0:0:0:0:
192,368,98557,1,0,0:0:0:0:
192,368,98639,2,0,L|288:356,1,85,8|0,1:0|0:0,0:0:0:0:
404,320,98969,1,0,0:0:0:0:
280,216,99133,1,0,0:0:0:0:
408,184,99298,2,0,P|384:136|332:108,1,85,8|0,1:0|0:0,0:0:0:0:
244,80,99628,6,0,L|52:124,1,170,0|8,0:0|1:0,0:0:0:0:
24,224,100123,1,0,0:0:0:0:
88,328,100287,2,0,P|144:372|236:340,1,170,0|8,0:0|1:0,0:0:0:0:
296,228,100782,5,0,0:0:0:0:
328,216,100864,1,0,0:0:0:0:
360,224,100947,2,0,P|400:232|452:216,1,85
468,200,101194,1,0,0:0:0:0:
480,168,101276,1,8,1:0:0:0:
480,40,101441,2,0,L|304:76,1,170
208,160,101936,2,0,P|156:180|104:168,1,85,8|0,1:0|0:0,0:0:0:0:
4,92,102265,6,0,P|52:36|156:48,1,170,0|8,0:0|1:0,0:0:0:0:
320,244,102925,2,0,B|356:264|400:240|400:240|436:220|496:252,1,170,0|8,0:0|1:0,0:0:0:0:
372,340,103419,5,0,0:0:0:0:
336,348,103502,1,0,0:0:0:0:
300,348,103584,2,0,L|196:340,1,85
180,336,103831,1,0,0:0:0:0:
148,344,103914,1,8,1:0:0:0:
36,300,104079,2,0,P|24:224|80:144,1,170
184,200,104573,2,0,P|224:208|288:188,1,85,8|0,1:0|0:0,0:0:0:0:
400,120,104903,6,0,P|372:76|244:64,1,170,0|8,0:0|1:0,0:0:0:0:
164,124,105397,1,0,0:0:0:0:
232,288,105562,2,0,L|420:304,1,170,0|8,0:0|1:0,0:0:0:0:
488,204,106057,1,0,0:0:0:0:
360,216,106221,6,0,B|276:208|276:208|216:176|176:228,1,170,0|8,0:0|1:0,0:0:0:0:
96,312,106716,2,0,P|52:272|48:184,1,127.5
60,168,107046,2,0,L|144:112,1,85,0|8,0:0|1:0,0:0:0:0:
284,64,107375,1,0,0:0:0:0:
436,144,107540,6,0,L|468:244,1,85,0|8,0:0|1:0,0:0:0:0:
364,348,107870,2,0,L|336:248,1,85,0|8,0:0|1:0,0:0:0:0:
392,88,108199,2,0,B|352:36|296:36|256:97|256:97|216:32|140:32|116:92,1,340,0|4,0:0|0:0,0:0:0:0:
40,188,109024,5,0,0:0:0:0:
28,212,109106,1,0,0:0:0:0:
32,236,109188,2,0,L|52:332,1,85,2|0,1:2|0:0,0:0:0:0:
152,356,109518,2,0,P|200:368|240:356,1,85
240,356,109765,1,0,0:0:0:0:
248,352,109848,2,0,L|344:340,1,85,2|0,1:2|0:0,0:0:0:0:
432,288,110177,6,0,P|456:244|452:184,1,85
360,128,110507,2,0,P|336:172|340:232,1,85,2|0,1:2|0:0,0:0:0:0:
444,336,110837,6,0,P|468:292|464:232,1,85
348,80,111166,2,0,P|324:124|328:184,1,85,2|0,1:2|0:0,0:0:0:0:
256,248,111496,5,0,0:0:0:0:
152,280,111661,1,0,0:0:0:0:
152,280,111743,1,0,0:0:0:0:
152,280,111826,2,0,P|100:292|64:288,1,85,2|0,1:2|0:0,0:0:0:0:
24,160,112155,2,0,P|64:148|112:156,1,85
112,160,112403,1,0,0:0:0:0:
120,164,112485,2,0,P|160:168|228:140,1,85,2|0,1:2|0:0,0:0:0:0:
296,104,112815,6,0,L|388:92,1,85
464,192,113144,2,0,L|372:204,1,85,2|0,1:2|0:0,0:0:0:0:
296,288,113474,5,0,0:0:0:0:
272,308,113557,1,2,1:2:0:0:
244,320,113639,1,2,0:0:0:0:
216,324,113721,1,0,0:0:0:0:
184,320,113804,2,0,L|88:300,1,85,2|0,1:2|0:0,0:0:0:0:
48,200,114133,6,0,P|48:160|76:108,1,85
73,114,114381,1,0,0:0:0:0:
81,110,114463,2,0,L|169:94,1,85,2|0,1:2|0:0,0:0:0:0:
292,76,114793,1,0,0:0:0:0:
232,192,114958,1,0,0:0:0:0:
232,192,115040,1,0,0:0:0:0:
232,192,115123,1,2,1:2:0:0:
356,168,115287,1,0,0:0:0:0:
292,288,115452,6,0,P|332:304|396:296,1,85
212,320,115782,2,0,P|172:304|108:312,1,85,2|0,1:2|0:0,0:0:0:0:
360,272,116112,6,0,P|403:273|460:243,1,85
144,336,116442,2,0,P|100:334|43:364,1,85,2|0,1:2|0:0,0:0:0:0:
24,244,116771,5,0,0:0:0:0:
84,152,116936,1,0,0:0:0:0:
92,132,117018,1,0,0:0:0:0:
100,108,117101,2,0,P|132:72|184:56,1,85,2|0,1:2|0:0,0:0:0:0:
276,68,117430,2,0,L|372:80,1,85
384,88,117677,1,0,0:0:0:0:
408,100,117760,1,2,1:2:0:0:
468,188,117925,1,0,0:0:0:0:
432,288,118090,6,0,P|400:328|344:344,1,85,0|0,0:0|1:0,0:0:0:0:
192,288,118419,2,0,P|224:248|280:232,1,85,0|0,0:0|1:0,0:0:0:0:
376,228,118749,1,0,0:0:0:0:
288,340,118914,1,0,1:0:0:0:
288,340,118996,1,0,0:0:0:0:
288,340,119079,1,0,1:0:0:0:
116,332,119243,1,0,1:0:0:0:
52,244,119408,6,0,P|24:200|36:140,1,85,4|0,0:0|0:0,0:0:0:0:
72,68,119738,2,0,P|128:40|244:52,1,170,0|0,1:0|0:0,0:0:0:0:
312,124,120232,1,0,0:0:0:0:
348,228,120397,2,0,B|308:252|264:232|264:232|168:244,1,170,0|0,1:0|0:0,0:0:0:0:
64,60,121057,5,0,1:0:0:0:
416,124,121386,1,0,0:0:0:0:
200,356,121716,1,0,1:0:0:0:
20,124,122046,6,0,P|68:52|168:68,1,170,0|0,0:0|1:0,0:0:0:0:
448,192,122705,2,0,B|404:212|364:192|364:192|320:168|276:192,1,170,0|0,0:0|1:0,0:0:0:0:
20,260,123364,6,0,P|63:329|144:332,1,170,0|0,0:0|1:0,0:0:0:0:
256,316,123859,1,0,0:0:0:0:
367,332,124024,2,0,P|420:320|452:280,1,85
360,224,124353,1,0,1:0:0:0:
464,192,124518,1,0,0:0:0:0:
388,112,124683,6,0,L|292:100,1,85,4|0,0:0|0:0,0:0:0:0:
280,104,124930,1,0,0:0:0:0:
260,108,125013,1,0,1:0:0:0:
164,164,125177,1,0,0:0:0:0:
248,236,125342,2,0,P|248:288|228:320,1,85
84,352,125672,1,0,1:0:0:0:
48,220,125837,6,0,P|32:140|112:60,1,170
200,44,126331,1,0,1:0:0:0:
312,84,126496,1,0,0:0:0:0:
432,60,126661,2,0,P|440:112|428:156,1,85
312,256,126991,2,0,P|304:204|316:160,1,85,0|0,1:0|0:0,0:0:0:0:
392,304,127320,6,0,P|324:352|228:300,1,170,0|0,0:0|1:0,0:0:0:0:
152,240,127815,2,0,B|128:196|148:164|148:164|176:120|136:64,1,170
36,208,128309,2,0,P|52:280|72:320,1,85,0|0,1:0|0:0,0:0:0:0:
148,352,128639,5,0,1:0:0:0:
172,356,128721,1,0,1:0:0:0:
196,360,128804,1,0,1:0:0:0:
220,363,128886,1,0,1:0:0:0:
244,364,128969,1,0,1:0:0:0:
267,363,129051,1,0,1:0:0:0:
289,360,129133,1,0,1:0:0:0:
310,355,129216,1,0,1:0:0:0:
332,347,129298,1,0,1:0:0:0:
351,338,129381,1,0,1:0:0:0:
372,327,129463,1,0,1:0:0:0:
390,312,129546,1,0,1:0:0:0:
408,292,129628,2,0,P|432:248|444:204,1,85
440,104,129958,6,0,P|416:64|368:40,1,85,4|0,0:0|0:0,0:0:0:0:
364,36,130205,1,0,0:0:0:0:
344,32,130287,1,0,1:0:0:0:
208,108,130452,1,0,0:0:0:0:
224,120,130535,1,0,0:0:0:0:
244,124,130617,1,0,0:0:0:0:
116,196,130782,1,0,0:0:0:0:
100,184,130865,1,0,0:0:0:0:
80,180,130947,1,0,1:0:0:0:
80,296,131112,6,0,P|136:340|252:336,1,170
376,316,131606,1,0,1:0:0:0:
360,172,131771,2,0,B|324:140|280:152|280:152|232:164|204:124,1,170
348,48,132265,1,0,1:0:0:0:
380,52,132348,1,0,1:0:0:0:
408,64,132430,1,0,1:0:0:0:
432,80,132513,1,0,0:0:0:0:
444,104,132595,6,0,P|464:136|468:160,1,42.5
432,224,132842,2,0,P|420:260|416:284,1,42.5
456,360,133090,1,0,0:0:0:0:
456,360,133172,1,0,0:0:0:0:
456,360,133254,1,0,0:0:0:0:
292,312,133419,6,0,P|248:288|104:296,1,170,4|4,1:0|0:2,0:0:0:0:
32,336,133914,1,0,0:0:0:0:
64,208,134079,1,0,0:0:0:0:
28,80,134243,2,0,P|72:56|128:60,1,85,0|0,1:0|0:0,0:0:0:0:
216,84,134573,1,0,0:0:0:0:
224,92,134655,2,0,P|268:116|316:120,1,85,0|0,1:0|0:0,0:0:0:0:
312,112,134903,2,0,P|356:96|404:104,1,85,0|0,1:0|0:0,0:0:0:0:
496,188,135232,6,0,P|512:252|444:336,1,170,0|0,0:0|1:0,0:0:0:0:
344,300,135727,2,0,B|300:284|260:308|260:308|208:332|168:296,1,170
48,272,136221,1,0,1:0:0:0:
132,168,136386,2,0,L|320:140,1,170
424,196,136881,5,0,1:0:0:0:
408,64,137046,2,0,P|372:32|240:36,1,170
78,90,137540,2,0,P|119:96|160:84,1,85,0|0,1:0|0:0,0:0:0:0:
16,188,137870,6,0,L|96:356,1,170,0|0,0:0|1:0,0:0:0:0:
180,192,138364,2,0,P|256:160|332:192,1,170
360,336,138859,2,0,P|320:344|268:320,1,85,0|4,1:0|0:0,0:0:0:0:
392,120,139188,6,0,P|432:112|484:136,1,85,0|0,0:0|1:0,0:0:0:0:
452,312,139518,2,0,L|408:228,1,85,0|0,0:0|1:0,0:0:0:0:
244,84,139848,1,0,0:0:0:0:
388,40,140013,1,0,0:0:0:0:
216,200,140177,1,0,1:0:0:0:
184,208,140260,1,0,1:0:0:0:
148,208,140342,1,0,1:0:0:0:
116,200,140425,1,0,0:0:0:0:
84,180,140507,6,0,P|60:156|48:128,1,63.7500024318696
40,100,140754,1,0,0:0:0:0:
56,76,140837,1,0,0:0:0:0:
152,44,141002,2,0,B|180:28|212:44|212:44|244:60|288:40,1,127.500004863739
376,68,141496,1,0,0:0:0:0:
460,128,141661,1,0,0:0:0:0:
440,228,141826,6,0,P|412:292|340:300,1,127.500004863739
256,296,142320,1,0,0:0:0:0:
152,312,142485,2,0,L|20:268,1,127.500004863739
8,180,142980,5,0,0:0:0:0:
12,152,143062,1,0,0:0:0:0:
24,124,143144,2,0,P|40:108|88:88,1,63.7500024318696
100,84,143392,1,0,0:0:0:0:
124,80,143474,1,0,0:0:0:0:
144,88,143557,1,0,0:0:0:0:
168,100,143639,2,0,P|208:116|296:100,1,127.500004863739
388,72,144133,2,0,P|420:84|440:112,1,63.7500024318696
416,208,144463,6,0,B|400:248|412:276|412:276|428:308|408:348,1,127.500004863739
320,360,144958,1,0,0:0:0:0:
216,328,145123,2,0,P|176:324|136:336,2,63.7500024318696
204,232,145617,5,0,0:0:0:0:
180,228,145699,1,0,0:0:0:0:
156,228,145782,2,0,P|112:224|76:232,1,63.7500024318696
16,160,146112,1,0,1:0:0:0:
92,92,146276,1,0,0:0:0:0:
116,80,146359,1,0,0:0:0:0:
144,80,146441,2,0,P|184:72|220:80,1,63.7500024318696
264,160,146771,2,0,P|300:164|332:164,1,63.7500024318696,0|0,1:0|0:0,0:0:0:0:
424,96,147101,6,0,P|452:136|448:196,1,95.6250036478044
436,200,147430,2,0,L|416:272,1,63.7500024318696,0|0,1:0|0:0,0:0:0:0:
344,332,147760,2,0,P|280:348|200:320,1,127.500004863739,0|0,0:0|1:0,0:0:0:0:
112,300,148254,1,0,0:0:0:0:
56,208,148419,5,0,1:0:0:0:
64,172,148502,1,0,1:0:0:0:
84,140,148584,1,0,1:0:0:0:
112,116,148666,1,0,1:0:0:0:
148,100,148749,1,0,1:0:0:0:
184,92,148831,1,0,1:0:0:0:
224,92,148914,1,0,1:0:0:0:
264,100,148996,1,0,1:0:0:0:
304,116,149079,2,0,L|352:140,3,31.8750012159348,0|0|0|0,1:0|1:0|1:0|1:0,1:0:0:0:
344,232,149408,2,0,L|380:264,3,31.8750012159348,0|0|0|0,1:0|1:0|1:0|1:0,1:0:0:0:
312,356,149738,5,2,0:0:0:0:
20,172,150892,5,0,0:0:0:0:
36,148,150974,1,0,0:0:0:0:
64,128,151057,2,0,P|112:104|156:100,1,85
176,104,151304,1,0,0:0:0:0:
212,112,151386,1,8,0:0:0:0:
308,224,151551,2,0,P|396:232|448:160,1,170
440,48,152046,1,8,0:0:0:0:
356,136,152210,1,0,0:0:0:0:
228,224,152375,6,0,P|172:260|96:252,1,127.5
68,236,152705,2,0,P|44:200|40:152,1,85,8|0,0:0|0:0,0:0:0:0:
144,56,153035,2,0,B|192:36|224:56|224:56|264:80|340:48,1,170,0|8,0:0|0:0,0:0:0:0:
444,52,153529,5,0,0:0:0:0:
468,72,153612,1,0,0:0:0:0:
484,104,153694,2,0,P|492:160|492:204,1,85
484,224,153941,1,0,0:0:0:0:
464,252,154024,1,8,0:0:0:0:
304,336,154188,2,0,L|132:360,1,170
68,196,154683,2,0,P|104:160|152:156,1,85,8|0,0:0|0:0,0:0:0:0:
296,196,155013,6,0,P|232:260|140:244,1,170,0|8,0:0|0:0,0:0:0:0:
360,40,155672,2,0,P|404:68|428:108,1,85
452,224,156002,1,8,0:0:0:0:
356,320,156166,5,0,0:0:0:0:
320,338,156249,1,0,0:0:0:0:
286,348,156331,2,0,P|232:354|177:341,1,85
165,339,156579,1,0,0:0:0:0:
131,325,156661,1,8,0:0:0:0:
64,200,156826,2,0,L|36:24,1,170
180,176,157320,2,0,L|196:272,1,85,8|0,0:0|0:0,0:0:0:0:
312,312,157650,6,0,P|368:320|428:284,1,127.5
448,252,157980,2,0,L|444:160,1,85,8|0,0:0|0:0,0:0:0:0:
480,36,158309,2,0,B|428:16|384:44|384:44|296:48,1,170,0|8,0:0|0:0,0:0:0:0:
176,48,158804,1,0,0:0:0:0:
56,120,158969,6,0,P|16:192|52:264,1,170,0|8,0:0|0:0,0:0:0:0:
200,312,159463,2,0,B|232:272|208:228|208:228|188:188|228:144,1,170
320,44,159958,1,8,0:0:0:0:
444,128,160123,1,4,0:2:0:0:
432,280,160287,6,0,P|368:336|276:304,1,170,0|8,0:0|0:0,0:0:0:0:
172,240,160782,2,0,B|140:216|88:232|88:232|40:240|8:188,1,170
32,80,161276,1,8,0:0:0:0:
148,40,161441,6,0,L|336:48,1,170,4|0,0:2|0:0,0:0:0:0:
468,104,161936,1,8,0:0:0:0:
436,264,162101,2,0,P|404:332|316:340,1,170
136,328,162595,1,8,0:0:0:0:
120,168,162760,6,0,B|168:136|224:164|224:164|316:164,1,170,4|0,0:2|0:0,0:0:0:0:
404,136,163254,1,8,0:0:0:0:
244,44,163419,2,0,P|196:28|152:32,1,85
0,232,163749,2,0,P|48:248|92:244,1,85,0|8,0:0|0:0,0:0:0:0:
224,328,164079,6,0,B|260:304|304:324|304:324|348:344|400:312,1,170,4|0,0:2|0:0,0:0:0:0:
480,200,164573,1,8,0:0:0:0:
388,68,164738,2,0,P|308:32|228:72,1,170
72,92,165232,1,8,0:0:0:0:
312,144,165397,6,0,B|344:184|392:176|392:176|404:260,1,170,4|0,0:2|0:0,0:0:0:0:
256,336,165892,1,8,0:0:0:0:
104,256,166057,2,0,P|108:200|208:144,1,170
124,352,166551,2,0,P|60:348|24:316,1,85,8|0,0:0|0:0,0:0:0:0:
16,128,166881,6,0,L|184:48,1,170,4|8,0:2|0:0,0:0:0:0:
328,40,167375,2,0,P|392:64|476:136,1,170
508,276,167870,1,8,0:0:0:0:
348,340,168035,6,0,B|304:356|260:336|260:336|216:320|168:352,1,170
40,252,168529,2,0,P|72:220|128:200,1,85,8|0,0:0|0:0,0:0:0:0:
276,260,168859,1,0,0:0:0:0:
420,212,169024,1,0,0:0:0:0:
440,196,169106,1,0,0:0:0:0:
456,172,169188,2,0,P|468:124|448:76,1,85,8|0,0:0|0:0,0:0:0:0:
328,40,169518,6,0,P|280:24|156:60,1,170,0|8,0:0|0:0,0:0:0:0:
28,40,170013,2,0,B|8:84|39:121|39:121|56:216,1,170
168,336,170507,2,0,L|340:336,1,170,8|0,0:0|0:0,0:0:0:0:
440,232,171002,5,8,0:0:0:0:
224,256,171166,1,0,0:0:0:0:
448,332,171331,1,8,0:0:0:0:
304,152,171496,2,0,P|256:28|209:152,1,340,0|4,0:0|0:1,0:0:0:0:
