osu file format v14

[General]
AudioFilename: audio.mp3
AudioLeadIn: 0
PreviewTime: 87430
Countdown: 1
SampleSet: Soft
StackLeniency: 0.7
Mode: 0
LetterboxInBreaks: 0
WidescreenStoryboard: 1

[Editor]
Bookmarks: 22485,43584,54134,119408,129958,140507
DistanceSpacing: 2
BeatDivisor: 4
GridSize: 4
TimelineZoom: 1.8

[Metadata]
Title:Mea no Kyouiku
TitleUnicode:メアの教育
Artist:Yorukichi
ArtistUnicode:よるきち
Creator:SkyDevil
Version:Hard
Source:
Tags:mair mare mares upbringing education diarays
BeatmapID:1621859
BeatmapSetID:761118

[Difficulty]
HPDrainRate:4.5
CircleSize:4
OverallDifficulty:6
ApproachRate:8
SliderMultiplier:1.6
SliderTickRate:1

[Events]
//Background and Video events
0,0,"mair.jpg",0,0
//Break Periods
2,43784,53384
//Storyboard Layer 0 (Background)
//Storyboard Layer 1 (Fail)
//Storyboard Layer 2 (Pass)
//Storyboard Layer 3 (Foreground)
//Storyboard Sound Samples

[TimingPoints]
1387,329.67032967033,4,2,1,70,1,0
1387,-133.333333333333,4,2,1,70,0,0
11936,-100,4,2,1,80,0,0
75233,329.67032967033,5,2,1,100,1,0
85123,329.67032967033,4,1,1,40,1,0
85452,-100,4,1,1,50,0,0
85782,-100,4,1,1,60,0,0
86112,-100,4,1,1,70,0,0
86441,-100,4,1,1,80,0,0
87760,-100,4,1,1,70,0,1
108859,-100,4,2,1,80,0,0
128639,-100,4,1,1,50,0,0
128969,-100,4,1,1,60,0,0
129298,-100,4,1,1,70,0,0
129628,-100,4,2,1,80,0,0
132595,-133.333333333333,4,2,1,80,0,0
133419,-100,4,2,1,80,0,0
140507,-133.333333333333,4,2,1,80,0,0
148419,-133.333333333333,4,1,1,50,0,0
148749,-133.333333333333,4,1,1,60,0,0
149079,-133.333333333333,4,1,1,70,0,0
149408,-133.333333333333,4,1,1,80,0,0
150892,-133.333333333333,4,1,1,60,0,0
151057,-100,4,1,1,70,0,1
172155,-100,4,2,1,100,0,0

[Colours]
Combo1 : 41,98,245
Combo2 : 231,231,231
Combo3 : 153,153,153

[HitObjects]
108,124,1387,6,0,L|108:64,2,60.0000022888184
56,192,1881,2,0,P|108:216|164:192,1,120.000004577637
336,108,2540,6,0,P|380:84|444:108,1,120.000004577637
388,176,3035,1,0,0:0:0:0:
448,240,3200,2,0,L|480:268,2,30.0000011444092
384,300,3529,1,0,0:0:0:0:
312,240,3694,2,0,P|280:232|232:248,1,60.0000022888184
184,288,4024,6,0,P|144:292|108:284,2,60.0000022888184
156,212,4518,2,0,P|172:164|232:140,1,120.000004577637
376,80,5178,6,0,P|408:128|372:192,1,120.000004577637
360,252,5672,1,0,0:0:0:0:
296,296,5837,2,0,B|264:284|232:296|232:296|200:308|164:292,1,120.000004577637
124,240,6332,2,0,P|152:220|188:220,1,60.0000022888184
228,156,6661,6,0,P|192:140|164:136,2,60.0000022888184,2|0|0,0:0|0:0|0:0,0:0:0:0:
296,116,7156,2,0,P|352:92|404:116,1,120.000004577637
400,288,7815,2,0,P|347:311|294:287,1,120.000004577637
232,232,8310,1,0,0:0:0:0:
148,264,8474,2,0,L|136:296,2,30.0000011444092
112,188,8804,1,0,0:0:0:0:
56,132,8969,2,0,P|80:112|120:108,1,60.0000022888184
184,136,9299,6,0,P|216:152|248:152,2,60.0000022888184
236,72,9793,2,0,P|288:60|368:84,1,120.000004577637
440,192,10452,1,0,0:0:0:0:
256,192,10617,12,4,11936,0:0:0:0:
80,140,12266,6,0,P|64:188|68:232,1,80,2|0,1:2|0:0,0:0:0:0:
112,288,12595,2,0,P|156:316|192:320,1,80
196,316,12843,1,0,0:0:0:0:
212,312,12925,2,0,P|244:308|312:316,1,80,2|0,1:2|0:0,0:0:0:0:
344,228,13255,6,0,P|296:228|244:208,1,80
316,140,13584,2,0,P|360:140|400:152,1,80,2|0,1:2|0:0,0:0:0:0:
344,56,13914,2,0,P|288:56|260:80,1,80
232,152,14244,2,0,P|252:192|284:220,1,80,2|0,1:2|0:0,0:0:0:0:
340,288,14573,6,0,P|304:304|256:304,1,80
188,272,14903,1,2,1:2:0:0:
108,308,15068,1,0,0:0:0:0:
80,228,15233,2,0,P|96:180|96:148,1,80
88,136,15480,1,0,0:0:0:0:
76,120,15562,2,0,L|168:100,1,80,2|0,1:2|0:0,0:0:0:0:
248,84,15892,6,0,L|360:60,1,80
340,164,16222,2,0,P|378:154|408:128,1,80,2|0,1:2|0:0,0:0:0:0:
464,56,16551,2,0,P|488:88|500:136,1,80,2|0,1:2|0:0,0:0:0:0:
480,208,16881,2,0,L|436:300,1,80,2|0,1:2|0:0,0:0:0:0:
368,324,17211,6,0,P|324:332|276:320,1,80,4|0,0:0|0:0,0:0:0:0:
212,280,17540,1,2,1:2:0:0:
276,212,17705,1,0,0:0:0:0:
196,160,17870,2,0,P|152:160|108:180,1,80
108,188,18117,1,0,0:0:0:0:
96,204,18200,2,0,L|84:292,1,80,2|0,1:2|0:0,0:0:0:0:
12,216,18529,6,0,L|24:108,1,80
88,76,18859,2,0,P|144:60|200:60,1,80,2|0,1:2|0:0,0:0:0:0:
288,132,19189,2,0,P|240:144|200:132,1,80
248,48,19518,2,0,P|288:36|340:40,1,80,2|0,1:2|0:0,0:0:0:0:
400,96,19848,6,0,P|412:140|400:188,1,80
400,268,20178,1,2,1:2:0:0:
336,336,20343,1,0,0:0:0:0:
240,320,20507,2,0,P|192:312|152:320,1,80
148,320,20755,1,0,0:0:0:0:
136,324,20837,2,0,L|48:308,1,80,2|0,1:2|0:0,0:0:0:0:
0,232,21167,6,0,P|32:216|84:216,1,80,0|0,0:0|1:0,0:0:0:0:
164,172,21496,2,0,P|202:181|241:173,1,80,0|0,0:0|1:0,0:0:0:0:
320,112,21826,1,0,0:0:0:0:
404,164,21991,2,0,L|452:164,2,40,0|0|0,1:0|0:0|1:0,0:0:0:0:
316,240,22321,1,0,1:0:0:0:
196,248,22485,6,0,B|160:268|120:244|120:244|80:224|32:256,1,160,4|0,0:0|1:0,0:0:0:0:
100,340,22980,2,0,P|168:356|256:316,1,160
288,228,23474,1,0,1:0:0:0:
248,144,23639,2,0,P|192:116|92:148,1,160
108,232,24134,5,0,1:0:0:0:
192,272,24299,1,0,0:0:0:0:
280,308,24463,2,0,P|332:316|380:308,1,80
396,228,24793,2,0,P|348:216|308:220,1,80,0|0,1:0|0:0,0:0:0:0:
296,124,25123,6,0,P|372:120|472:156,1,160,0|0,0:0|1:0,0:0:0:0:
496,228,25617,2,0,B|508:292|476:344|476:344|424:356,1,160
336,328,26112,1,0,1:0:0:0:
236,352,26277,6,0,L|52:328,1,160
40,236,26771,1,0,1:0:0:0:
64,140,26936,2,0,P|124:92|208:104,1,160
272,176,27430,2,0,P|288:232|284:264,1,80,0|0,1:0|0:0,0:0:0:0:
296,352,27760,6,0,L|464:316,1,160,4|0,0:0|1:0,0:0:0:0:
488,232,28255,2,0,P|504:160|452:76,1,160
380,44,28749,1,0,1:0:0:0:
284,56,28914,2,0,B|244:72|204:60|204:60|160:40|116:60,1,160
68,132,29408,6,0,P|64:176|84:232,1,80,0|0,1:0|0:0,0:0:0:0:
84,228,29656,1,0,0:0:0:0:
100,240,29738,1,0,0:0:0:0:
168,308,29903,1,0,0:0:0:0:
232,236,30068,2,0,P|272:228|332:240,1,80,0|0,1:0|0:0,0:0:0:0:
276,324,30397,6,0,P|348:348|428:312,1,160,0|0,0:0|1:0,0:0:0:0:
464,232,30892,2,0,P|472:168|392:112,1,160
292,96,31387,2,0,P|256:108|216:96,1,80,0|4,1:0|0:0,0:0:0:0:
108,112,31716,6,0,P|44:155|47:231,1,160,0|0,0:0|1:0,0:0:0:0:
72,336,32211,2,0,P|147:358|222:334,1,160,0|0,1:0|1:0,0:0:0:0:
308,288,32705,2,0,L|308:240,2,40,0|0|0,1:0|1:0|1:0,0:0:0:0:
392,336,33035,6,0,P|432:308|440:260,1,80,4|0,0:0|0:0,0:0:0:0:
448,176,33365,2,0,P|444:132|408:84,1,80,0|0,1:0|0:0,1:0:0:0:
348,32,33694,2,0,P|296:20|244:28,1,80
164,64,34024,1,0,1:0:0:0:
264,124,34189,6,0,P|276:192|192:248,1,160
172,164,34683,1,0,1:0:0:0:
172,164,34848,2,0,B|132:188|92:164|92:164|52:140|4:180,1,160
60,268,35343,2,0,P|116:280|152:280,1,80,0|0,1:0|0:0,0:0:0:0:
260,248,35672,6,0,P|280:216|328:192,1,80
416,160,36002,1,0,1:0:0:0:
488,232,36167,1,0,0:0:0:0:
436,312,36332,1,0,0:0:0:0:
344,288,36496,2,0,P|296:328|256:336,1,80,0|0,0:0|1:0,0:0:0:0:
176,296,36826,6,0,P|156:252|216:156,1,160
288,112,37321,2,0,P|328:100|376:104,1,80,0|0,1:0|0:0,0:0:0:0:
352,196,37650,2,0,P|316:208|264:200,1,80,0|0,1:0|0:0,0:0:0:0:
440,204,37980,2,0,P|420:248|388:280,1,80,0|0,1:0|0:0,0:0:0:0:
312,316,38310,6,0,P|236:316|168:260,1,160,4|0,0:0|1:0,0:0:0:0:
152,172,38804,2,0,P|172:112|284:56,1,160
352,60,39299,1,0,1:0:0:0:
428,124,39463,6,0,B|456:160|428:200|428:200|408:232|440:288,1,160
344,328,39958,1,0,1:0:0:0:
264,260,40123,2,0,P|204:224|96:264,1,160
64,160,40617,2,0,P|96:132|144:112,1,80,0|0,1:0|0:0,0:0:0:0:
232,100,40947,6,0,L|408:88,1,160,0|0,0:0|1:0,0:0:0:0:
440,192,41441,2,0,L|264:204,1,160
192,256,41936,2,0,P|220:284|272:308,1,80,0|4,1:0|0:0,0:0:0:0:
352,340,42266,6,0,P|444:332|484:276,1,160,0|0,1:0|1:0,0:0:0:0:
500,152,42760,2,0,B|472:120|424:136|424:136|388:152|344:112,1,160,0|0,1:0|1:0,0:0:0:0:
236,84,43255,2,0,L|196:48,2,40,0|0|0,1:0|1:0|1:0,1:0:0:0:
252,200,43584,1,4,0:0:0:0:
36,96,54134,6,0,L|200:68,1,160,4|0,0:0|0:0,0:0:0:0:
318,69,54628,2,0,L|476:96,1,160
328,264,55288,2,0,P|256:292|176:260,1,160
212,112,55947,5,0,0:0:0:0:
304,84,56112,2,0,P|348:88|400:124,1,80
316,176,56441,2,0,P|352:232|388:248,1,80
428,308,56771,2,2,P|380:336|280:296,1,160,6|0,0:0|0:0,0:0:0:0:
152,144,57430,1,0,0:0:0:0:
152,144,57595,2,0,P|204:88|308:112,1,160
184,332,58584,6,0,P|260:364|332:332,1,160
412,252,59079,1,0,0:0:0:0:
312,224,59244,1,0,0:0:0:0:
212,192,59408,6,0,P|180:140|220:56,1,160,4|0,0:0|1:0,0:0:0:0:
288,132,59903,2,0,B|328:156|368:140|368:140|416:124|456:144,1,160
484,232,60397,1,0,1:0:0:0:
456,328,60562,6,0,P|376:356|296:332,1,160
224,272,61057,1,0,1:0:0:0:
200,172,61222,1,0,0:0:0:0:
200,156,61304,1,0,0:0:0:0:
208,140,61387,2,0,P|264:108|304:112,1,80
140,80,61716,2,0,P|108:128|76:148,1,80,0|0,1:0|0:0,0:0:0:0:
48,216,62046,6,0,P|16:276|48:356,1,160,0|0,0:0|1:0,0:0:0:0:
136,288,62540,2,0,L|296:272,1,160
384,344,63035,2,0,P|408:316|424:272,1,80,0|4,1:0|0:0,0:0:0:0:
464,168,63365,6,0,P|496:108|464:28,1,160,0|0,0:0|1:0,0:0:0:0:
376,96,63859,2,0,L|216:112,1,160,0|0,1:0|1:0,1:0:0:0:
128,40,64354,2,0,P|104:68|88:112,1,80,0|0,1:0|1:0,0:0:0:0:
56,208,64683,6,0,L|64:296,1,80,4|0,0:0|0:0,0:0:0:0:
144,264,65013,2,0,L|176:352,1,80,0|0,1:0|0:0,0:0:0:0:
248,284,65343,2,0,L|296:360,1,80
348,288,65672,1,0,1:0:0:0:
424,344,65837,6,0,P|492:328|508:240,1,160
408,248,66332,1,0,1:0:0:0:
448,156,66496,2,0,B|468:120|512:120|512:120|492:36,1,160
388,32,66991,2,0,P|340:36|280:48,1,80,0|0,1:0|0:0,0:0:0:0:
208,48,67321,6,0,P|160:60|120:52,1,80,4|0,0:0|0:0,0:0:0:0:
28,128,67650,2,0,P|80:144|132:144,1,80,0|0,1:0|0:0,0:0:0:0:
248,188,67980,2,0,P|204:208|168:208,1,80
88,280,68310,1,0,1:0:0:0:
188,332,68474,6,0,P|240:364|332:332,1,160,4|0,0:0|0:0,0:0:0:0:
368,232,68969,2,0,P|376:188|372:144,1,80,0|0,1:0|0:0,0:0:0:0:
280,92,69299,2,0,P|268:144|276:188,1,80,0|0,1:0|0:0,0:0:0:0:
188,244,69628,2,0,P|164:208|156:156,1,80,0|0,1:0|0:0,0:0:0:0:
124,60,69958,6,0,P|60:104|48:192,1,160,4|0,0:0|1:0,0:0:0:0:
72,280,70452,2,0,L|232:324,1,160
328,296,70947,1,0,1:0:0:0:
408,360,71112,6,0,P|460:344|472:240,1,160
448,156,71606,1,0,1:0:0:0:
496,64,71771,2,0,P|444:36|332:68,1,160
272,120,72266,2,0,P|232:128|192:124,1,80,0|0,1:0|0:0,0:0:0:0:
116,60,72595,6,0,P|68:96|80:200,1,160,0|0,0:0|1:0,0:0:0:0:
156,256,73090,2,0,B|196:280|236:268|236:268|284:244|332:272,1,160
408,296,73584,2,0,P|460:292|496:272,1,80,0|4,1:0|0:0,0:0:0:0:
432,196,73914,6,0,P|416:148|300:132,1,160,0|0,0:0|1:0,0:0:0:0:
212,164,74408,2,0,B|152:216|152:216|176:256|144:320,1,160,0|0,1:0|1:0,1:0:0:0:
48,248,74903,2,0,P|40:200|56:160,1,80,0|0,1:0|1:0,1:0:0:0:
116,88,75233,6,0,L|296:64,1,160,4|0,0:0|1:0,0:0:0:0:
464,108,75892,1,0,1:0:0:0:
432,300,76222,1,0,0:0:0:0:
240,252,76551,1,0,1:0:0:0:
48,204,76881,6,0,P|12:272|48:344,1,160,0|0,0:0|1:0,0:0:0:0:
240,332,77540,1,0,1:0:0:0:
434,322,77870,2,0,P|468:252|432:180,2,160,0|0|4,0:0|1:0|0:0,0:0:0:0:
292,192,78859,5,0,1:0:0:0:
408,40,79189,1,0,1:0:0:0:
216,32,79518,1,0,0:0:0:0:
84,176,79848,1,0,1:0:0:0:
176,348,80178,6,0,B|216:332|252:348|252:348|292:364|336:352,1,160,0|0,0:0|1:0,0:0:0:0:
468,216,80837,1,0,1:0:0:0:
344,68,81167,2,0,P|288:28|200:64,1,160,0|0,0:0|1:0,0:0:0:0:
72,188,81826,6,0,L|36:352,1,160,4|0,0:0|1:0,0:0:0:0:
220,292,82485,1,0,1:0:0:0:
404,356,82815,1,0,0:0:0:0:
472,176,83145,1,0,1:0:0:0:
288,112,83474,6,0,P|224:76|148:112,1,160,0|0,0:0|1:0,0:0:0:0:
40,268,84134,1,0,1:0:0:0:
228,224,84463,2,0,L|424:212,1,160,0|0,0:0|1:0,0:0:0:0:
276,60,85123,6,0,L|108:68,1,160,4|0,0:0|0:0,0:0:0:0:
36,168,85617,2,0,P|12:212|60:316,1,160,8|8,0:0|0:0,0:0:0:0:
288,352,86276,2,0,P|324:296|272:220,1,160,8|8,0:0|0:0,0:0:0:0:
204,112,86771,1,8,0:0:0:0:
116,232,86936,1,8,0:0:0:0:
448,344,87595,5,0,0:0:0:0:
472,252,87760,2,0,P|480:196|456:128,1,120
444,120,88090,2,0,L|364:116,1,80,8|0,0:0|0:0,0:0:0:0:
272,168,88419,2,0,L|192:164,1,80
84,128,88749,1,8,0:0:0:0:
24,220,88914,1,0,0:0:0:0:
128,268,89079,6,8,P|196:292|300:284,1,160,0|8,0:0|0:0,0:0:0:0:
380,232,89573,1,0,0:0:0:0:
356,124,89738,2,0,P|272:100|196:104,1,160,0|8,0:0|0:0,0:0:0:0:
96,144,90232,1,0,0:0:0:0:
44,244,90397,6,0,P|24:288|64:368,1,120
60,360,90727,2,0,L|144:356,1,80,8|0,0:0|0:0,0:0:0:0:
300,304,91057,2,0,L|216:308,1,80
136,232,91386,2,0,P|164:204|204:188,1,80,8|0,0:0|0:0,0:0:0:0:
308,160,91716,6,0,L|484:144,1,160,0|8,0:0|0:0,0:0:0:0:
272,44,92375,1,0,0:0:0:0:
164,64,92540,1,0,0:0:0:0:
80,136,92705,2,0,P|52:192|52:224,1,80,8|0,0:0|0:0,0:0:0:0:
80,316,93035,6,0,P|112:352|164:368,1,80
160,368,93282,1,0,0:0:0:0:
180,364,93364,1,8,0:0:0:0:
276,304,93529,2,0,P|312:280|428:296,1,160
484,196,94024,2,0,P|456:152|456:92,1,80,8|0,0:0|0:0,0:0:0:0:
384,36,94353,6,0,L|224:56,1,160,0|8,0:0|0:0,0:0:0:0:
128,112,94848,1,0,0:0:0:0:
216,184,95013,2,0,P|248:248|212:328,1,160,0|8,0:0|0:0,0:0:0:0:
112,368,95507,5,0,0:0:0:0:
40,280,95672,2,0,L|12:104,1,160,0|8,0:0|0:0,0:0:0:0:
92,40,96166,2,0,P|144:28|256:44,1,160
312,136,96661,2,0,P|344:164|384:172,1,80,8|4,0:0|0:0,0:0:0:0:
460,92,96991,6,0,P|500:196|452:252,1,160,0|8,0:0|0:0,0:0:0:0:
424,328,97485,1,0,0:0:0:0:
312,348,97650,2,0,L|120:332,1,160,0|8,0:0|0:0,0:0:0:0:
64,272,98144,1,0,0:0:0:0:
64,256,98227,1,0,0:0:0:0:
64,240,98309,6,0,P|80:200|112:176,1,80
208,148,98639,1,8,0:0:0:0:
288,216,98804,2,0,P|364:248|432:216,1,160
476,116,99298,1,8,0:0:0:0:
476,116,99463,1,0,0:0:0:0:
384,52,99628,6,0,P|316:32|228:48,1,160,0|8,0:0|0:0,0:0:0:0:
124,92,100123,1,0,0:0:0:0:
152,200,100287,2,0,B|172:244|152:276|152:276|132:312|156:356,1,160
272,328,100782,1,0,0:0:0:0:
384,304,100947,6,0,P|420:256|428:184,1,120
416,188,101276,2,0,L|396:104,1,80,8|0,0:0|0:0,0:0:0:0:
292,72,101606,1,0,0:0:0:0:
196,128,101771,1,0,0:0:0:0:
92,88,101936,2,0,P|36:96|12:136,1,80,8|0,0:0|0:0,0:0:0:0:
92,200,102265,6,0,P|136:244|232:248,1,160,0|8,0:0|0:0,0:0:0:0:
324,76,102925,2,0,P|396:44|472:72,1,160,0|8,0:0|0:0,0:0:0:0:
508,176,103419,1,0,0:0:0:0:
496,288,103584,6,0,P|464:336|436:344,1,80
428,344,103831,1,0,0:0:0:0:
412,340,103914,1,8,0:0:0:0:
308,304,104079,2,0,L|148:304,1,160
40,256,104573,2,0,P|60:220|96:196,1,80,8|0,0:0|0:0,0:0:0:0:
180,124,104903,6,0,P|264:104|364:144,1,160,0|8,0:0|0:0,0:0:0:0:
416,200,105397,1,0,0:0:0:0:
360,296,105562,2,0,B|320:320|280:300|280:300|240:284|192:320,1,160,0|8,0:0|0:0,0:0:0:0:
100,344,106057,1,0,0:0:0:0:
32,260,106221,6,0,L|60:80,1,160,0|8,0:0|0:0,0:0:0:0:
148,40,106716,2,0,B|184:68|172:120|172:120|216:184,1,160
240,288,107210,1,8,0:0:0:0:
344,248,107375,1,0,0:0:0:0:
432,320,107540,6,0,P|480:340|520:340,1,80,0|8,0:0|0:0,0:0:0:0:
480,216,107870,2,0,P|512:180|520:136,1,80,0|8,0:0|0:0,0:0:0:0:
364,108,108199,2,0,P|328:72|76:80,1,320,0|4,0:0|0:0,0:0:0:0:
112,176,109024,5,0,0:0:0:0:
56,260,109188,2,0,P|48:312|64:352,1,80,2|0,1:2|0:0,0:0:0:0:
152,296,109518,2,0,L|240:280,1,80
240,284,109765,1,0,0:0:0:0:
248,288,109848,2,0,P|300:312|348:304,1,80,2|0,1:2|0:0,0:0:0:0:
432,344,110177,6,0,P|440:304|428:264,1,80
352,208,110507,2,0,P|384:176|424:172,1,80,2|0,1:2|0:0,0:0:0:0:
256,184,110837,2,0,P|224:216|184:220,1,80
178,125,111166,2,0,P|167:86|176:48,1,80,2|0,1:2|0:0,0:0:0:0:
276,88,111496,5,0,0:0:0:0:
380,72,111661,1,0,0:0:0:0:
476,112,111826,2,0,P|496:156|492:200,1,80,2|0,1:2|0:0,0:0:0:0:
468,288,112155,2,0,P|448:328|400:348,1,80
404,348,112403,1,0,0:0:0:0:
392,352,112485,2,0,L|292:352,1,80,2|0,1:2|0:0,0:0:0:0:
216,328,112815,6,0,L|120:328,1,80
60,256,113144,2,0,P|101:226|160:224,1,80,2|0,1:2|0:0,0:0:0:0:
236,192,113474,2,0,L|296:208,4,40,0|2|0|0|2,0:0|1:2|0:2|0:0|1:2,0:0:0:0:
428,60,114133,6,0,P|456:88|475:123,1,80,4|0,0:0|0:0,0:0:0:0:
380,136,114463,2,0,P|332:116|280:112,1,80,2|0,1:2|0:0,0:0:0:0:
208,112,114793,2,0,P|168:132|140:168,1,80
140,172,115040,1,0,0:0:0:0:
136,184,115123,2,0,L|144:296,1,80,2|0,1:2|0:0,0:0:0:0:
116,356,115452,6,0,P|72:328|48:292,1,80
240,368,115782,2,0,P|274:348|300:318,1,80,2|0,1:2|0:0,0:0:0:0:
216,272,116112,2,0,P|252:232|288:216,1,80
432,208,116441,2,0,P|404:236|356:244,1,80,2|0,1:2|0:0,0:0:0:0:
356,148,116771,5,0,0:0:0:0:
312,60,116936,1,0,0:0:0:0:
244,128,117101,2,0,L|160:152,1,80,2|0,1:2|0:0,0:0:0:0:
88,96,117430,2,0,P|76:140|80:192,1,80
80,188,117677,1,0,0:0:0:0:
84,204,117760,2,0,L|56:292,1,80,2|0,1:2|0:0,0:0:0:0:
140,340,118090,6,0,P|184:352|224:344,1,80,0|0,0:0|1:0,0:0:0:0:
304,312,118419,2,0,P|348:296|392:304,1,80,0|0,0:0|1:0,0:0:0:0:
468,344,118749,1,0,0:0:0:0:
508,256,118914,1,0,1:0:0:0:
448,180,119079,1,0,1:0:0:0:
479,88,119243,1,0,1:0:0:0:
384,104,119408,6,0,P|344:88|272:92,1,80,4|0,0:0|0:0,0:0:0:0:
208,92,119738,1,0,1:0:0:0:
200,188,119903,2,0,B|176:232|192:272|192:272|208:312|180:356,1,160
104,296,120397,1,0,1:0:0:0:
40,224,120562,2,0,P|52:152|100:60,1,160
176,32,121057,5,0,1:0:0:0:
492,228,121716,1,0,1:0:0:0:
328,332,122046,6,0,P|280:360|184:336,1,160,0|0,0:0|1:0,0:0:0:0:
136,156,122705,2,0,B|176:136|212:156|212:156|248:176|288:152,1,160,0|0,0:0|1:0,0:0:0:0:
120,64,123364,6,0,P|64:92|44:184,1,160,0|0,0:0|1:0,0:0:0:0:
80,272,123859,1,0,0:0:0:0:
156,332,124024,2,0,P|200:352|252:356,1,80
320,316,124353,2,0,P|368:304|408:308,1,80,0|0,1:0|0:0,0:0:0:0:
500,352,124683,5,4,0:0:0:0:
480,252,124848,1,0,0:0:0:0:
480,252,124930,1,0,0:0:0:0:
480,252,125013,2,0,P|468:200|468:144,1,80,0|0,1:0|0:0,0:0:0:0:
476,76,125342,2,0,P|448:52|404:36,1,80
320,80,125672,1,0,1:0:0:0:
344,176,125837,6,0,P|288:200|192:176,1,160
120,116,126331,2,0,P|80:96|40:96,1,80,0|0,1:0|0:0,0:0:0:0:
60,192,126661,2,0,P|12:204|-24:232,1,80
60,284,126991,2,0,P|44:320|56:364,1,80,0|0,1:0|0:0,0:0:0:0:
148,324,127320,6,0,L|316:304,1,160,0|0,0:0|1:0,0:0:0:0:
368,200,127815,2,0,L|216:216,1,120
232,200,128144,2,0,P|208:168|212:120,1,80,0|0,0:0|1:0,0:0:0:0:
280,64,128474,1,0,0:0:0:0:
376,84,128639,6,0,L|424:84,12,40,0|0|0|0|0|0|0|0|0|0|0|0|4,0:0|0:0|0:0|0:0|0:0|0:0|0:0|0:0|0:0|0:0|0:0|0:0|0:0,0:0:0:0:
440,268,129958,6,0,P|428:312|400:340,1,80,0|0,1:0|0:0,1:0:0:0:
