osu file format v14

[General]
AudioFilename: yorukichi_catwalk.mp3
AudioLeadIn: 0
PreviewTime: -1
Countdown: 1
SampleSet: Soft
StackLeniency: 0.7
Mode: 0
LetterboxInBreaks: 1
WidescreenStoryboard: 0

[Editor]
DistanceSpacing: 0.8
BeatDivisor: 4
GridSize: 16
TimelineZoom: 2.4

[Metadata]
Title:Envy Catwalk
TitleUnicode:エンヴィキャットウォーク
Artist:Yorukichi
ArtistUnicode:よるきち
Creator:AcidSnow1
Version:hard? not finished nyan
Source:tohma
Tags:cat walk utaite utattemita utatte mita niconico nico nico douga niconicodouga nicovideo
BeatmapID:746352
BeatmapSetID:337328

[Difficulty]
HPDrainRate:7
CircleSize:4
OverallDifficulty:7
ApproachRate:7
SliderMultiplier:2
SliderTickRate:1

[Events]
//Background and Video events
0,0,"Envy.Catwalk.full.1287146.jpg",0,0
//Break Periods
//Storyboard Layer 0 (Background)
//Storyboard Layer 1 (Fail)
//Storyboard Layer 2 (Pass)
//Storyboard Layer 3 (Foreground)
//Storyboard Sound Samples

[TimingPoints]
844,375,4,2,0,90,1,0
12844,-100,4,1,0,90,0,0
24094,-100,4,1,0,100,0,0
24844,-100,4,1,0,90,0,0
36094,-200,4,2,0,90,0,0
36844,-100,4,2,0,90,0,0
48844,-100,4,1,0,90,0,0
60094,-200,4,1,0,70,0,0
60844,-100,4,2,0,90,0,0
72844,-100,4,2,0,90,0,0
84844,-133.333333333333,4,1,0,70,0,0
86344,-90.9090909090909,4,1,0,95,0,1
98344,-100,4,2,0,90,0,0

[HitObjects]
96,144,844,5,0,0:0:0:0:
192,144,1031,2,0,L|192:208,1,50,0|0,0:0|0:0,0:0:0:0:
288,144,1312,2,0,L|288:208,3,50,0|0|0|0,0:0|0:0|0:0|0:0,0:0:0:0:
352,240,1875,1,0,0:0:0:0:
240,272,2156,1,2,0:0:0:0:
144,176,2531,5,0,0:0:0:0:
144,176,2625,1,0,0:0:0:0:
144,176,2719,1,0,0:0:0:0:
208,80,2906,1,0,0:0:0:0:
352,80,3094,2,2,P|416:96|432:144,1,100,2|2,0:0|0:0,0:0:0:0:
368,208,3469,2,2,P|304:192|288:144,1,100,2|2,0:0|0:0,0:0:0:0:
192,128,3844,5,0,0:0:0:0:
192,128,3937,1,0,0:0:0:0:
192,128,4031,1,0,0:0:0:0:
144,240,4219,1,0,0:0:0:0:
144,240,4312,1,0,0:0:0:0:
144,240,4406,1,0,0:0:0:0:
256,240,4594,2,0,P|256:176|240:112,1,100,0|0,0:0|0:0,0:0:0:0:
240,112,4969,1,0,0:0:0:0:
352,112,5156,1,2,0:0:0:0:
448,208,5531,5,0,0:0:0:0:
448,208,5625,1,0,0:0:0:0:
448,208,5719,1,0,0:0:0:0:
352,288,5906,1,0,0:0:0:0:
208,288,6094,1,4,0:0:0:0:
112,208,6281,1,4,0:0:0:0:
208,128,6469,1,4,0:0:0:0:
112,48,6656,1,4,0:0:0:0:
304,48,6844,5,0,0:0:0:0:
304,48,6938,1,0,0:0:0:0:
304,48,7031,1,0,0:0:0:0:
400,128,7219,1,0,0:0:0:0:
400,128,7313,1,0,0:0:0:0:
400,128,7406,1,0,0:0:0:0:
400,128,7500,1,0,0:0:0:0:
400,128,7594,2,2,B|432:160|464:192|432:224|400:256,2,150
320,176,8344,5,0,0:0:0:0:
320,176,8437,1,0,0:0:0:0:
320,176,8531,1,0,0:0:0:0:
208,176,8719,1,0,0:0:0:0:
208,176,8813,1,0,0:0:0:0:
208,176,8907,1,0,0:0:0:0:
208,176,9000,1,0,0:0:0:0:
208,176,9094,1,6,0:0:0:0:
112,96,9375,2,2,P|96:224|112:272,1,150,6|6,0:0|0:0,0:0:0:0:
192,288,9844,5,0,0:0:0:0:
192,288,9937,2,0,L|288:288,1,50
368,288,10219,2,0,L|368:224,1,50
368,238,10406,2,0,L|368:174,1,50
368,144,10594,1,2,0:0:0:0:
144,144,10875,1,2,0:0:0:0:
320,48,11156,1,2,0:0:0:0:
224,240,11531,5,8,0:0:0:0:
224,240,11625,1,8,0:0:0:0:
224,240,11719,1,8,0:0:0:0:
400,192,11906,1,8,0:0:0:0:
208,128,12094,1,4,0:0:0:0:
80,192,12844,5,0,0:0:0:0:
192,192,13031,1,0,0:0:0:0:
192,192,13125,1,0,0:0:0:0:
192,192,13218,1,8,0:0:0:0:
304,192,13406,1,0,0:0:0:0:
304,192,13500,1,0,0:0:0:0:
304,192,13594,2,8,B|320:112|320:112|384:112,1,100
368,64,14156,5,0,0:0:0:0:
368,64,14250,1,0,0:0:0:0:
368,64,14344,1,8,0:0:0:0:
256,64,14531,1,0,0:0:0:0:
256,64,14625,1,0,0:0:0:0:
256,64,14718,1,8,0:0:0:0:
144,64,14906,1,8,0:0:0:0:
128,176,15281,2,2,B|192:144|192:144|256:176,2,100
128,288,16031,5,0,0:0:0:0:
128,288,16125,1,0,0:0:0:0:
128,288,16219,1,8,0:0:0:0:
240,208,16406,1,0,0:0:0:0:
240,208,16500,1,0,0:0:0:0:
240,208,16594,1,8,0:0:0:0:
352,288,16781,1,8,0:0:0:0:
384,128,17156,6,0,L|384:48,2,50,0|0|8,0:0|0:0|0:0,0:0:0:0:
240,112,17531,1,0,0:0:0:0:
240,112,17625,1,0,0:0:0:0:
240,112,17719,1,8,0:0:0:0:
96,128,17906,1,8,0:0:0:0:
240,192,18281,1,10,0:0:0:0:
240,192,18375,1,10,0:0:0:0:
240,192,18469,1,10,0:0:0:0:
240,272,18656,1,4,0:0:0:0:
160,176,19031,6,0,L|160:112,2,50,0|0|8,0:0|0:0|0:0,0:0:0:0:
240,64,19406,2,0,L|240:160,2,50,0|0|8,0:0|0:0|0:0,0:0:0:0:
320,176,19781,2,0,L|320:80,1,50,8|0,0:0|0:0,0:0:0:0:
416,256,20156,5,0,0:0:0:0:
416,256,20250,1,0,0:0:0:0:
416,256,20344,1,8,0:0:0:0:
256,256,20531,1,0,0:0:0:0:
256,256,20624,1,0,0:0:0:0:
256,256,20718,1,8,0:0:0:0:
96,256,20906,1,8,0:0:0:0:
144,112,21281,5,2,0:0:0:0:
256,112,21469,1,2,0:0:0:0:
368,112,21656,1,2,0:0:0:0:
368,224,21844,5,0,0:0:0:0:
256,240,22031,1,0,0:0:0:0:
256,240,22125,1,0,0:0:0:0:
256,240,22219,1,8,0:0:0:0:
128,240,22406,1,0,0:0:0:0:
128,240,22500,1,0,0:0:0:0:
128,240,22594,1,8,0:0:0:0:
128,128,22781,1,8,0:0:0:0:
352,144,23156,6,0,L|272:144,2,50,0|0|8,0:0|0:0|0:0,0:0:0:0:
160,240,23531,2,0,L|224:240,4,50
160,128,24094,5,4,0:0:0:0:
256,288,24375,1,4,0:0:0:0:
352,128,24656,1,4,0:0:0:0:
256,192,24844,5,0,0:0:0:0:
160,112,25031,2,0,L|96:112,2,50,0|0|8,0:0|0:0|0:0,0:0:0:0:
256,112,25406,2,0,L|256:48,2,50,0|0|8,0:0|0:0|0:0,0:0:0:0:
352,112,25781,2,0,L|416:112,2,50,0|0|8,0:0|0:0|0:0,0:0:0:0:
384,208,26156,5,0,0:0:0:0:
384,208,26250,1,0,0:0:0:0:
384,208,26344,1,8,0:0:0:0:
256,176,26531,2,0,L|256:240,2,50,0|0|8,0:0|0:0|0:0,0:0:0:0:
144,208,26906,1,0,0:0:0:0:
144,208,27000,1,0,0:0:0:0:
144,208,27094,1,8,0:0:0:0:
256,288,27281,2,2,P|288:240|240:192,2,100
384,288,27844,5,0,0:0:0:0:
336,224,28031,2,0,L|400:224,2,50,0|0|8,0:0|0:0|0:0,0:0:0:0:
432,160,28406,2,0,L|368:160,2,50,0|0|8,0:0|0:0|0:0,0:0:0:0:
384,96,28781,1,4,0:0:0:0:
256,128,29156,5,0,0:0:0:0:
256,128,29249,1,0,0:0:0:0:
256,128,29343,1,8,0:0:0:0:
128,80,29531,1,0,0:0:0:0:
128,80,29624,1,0,0:0:0:0:
128,80,29718,1,8,0:0:0:0:
48,128,29906,1,0,0:0:0:0:
128,176,30094,1,0,0:0:0:0:
256,192,30281,2,2,L|256:272,2,50
384,176,30656,1,2,0:0:0:0:
384,80,30844,5,0,0:0:0:0:
256,80,31031,1,0,0:0:0:0:
256,80,31125,1,0,0:0:0:0:
256,80,31218,1,8,0:0:0:0:
160,144,31406,2,0,L|272:208,1,100,0|8,0:0|0:0,0:0:0:0:
272,208,31781,1,8,0:0:0:0:
416,208,32156,5,0,0:0:0:0:
416,208,32249,1,0,0:0:0:0:
416,208,32343,1,8,0:0:0:0:
368,288,32531,1,0,0:0:0:0:
368,288,32624,1,0,0:0:0:0:
368,288,32718,1,8,0:0:0:0:
272,304,32906,2,0,L|208:304,2,50
128,304,33187,2,0,L|208:304,6,50
112,272,33844,5,0,0:0:0:0:
96,240,33937,1,0,0:0:0:0:
96,208,34031,1,0,0:0:0:0:
112,176,34125,1,0,0:0:0:0:
400,176,34312,1,0,0:0:0:0:
416,208,34406,1,0,0:0:0:0:
352,272,34594,1,0,0:0:0:0:
336,304,34687,1,0,0:0:0:0:
272,128,34969,5,0,0:0:0:0:
224,176,35062,1,0,0:0:0:0:
272,224,35156,1,0,0:0:0:0:
224,272,35250,1,0,0:0:0:0:
320,48,35532,1,0,0:0:0:0:
384,64,35625,1,0,0:0:0:0:
336,112,35719,1,0,0:0:0:0:
400,128,35812,1,0,0:0:0:0:
352,176,35906,1,0,0:0:0:0:
416,192,36000,1,0,0:0:0:0:
368,240,36094,2,0,P|288:272|272:256,1,100,2|4,0:0|0:0,0:0:0:0:
