osu file format v14

[General]
AudioFilename: audio.mp3
AudioLeadIn: 0
PreviewTime: 62300
Countdown: 1
SampleSet: Soft
StackLeniency: 0.7
Mode: 0
LetterboxInBreaks: 0
WidescreenStoryboard: 0

[Editor]
Bookmarks: 26300,38687,46429,63461,75848,88236,100623,101010,113010,125397,150171,162558,174945,199719,224494,236881,249268
DistanceSpacing: 1.4
BeatDivisor: 4
GridSize: 16
TimelineZoom: 2.2

[Metadata]
Title:Soukyuu no Rapusodia
TitleUnicode:奏穹のラプソディア
Artist:YoosanHyakurei
ArtistUnicode:瑶山百霊
Creator:Zweib
Version:zzzz
Source:
Tags:
BeatmapID:1565244
BeatmapSetID:734081

[Difficulty]
HPDrainRate:7
CircleSize:3.8
OverallDifficulty:8
ApproachRate:9
SliderMultiplier:2.8
SliderTickRate:1

[Events]
//Background and Video events
0,0,"bg2.jpg",0,0
//Break Periods
2,88435,100023
//Storyboard Layer 0 (Background)
//Storyboard Layer 1 (Fail)
//Storyboard Layer 2 (Pass)
//Storyboard Layer 3 (Foreground)
//Storyboard Sound Samples

[TimingPoints]
-22,387.096774193548,4,2,1,80,1,0
171,-200,4,2,1,80,0,0
19332,-600,4,2,1,80,0,0
20107,-100,4,2,1,80,0,0
24752,-200,4,2,1,80,0,0
25526,-100,4,2,1,80,0,0
26300,-200,4,2,1,80,0,0
42752,-200,4,2,1,80,0,0
42945,-166.666666666667,4,2,1,80,0,0
43139,-142.857142857143,4,2,1,80,0,0
43332,-125,4,2,1,80,0,0
43526,-111.111111111111,4,2,1,80,0,0
43719,-100,4,2,1,80,0,0
43913,-90.9090909090909,4,2,1,80,0,0
44107,-83.3333333333333,4,2,1,80,0,0
44300,-76.9230769230769,4,2,1,80,0,0
44494,-71.4285714285714,4,2,1,80,0,0
44687,-66.6666666666667,4,2,1,80,0,0
44881,-200,4,2,1,80,0,0
63461,-66.6666666666667,4,2,1,80,0,1
87655,-100,4,2,1,80,0,1
88236,-66.6666666666667,4,2,1,80,0,0
111461,-133.333333333333,4,2,1,80,0,0
113010,-200,4,2,1,80,0,0
129461,-200,4,2,1,80,0,0
129655,-166.666666666667,4,2,1,80,0,0
129848,-142.857142857143,4,2,1,80,0,0
130042,-125,4,2,1,80,0,0
130236,-111.111111111111,4,2,1,80,0,0
130429,-100,4,2,1,80,0,0
130623,-90.9090909090909,4,2,1,80,0,0
130816,-83.3333333333333,4,2,1,80,0,0
131010,-76.9230769230769,4,2,1,80,0,0
131203,-71.4285714285714,4,2,1,80,0,0
131397,-66.6666666666667,4,2,1,80,0,0
131590,-200,4,2,1,80,0,0
150171,-66.6666666666667,4,1,1,80,0,1
173397,-66.6666666666667,4,1,1,80,0,0
174171,-100,4,1,1,80,0,0
174365,-200,4,1,1,80,0,0
174752,-66.6666666666667,4,1,1,80,0,0
175332,-200,4,2,1,80,0,0
175913,-66.6666666666667,4,2,1,80,0,0
176300,-200,4,2,1,80,0,0
176881,-100,4,2,1,80,0,0
177268,-200,4,2,1,80,0,0
180945,-100,4,2,1,80,0,0
181139,-200,4,2,1,80,0,0
199719,-66.6666666666667,4,1,1,80,0,1
212687,-55.5555555555556,4,1,1,80,0,1
213268,-66.6666666666667,4,1,1,80,0,1
223719,-66.6666666666667,4,2,1,80,0,0
224494,-50,4,1,1,80,0,1
246171,-66.6666666666667,4,2,1,80,0,0
248687,-100,4,2,1,80,0,0

[Colours]
Combo1 : 130,156,200
Combo2 : 167,150,192
Combo3 : 249,254,255
Combo4 : 170,221,215

[HitObjects]
177,70,365,5,0,0:0:0:0:
177,70,752,2,0,P|167:98|171:157,2,70
22,65,1332,1,0,0:0:0:0:
22,65,1526,6,0,P|33:127|23:215,1,140
506,373,2300,2,0,P|503:338|509:304,1,70
119,12,2881,6,0,B|71:107|185:212|189:109|86:84,1,210
504,379,3848,2,0,P|504:344|514:304,1,70
215,21,4429,1,0,0:0:0:0:
215,21,5010,2,0,P|226:90|222:173,1,140
17,294,5590,1,0,0:0:0:0:
17,294,5977,6,0,P|0:205|1:142,1,140
116,105,6558,1,0,0:0:0:0:
328,178,6945,6,0,P|215:154|229:218,1,210
37,297,7719,2,0,P|45:263|49:216,2,70
503,377,8494,2,0,P|513:302|514:298,1,70
176,264,9074,6,2,P|245:279|237:351,1,140
87,327,9655,1,0,0:0:0:0:
32,243,10042,1,0,0:0:0:0:
117,183,10429,1,0,0:0:0:0:
99,37,10816,6,0,P|39:61|49:126,2,140
159,207,11784,1,0,0:0:0:0:
19,219,12171,2,0,P|89:209|159:207,1,140
406,206,12752,1,0,0:0:0:0:
419,222,13139,5,0,0:0:0:0:
295,163,13332,2,0,P|237:183|268:236,1,140
170,40,13913,6,0,L|175:131,1,70
342,344,14300,2,0,L|336:252,1,70
157,48,14687,6,0,L|170:138,1,70
355,336,15074,2,0,L|341:245,1,70
145,58,15461,6,0,L|166:147,1,70
367,326,15848,2,0,L|345:236,1,70
135,69,16236,6,0,L|164:156,1,70
377,315,16623,2,0,L|347:227,1,70
126,81,17010,6,0,L|162:165,1,70
386,303,17397,2,0,L|349:218,1,70
117,95,17784,6,0,L|160:175,1,70
395,289,18171,2,0,L|351:208,1,70
110,108,18558,6,0,L|160:184,1,70
402,276,18945,2,0,L|351:199,1,70
107,120,19332,6,0,L|164:192,1,70
404,251,20107,6,0,L|358:193,1,70
108,133,20300,2,0,L|153:190,1,70
390,272,20494,6,0,L|356:207,1,70
122,112,20687,2,0,L|155:176,1,70
373,290,20881,6,0,L|352:220,1,70
139,94,21074,2,0,L|159:163,1,70
353,305,21268,6,0,L|346:232,1,70
159,79,21461,2,0,L|165:151,1,70
330,316,21655,6,0,L|337:243,1,70,0|0,0:3|0:3,0:3:0:0:
182,68,21848,2,0,L|174:140,1,70,0|0,0:3|0:3,0:3:0:0:
353,305,22042,6,0,L|373:235,1,70
159,79,22235,2,0,L|138:148,1,70
373,290,22429,6,0,L|406:225,1,70
139,94,22622,2,0,L|105:158,1,70
390,272,22816,6,0,L|435:215,1,70
122,112,23009,2,0,L|76:168,1,70
46,304,23203,5,0,0:0:0:0:
91,287,23299,1,0,0:0:0:0:
138,282,23396,1,0,0:0:0:0:
186,287,23493,1,0,0:0:0:0:
232,300,23590,1,0,0:0:0:0:
278,315,23686,1,0,0:0:0:0:
324,328,23783,1,0,0:0:0:0:
372,333,23880,1,0,0:0:0:0:
419,325,23977,5,0,0:0:0:0:
460,300,24073,1,0,0:0:0:0:
486,259,24170,1,0,0:0:0:0:
492,212,24267,1,0,0:0:0:0:
478,166,24364,1,0,0:0:0:0:
445,131,24461,1,0,0:0:0:0:
401,114,24557,1,0,0:0:0:0:
353,119,24654,1,0,0:0:0:0:
312,143,24752,6,0,P|219:182|70:121,1,245
5,184,25526,2,0,P|196:75|399:242,1,490
415,296,26300,5,0,0:0:0:0:
289,280,26494,1,0,0:0:0:0:
168,313,26687,2,0,L|168:233,1,70,8|0,0:0|0:0,0:0:0:0:
48,202,27074,1,0,0:0:0:0:
156,137,27268,1,0,0:0:0:0:
186,143,27365,1,0,0:0:0:0:
216,137,27461,2,0,L|216:40,1,70,8|0,0:0|0:0,0:0:0:0:
330,29,27848,5,0,0:0:0:0:
440,111,28042,1,0,0:0:0:0:
476,106,28139,1,0,0:0:0:0:
512,116,28236,2,0,L|512:36,1,70,8|0,0:0|0:0,0:0:0:0:
381,8,28623,1,0,0:0:0:0:
215,209,28816,1,0,0:0:0:0:
172,215,28913,1,0,0:0:0:0:
129,205,29010,2,0,L|129:118,1,70,8|0,0:0|0:0,0:0:0:0:
284,119,29397,5,0,0:0:0:0:
312,139,29494,1,0,0:0:0:0:
352,132,29590,1,0,0:0:0:0:
387,139,29687,1,0,0:0:0:0:
418,117,29784,2,0,L|418:197,1,70,8|0,0:0|0:0,0:0:0:0:
146,303,30171,5,0,0:0:0:0:
109,294,30268,1,0,0:0:0:0:
69,292,30365,1,0,0:0:0:0:
35,310,30461,1,0,0:0:0:0:
3,306,30558,2,0,L|0:212,1,70,8|0,0:0|0:0,0:0:0:0:
107,150,30945,5,0,0:0:0:0:
320,257,31139,1,0,0:0:0:0:
366,244,31236,1,0,0:0:0:0:
414,252,31332,2,0,L|389:88,1,140,8|0,0:0|0:0,0:0:0:0:
292,55,31913,6,0,P|287:67|292:103,1,35
473,37,32107,2,0,P|456:5|446:-11,1,35,8|0,0:0|0:0,0:0:0:0:
361,139,32300,2,0,P|365:160|377:187,1,35
304,240,32494,5,0,0:0:0:0:
165,137,32687,6,0,L|164:82,1,35
107,30,32881,1,8,0:0:0:0:
52,131,33074,6,0,L|20:147,1,35
176,157,33268,1,0,0:0:0:0:
259,71,33461,6,0,L|267:37,1,35
367,106,33655,6,0,L|390:154,1,35,8|0,0:0|0:0,0:0:0:0:
482,37,33848,6,0,L|466:85,1,35
488,367,34042,5,0,0:0:0:0:
423,258,34236,1,0,0:0:0:0:
382,235,34332,1,0,0:0:0:0:
342,258,34429,1,8,0:0:0:0:
264,358,34623,1,0,0:0:0:0:
138,268,34816,6,0,L|127:235,1,35
24,215,35010,6,0,L|0:190,1,35
152,137,35203,6,0,L|164:104,1,35,8|0,0:0|0:0,0:0:0:0:
49,90,35397,6,0,L|43:55,1,35
231,48,35590,5,0,0:0:0:0:
133,315,35784,1,0,0:0:0:0:
98,305,35881,1,0,0:0:0:0:
72,323,35977,2,0,L|-24:323,1,70,8|0,0:0|0:0,0:0:0:0:
0,76,36365,1,0,0:0:0:0:
172,208,36558,1,0,0:0:0:0:
209,224,36655,1,0,0:0:0:0:
243,209,36752,2,0,L|335:209,1,70,8|0,0:0|0:0,0:0:0:0:
408,287,37139,5,0,0:0:0:0:
490,175,37332,1,0,0:0:0:0:
484,136,37429,1,0,0:0:0:0:
487,97,37526,1,8,0:0:0:0:
487,97,37719,5,0,0:0:0:0:
487,97,37913,6,0,B|403:147|366:58|269:116,1,210
432,16,38687,5,0,0:0:0:0:
380,320,38881,1,0,0:0:0:0:
380,320,39074,1,8,0:0:0:0:
380,320,39268,1,0,0:0:0:0:
122,119,39461,5,0,0:0:0:0:
220,225,39655,1,0,0:0:0:0:
220,225,39848,1,8,0:0:0:0:
220,225,40042,1,0,0:0:0:0:
253,41,40236,5,0,0:0:0:0:
46,284,40429,1,0,0:0:0:0:
46,284,40623,1,8,0:0:0:0:
46,284,40816,1,0,0:0:0:0:
42,61,41010,5,0,0:0:0:0:
354,344,41203,1,0,0:0:0:0:
354,344,41397,1,8,0:0:0:0:
354,344,41590,1,0,0:0:0:0:
212,76,41784,5,0,0:0:0:0:
368,239,41977,1,0,0:0:0:0:
368,239,42171,1,8,0:0:0:0:
368,239,42365,1,0,0:0:0:0:
82,192,42558,5,0,0:0:0:0:
66,207,42752,6,0,L|70:241,1,35
54,221,42945,6,0,L|46:169,1,41.9999987182618,8|0,0:0|0:0,0:0:0:0:
179,240,43139,6,0,L|187:291,1,48.9999985046387
220,131,43332,6,0,L|211:71,1,56
323,256,43526,6,0,L|335:322,1,62.9999980773926
367,72,43719,6,0,L|356:2,1,70,8|0,0:0|0:0,0:0:0:0:
495,288,43913,6,0,L|510:364,1,77.0000023498536
507,0,44107,6,0,P|511:27|503:90,1,83.9999974365235
438,186,44300,6,0,P|406:222|364:245,1,90.9999958343508
222,276,44494,6,0,P|170:270|124:250,1,97.9999970092774,8|0,0:0|0:0,0:0:0:0:
25,170,44687,6,0,P|14:111|17:54,1,105.000004005432
119,19,44881,5,4,0:0:0:0:
280,160,45074,1,0,0:0:0:0:
257,0,45268,1,8,0:0:0:0:
137,177,45461,1,0,0:0:0:0:
375,122,45655,5,0,0:0:0:0:
504,209,45848,1,0,0:0:0:0:
481,98,46042,1,8,0:0:0:0:
397,228,46235,1,0,0:0:0:0:
92,98,46429,5,0,0:0:0:0:
201,333,46622,1,0,0:0:0:0:
226,108,46816,1,8,0:0:0:0:
64,317,47010,1,0,0:0:0:0:
432,33,47203,5,0,0:0:0:0:
339,357,47396,1,0,0:0:0:0:
290,61,47590,1,8,0:0:0:0:
481,328,47783,1,0,0:0:0:0:
80,144,47977,5,0,0:0:0:0:
416,144,48170,1,0,0:0:0:0:
192,224,48364,1,8,0:0:0:0:
304,224,48557,1,0,0:0:0:0:
144,304,48751,1,0,0:0:0:0:
368,304,48945,6,0,L|416:304,1,35
112,288,49139,2,0,L|176:288,1,35,8|0,0:0|0:0,0:0:0:0:
240,240,49332,1,0,0:0:0:0:
160,208,49525,6,0,L|96:208,1,35
256,224,49719,1,0,0:0:0:0:
350,185,49912,6,0,L|414:185,1,35,8|0,0:0|0:0,0:0:0:0:
208,160,50107,6,0,L|144:160,1,35
400,112,50300,6,0,L|435:112,1,35
96,144,50493,6,0,L|48:144,1,35
448,192,50687,6,0,L|512:192,1,35,8|0,0:0|0:0,0:0:0:0:
48,240,50880,6,0,L|-16:240,1,35
52,47,51074,5,0,0:0:0:0:
134,13,51268,1,0,0:0:0:0:
175,89,51461,1,0,0:0:0:0:
92,126,51655,1,0,0:0:0:0:
412,82,51848,5,0,0:0:0:0:
498,129,52042,1,0,0:0:0:0:
423,192,52236,1,0,0:0:0:0:
334,151,52429,1,0,0:0:0:0:
477,4,52623,5,0,0:0:0:0:
437,335,52817,1,0,0:0:0:0:
357,266,53010,1,0,0:0:0:0:
457,235,53204,1,0,0:0:0:0:
178,366,53397,5,0,0:0:0:0:
0,176,53591,1,0,0:0:0:0:
232,0,53784,5,0,0:0:0:0:
192,251,53978,1,0,0:0:0:0:
459,20,54171,5,0,0:0:0:0:
397,281,54365,1,0,0:0:0:0:
391,82,54558,5,0,0:0:0:0:
357,248,54752,1,0,0:0:0:0:
224,54,54945,5,0,0:0:0:0:
312,244,55139,1,0,0:0:0:0:
44,0,55333,5,0,0:0:0:0:
0,349,55526,1,0,0:0:0:0:
457,320,55719,6,0,P|428:285|328:315,1,140
332,310,56203,1,0,0:0:0:0:
331,327,56300,1,0,0:0:0:0:
338,342,56397,1,0,0:0:0:0:
355,345,56494,5,0,0:0:0:0:
391,319,56590,1,0,0:0:0:0:
395,273,56687,1,0,0:0:0:0:
380,229,56784,1,0,0:0:0:0:
347,196,56881,1,0,0:0:0:0:
304,181,56977,1,0,0:0:0:0:
265,156,57074,1,0,0:0:0:0:
244,115,57171,1,0,0:0:0:0:
240,69,57268,6,0,P|150:94|153:147,1,140,0|8,0:0|0:0,0:0:0:0:
305,276,57752,1,0,0:0:0:0:
347,259,57849,1,0,0:0:0:0:
373,222,57945,1,0,0:0:0:0:
389,179,58042,1,0,0:0:0:0:
385,133,58139,1,0,0:0:0:0:
363,92,58236,1,0,0:0:0:0:
329,61,58332,1,0,0:0:0:0:
283,53,58429,1,0,0:0:0:0:
238,61,58526,1,0,0:0:0:0:
204,89,58623,5,0,0:0:0:0:
218,142,58719,1,0,0:0:0:0:
232,195,58816,6,0,L|91:172,1,140
50,144,59300,1,0,0:0:0:0:
57,99,59397,1,0,0:0:0:0:
92,70,59494,1,0,0:0:0:0:
134,56,59590,1,0,0:0:0:0:
178,63,59687,1,0,0:0:0:0:
222,72,59784,1,0,0:0:0:0:
266,79,59881,1,0,0:0:0:0:
310,88,59977,1,0,0:0:0:0:
354,99,60074,1,0,0:0:0:0:
398,107,60171,1,0,0:0:0:0:
442,116,60268,1,0,0:0:0:0:
483,140,60365,5,0,0:0:0:0:
496,181,60461,1,0,0:0:0:0:
492,225,60558,1,0,0:0:0:0:
469,262,60655,1,0,0:0:0:0:
432,283,60752,1,0,0:0:0:0:
387,285,60848,1,0,0:0:0:0:
345,276,60945,1,0,0:0:0:0:
302,263,61042,1,0,0:0:0:0:
261,248,61139,1,0,0:0:0:0:
219,234,61235,1,0,0:0:0:0:
176,225,61332,1,0,0:0:0:0:
132,223,61429,1,0,0:0:0:0:
89,235,61526,1,0,0:0:0:0:
57,264,61623,1,0,0:0:0:0:
42,305,61719,1,0,0:0:0:0:
46,349,61816,1,0,0:0:0:0:
70,384,61913,6,0,B|112:256|32:224|80:80,1,280
232,9,63461,5,0,0:0:0:0:
206,107,63655,2,0,P|76:135|-26:149,1,210.000008010865,0|8,0:0|0:0,0:0:0:0:
184,206,64042,1,0,0:0:0:0:
512,44,64236,2,0,P|355:67|270:92,1,210.000008010865
44,265,64623,1,8,0:0:0:0:
44,265,64816,2,0,P|102:259|145:295,1,105.000004005432
290,384,65010,6,0,P|273:326|283:253,1,105.000004005432
466,128,65203,6,0,P|437:172|388:202,1,105.000004005432
249,156,65397,5,8,0:0:0:0:
249,156,65590,1,0,0:0:0:0:
125,5,65784,1,0,0:0:0:0:
426,37,65977,2,0,P|243:50|189:44,1,210.000008010865,0|8,0:0|0:0,0:0:0:0:
79,246,66365,1,0,0:0:0:0:
79,246,66558,6,0,P|71:302|72:351,1,105.000004005432
272,149,66752,6,0,P|271:194|257:261,1,105.000004005432
240,381,66945,5,8,0:0:0:0:
240,381,67139,1,0,0:0:0:0:
129,148,67332,1,0,0:0:0:0:
408,337,67526,2,0,P|463:256|423:145,1,210.000008010865,0|8,0:0|0:0,0:0:0:0:
12,82,67913,1,0,0:0:0:0:
12,82,68107,6,0,P|4:137|31:216,1,105.000004005432
232,125,68300,6,0,P|238:172|209:260,1,105.000004005432
139,360,68494,6,0,B|45:317|50:178|50:178|76:237|126:255,1,315.000012016297,8|0,0:0|0:0,0:0:0:0:
335,277,68881,1,0,0:0:0:0:
494,46,69074,2,0,P|487:188|443:241,1,210.000008010865,0|8,0:0|0:0,0:0:0:0:
327,382,69461,1,0,0:0:0:0:
327,382,69655,6,0,P|329:328|339:255,1,105.000004005432
194,305,69848,6,0,P|183:254|180:202,1,105.000004005432
99,102,70042,5,8,0:0:0:0:
99,102,70236,1,0,0:0:0:0:
400,1,70429,1,0,0:0:0:0:
286,264,70623,2,0,P|276:140|286:41,1,210.000008010865,0|8,0:0|0:0,0:0:0:0:
167,4,71010,1,0,0:0:0:0:
167,4,71203,6,0,P|169:65|196:130,1,105.000004005432
366,320,71397,6,0,P|366:212|364:209,1,105.000004005432
288,140,71590,5,8,0:0:0:0:
288,140,71784,1,0,0:0:0:0:
118,384,71977,2,0,P|128:273|125:175,1,210.000008010865
124,174,72365,1,8,0:0:0:0:
282,139,72558,1,0,0:0:0:0:
306,301,72752,6,0,P|317:350|375:387,1,105.000004005432
168,28,72945,6,0,P|164:69|208:146,1,105.000004005432
454,173,73139,6,0,P|409:164|348:183,1,105.000004005432,8|0,0:0|0:0,0:0:0:0:
158,243,73332,6,0,P|113:269|59:258,1,105.000004005432
299,109,73526,5,0,0:0:0:0:
283,319,73719,6,0,P|427:351|429:208,1,315.000012016297
203,216,74107,2,0,P|253:213|309:205,1,105.000004005432
103,161,74300,6,0,P|43:150|-2:147,1,105.000004005432
366,279,74494,6,0,P|396:237|398:186,1,105.000004005432
260,111,74687,5,8,0:0:0:0:
260,111,74881,1,0,0:0:0:0:
132,382,75074,2,0,L|100:158,1,210.000008010865
311,22,75461,1,0,0:0:0:0:
328,253,75655,1,0,0:0:0:0:
512,0,75848,6,0,L|462:226,1,210.000008010865
193,23,76236,1,0,0:0:0:0:
166,258,76429,1,0,0:0:0:0:
0,0,76623,2,0,L|50:226,1,210.000008010865
273,264,76913,1,0,0:0:0:0:
251,316,77010,2,0,L|-3:403,1,210.000008010865
391,366,77397,5,0,0:0:0:0:
391,366,77590,2,0,L|375:254,1,105.000004005432
421,144,77784,2,0,P|501:160|485:57,1,210.000008010865
34,365,78171,2,0,L|8:156,1,210.000008010865
75,0,78461,1,0,0:0:0:0:
116,36,78558,2,0,L|144:261,1,210.000008010865
280,191,78945,6,0,L|487:220,1,210.000008010865
212,339,79332,2,0,L|7:384,1,210.000008010865
39,262,79623,1,0,0:0:0:0:
39,262,79719,1,0,0:0:0:0:
303,294,79913,2,0,L|278:180,1,105.000004005432
430,14,80107,2,0,B|445:38|445:38|437:129,1,105.000004005432
164,169,80300,2,0,B|142:147|142:147|139:67,1,105.000004005432
291,107,80494,5,0,0:0:0:0:
512,247,80687,2,0,P|450:229|388:239,1,105.000004005432
267,353,80881,1,0,0:0:0:0:
267,353,81074,2,0,B|280:304|280:304|260:135,2,210.000008010865
390,141,81655,1,0,0:0:0:0:
155,176,81848,2,0,P|152:123|165:73,1,105.000004005432
196,302,82042,6,0,P|99:256|-17:272,1,210.000008010865
438,160,82429,2,0,P|327:174|238:232,1,210.000008010865
161,377,82816,1,0,0:0:0:0:
493,54,83010,2,0,P|396:18|291:34,2,210.000008010865
15,84,83590,6,0,P|118:55|222:84,1,210.000008010865
512,181,83977,2,0,P|371:209|298:178,1,210.000008010865
0,268,84365,2,0,P|160:236|209:273,1,210.000008010865
510,348,84752,2,0,P|396:381|284:332,1,210.000008010865
278,181,85042,1,0,0:0:0:0:
278,181,85139,5,0,0:0:0:0:
176,132,85332,2,0,L|176:18,1,105.000004005432
105,309,85526,5,0,0:0:0:0:
432,195,85719,2,0,L|432:83,1,105.000004005432
498,305,85913,5,0,0:0:0:0:
321,284,86107,2,0,L|321:173,1,105.000004005432
88,369,86300,5,0,0:0:0:0:
178,269,86494,2,0,L|178:157,1,105.000004005432
235,53,86687,6,0,P|103:64|199:160,1,315.000012016297
413,199,87074,2,0,B|464:198|464:198|509:167|509:167|493:247|493:247|493:375,1,315.000012016297
438,95,87461,1,0,0:0:0:0:
273,282,87655,6,0,B|313:239|372:274|372:274|415:197|415:197|357:182|339:129|339:129|339:-1,1,420
119,384,100623,6,0,L|105:160,1,210.000008010865
393,384,101010,2,0,L|407:160,1,210.000008010865
110,378,101397,6,0,L|129:147,1,210.000008010865
402,378,101784,2,0,L|383:147,1,210.000008010865
105,360,102171,6,0,L|144:125,1,210.000008010865
407,360,102558,2,0,L|368:125,1,210.000008010865
97,344,102945,6,0,L|106:118,1,210.000008010865
415,344,103332,2,0,L|406:118,1,210.000008010865
92,324,103719,6,0,L|120:97,1,210.000008010865
420,324,104106,2,0,L|392:97,1,210.000008010865
98,316,104494,6,0,L|99:89,1,210.000008010865
414,316,104881,2,0,L|413:89,1,210.000008010865
84,308,105268,6,0,L|104:76,1,210.000008010865
428,308,105655,2,0,L|408:76,1,210.000008010865
180,92,106042,6,0,P|277:318|320:86,1,630.000024032594
16,16,106816,6,0,L|16:128,1,105.000004005432
208,16,107010,2,0,L|208:121,1,105.000004005432
112,16,107203,6,0,L|112:121,1,105.000004005432
304,16,107397,2,0,L|304:144,1,105.000004005432
208,16,107590,6,0,L|208:128,1,105.000004005432
400,16,107784,2,0,L|400:128,1,105.000004005432
304,16,107977,6,0,L|304:121,1,105.000004005432
496,16,108171,2,0,L|496:121,1,105.000004005432
512,240,108365,6,0,L|512:345,1,105.000004005432
368,272,108559,2,0,L|368:416,1,105.000004005432
416,192,108752,6,0,L|416:297,1,105.000004005432
208,240,108946,2,0,L|208:352,1,105.000004005432
288,192,109139,6,0,L|288:304,1,105.000004005432
176,144,109333,2,0,L|176:272,1,105.000004005432
80,272,109526,6,0,L|80:384,1,105.000004005432
0,208,109720,2,0,L|0:352,1,105.000004005432
365,248,109913,5,0,0:0:0:0:
412,236,110009,1,0,0:0:0:0:
441,197,110106,1,0,0:0:0:0:
441,149,110203,1,0,0:0:0:0:
411,111,110300,1,0,0:0:0:0:
365,99,110396,1,0,0:0:0:0:
320,118,110493,1,0,0:0:0:0:
297,161,110590,1,0,0:0:0:0:
296,210,110687,5,0,0:0:0:0:
309,256,110784,1,0,0:0:0:0:
290,301,110881,1,0,0:0:0:0:
248,325,110977,1,0,0:0:0:0:
200,318,111074,1,0,0:0:0:0:
167,284,111171,1,0,0:0:0:0:
162,235,111268,1,0,0:0:0:0:
186,194,111364,1,0,0:0:0:0:
218,157,111461,6,0,B|215:139|215:139|204:128|204:128|217:117|217:117|195:98|195:98|239:105|239:105|223:25|50:-6|6:103|71:253|169:163|161:324|77:383,1,630.000024032594
415,315,113010,5,0,0:0:0:0:
493,243,113204,1,0,0:0:0:0:
362,224,113397,2,0,L|362:144,1,70
128,298,113784,1,0,0:0:0:0:
226,205,113978,1,0,0:0:0:0:
189,173,114075,1,0,0:0:0:0:
209,132,114171,2,0,L|209:36,1,70
117,37,114558,5,0,0:0:0:0:
425,210,114752,1,0,0:0:0:0:
454,183,114849,1,0,0:0:0:0:
436,148,114946,2,0,L|436:68,1,70
355,0,115333,1,0,0:0:0:0:
109,257,115526,1,0,0:0:0:0:
88,225,115623,1,0,0:0:0:0:
101,188,115720,2,0,L|101:92,1,70
357,251,116107,5,0,0:0:0:0:
394,227,116204,1,0,0:0:0:0:
432,241,116300,1,0,0:0:0:0:
474,233,116397,1,0,0:0:0:0:
512,211,116494,2,0,L|512:291,1,70
315,123,116881,5,0,0:0:0:0:
272,112,116978,1,0,0:0:0:0:
240,128,117075,1,0,0:0:0:0:
202,121,117171,1,0,0:0:0:0:
161,134,117268,2,0,L|161:49,1,70
260,19,117655,5,0,0:0:0:0:
143,209,117849,1,0,0:0:0:0:
105,251,117946,1,0,0:0:0:0:
55,240,118042,2,0,L|223:242,1,140
352,167,118623,2,0,L|352:215,1,35
292,322,118817,2,0,L|292:274,1,35
453,231,119010,2,0,L|454:277,1,35
369,248,119204,5,0,0:0:0:0:
448,139,119397,2,0,L|480:91,1,35
384,44,119591,1,0,0:0:0:0:
310,161,119784,2,0,L|338:127,1,35
248,63,119978,1,0,0:0:0:0:
146,294,120171,6,0,L|153:344,1,35
246,258,120365,2,0,L|230:306,1,35
348,246,120558,2,0,L|315:288,1,35
101,179,120752,5,0,0:0:0:0:
24,109,120945,1,0,0:0:0:0:
20,71,121042,1,0,0:0:0:0:
40,37,121139,1,0,0:0:0:0:
143,0,121333,1,0,0:0:0:0:
392,66,121526,6,0,P|384:83|376:114,1,35
337,163,121720,6,0,P|338:179|353:211,1,35
404,253,121913,6,0,P|399:285|399:303,1,35
351,354,122107,6,0,P|340:370|334:400,1,35
512,236,122300,5,0,0:0:0:0:
306,287,122494,1,0,0:0:0:0:
265,268,122591,1,0,0:0:0:0:
222,277,122687,2,0,L|126:277,1,70
0,240,123075,1,0,0:0:0:0:
237,131,123268,1,0,0:0:0:0:
276,154,123365,1,0,0:0:0:0:
319,142,123462,2,0,L|410:142,1,70
512,21,123849,5,0,0:0:0:0:
460,189,124042,1,0,0:0:0:0:
485,233,124139,1,0,0:0:0:0:
471,280,124236,1,0,0:0:0:0:
319,194,124429,1,0,0:0:0:0:
335,306,124623,2,0,P|290:331|234:265,1,140
233,277,125204,1,0,0:0:0:0:
512,125,125397,5,0,0:0:0:0:
441,296,125591,1,0,0:0:0:0:
441,296,125784,1,0,0:0:0:0:
441,296,125978,1,0,0:0:0:0:
166,31,126171,5,0,0:0:0:0:
287,384,126365,1,0,0:0:0:0:
287,384,126558,1,0,0:0:0:0:
287,384,126752,1,0,0:0:0:0:
291,109,126946,5,0,0:0:0:0:
46,284,127139,1,0,0:0:0:0:
46,284,127333,1,0,0:0:0:0:
46,284,127526,1,0,0:0:0:0:
376,140,127720,5,0,0:0:0:0:
351,332,127913,1,0,0:0:0:0:
351,332,128107,1,0,0:0:0:0:
351,332,128300,1,0,0:0:0:0:
100,47,128494,5,0,0:0:0:0:
242,247,128687,1,0,0:0:0:0:
242,247,128881,1,0,0:0:0:0:
242,247,129075,1,0,0:0:0:0:
430,192,129268,5,0,0:0:0:0:
446,207,129462,6,0,L|442:241,1,35
458,221,129655,6,0,L|466:169,1,41.9999987182618
333,240,129849,6,0,L|325:291,1,48.9999985046387
292,131,130042,6,0,L|301:71,1,56
189,256,130236,6,0,L|177:322,1,62.9999980773926
145,72,130429,6,0,L|156:2,1,70
17,288,130623,6,0,L|2:364,1,77.0000023498536
5,0,130817,6,0,P|1:27|9:90,1,83.9999974365235
87,186,131010,6,0,P|108:213|156:251,1,90.9999958343508
290,276,131204,6,0,P|342:270|388:250,1,97.9999970092774
487,170,131397,6,0,P|498:111|495:54,1,105.000004005432
209,92,131591,5,0,0:0:0:0:
396,44,131784,1,0,0:0:0:0:
227,11,131978,1,0,0:0:0:0:
378,122,132171,1,0,0:0:0:0:
166,266,132365,5,0,0:0:0:0:
294,175,132558,1,0,0:0:0:0:
156,188,132752,1,0,0:0:0:0:
306,250,132945,1,0,0:0:0:0:
70,100,133139,5,0,0:0:0:0:
317,161,133332,1,0,0:0:0:0:
66,135,133526,1,0,0:0:0:0:
323,123,133719,1,0,0:0:0:0:
5,262,133913,5,0,0:0:0:0:
260,310,134106,1,0,0:0:0:0:
24,352,134300,1,0,0:0:0:0:
237,225,134493,1,0,0:0:0:0:
108,173,134687,5,0,0:0:0:0:
296,384,134880,1,0,0:0:0:0:
400,115,135074,1,0,0:0:0:0:
283,217,135267,1,0,0:0:0:0:
426,275,135461,1,0,0:0:0:0:
486,182,135655,6,0,L|482:148,1,35
306,62,135848,2,0,L|314:101,1,35
400,115,136042,1,0,0:0:0:0:
508,46,136235,6,0,L|500:-1,1,35
312,271,136429,6,0,L|320:317,1,35
157,147,136622,6,0,L|192:143,1,35
457,170,136816,6,0,L|462:204,1,35
456,301,137010,6,0,L|422:308,1,35
79,301,137203,6,0,L|73:266,1,35
319,168,137397,6,0,L|353:159,1,35
409,84,137590,6,0,L|399:48,1,35
199,3,137784,5,0,0:0:0:0:
171,111,137978,1,0,0:0:0:0:
242,196,138171,1,0,0:0:0:0:
268,92,138365,1,0,0:0:0:0:
58,139,138558,5,0,0:0:0:0:
217,297,138752,1,0,0:0:0:0:
430,254,138946,1,0,0:0:0:0:
308,222,139139,1,0,0:0:0:0:
335,333,139333,5,0,0:0:0:0:
431,27,139527,1,0,0:0:0:0:
241,149,139720,1,0,0:0:0:0:
512,239,139914,1,0,0:0:0:0:
129,209,140107,5,0,0:0:0:0:
397,162,140301,1,0,0:0:0:0:
62,137,140495,5,0,0:0:0:0:
317,226,140688,1,0,0:0:0:0:
102,0,140881,5,0,0:0:0:0:
168,320,141075,1,0,0:0:0:0:
244,92,141268,5,0,0:0:0:0:
166,230,141462,1,0,0:0:0:0:
320,37,141655,5,0,0:0:0:0:
494,302,141849,1,0,0:0:0:0:
512,0,142043,5,0,0:0:0:0:
303,351,142236,1,0,0:0:0:0:
149,145,142429,6,0,P|106:103|20:140,1,140
167,172,142913,1,0,0:0:0:0:
193,194,143009,1,0,0:0:0:0:
225,209,143106,1,0,0:0:0:0:
259,213,143203,1,0,0:0:0:0:
294,208,143300,1,0,0:0:0:0:
325,192,143396,1,0,0:0:0:0:
351,169,143493,1,0,0:0:0:0:
368,139,143590,1,0,0:0:0:0:
376,105,143687,1,0,0:0:0:0:
375,70,143783,1,0,0:0:0:0:
363,37,143880,1,0,0:0:0:0:
344,4,143978,6,0,P|323:74|349:143,1,140
364,163,144461,1,0,0:0:0:0:
392,183,144557,1,0,0:0:0:0:
424,197,144654,1,0,0:0:0:0:
459,202,144751,1,0,0:0:0:0:
494,201,144848,1,0,0:0:0:0:
461,212,144944,1,0,0:0:0:0:
430,227,145041,1,0,0:0:0:0:
401,248,145138,1,0,0:0:0:0:
378,273,145235,1,0,0:0:0:0:
363,305,145331,1,0,0:0:0:0:
357,339,145428,1,0,0:0:0:0:
357,376,145526,6,0,P|255:361|216:353,1,140
174,364,146010,1,0,0:0:0:0:
195,323,146107,1,0,0:0:0:0:
197,277,146204,1,0,0:0:0:0:
189,232,146300,1,0,0:0:0:0:
163,194,146397,1,0,0:0:0:0:
150,150,146494,1,0,0:0:0:0:
151,104,146591,1,0,0:0:0:0:
174,65,146687,1,0,0:0:0:0:
214,44,146784,1,0,0:0:0:0:
259,45,146881,1,0,0:0:0:0:
293,74,146978,1,0,0:0:0:0:
308,116,147074,5,0,0:0:0:0:
339,149,147171,1,0,0:0:0:0:
379,168,147267,1,0,0:0:0:0:
423,156,147364,1,0,0:0:0:0:
458,127,147461,1,0,0:0:0:0:
469,82,147558,1,0,0:0:0:0:
455,39,147654,5,0,0:0:0:0:
484,78,147751,1,0,0:0:0:0:
498,125,147849,1,0,0:0:0:0:
499,174,147946,1,0,0:0:0:0:
489,221,148042,1,0,0:0:0:0:
467,265,148139,1,0,0:0:0:0:
433,301,148236,1,0,0:0:0:0:
389,323,148333,1,0,0:0:0:0:
340,326,148429,1,0,0:0:0:0:
291,316,148526,1,0,0:0:0:0:
245,296,148623,6,0,B|157:269|53:284|53:284|97:301|143:322,1,280
349,142,150171,5,0,0:0:0:0:
80,282,150365,2,0,P|156:188|250:231,1,210.000008010865
417,351,150752,1,0,0:0:0:0:
48,367,150946,2,0,P|35:262|11:161,1,210.000008010865
240,16,151333,1,0,0:0:0:0:
240,16,151526,2,0,P|286:42|324:89,1,105.000004005432
314,308,151720,6,0,P|292:243|305:188,1,105.000004005432
512,96,151913,6,0,P|472:131|418:151,1,105.000004005432
172,169,152107,5,0,0:0:0:0:
172,169,152300,1,0,0:0:0:0:
340,25,152494,1,0,0:0:0:0:
9,55,152687,2,0,P|113:58|217:44,1,210.000008010865
504,162,153075,1,0,0:0:0:0:
504,162,153268,6,0,P|516:205|511:267,1,105.000004005432
206,384,153462,6,0,P|208:331|221:280,1,105.000004005432
324,121,153655,5,0,0:0:0:0:
324,121,153849,1,0,0:0:0:0:
360,255,154042,1,0,0:0:0:0:
0,231,154236,2,0,P|48:139|151:153,1,210.000008010865
381,384,154623,1,0,0:0:0:0:
381,384,154817,6,0,P|375:295|365:251,1,105.000004005432
432,170,155010,6,0,P|435:118|445:56,1,105.000004005432
154,32,155204,6,0,P|123:106|289:88,1,315.000012016297
312,0,155591,1,0,0:0:0:0:
280,326,155784,2,0,P|279:221|285:116,1,210.000008010865
479,43,156171,1,0,0:0:0:0:
479,43,156365,6,0,P|477:97|487:170,1,105.000004005432
426,379,156558,6,0,P|412:321|404:265,1,105.000004005432
368,156,156752,5,0,0:0:0:0:
368,156,156946,1,0,0:0:0:0:
115,71,157139,1,0,0:0:0:0:
224,383,157333,2,0,P|223:253|203:156,1,210.000008010865
294,10,157720,1,0,0:0:0:0:
294,10,157913,6,0,P|278:64|301:142,1,105.000004005432
66,323,158107,6,0,P|83:241|73:199,1,105.000004005432
0,97,158300,5,0,0:0:0:0:
0,97,158494,1,0,0:0:0:0:
110,384,158687,2,0,L|117:175,1,210.000008010865
117,174,159074,1,0,0:0:0:0:
221,321,159268,1,0,0:0:0:0:
221,321,159461,6,0,B|284:291|284:233,1,105.000004005432
94,77,159655,6,0,P|104:159|143:192,1,105.000004005432
372,70,159849,6,0,P|305:64|258:93,1,105.000004005432
414,251,160042,6,0,P|477:250|526:215,1,105.000004005432
199,181,160236,5,0,0:0:0:0:
139,301,160429,2,0,P|280:354|312:216,1,315.000012016297
113,145,160816,2,0,P|144:100|226:90,1,105.000004005432
330,40,161010,6,0,P|330:92|306:138,1,105.000004005432
9,251,161204,6,0,P|59:266|113:259,1,105.000004005432
295,340,161397,1,0,0:0:0:0:
295,340,161591,1,0,0:0:0:0:
324,239,161784,2,0,L|292:15,1,210.000008010865
512,0,162171,1,0,0:0:0:0:
478,181,162365,1,0,0:0:0:0:
205,98,162558,6,0,L|-23:135,1,210.000008010865
412,101,162946,1,0,0:0:0:0:
397,284,163139,1,0,0:0:0:0:
247,0,163333,2,0,L|281:226,1,210.000008010865
190,362,163623,1,0,0:0:0:0:
141,344,163720,2,0,L|105:138,1,210.000008010865
0,185,164107,5,0,0:0:0:0:
0,185,164300,2,0,P|-5:122|16:67,1,105.000004005432
151,194,164494,2,0,P|199:245|333:194,1,210.000008010865
494,5,164881,6,0,L|507:244,1,210.000008010865
243,147,165171,1,0,0:0:0:0:
291,121,165268,2,0,L|307:345,1,210.000008010865
387,36,165655,6,0,L|163:4,1,210.000008010865
0,176,166042,2,0,P|101:203|116:119,1,210.000008010865
35,29,166333,1,0,0:0:0:0:
35,29,166429,1,0,0:0:0:0:
246,93,166623,6,0,P|230:142|238:208,1,105.000004005432
66,377,166817,2,0,P|95:351|120:268,1,105.000004005432
262,312,167010,2,0,B|299:332|299:332|371:325,1,105.000004005432
505,208,167204,1,0,0:0:0:0:
505,208,167397,2,0,L|483:-11,2,210.000008010865
162,28,167978,6,0,P|78:18|64:137,1,210.000008010865
248,185,168268,1,0,0:0:0:0:
248,185,168365,1,0,0:0:0:0:
432,148,168558,2,0,P|435:95|426:44,1,105.000004005432
512,302,168752,6,0,P|320:270|304:290,1,210.000008010865
28,384,169139,2,0,P|130:370|193:280,1,210.000008010865
149,25,169526,1,0,0:0:0:0:
0,150,169720,2,0,P|106:127|207:138,2,210.000008010865
244,50,170204,1,0,0:0:0:0:
300,126,170300,6,0,P|402:152|506:141,1,210.000008010865
198,314,170687,2,0,P|326:282|438:282,1,210.000008010865
0,201,171075,2,0,P|100:222|248:196,1,210.000008010865
284,97,171365,1,0,0:0:0:0:
244,24,171462,2,0,P|167:109|221:136,1,210.000008010865
462,166,171752,1,0,0:0:0:0:
462,166,171849,5,0,0:0:0:0:
256,224,172042,2,0,P|313:221|362:215,1,105.000004005432
100,246,172236,5,0,0:0:0:0:
156,136,172429,2,0,P|220:121|279:118,1,105.000004005432
389,135,172623,5,0,0:0:0:0:
26,247,172817,2,0,P|80:237|145:232,1,105.000004005432
294,202,173010,5,0,0:0:0:0:
94,90,173204,2,0,P|156:90|210:101,1,105.000004005432
389,135,173397,6,0,P|253:102|349:198,1,315.000012016297
462,324,173784,2,0,P|342:234|183:299,1,315.000012016297
124,325,174171,6,0,L|47:320,1,70
0,186,174365,6,0,L|95:193,1,70
387,138,174752,6,0,P|307:26|339:218,1,525.000020027161
401,256,175332,6,0,P|410:311|390:376,1,105
214,324,175719,2,0,P|189:327|148:332,1,35
1,245,175913,6,0,B|22:213|22:213|121:199|262:201|262:201|236:156,1,315.000012016297,0|0,0:0|0:0,2:0:0:0:
145,15,176300,6,0,B|123:50|82:55|82:55|127:125,1,140
408,117,176881,6,0,P|328:59|219:96,1,210
186,210,177268,6,0,L|191:244,1,35
83,187,177461,2,0,P|41:196|8:205,1,70
270,301,177848,6,0,P|351:277|411:263,1,140
502,28,178429,2,0,P|511:79|495:128,1,105
500,226,178816,2,0,L|510:292,1,35
397,173,179010,2,0,P|333:157|270:160,1,105
213,132,179397,1,0,0:0:0:0:
282,62,179590,5,0,0:0:0:0:
374,80,179784,5,0,0:0:0:0:
397,173,179977,6,0,L|413:269,1,70
315,297,180365,1,0,0:0:0:0:
205,268,180558,6,0,P|140:285|116:234,1,105
152,161,180945,6,0,P|150:123|148:91,1,70
276,0,181139,6,0,P|278:64|276:160,1,140
350,267,181719,1,0,0:0:0:0:
504,234,181913,1,0,0:0:0:0:
414,165,182107,2,0,P|349:155|254:133,1,140
350,267,182687,6,0,P|322:294|295:335,1,70
195,260,183074,2,0,P|179:228|157:201,1,70
303,74,183461,2,0,P|282:121|270:160,1,70
132,106,183848,2,0,P|97:102|63:94,1,70
132,106,184236,5,0,0:0:0:0:
303,74,184429,2,0,P|367:58|464:49,1,140
210,18,185010,1,0,0:0:0:0:
235,162,185203,2,0,P|236:205|240:324,1,140
235,162,185784,5,0,0:0:0:0:
348,211,185977,2,0,L|353:112,1,70
256,192,186365,12,0,186945,0:0:0:0:
153,185,187139,6,0,P|88:150|28:198,1,140
162,348,187719,2,0,L|177:279,1,70
257,178,188107,1,0,0:0:0:0:
335,287,188300,2,0,L|354:354,1,70
500,217,188687,6,0,P|442:180|370:210,1,140
357,77,189268,2,0,P|369:52|389:-6,1,70
256,128,189655,1,0,0:0:0:0:
172,49,189848,2,0,P|141:34|109:45,1,70
358,177,190236,6,0,P|424:188|496:197,1,140
82,162,190816,2,0,P|46:154|-16:135,1,70
220,139,191203,1,0,0:0:0:0:
174,235,191397,2,0,P|139:261|103:280,1,70
272,224,191784,6,0,B|292:230|305:242|305:242|306:307|287:363,1,140
436,153,192365,1,0,0:0:0:0:
436,153,192752,2,0,P|436:192|438:231,1,70
187,121,193139,2,0,L|183:84,1,35
177,52,193332,6,0,P|176:131|178:206,1,140
403,248,193913,2,0,P|396:137|396:96,1,140
52,212,194494,2,0,P|52:300|55:361,2,140
33,105,195461,5,0,0:0:0:0:
33,105,195848,5,0,0:0:0:0:
184,180,196042,2,0,P|185:114|182:38,1,140
256,192,196623,12,0,197977,0:0:0:0:
374,219,199719,5,0,0:0:0:0:
296,384,199913,2,0,P|281:291|266:158,1,210.000008010865
142,6,200300,1,0,0:0:0:0:
142,6,200494,2,0,P|162:146|170:232,1,210.000008010865
96,346,200881,1,0,0:0:0:0:
96,346,201074,2,0,P|163:333|214:318,1,105.000004005432
429,166,201268,6,0,P|382:177|328:194,1,105.000004005432
0,197,201461,6,0,P|64:185|118:173,1,105.000004005432
308,80,201655,5,0,0:0:0:0:
308,80,201848,1,0,0:0:0:0:
177,285,202042,1,0,0:0:0:0:
484,274,202235,2,0,P|305:248|251:242,1,210.000008010865
71,329,202623,5,0,0:0:0:0:
71,329,202816,6,0,P|65:277|78:226,1,105.000004005432
205,126,203010,6,0,P|220:77|215:23,1,105.000004005432
76,62,203203,5,0,0:0:0:0:
76,62,203397,1,0,0:0:0:0:
403,216,203590,1,0,0:0:0:0:
300,381,203784,2,0,P|299:270|302:171,1,210.000008010865
159,0,204171,1,0,0:0:0:0:
159,0,204365,6,0,P|160:49|168:106,1,105.000004005432
365,141,204558,6,0,P|366:186|357:268,1,105.000004005432
85,347,204752,6,0,P|15:260|155:275,1,315.000012016297
193,384,205139,1,0,0:0:0:0:
268,95,205332,2,0,P|282:199|288:304,1,210.000008010865
36,373,205719,1,0,0:0:0:0:
35,372,205913,6,0,P|34:320|43:269,1,105.000004005432
144,34,206107,6,0,P|139:87|145:139,1,105.000004005432
375,295,206300,5,0,0:0:0:0:
375,295,206494,1,0,0:0:0:0:
252,76,206687,1,0,0:0:0:0:
215,373,206881,2,0,P|216:243|236:146,1,210.000008010865
341,1,207268,1,0,0:0:0:0:
341,1,207461,6,0,P|351:53|348:133,1,105.000004005432
440,241,207655,6,0,P|443:293|449:345,1,105.000004005432
512,125,207848,5,0,0:0:0:0:
512,125,208042,1,0,0:0:0:0:
195,289,208235,2,0,P|186:146|168:74,1,210.000008010865
170,81,208622,1,0,0:0:0:0:
308,163,208816,1,0,0:0:0:0:
308,163,209010,6,0,P|359:67|358:58,1,105.000004005432
82,43,209203,6,0,P|116:157|122:161,1,105.000004005432
100,241,209397,6,0,P|49:229|0:243,1,105.000004005432
277,276,209590,6,0,P|328:272|372:300,1,105.000004005432
182,331,209784,5,0,0:0:0:0:
308,163,209977,2,0,P|164:131|201:250,1,315.000012016297
365,249,210365,2,0,P|434:246|493:201,1,105.000004005432
231,66,210558,6,0,P|178:49|128:51,1,105.000004005432
0,277,210752,6,0,P|64:271|119:252,1,105.000004005432
236,180,210945,5,0,0:0:0:0:
236,180,211139,1,0,0:0:0:0:
411,276,211332,2,0,L|382:69,1,210.000008010865
127,74,211719,1,0,0:0:0:0:
124,92,211913,1,0,0:0:0:0:
121,112,212106,6,0,P|18:121|99:32,1,210.000008010865
262,12,212494,1,0,0:0:0:0:
347,227,212687,6,0,P|546:179|359:93,1,503.999984619141
201,103,213171,1,0,0:0:0:0:
242,132,213268,2,0,L|268:350,1,210.000008010865
128,374,213655,5,0,0:0:0:0:
128,374,213848,2,0,L|111:254,1,105.000004005432
59,160,214042,2,0,P|38:47|119:-1,1,210.000008010865
479,123,214429,2,0,L|247:162,1,210.000008010865
204,71,214719,1,0,0:0:0:0:
241,28,214816,2,0,L|239:245,1,210.000008010865
160,344,215203,6,0,P|76:358|21:255,1,210.000008010865
309,266,215590,2,0,P|404:296|480:230,1,210.000008010865
447,112,215881,1,0,0:0:0:0:
447,112,215977,1,0,0:0:0:0:
447,112,216171,6,0,P|439:52|450:8,1,105.000004005432
281,159,216365,2,0,P|291:92|313:47,1,105.000004005432
92,184,216558,2,0,P|135:120|172:88,1,105.000004005432
6,84,216752,5,0,0:0:0:0:
281,159,216945,2,0,P|219:149|153:111,1,105.000004005432
210,15,217139,1,0,0:0:0:0:
439,104,217332,2,0,P|502:186|494:301,2,210.000008010865
306,58,217816,1,0,0:0:0:0:
306,58,217913,1,0,0:0:0:0:
171,149,218106,2,0,P|167:203|171:277,1,105.000004005432
361,368,218300,6,0,P|359:248|351:144,1,210.000008010865
21,116,218687,2,0,P|21:208|28:336,1,210.000008010865
272,368,219074,1,0,0:0:0:0:
512,309,219268,2,0,P|514:200|511:97,2,210.000008010865
129,339,219752,1,0,0:0:0:0:
111,299,219848,6,0,P|101:184|103:57,1,210.000008010865
225,223,220235,2,0,P|228:118|254:16,1,210.000008010865
345,141,220623,2,0,P|450:54|569:125,1,210.000008010865
360,286,220913,1,0,0:0:0:0:
315,262,221010,2,0,L|79:258,1,210.000008010865
15,202,221300,1,0,0:0:0:0:
15,202,221397,1,0,0:0:0:0:
119,119,221590,6,0,P|111:69|109:15,1,105.000004005432
253,181,221784,1,0,0:0:0:0:
253,181,221977,6,0,P|252:123|251:50,1,105.000004005432
23,306,222171,1,0,0:0:0:0:
23,306,222365,6,0,P|17:252|14:201,1,105.000004005432
312,277,222558,1,0,0:0:0:0:
312,277,222752,6,0,P|312:213|311:147,1,105.000004005432
219,68,222945,6,0,B|151:88|23:100|23:100|125:118|161:140,1,315.000012016297
311,172,223332,6,0,B|378:151|507:140|507:140|404:121|369:100,1,315.000012016297
314,28,223719,1,0,0:0:0:0:
343,317,224494,5,0,0:0:0:0:
227,210,224687,2,0,B|150:227|150:227|201:348|201:348|109:369,1,280
9,250,225075,1,0,0:0:0:0:
343,317,225269,2,0,B|398:370|398:370|377:167,1,280
163,47,225656,1,0,0:0:0:0:
163,47,225849,2,0,P|104:84|66:142,1,140
249,290,226043,6,0,P|235:211|255:132,1,140
375,220,226236,6,0,P|397:286|448:337,1,140
512,211,226430,1,0,0:0:0:0:
512,211,226623,1,0,0:0:0:0:
168,155,226816,1,0,0:0:0:0:
512,64,227010,2,0,B|494:53|494:53|492:35|492:35|482:44|482:44|426:49|381:3|237:41,1,280
0,186,227398,1,0,0:0:0:0:
0,186,227591,6,0,P|54:177|144:140,1,140
264,38,227785,2,0,P|254:86|246:176,1,140
198,325,227978,1,0,0:0:0:0:
198,325,228172,1,0,0:0:0:0:
354,104,228365,1,0,0:0:0:0:
67,54,228558,2,0,B|163:16|267:39|267:39|226:40|183:71,1,280
271,155,228946,1,0,0:0:0:0:
271,155,229140,6,0,P|269:204|296:305,1,140
29,237,229333,2,0,P|33:306|19:382,1,140
164,295,229527,2,0,P|51:213|63:74,1,292.50001115799
176,157,229914,1,0,0:0:0:0:
429,79,230107,2,0,B|475:38|475:38|436:291,1,280
284,185,230494,1,0,0:0:0:0:
284,185,230687,6,0,B|287:223|287:223|299:235|299:235|292:251|292:251|297:342,1,140
66,384,230881,6,0,B|69:342|69:342|63:332|63:332|72:322|72:322|81:229,1,140
41,76,231075,5,0,0:0:0:0:
41,76,231269,1,0,0:0:0:0:
320,145,231462,1,0,0:0:0:0:
195,376,231656,2,0,B|216:337|216:337|235:83,1,280
408,0,232043,1,0,0:0:0:0:
408,0,232236,6,0,B|398:115|398:115|417:157,1,140
334,384,232430,6,0,B|346:274|346:274|332:238,1,140
512,84,232623,5,0,0:0:0:0:
512,84,232817,1,0,0:0:0:0:
110,384,233010,2,0,B|83:346|83:346|63:83,1,280
0,0,233397,1,0,0:0:0:0:
336,339,233591,1,0,0:0:0:0:
231,341,233785,6,0,P|272:254|335:242,1,140
210,111,233978,6,0,P|257:155|260:114,1,140
505,134,234172,6,0,P|444:162|344:147,1,140
40,287,234365,6,0,P|87:238|178:250,1,140
422,259,234559,1,0,0:0:0:0:
381,54,234752,2,0,P|237:22|325:200,1,420
499,325,235140,6,0,P|519:259|512:190,1,140
78,368,235333,6,0,P|50:307|55:225,1,140
239,260,235527,6,0,P|289:297|323:244,1,140
291,105,235720,5,0,0:0:0:0:
291,105,235914,1,0,0:0:0:0:
160,284,236107,2,0,B|137:67|137:67|170:38|170:38|162:72,1,280
5,113,236494,1,0,0:0:0:0:
184,381,236688,1,0,0:0:0:0:
414,250,236881,6,0,B|381:240|381:240|153:302|153:302|114:291,1,280
18,198,237269,1,0,0:0:0:0:
18,198,237461,2,0,L|-5:30,1,140
185,9,237655,2,0,B|219:250|219:250|208:299,2,280
479,252,238236,6,0,B|446:256|446:256|428:266|428:266|410:260|410:260|343:270,1,140
141,186,238429,2,0,B|375:151|375:151|417:163,1,280
397,56,238719,1,0,0:0:0:0:
299,0,238817,2,0,L|334:283,1,280
45,379,239107,1,0,0:0:0:0:
45,379,239204,2,0,B|25:352|25:352|2:98,1,280
126,255,239591,2,0,B|240:304|240:304|432:277,1,280
305,116,239881,1,0,0:0:0:0:
305,116,239978,6,0,B|197:64|197:64|8:83,1,280
435,339,240365,2,0,L|402:60,1,280
506,0,240656,1,0,0:0:0:0:
506,0,240752,1,0,0:0:0:0:
506,0,240946,6,0,P|522:82|482:149,1,140
360,269,241140,2,0,P|368:206|337:135,1,140
83,102,241333,2,0,P|158:147|217:91,1,140
325,23,241527,1,0,0:0:0:0:
512,198,241720,6,0,P|430:201|384:150,1,140
325,23,241914,1,0,0:0:0:0:
251,357,242107,2,0,P|258:276|270:195,1,140
145,78,242301,2,0,P|30:61|72:169,1,280
262,130,242591,1,0,0:0:0:0:
262,130,242688,1,0,0:0:0:0:
160,373,242881,2,0,P|134:304|157:213,1,140
512,304,243075,6,0,B|485:280|485:280|291:330|291:330|244:300,1,280
512,183,243462,2,0,P|382:77|362:138,1,280
68,384,243849,1,0,0:0:0:0:
68,384,244043,2,0,L|26:81,1,280
115,43,244429,1,0,0:0:0:0:
149,158,244623,6,0,B|198:213|198:213|219:-24,1,280
284,159,245010,2,0,P|377:256|512:246,1,280
0,354,245398,2,0,P|120:286|258:295,1,280
258,59,245785,2,0,P|224:168|333:134,1,280
118,20,246075,1,0,0:0:0:0:
120,27,246172,1,0,0:0:0:0:
120,27,246365,6,0,P|118:78|137:155,1,105.000004005432
230,291,246559,1,0,0:0:0:0:
364,85,246752,6,0,P|363:137|347:186,1,105.000004005432
214,313,246946,1,0,0:0:0:0:
78,136,247140,6,0,P|73:172|117:264,1,105.000004005432
227,340,247333,1,0,0:0:0:0:
373,169,247527,6,0,P|371:222|338:277,1,105.000004005432
167,70,247720,2,0,P|291:74|203:162,1,315.000012016297
0,378,248107,2,0,P|97:262|276:349,1,315.000012016297
422,317,248494,1,0,0:0:0:0:
422,317,248687,6,0,B|435:362|372:415|305:403|215:252|391:250|383:135|326:43,1,420
