osu file format v14

[General]
AudioFilename: love.mp3
AudioLeadIn: 0
PreviewTime: 108563
Countdown: 0
SampleSet: Drum
StackLeniency: 0.7
Mode: 3
LetterboxInBreaks: 0
SpecialStyle: 0
WidescreenStoryboard: 0

[Editor]
DistanceSpacing: 0.8
BeatDivisor: 8
GridSize: 32
TimelineZoom: 1

[Metadata]
Title:Rhythm of Love
TitleUnicode:Rhythm of Love
Artist:Yoomiii
ArtistUnicode:Yoomiii
Creator:riktoi
Version:Cadence
Source:
Tags:chordjacks euro let the music play Electronic Pop Europop English
BeatmapID:3173292
BeatmapSetID:727196

[Difficulty]
HPDrainRate:8
CircleSize:4
OverallDifficulty:8
ApproachRate:5
SliderMultiplier:1.4
SliderTickRate:1

[Events]
//Background and Video events
0,0,"bg.png",0,0
//Break Periods
//Storyboard Layer 0 (Background)
//Storyboard Layer 1 (Fail)
//Storyboard Layer 2 (Pass)
//Storyboard Layer 3 (Foreground)
//Storyboard Layer 4 (Overlay)
//Storyboard Sound Samples

[TimingPoints]
1083,461.538462,4,3,0,40,1,0

[HitObjects]
192,192,1083,5,0,0:0:0:0:
320,192,1544,1,0,0:0:0:0:
64,192,1775,1,0,0:0:0:0:
320,192,2006,1,0,0:0:0:0:
448,192,2236,1,0,0:0:0:0:
320,192,2467,1,0,0:0:0:0:
64,192,2698,1,0,0:0:0:0:
64,192,3159,1,0,0:0:0:0:
448,192,3390,1,0,0:0:0:0:
192,192,3621,1,0,0:0:0:0:
320,192,3852,1,0,0:0:0:0:
64,192,4083,1,0,0:0:0:0:
448,192,4313,1,0,0:0:0:0:
192,192,4544,1,0,0:0:0:0:
192,192,4775,1,0,0:0:0:0:
320,192,5236,1,0,0:0:0:0:
64,192,5467,1,0,0:0:0:0:
320,192,5698,1,0,0:0:0:0:
448,192,5929,1,0,0:0:0:0:
320,192,6159,1,0,0:0:0:0:
64,192,6390,1,0,0:0:0:0:
64,192,6852,1,0,0:0:0:0:
448,192,7083,1,0,0:0:0:0:
320,192,7313,1,0,0:0:0:0:
64,192,7544,1,0,0:0:0:0:
64,192,7775,1,0,0:0:0:0:
320,192,8006,1,0,0:0:0:0:
320,192,8236,1,0,0:0:0:0:
192,192,8467,1,0,0:0:0:0:
320,192,8929,1,0,0:0:0:0:
64,192,9159,1,0,0:0:0:0:
320,192,9390,1,0,0:0:0:0:
448,192,9621,1,0,0:0:0:0:
320,192,9852,1,0,0:0:0:0:
64,192,10083,1,0,0:0:0:0:
64,192,10544,1,0,0:0:0:0:
448,192,10775,1,0,0:0:0:0:
192,192,11006,1,0,0:0:0:0:
320,192,11236,1,0,0:0:0:0:
64,192,11467,1,0,0:0:0:0:
448,192,11698,1,0,0:0:0:0:
192,192,11929,1,0,0:0:0:0:
448,192,12159,1,0,0:0:0:0:
192,192,12621,1,0,0:0:0:0:
320,192,12852,1,0,0:0:0:0:
64,192,13083,1,0,0:0:0:0:
192,192,13313,1,0,0:0:0:0:
448,192,13544,1,0,0:0:0:0:
192,192,13775,1,0,0:0:0:0:
448,192,14236,1,0,0:0:0:0:
64,192,14467,1,0,0:0:0:0:
320,192,14698,1,0,0:0:0:0:
192,192,14929,1,0,0:0:0:0:
192,192,15159,1,0,0:0:0:0:
448,192,15390,1,0,0:0:0:0:
448,192,15621,1,0,0:0:0:0:
192,192,15852,1,0,0:0:0:0:
64,192,15852,1,0,0:0:0:0:
320,192,16313,1,0,0:0:0:0:
64,192,16313,1,0,0:0:0:0:
448,192,16775,1,0,0:0:0:0:
320,192,16775,1,0,0:0:0:0:
192,192,17006,1,0,0:0:0:0:
64,192,17121,1,0,0:0:0:0:
448,192,17236,1,0,0:0:0:0:
320,192,17236,1,0,0:0:0:0:
192,192,17467,1,0,0:0:0:0:
448,192,17698,1,0,0:0:0:0:
192,192,17698,1,0,0:0:0:0:
64,192,17698,1,0,0:0:0:0:
448,192,17929,1,0,0:0:0:0:
320,192,17929,1,0,0:0:0:0:
320,192,18159,1,0,0:0:0:0:
192,192,18159,1,0,0:0:0:0:
64,192,18159,1,0,0:0:0:0:
448,192,18390,1,0,0:0:0:0:
192,192,18390,1,0,0:0:0:0:
448,192,18621,1,0,0:0:0:0:
320,192,18621,1,0,0:0:0:0:
64,192,18621,1,0,0:0:0:0:
192,192,18852,1,0,0:0:0:0:
64,192,18852,1,0,0:0:0:0:
448,192,19083,1,0,0:0:0:0:
320,192,19083,1,0,0:0:0:0:
64,192,19083,1,0,0:0:0:0:
320,192,19313,1,0,0:0:0:0:
192,192,19313,1,0,0:0:0:0:
448,192,19544,1,0,0:0:0:0:
192,192,19544,1,0,0:0:0:0:
64,192,19544,1,0,0:0:0:0:
448,192,19775,1,0,0:0:0:0:
64,192,19775,1,0,0:0:0:0:
448,192,20006,1,0,0:0:0:0:
320,192,20006,1,0,0:0:0:0:
192,192,20006,1,0,0:0:0:0:
192,192,20236,1,0,0:0:0:0:
64,192,20236,1,0,0:0:0:0:
448,192,20467,1,0,0:0:0:0:
320,192,20467,1,0,0:0:0:0:
64,192,20467,1,0,0:0:0:0:
320,192,20698,1,0,0:0:0:0:
192,192,20698,1,0,0:0:0:0:
448,192,20929,1,0,0:0:0:0:
320,192,20929,1,0,0:0:0:0:
64,192,20929,1,0,0:0:0:0:
448,192,21159,1,0,0:0:0:0:
192,192,21159,1,0,0:0:0:0:
448,192,21390,1,0,0:0:0:0:
192,192,21390,1,0,0:0:0:0:
64,192,21390,1,0,0:0:0:0:
320,192,21621,1,0,0:0:0:0:
64,192,21621,1,0,0:0:0:0:
448,192,21852,1,0,0:0:0:0:
320,192,21852,1,0,0:0:0:0:
192,192,21852,1,0,0:0:0:0:
448,192,22083,1,0,0:0:0:0:
64,192,22083,1,0,0:0:0:0:
320,192,22313,1,0,0:0:0:0:
192,192,22313,1,0,0:0:0:0:
64,192,22313,1,0,0:0:0:0:
320,192,22544,1,0,0:0:0:0:
192,192,22544,1,0,0:0:0:0:
448,192,22775,1,0,0:0:0:0:
320,192,22775,1,0,0:0:0:0:
64,192,22775,1,0,0:0:0:0:
448,192,23006,1,0,0:0:0:0:
192,192,23006,1,0,0:0:0:0:
320,192,23236,1,0,0:0:0:0:
192,192,23236,1,0,0:0:0:0:
64,192,23236,1,0,0:0:0:0:
448,192,23467,1,0,0:0:0:0:
320,192,23467,1,0,0:0:0:0:
448,192,23698,1,0,0:0:0:0:
192,192,23698,1,0,0:0:0:0:
64,192,23698,1,0,0:0:0:0:
320,192,23929,1,0,0:0:0:0:
192,192,23929,1,0,0:0:0:0:
448,192,24159,1,0,0:0:0:0:
192,192,24159,1,0,0:0:0:0:
64,192,24159,1,0,0:0:0:0:
448,192,24390,1,0,0:0:0:0:
320,192,24390,1,0,0:0:0:0:
320,192,24621,1,0,0:0:0:0:
192,192,24621,1,0,0:0:0:0:
64,192,24621,1,0,0:0:0:0:
192,192,24852,1,0,0:0:0:0:
64,192,24852,1,0,0:0:0:0:
448,192,25083,1,0,0:0:0:0:
320,192,25083,1,0,0:0:0:0:
64,192,25083,1,0,0:0:0:0:
320,192,25313,1,0,0:0:0:0:
192,192,25313,1,0,0:0:0:0:
448,192,25544,1,0,0:0:0:0:
320,192,25544,1,0,0:0:0:0:
64,192,25544,1,0,0:0:0:0:
448,192,25775,1,0,0:0:0:0:
320,192,25775,1,0,0:0:0:0:
448,192,26006,1,0,0:0:0:0:
192,192,26006,1,0,0:0:0:0:
64,192,26006,1,0,0:0:0:0:
320,192,26236,1,0,0:0:0:0:
64,192,26236,1,0,0:0:0:0:
448,192,26467,1,0,0:0:0:0:
192,192,26467,1,0,0:0:0:0:
64,192,26467,1,0,0:0:0:0:
448,192,26698,1,0,0:0:0:0:
192,192,26698,1,0,0:0:0:0:
448,192,26929,1,0,0:0:0:0:
320,192,26929,1,0,0:0:0:0:
64,192,26929,1,0,0:0:0:0:
320,192,27159,1,0,0:0:0:0:
192,192,27159,1,0,0:0:0:0:
448,192,27390,1,0,0:0:0:0:
192,192,27390,1,0,0:0:0:0:
64,192,27390,1,0,0:0:0:0:
448,192,27621,1,0,0:0:0:0:
320,192,27621,1,0,0:0:0:0:
320,192,27852,1,0,0:0:0:0:
192,192,27852,1,0,0:0:0:0:
64,192,27852,1,0,0:0:0:0:
448,192,28083,1,0,0:0:0:0:
64,192,28083,1,0,0:0:0:0:
448,192,28313,1,0,0:0:0:0:
320,192,28313,1,0,0:0:0:0:
192,192,28313,1,0,0:0:0:0:
192,192,28544,1,0,0:0:0:0:
64,192,28544,1,0,0:0:0:0:
448,192,28775,1,0,0:0:0:0:
192,192,28775,1,0,0:0:0:0:
64,192,28775,1,0,0:0:0:0:
448,192,29006,1,0,0:0:0:0:
320,192,29006,1,0,0:0:0:0:
320,192,29236,1,0,0:0:0:0:
192,192,29236,1,0,0:0:0:0:
64,192,29236,1,0,0:0:0:0:
320,192,29467,1,0,0:0:0:0:
64,192,29467,1,0,0:0:0:0:
448,192,29698,1,0,0:0:0:0:
192,192,29698,1,0,0:0:0:0:
64,192,29698,1,0,0:0:0:0:
448,192,29929,1,0,0:0:0:0:
192,192,29929,1,0,0:0:0:0:
448,192,30159,1,0,0:0:0:0:
320,192,30159,1,0,0:0:0:0:
64,192,30159,1,0,0:0:0:0:
448,192,30390,1,0,0:0:0:0:
64,192,30390,1,0,0:0:0:0:
320,192,30621,1,0,0:0:0:0:
192,192,30621,1,0,0:0:0:0:
64,192,30621,1,0,0:0:0:0:
448,192,30852,1,0,0:0:0:0:
320,192,30852,1,0,0:0:0:0:
320,192,31083,1,0,0:0:0:0:
192,192,31083,1,0,0:0:0:0:
64,192,31083,1,0,0:0:0:0:
320,192,31313,1,0,0:0:0:0:
64,192,31313,1,0,0:0:0:0:
448,192,31544,1,0,0:0:0:0:
320,192,31544,1,0,0:0:0:0:
64,192,31544,1,0,0:0:0:0:
448,192,31775,1,0,0:0:0:0:
192,192,31775,1,0,0:0:0:0:
192,192,32006,1,0,0:0:0:0:
448,192,32236,1,0,0:0:0:0:
320,192,32236,1,0,0:0:0:0:
64,192,32236,1,0,0:0:0:0:
320,192,32467,1,0,0:0:0:0:
448,192,32467,1,0,0:0:0:0:
64,192,32467,1,0,0:0:0:0:
192,192,32467,1,0,0:0:0:0:
320,192,32698,1,0,0:0:0:0:
192,192,32698,1,0,0:0:0:0:
448,192,32929,1,0,0:0:0:0:
192,192,32929,1,0,0:0:0:0:
64,192,32929,1,0,0:0:0:0:
448,192,33159,1,0,0:0:0:0:
64,192,33159,1,0,0:0:0:0:
448,192,33390,1,0,0:0:0:0:
320,192,33390,1,0,0:0:0:0:
64,192,33390,1,0,0:0:0:0:
320,192,33621,1,0,0:0:0:0:
64,192,33621,1,0,0:0:0:0:
448,192,33852,1,0,0:0:0:0:
320,192,33852,1,0,0:0:0:0:
192,192,33852,1,0,0:0:0:0:
448,192,34083,1,0,0:0:0:0:
192,192,34083,1,0,0:0:0:0:
320,192,34313,1,0,0:0:0:0:
192,192,34313,1,0,0:0:0:0:
64,192,34313,1,0,0:0:0:0:
448,192,34544,1,0,0:0:0:0:
320,192,34544,1,0,0:0:0:0:
448,192,34775,1,0,0:0:0:0:
192,192,34775,1,0,0:0:0:0:
64,192,34775,1,0,0:0:0:0:
320,192,35006,1,0,0:0:0:0:
64,192,35006,1,0,0:0:0:0:
448,192,35236,1,0,0:0:0:0:
320,192,35236,1,0,0:0:0:0:
64,192,35236,1,0,0:0:0:0:
320,192,35467,1,0,0:0:0:0:
192,192,35467,1,0,0:0:0:0:
448,192,35698,1,0,0:0:0:0:
192,192,35698,1,0,0:0:0:0:
64,192,35698,1,0,0:0:0:0:
320,192,35929,1,0,0:0:0:0:
64,192,35929,1,0,0:0:0:0:
448,192,36159,1,0,0:0:0:0:
320,192,36159,1,0,0:0:0:0:
64,192,36159,1,0,0:0:0:0:
192,192,36390,1,0,0:0:0:0:
64,192,36390,1,0,0:0:0:0:
448,192,36621,1,0,0:0:0:0:
320,192,36621,1,0,0:0:0:0:
192,192,36621,1,0,0:0:0:0:
448,192,36852,1,0,0:0:0:0:
64,192,36852,1,0,0:0:0:0:
448,192,37083,1,0,0:0:0:0:
192,192,37083,1,0,0:0:0:0:
64,192,37083,1,0,0:0:0:0:
320,192,37313,1,0,0:0:0:0:
192,192,37313,1,0,0:0:0:0:
448,192,37544,1,0,0:0:0:0:
320,192,37544,1,0,0:0:0:0:
64,192,37544,1,0,0:0:0:0:
192,192,37775,1,0,0:0:0:0:
64,192,37775,1,0,0:0:0:0:
448,192,38006,1,0,0:0:0:0:
192,192,38006,1,0,0:0:0:0:
64,192,38006,1,0,0:0:0:0:
448,192,38236,1,0,0:0:0:0:
320,192,38236,1,0,0:0:0:0:
448,192,38467,1,0,0:0:0:0:
192,192,38467,1,0,0:0:0:0:
64,192,38467,1,0,0:0:0:0:
448,192,38698,1,0,0:0:0:0:
192,192,38698,1,0,0:0:0:0:
448,192,38929,1,0,0:0:0:0:
320,192,38929,1,0,0:0:0:0:
192,192,38929,1,0,0:0:0:0:
192,192,39159,1,0,0:0:0:0:
64,192,39159,1,0,0:0:0:0:
448,192,39390,1,0,0:0:0:0:
192,192,39390,1,0,0:0:0:0:
64,192,39390,1,0,0:0:0:0:
320,192,39621,1,0,0:0:0:0:
64,192,39621,1,0,0:0:0:0:
448,192,39852,1,0,0:0:0:0:
320,192,39852,1,0,0:0:0:0:
192,192,39852,1,0,0:0:0:0:
448,192,40083,1,0,0:0:0:0:
192,192,40083,1,0,0:0:0:0:
320,192,40313,1,0,0:0:0:0:
192,192,40313,1,0,0:0:0:0:
64,192,40313,1,0,0:0:0:0:
448,192,40544,1,0,0:0:0:0:
64,192,40544,1,0,0:0:0:0:
320,192,40775,1,0,0:0:0:0:
192,192,40775,1,0,0:0:0:0:
64,192,40775,1,0,0:0:0:0:
320,192,41006,1,0,0:0:0:0:
192,192,41006,1,0,0:0:0:0:
448,192,41236,1,0,0:0:0:0:
192,192,41236,1,0,0:0:0:0:
64,192,41236,1,0,0:0:0:0:
320,192,41467,1,0,0:0:0:0:
64,192,41467,1,0,0:0:0:0:
448,192,41698,1,0,0:0:0:0:
320,192,41698,1,0,0:0:0:0:
64,192,41698,1,0,0:0:0:0:
320,192,41929,1,0,0:0:0:0:
192,192,41929,1,0,0:0:0:0:
448,192,42159,1,0,0:0:0:0:
192,192,42159,1,0,0:0:0:0:
64,192,42159,1,0,0:0:0:0:
448,192,42390,1,0,0:0:0:0:
64,192,42390,1,0,0:0:0:0:
448,192,42621,1,0,0:0:0:0:
192,192,42621,1,0,0:0:0:0:
64,192,42621,1,0,0:0:0:0:
448,192,42852,1,0,0:0:0:0:
192,192,42852,1,0,0:0:0:0:
320,192,43083,1,0,0:0:0:0:
192,192,43083,1,0,0:0:0:0:
64,192,43083,1,0,0:0:0:0:
448,192,43313,1,0,0:0:0:0:
64,192,43313,1,0,0:0:0:0:
320,192,43544,1,0,0:0:0:0:
448,192,43544,1,0,0:0:0:0:
64,192,43544,1,0,0:0:0:0:
192,192,43544,1,0,0:0:0:0:
192,192,43775,1,0,0:0:0:0:
448,192,44006,1,0,0:0:0:0:
320,192,44006,1,0,0:0:0:0:
192,192,44236,1,0,0:0:0:0:
320,192,44467,1,0,0:0:0:0:
64,192,44467,1,0,0:0:0:0:
192,192,44698,1,0,0:0:0:0:
448,192,44929,1,0,0:0:0:0:
64,192,44929,1,0,0:0:0:0:
320,192,45159,1,0,0:0:0:0:
64,192,45390,1,0,0:0:0:0:
448,192,45852,1,0,0:0:0:0:
320,192,45852,1,0,0:0:0:0:
192,192,45852,1,0,0:0:0:0:
320,192,46313,1,0,0:0:0:0:
192,192,46313,1,0,0:0:0:0:
64,192,46313,1,0,0:0:0:0:
448,192,46775,1,0,0:0:0:0:
320,192,46775,1,0,0:0:0:0:
64,192,46775,1,0,0:0:0:0:
320,192,47236,1,0,0:0:0:0:
448,192,47236,1,0,0:0:0:0:
64,192,47236,1,0,0:0:0:0:
192,192,47236,1,0,0:0:0:0:
448,192,47467,1,0,0:0:0:0:
320,192,47467,1,0,0:0:0:0:
320,192,47698,1,0,0:0:0:0:
192,192,47698,1,0,0:0:0:0:
64,192,47698,1,0,0:0:0:0:
448,192,47929,1,0,0:0:0:0:
192,192,47929,1,0,0:0:0:0:
64,192,47929,1,0,0:0:0:0:
448,192,48159,1,0,0:0:0:0:
320,192,48159,1,0,0:0:0:0:
64,192,48159,1,0,0:0:0:0:
320,192,48390,1,0,0:0:0:0:
192,192,48390,1,0,0:0:0:0:
64,192,48390,1,0,0:0:0:0:
448,192,48621,1,0,0:0:0:0:
320,192,48621,1,0,0:0:0:0:
64,192,48621,1,0,0:0:0:0:
448,192,48852,1,0,0:0:0:0:
320,192,48852,1,0,0:0:0:0:
192,192,48852,1,0,0:0:0:0:
192,192,49083,1,0,0:0:0:0:
64,192,49083,1,0,0:0:0:0:
448,192,49313,1,0,0:0:0:0:
320,192,49313,1,0,0:0:0:0:
64,192,49313,1,0,0:0:0:0:
320,192,49544,1,0,0:0:0:0:
192,192,49544,1,0,0:0:0:0:
64,192,49544,1,0,0:0:0:0:
448,192,49775,1,0,0:0:0:0:
192,192,49775,1,0,0:0:0:0:
64,192,49775,1,0,0:0:0:0:
448,192,50006,1,0,0:0:0:0:
320,192,50006,1,0,0:0:0:0:
192,192,50006,1,0,0:0:0:0:
320,192,50236,1,0,0:0:0:0:
192,192,50236,1,0,0:0:0:0:
64,192,50236,1,0,0:0:0:0:
448,192,50467,1,0,0:0:0:0:
320,192,50467,1,0,0:0:0:0:
192,192,50467,1,0,0:0:0:0:
448,192,50698,1,0,0:0:0:0:
320,192,50698,1,0,0:0:0:0:
64,192,50698,1,0,0:0:0:0:
320,192,50929,1,0,0:0:0:0:
192,192,50929,1,0,0:0:0:0:
64,192,50929,1,0,0:0:0:0:
448,192,51159,1,0,0:0:0:0:
192,192,51159,1,0,0:0:0:0:
320,192,51390,1,0,0:0:0:0:
192,192,51390,1,0,0:0:0:0:
64,192,51390,1,0,0:0:0:0:
448,192,51621,1,0,0:0:0:0:
192,192,51621,1,0,0:0:0:0:
64,192,51621,1,0,0:0:0:0:
448,192,51852,1,0,0:0:0:0:
320,192,51852,1,0,0:0:0:0:
64,192,51852,1,0,0:0:0:0:
320,192,52083,1,0,0:0:0:0:
192,192,52083,1,0,0:0:0:0:
64,192,52083,1,0,0:0:0:0:
448,192,52313,1,0,0:0:0:0:
320,192,52313,1,0,0:0:0:0:
64,192,52313,1,0,0:0:0:0:
448,192,52544,1,0,0:0:0:0:
320,192,52544,1,0,0:0:0:0:
192,192,52544,1,0,0:0:0:0:
192,192,52775,1,0,0:0:0:0:
64,192,52775,1,0,0:0:0:0:
448,192,53006,1,0,0:0:0:0:
192,192,53006,1,0,0:0:0:0:
64,192,53006,1,0,0:0:0:0:
448,192,53236,1,0,0:0:0:0:
320,192,53236,1,0,0:0:0:0:
64,192,53236,1,0,0:0:0:0:
320,192,53467,1,0,0:0:0:0:
192,192,53467,1,0,0:0:0:0:
64,192,53467,1,0,0:0:0:0:
448,192,53698,1,0,0:0:0:0:
320,192,53698,1,0,0:0:0:0:
64,192,53698,1,0,0:0:0:0:
448,192,53929,1,0,0:0:0:0:
320,192,53929,1,0,0:0:0:0:
192,192,53929,1,0,0:0:0:0:
448,192,54159,1,0,0:0:0:0:
192,192,54159,1,0,0:0:0:0:
64,192,54159,1,0,0:0:0:0:
448,192,54390,1,0,0:0:0:0:
192,192,54390,1,0,0:0:0:0:
64,192,54390,1,0,0:0:0:0:
320,192,54621,1,0,0:0:0:0:
192,192,54621,1,0,0:0:0:0:
64,192,54621,1,0,0:0:0:0:
448,192,54852,1,0,0:0:0:0:
320,192,54852,1,0,0:0:0:0:
320,192,55083,1,0,0:0:0:0:
192,192,55083,1,0,0:0:0:0:
64,192,55083,1,0,0:0:0:0:
448,192,55313,1,0,0:0:0:0:
192,192,55313,1,0,0:0:0:0:
64,192,55313,1,0,0:0:0:0:
448,192,55544,1,0,0:0:0:0:
320,192,55544,1,0,0:0:0:0:
64,192,55544,1,0,0:0:0:0:
320,192,55775,1,0,0:0:0:0:
192,192,55775,1,0,0:0:0:0:
64,192,55775,1,0,0:0:0:0:
448,192,56006,1,0,0:0:0:0:
320,192,56006,1,0,0:0:0:0:
64,192,56006,1,0,0:0:0:0:
448,192,56236,1,0,0:0:0:0:
320,192,56236,1,0,0:0:0:0:
192,192,56236,1,0,0:0:0:0:
192,192,56467,1,0,0:0:0:0:
64,192,56467,1,0,0:0:0:0:
448,192,56698,1,0,0:0:0:0:
320,192,56698,1,0,0:0:0:0:
64,192,56698,1,0,0:0:0:0:
320,192,56929,1,0,0:0:0:0:
192,192,56929,1,0,0:0:0:0:
64,192,56929,1,0,0:0:0:0:
448,192,57159,1,0,0:0:0:0:
192,192,57159,1,0,0:0:0:0:
64,192,57159,1,0,0:0:0:0:
448,192,57390,1,0,0:0:0:0:
320,192,57390,1,0,0:0:0:0:
192,192,57390,1,0,0:0:0:0:
320,192,57621,1,0,0:0:0:0:
192,192,57621,1,0,0:0:0:0:
64,192,57621,1,0,0:0:0:0:
448,192,57852,1,0,0:0:0:0:
320,192,57852,1,0,0:0:0:0:
192,192,57852,1,0,0:0:0:0:
448,192,58083,1,0,0:0:0:0:
320,192,58083,1,0,0:0:0:0:
64,192,58083,1,0,0:0:0:0:
320,192,58313,1,0,0:0:0:0:
192,192,58313,1,0,0:0:0:0:
64,192,58313,1,0,0:0:0:0:
448,192,58544,1,0,0:0:0:0:
64,192,58544,1,0,0:0:0:0:
320,192,58775,1,0,0:0:0:0:
192,192,58775,1,0,0:0:0:0:
64,192,58775,1,0,0:0:0:0:
448,192,59006,1,0,0:0:0:0:
192,192,59006,1,0,0:0:0:0:
320,192,59236,1,0,0:0:0:0:
192,192,59236,1,0,0:0:0:0:
64,192,59236,1,0,0:0:0:0:
448,192,59467,1,0,0:0:0:0:
192,192,59467,1,0,0:0:0:0:
64,192,59467,1,0,0:0:0:0:
448,192,59698,1,0,0:0:0:0:
320,192,59698,1,0,0:0:0:0:
64,192,59698,1,0,0:0:0:0:
320,192,59929,1,0,0:0:0:0:
192,192,59929,1,0,0:0:0:0:
64,192,59929,1,0,0:0:0:0:
448,192,60159,1,0,0:0:0:0:
320,192,60159,1,0,0:0:0:0:
64,192,60159,1,0,0:0:0:0:
320,192,60275,1,0,0:0:0:0:
192,192,60390,1,0,0:0:0:0:
192,192,60506,1,0,0:0:0:0:
320,192,60621,1,0,0:0:0:0:
320,192,60736,1,0,0:0:0:0:
192,192,60852,1,0,0:0:0:0:
192,192,60967,1,0,0:0:0:0:
448,192,61083,1,0,0:0:0:0:
320,192,61083,1,0,0:0:0:0:
448,192,61198,1,0,0:0:0:0:
64,192,61313,1,0,0:0:0:0:
64,192,61429,1,0,0:0:0:0:
320,192,61544,1,0,0:0:0:0:
192,192,61544,1,0,0:0:0:0:
320,192,61659,1,0,0:0:0:0:
64,192,61775,1,0,0:0:0:0:
64,192,61890,1,0,0:0:0:0:
448,192,62006,1,0,0:0:0:0:
320,192,62006,1,0,0:0:0:0:
192,192,62006,1,0,0:0:0:0:
448,192,62236,1,0,0:0:0:0:
192,192,62236,1,0,0:0:0:0:
320,192,62467,1,0,0:0:0:0:
192,192,62467,1,0,0:0:0:0:
64,192,62467,1,0,0:0:0:0:
448,192,62698,1,0,0:0:0:0:
192,192,62698,1,0,0:0:0:0:
320,192,62929,1,0,0:0:0:0:
192,192,62929,1,0,0:0:0:0:
64,192,62929,1,0,0:0:0:0:
64,192,63044,1,0,0:0:0:0:
448,192,63159,1,0,0:0:0:0:
320,192,63159,1,0,0:0:0:0:
192,192,63159,1,0,0:0:0:0:
448,192,63390,1,0,0:0:0:0:
320,192,63390,1,0,0:0:0:0:
64,192,63390,1,0,0:0:0:0:
192,192,63621,1,0,0:0:0:0:
64,192,63621,1,0,0:0:0:0:
448,192,63736,1,0,0:0:0:0:
320,192,63736,1,0,0:0:0:0:
448,192,63852,1,0,0:0:0:0:
320,192,63852,1,0,0:0:0:0:
64,192,63852,1,0,0:0:0:0:
448,192,64083,1,0,0:0:0:0:
320,192,64083,1,0,0:0:0:0:
192,192,64083,1,0,0:0:0:0:
192,192,64313,1,0,0:0:0:0:
64,192,64313,1,0,0:0:0:0:
448,192,64544,1,0,0:0:0:0:
192,192,64544,1,0,0:0:0:0:
64,192,64544,1,0,0:0:0:0:
448,192,64775,1,0,0:0:0:0:
320,192,64775,1,0,0:0:0:0:
64,192,64775,1,0,0:0:0:0:
448,192,64890,1,0,0:0:0:0:
320,192,64890,1,0,0:0:0:0:
192,192,65006,1,0,0:0:0:0:
64,192,65006,1,0,0:0:0:0:
320,192,65121,1,0,0:0:0:0:
448,192,65236,1,0,0:0:0:0:
192,192,65236,1,0,0:0:0:0:
64,192,65236,1,0,0:0:0:0:
448,192,65467,1,0,0:0:0:0:
320,192,65467,1,0,0:0:0:0:
192,192,65467,1,0,0:0:0:0:
448,192,65698,1,0,0:0:0:0:
192,192,65698,1,0,0:0:0:0:
64,192,65698,1,0,0:0:0:0:
320,192,65929,1,0,0:0:0:0:
64,192,65929,1,0,0:0:0:0:
320,192,66159,1,0,0:0:0:0:
192,192,66159,1,0,0:0:0:0:
64,192,66159,1,0,0:0:0:0:
448,192,66390,1,0,0:0:0:0:
192,192,66390,1,0,0:0:0:0:
320,192,66621,1,0,0:0:0:0:
192,192,66621,1,0,0:0:0:0:
64,192,66621,1,0,0:0:0:0:
320,192,66736,1,0,0:0:0:0:
448,192,66852,1,0,0:0:0:0:
64,192,66852,1,0,0:0:0:0:
192,192,66967,1,0,0:0:0:0:
448,192,67083,1,0,0:0:0:0:
320,192,67083,1,0,0:0:0:0:
64,192,67083,1,0,0:0:0:0:
320,192,67313,1,0,0:0:0:0:
192,192,67313,1,0,0:0:0:0:
64,192,67313,1,0,0:0:0:0:
448,192,67544,1,0,0:0:0:0:
320,192,67544,1,0,0:0:0:0:
64,192,67544,1,0,0:0:0:0:
448,192,67775,1,0,0:0:0:0:
320,192,67775,1,0,0:0:0:0:
192,192,67775,1,0,0:0:0:0:
320,192,68006,1,0,0:0:0:0:
192,192,68006,1,0,0:0:0:0:
64,192,68006,1,0,0:0:0:0:
448,192,68236,1,0,0:0:0:0:
192,192,68236,1,0,0:0:0:0:
64,192,68236,1,0,0:0:0:0:
448,192,68467,1,0,0:0:0:0:
320,192,68467,1,0,0:0:0:0:
64,192,68467,1,0,0:0:0:0:
448,192,68583,1,0,0:0:0:0:
320,192,68583,1,0,0:0:0:0:
192,192,68698,1,0,0:0:0:0:
64,192,68698,1,0,0:0:0:0:
320,192,68813,1,0,0:0:0:0:
448,192,68929,1,0,0:0:0:0:
192,192,68929,1,0,0:0:0:0:
64,192,68929,1,0,0:0:0:0:
448,192,69159,1,0,0:0:0:0:
320,192,69159,1,0,0:0:0:0:
320,192,69390,1,0,0:0:0:0:
448,192,69390,1,0,0:0:0:0:
64,192,69390,1,0,0:0:0:0:
192,192,69390,1,0,0:0:0:0:
192,192,69621,1,0,0:0:0:0:
64,192,69621,1,0,0:0:0:0:
448,192,69852,1,0,0:0:0:0:
320,192,69852,1,0,0:0:0:0:
64,192,69852,1,0,0:0:0:0:
448,192,70083,1,0,0:0:0:0:
320,192,70083,1,0,0:0:0:0:
192,192,70198,1,0,0:0:0:0:
448,192,70313,1,0,0:0:0:0:
320,192,70313,1,0,0:0:0:0:
64,192,70313,1,0,0:0:0:0:
448,192,70544,1,0,0:0:0:0:
64,192,70544,1,0,0:0:0:0:
320,192,70659,1,0,0:0:0:0:
448,192,70775,1,0,0:0:0:0:
192,192,70775,1,0,0:0:0:0:
64,192,70775,1,0,0:0:0:0:
320,192,71006,1,0,0:0:0:0:
192,192,71006,1,0,0:0:0:0:
64,192,71121,1,0,0:0:0:0:
448,192,71236,1,0,0:0:0:0:
320,192,71236,1,0,0:0:0:0:
64,192,71236,1,0,0:0:0:0:
192,192,71467,1,0,0:0:0:0:
64,192,71467,1,0,0:0:0:0:
448,192,71698,1,0,0:0:0:0:
320,192,71698,1,0,0:0:0:0:
64,192,71698,1,0,0:0:0:0:
448,192,71929,1,0,0:0:0:0:
192,192,71929,1,0,0:0:0:0:
448,192,72159,1,0,0:0:0:0:
192,192,72159,1,0,0:0:0:0:
64,192,72159,1,0,0:0:0:0:
192,192,72275,1,0,0:0:0:0:
64,192,72275,1,0,0:0:0:0:
448,192,72390,1,0,0:0:0:0:
320,192,72390,1,0,0:0:0:0:
192,192,72506,1,0,0:0:0:0:
448,192,72621,1,0,0:0:0:0:
320,192,72621,1,0,0:0:0:0:
64,192,72621,1,0,0:0:0:0:
192,192,72852,1,0,0:0:0:0:
64,192,72852,1,0,0:0:0:0:
320,192,73083,1,0,0:0:0:0:
192,192,73083,1,0,0:0:0:0:
64,192,73083,1,0,0:0:0:0:
448,192,73313,1,0,0:0:0:0:
192,192,73313,1,0,0:0:0:0:
448,192,73544,1,0,0:0:0:0:
320,192,73544,1,0,0:0:0:0:
64,192,73544,1,0,0:0:0:0:
320,192,73775,1,0,0:0:0:0:
64,192,73775,1,0,0:0:0:0:
448,192,74006,1,0,0:0:0:0:
192,192,74006,1,0,0:0:0:0:
64,192,74006,1,0,0:0:0:0:
320,192,74121,1,0,0:0:0:0:
448,192,74236,1,0,0:0:0:0:
192,192,74236,1,0,0:0:0:0:
64,192,74352,1,0,0:0:0:0:
448,192,74467,1,0,0:0:0:0:
320,192,74467,1,0,0:0:0:0:
192,192,74467,1,0,0:0:0:0:
192,192,74698,1,0,0:0:0:0:
64,192,74698,1,0,0:0:0:0:
320,192,74929,1,0,0:0:0:0:
448,192,74929,1,0,0:0:0:0:
64,192,74929,1,0,0:0:0:0:
192,192,74929,1,0,0:0:0:0:
448,192,75159,1,0,0:0:0:0:
320,192,75159,1,0,0:0:0:0:
192,192,75275,1,0,0:0:0:0:
64,192,75275,1,0,0:0:0:0:
448,192,75390,1,0,0:0:0:0:
320,192,75390,1,0,0:0:0:0:
192,192,75621,1,0,0:0:0:0:
64,192,75621,1,0,0:0:0:0:
448,192,75736,1,0,0:0:0:0:
320,192,75736,1,0,0:0:0:0:
192,192,75852,1,0,0:0:0:0:
64,192,75852,1,0,0:0:0:0:
320,192,76083,1,0,0:0:0:0:
320,192,76198,1,0,0:0:0:0:
192,192,76313,1,0,0:0:0:0:
448,192,76544,1,0,0:0:0:0:
320,192,76775,1,0,0:0:0:0:
192,192,76775,1,0,0:0:0:0:
64,192,76775,1,0,0:0:0:0:
192,192,77006,1,0,0:0:0:0:
448,192,77236,1,0,0:0:0:0:
320,192,77236,1,0,0:0:0:0:
320,192,77467,1,0,0:0:0:0:
64,192,77583,1,0,0:0:0:0:
448,192,77698,1,0,0:0:0:0:
192,192,77698,1,0,0:0:0:0:
192,192,77929,1,0,0:0:0:0:
448,192,78159,1,0,0:0:0:0:
320,192,78159,1,0,0:0:0:0:
64,192,78390,1,0,0:0:0:0:
192,192,78621,1,0,0:0:0:0:
64,192,78621,1,0,0:0:0:0:
320,192,78852,1,0,0:0:0:0:
448,192,78967,1,0,0:0:0:0:
320,192,79083,1,0,0:0:0:0:
192,192,79083,1,0,0:0:0:0:
64,192,79313,1,0,0:0:0:0:
192,192,79429,1,0,0:0:0:0:
320,192,79544,1,0,0:0:0:0:
64,192,79544,1,0,0:0:0:0:
192,192,79659,1,0,0:0:0:0:
448,192,79775,1,0,0:0:0:0:
320,192,79890,1,0,0:0:0:0:
192,192,80006,1,0,0:0:0:0:
64,192,80006,1,0,0:0:0:0:
320,192,80236,1,0,0:0:0:0:
320,192,80467,1,0,0:0:0:0:
448,192,80467,1,0,0:0:0:0:
64,192,80467,1,0,0:0:0:0:
192,192,80467,1,0,0:0:0:0:
192,192,80698,1,0,0:0:0:0:
320,192,80929,1,0,0:0:0:0:
192,192,81188,1,0,0:0:0:0:
64,192,81188,1,0,0:0:0:0:
192,192,81650,1,0,0:0:0:0:
448,192,81823,1,0,0:0:0:0:
320,192,81823,1,0,0:0:0:0:
192,192,82073,1,0,0:0:0:0:
64,192,82073,1,0,0:0:0:0:
448,192,82266,1,0,0:0:0:0:
320,192,82266,1,0,0:0:0:0:
64,192,82266,1,0,0:0:0:0:
448,192,82515,1,0,0:0:0:0:
192,192,82515,1,0,0:0:0:0:
64,192,82515,1,0,0:0:0:0:
320,192,82785,1,0,0:0:0:0:
192,192,82997,128,0,83141:0:0:0:0:
320,192,83467,1,0,0:0:0:0:
320,192,83698,1,0,0:0:0:0:
448,192,83698,1,0,0:0:0:0:
64,192,83698,1,0,0:0:0:0:
192,192,83698,1,0,0:0:0:0:
448,192,83929,1,0,0:0:0:0:
192,192,83929,1,0,0:0:0:0:
64,192,83929,1,0,0:0:0:0:
320,192,84159,1,0,0:0:0:0:
448,192,84159,1,0,0:0:0:0:
64,192,84159,1,0,0:0:0:0:
192,192,84159,1,0,0:0:0:0:
320,192,84390,1,0,0:0:0:0:
64,192,84390,1,0,0:0:0:0:
448,192,84621,1,0,0:0:0:0:
320,192,84621,1,0,0:0:0:0:
192,192,84621,1,0,0:0:0:0:
192,192,84852,1,0,0:0:0:0:
64,192,84852,1,0,0:0:0:0:
448,192,85083,1,0,0:0:0:0:
320,192,85083,1,0,0:0:0:0:
64,192,85083,1,0,0:0:0:0:
448,192,85313,1,0,0:0:0:0:
192,192,85313,1,0,0:0:0:0:
448,192,85544,1,0,0:0:0:0:
320,192,85544,1,0,0:0:0:0:
64,192,85544,1,0,0:0:0:0:
320,192,85775,1,0,0:0:0:0:
192,192,85775,1,0,0:0:0:0:
448,192,86006,1,0,0:0:0:0:
192,192,86006,1,0,0:0:0:0:
64,192,86006,1,0,0:0:0:0:
448,192,86236,1,0,0:0:0:0:
64,192,86236,1,0,0:0:0:0:
320,192,86467,1,0,0:0:0:0:
192,192,86467,1,0,0:0:0:0:
64,192,86467,1,0,0:0:0:0:
448,192,86698,1,0,0:0:0:0:
192,192,86698,1,0,0:0:0:0:
448,192,86929,1,0,0:0:0:0:
320,192,86929,1,0,0:0:0:0:
64,192,86929,1,0,0:0:0:0:
320,192,87159,1,0,0:0:0:0:
192,192,87159,1,0,0:0:0:0:
448,192,87390,1,0,0:0:0:0:
320,192,87390,1,0,0:0:0:0:
64,192,87390,1,0,0:0:0:0:
192,192,87621,1,0,0:0:0:0:
64,192,87621,1,0,0:0:0:0:
448,192,87852,1,0,0:0:0:0:
192,192,87852,1,0,0:0:0:0:
64,192,87852,1,0,0:0:0:0:
448,192,88083,1,0,0:0:0:0:
320,192,88083,1,0,0:0:0:0:
320,192,88313,1,0,0:0:0:0:
192,192,88313,1,0,0:0:0:0:
64,192,88313,1,0,0:0:0:0:
448,192,88544,1,0,0:0:0:0:
64,192,88544,1,0,0:0:0:0:
448,192,88775,1,0,0:0:0:0:
320,192,88775,1,0,0:0:0:0:
192,192,88775,1,0,0:0:0:0:
320,192,89006,1,0,0:0:0:0:
192,192,89006,1,0,0:0:0:0:
448,192,89236,1,0,0:0:0:0:
320,192,89236,1,0,0:0:0:0:
64,192,89236,1,0,0:0:0:0:
192,192,89467,1,0,0:0:0:0:
64,192,89467,1,0,0:0:0:0:
448,192,89698,1,0,0:0:0:0:
320,192,89698,1,0,0:0:0:0:
192,192,89698,1,0,0:0:0:0:
320,192,89929,1,0,0:0:0:0:
64,192,89929,1,0,0:0:0:0:
448,192,90159,1,0,0:0:0:0:
192,192,90159,1,0,0:0:0:0:
64,192,90159,1,0,0:0:0:0:
320,192,90390,1,0,0:0:0:0:
192,192,90390,1,0,0:0:0:0:
448,192,90621,1,0,0:0:0:0:
192,192,90621,1,0,0:0:0:0:
64,192,90621,1,0,0:0:0:0:
320,192,90852,1,0,0:0:0:0:
64,192,90852,1,0,0:0:0:0:
448,192,91083,1,0,0:0:0:0:
320,192,91083,1,0,0:0:0:0:
192,192,91083,1,0,0:0:0:0:
448,192,91313,1,0,0:0:0:0:
192,192,91313,1,0,0:0:0:0:
448,192,91544,1,0,0:0:0:0:
320,192,91544,1,0,0:0:0:0:
64,192,91544,1,0,0:0:0:0:
320,192,91775,1,0,0:0:0:0:
192,192,91775,1,0,0:0:0:0:
448,192,92006,1,0,0:0:0:0:
320,192,92006,1,0,0:0:0:0:
64,192,92006,1,0,0:0:0:0:
320,192,92236,1,0,0:0:0:0:
64,192,92236,1,0,0:0:0:0:
448,192,92467,1,0,0:0:0:0:
192,192,92467,1,0,0:0:0:0:
64,192,92467,1,0,0:0:0:0:
448,192,92698,1,0,0:0:0:0:
320,192,92698,1,0,0:0:0:0:
448,192,92929,1,0,0:0:0:0:
192,192,92929,1,0,0:0:0:0:
64,192,92929,1,0,0:0:0:0:
192,192,93159,1,0,0:0:0:0:
64,192,93159,1,0,0:0:0:0:
448,192,93390,1,0,0:0:0:0:
320,192,93390,1,0,0:0:0:0:
64,192,93390,1,0,0:0:0:0:
320,192,93621,1,0,0:0:0:0:
192,192,93621,1,0,0:0:0:0:
448,192,93852,1,0,0:0:0:0:
192,192,93852,1,0,0:0:0:0:
64,192,93852,1,0,0:0:0:0:
320,192,94083,1,0,0:0:0:0:
64,192,94083,1,0,0:0:0:0:
448,192,94313,1,0,0:0:0:0:
320,192,94313,1,0,0:0:0:0:
192,192,94313,1,0,0:0:0:0:
448,192,94544,1,0,0:0:0:0:
64,192,94544,1,0,0:0:0:0:
320,192,94775,1,0,0:0:0:0:
192,192,94775,1,0,0:0:0:0:
64,192,94775,1,0,0:0:0:0:
448,192,95006,1,0,0:0:0:0:
192,192,95006,1,0,0:0:0:0:
320,192,95236,1,0,0:0:0:0:
448,192,95236,1,0,0:0:0:0:
64,192,95236,1,0,0:0:0:0:
192,192,95236,1,0,0:0:0:0:
320,192,95467,1,0,0:0:0:0:
192,192,95467,1,0,0:0:0:0:
448,192,95698,1,0,0:0:0:0:
192,192,95698,1,0,0:0:0:0:
64,192,95698,1,0,0:0:0:0:
448,192,95929,1,0,0:0:0:0:
64,192,95929,1,0,0:0:0:0:
448,192,96159,1,0,0:0:0:0:
320,192,96159,1,0,0:0:0:0:
64,192,96159,1,0,0:0:0:0:
448,192,96390,1,0,0:0:0:0:
320,192,96390,1,0,0:0:0:0:
320,192,96621,1,0,0:0:0:0:
192,192,96621,1,0,0:0:0:0:
64,192,96621,1,0,0:0:0:0:
192,192,96852,1,0,0:0:0:0:
64,192,96852,1,0,0:0:0:0:
448,192,97083,1,0,0:0:0:0:
320,192,97083,1,0,0:0:0:0:
192,192,97083,1,0,0:0:0:0:
320,192,97313,1,0,0:0:0:0:
64,192,97313,1,0,0:0:0:0:
448,192,97544,1,0,0:0:0:0:
192,192,97544,1,0,0:0:0:0:
64,192,97544,1,0,0:0:0:0:
448,192,97775,1,0,0:0:0:0:
320,192,97775,1,0,0:0:0:0:
448,192,98006,1,0,0:0:0:0:
320,192,98006,1,0,0:0:0:0:
64,192,98006,1,0,0:0:0:0:
320,192,98236,1,0,0:0:0:0:
192,192,98236,1,0,0:0:0:0:
448,192,98467,1,0,0:0:0:0:
192,192,98467,1,0,0:0:0:0:
64,192,98467,1,0,0:0:0:0:
448,192,98698,1,0,0:0:0:0:
320,192,98698,1,0,0:0:0:0:
448,192,98929,1,0,0:0:0:0:
320,192,98929,1,0,0:0:0:0:
64,192,98929,1,0,0:0:0:0:
448,192,99159,1,0,0:0:0:0:
192,192,99159,1,0,0:0:0:0:
320,192,99390,1,0,0:0:0:0:
192,192,99390,1,0,0:0:0:0:
64,192,99390,1,0,0:0:0:0:
448,192,99621,1,0,0:0:0:0:
64,192,99621,1,0,0:0:0:0:
448,192,99852,1,0,0:0:0:0:
192,192,99852,1,0,0:0:0:0:
64,192,99852,1,0,0:0:0:0:
320,192,100083,1,0,0:0:0:0:
192,192,100083,1,0,0:0:0:0:
448,192,100313,1,0,0:0:0:0:
320,192,100313,1,0,0:0:0:0:
64,192,100313,1,0,0:0:0:0:
448,192,100544,1,0,0:0:0:0:
192,192,100544,1,0,0:0:0:0:
448,192,100775,1,0,0:0:0:0:
192,192,100775,1,0,0:0:0:0:
64,192,100775,1,0,0:0:0:0:
320,192,101006,1,0,0:0:0:0:
64,192,101006,1,0,0:0:0:0:
448,192,101236,1,0,0:0:0:0:
192,192,101236,1,0,0:0:0:0:
64,192,101236,1,0,0:0:0:0:
192,192,101467,1,0,0:0:0:0:
64,192,101467,1,0,0:0:0:0:
320,192,101698,1,0,0:0:0:0:
192,192,101698,1,0,0:0:0:0:
64,192,101698,1,0,0:0:0:0:
448,192,101929,1,0,0:0:0:0:
192,192,101929,1,0,0:0:0:0:
448,192,102159,1,0,0:0:0:0:
192,192,102159,1,0,0:0:0:0:
64,192,102159,1,0,0:0:0:0:
448,192,102390,1,0,0:0:0:0:
320,192,102390,1,0,0:0:0:0:
320,192,102621,1,0,0:0:0:0:
192,192,102621,1,0,0:0:0:0:
64,192,102621,1,0,0:0:0:0:
192,192,102852,1,0,0:0:0:0:
64,192,102852,1,0,0:0:0:0:
448,192,103083,1,0,0:0:0:0:
320,192,103083,1,0,0:0:0:0:
192,192,103083,1,0,0:0:0:0:
448,192,103313,1,0,0:0:0:0:
64,192,103313,1,0,0:0:0:0:
448,192,103544,1,0,0:0:0:0:
320,192,103544,1,0,0:0:0:0:
192,192,103544,1,0,0:0:0:0:
320,192,103775,1,0,0:0:0:0:
192,192,103775,1,0,0:0:0:0:
448,192,104006,1,0,0:0:0:0:
192,192,104006,1,0,0:0:0:0:
64,192,104006,1,0,0:0:0:0:
448,192,104236,1,0,0:0:0:0:
320,192,104236,1,0,0:0:0:0:
448,192,104467,1,0,0:0:0:0:
320,192,104467,1,0,0:0:0:0:
64,192,104467,1,0,0:0:0:0:
320,192,104698,1,0,0:0:0:0:
192,192,104698,1,0,0:0:0:0:
448,192,104929,1,0,0:0:0:0:
192,192,104929,1,0,0:0:0:0:
64,192,104929,1,0,0:0:0:0:
448,192,105159,1,0,0:0:0:0:
64,192,105159,1,0,0:0:0:0:
448,192,105390,1,0,0:0:0:0:
192,192,105390,1,0,0:0:0:0:
64,192,105390,1,0,0:0:0:0:
192,192,105621,1,0,0:0:0:0:
64,192,105621,1,0,0:0:0:0:
448,192,105852,1,0,0:0:0:0:
320,192,105852,1,0,0:0:0:0:
192,192,105852,1,0,0:0:0:0:
448,192,106083,1,0,0:0:0:0:
64,192,106083,1,0,0:0:0:0:
320,192,106313,1,0,0:0:0:0:
448,192,106313,1,0,0:0:0:0:
64,192,106313,1,0,0:0:0:0:
192,192,106313,1,0,0:0:0:0:
192,192,106544,1,0,0:0:0:0:
320,192,106775,1,0,0:0:0:0:
64,192,106775,1,0,0:0:0:0:
192,192,107006,1,0,0:0:0:0:
448,192,107236,1,0,0:0:0:0:
320,192,107236,1,0,0:0:0:0:
192,192,107467,1,0,0:0:0:0:
448,192,107698,1,0,0:0:0:0:
64,192,107698,1,0,0:0:0:0:
320,192,107929,1,0,0:0:0:0:
448,192,108159,1,0,0:0:0:0:
192,192,108390,1,0,0:0:0:0:
320,192,108621,1,0,0:0:0:0:
192,192,108621,1,0,0:0:0:0:
64,192,108621,1,0,0:0:0:0:
320,192,108852,1,0,0:0:0:0:
448,192,109083,1,0,0:0:0:0:
320,192,109083,1,0,0:0:0:0:
192,192,109083,1,0,0:0:0:0:
192,192,109313,1,0,0:0:0:0:
448,192,109544,1,0,0:0:0:0:
320,192,109544,1,0,0:0:0:0:
64,192,109544,1,0,0:0:0:0:
192,192,109775,1,0,0:0:0:0:
320,192,110006,1,0,0:0:0:0:
448,192,110006,1,0,0:0:0:0:
64,192,110006,1,0,0:0:0:0:
192,192,110006,1,0,0:0:0:0:
320,192,110236,1,0,0:0:0:0:
64,192,110236,1,0,0:0:0:0:
448,192,110467,1,0,0:0:0:0:
320,192,110467,1,0,0:0:0:0:
192,192,110467,1,0,0:0:0:0:
448,192,110698,1,0,0:0:0:0:
192,192,110698,1,0,0:0:0:0:
64,192,110698,1,0,0:0:0:0:
448,192,110929,1,0,0:0:0:0:
320,192,110929,1,0,0:0:0:0:
64,192,110929,1,0,0:0:0:0:
448,192,111159,1,0,0:0:0:0:
320,192,111159,1,0,0:0:0:0:
192,192,111159,1,0,0:0:0:0:
448,192,111390,1,0,0:0:0:0:
320,192,111390,1,0,0:0:0:0:
64,192,111390,1,0,0:0:0:0:
320,192,111621,1,0,0:0:0:0:
192,192,111621,1,0,0:0:0:0:
64,192,111621,1,0,0:0:0:0:
448,192,111852,1,0,0:0:0:0:
192,192,111852,1,0,0:0:0:0:
448,192,112083,1,0,0:0:0:0:
320,192,112083,1,0,0:0:0:0:
64,192,112083,1,0,0:0:0:0:
448,192,112313,1,0,0:0:0:0:
320,192,112313,1,0,0:0:0:0:
192,192,112313,1,0,0:0:0:0:
448,192,112544,1,0,0:0:0:0:
192,192,112544,1,0,0:0:0:0:
64,192,112544,1,0,0:0:0:0:
320,192,112775,1,0,0:0:0:0:
192,192,112775,1,0,0:0:0:0:
64,192,112775,1,0,0:0:0:0:
448,192,113006,1,0,0:0:0:0:
320,192,113006,1,0,0:0:0:0:
192,192,113006,1,0,0:0:0:0:
320,192,113236,1,0,0:0:0:0:
192,192,113236,1,0,0:0:0:0:
64,192,113236,1,0,0:0:0:0:
448,192,113467,1,0,0:0:0:0:
320,192,113467,1,0,0:0:0:0:
64,192,113467,1,0,0:0:0:0:
448,192,113698,1,0,0:0:0:0:
320,192,113698,1,0,0:0:0:0:
192,192,113698,1,0,0:0:0:0:
192,192,113929,1,0,0:0:0:0:
64,192,113929,1,0,0:0:0:0:
448,192,114159,1,0,0:0:0:0:
320,192,114159,1,0,0:0:0:0:
192,192,114159,1,0,0:0:0:0:
448,192,114390,1,0,0:0:0:0:
192,192,114390,1,0,0:0:0:0:
64,192,114390,1,0,0:0:0:0:
448,192,114621,1,0,0:0:0:0:
320,192,114621,1,0,0:0:0:0:
64,192,114621,1,0,0:0:0:0:
448,192,114852,1,0,0:0:0:0:
320,192,114852,1,0,0:0:0:0:
192,192,114852,1,0,0:0:0:0:
448,192,115083,1,0,0:0:0:0:
320,192,115083,1,0,0:0:0:0:
64,192,115083,1,0,0:0:0:0:
320,192,115313,1,0,0:0:0:0:
192,192,115313,1,0,0:0:0:0:
64,192,115313,1,0,0:0:0:0:
448,192,115544,1,0,0:0:0:0:
192,192,115544,1,0,0:0:0:0:
448,192,115775,1,0,0:0:0:0:
192,192,115775,1,0,0:0:0:0:
64,192,115775,1,0,0:0:0:0:
448,192,116006,1,0,0:0:0:0:
320,192,116006,1,0,0:0:0:0:
64,192,116006,1,0,0:0:0:0:
448,192,116236,1,0,0:0:0:0:
320,192,116236,1,0,0:0:0:0:
192,192,116236,1,0,0:0:0:0:
448,192,116467,1,0,0:0:0:0:
320,192,116467,1,0,0:0:0:0:
64,192,116467,1,0,0:0:0:0:
320,192,116698,1,0,0:0:0:0:
192,192,116698,1,0,0:0:0:0:
64,192,116698,1,0,0:0:0:0:
448,192,116929,1,0,0:0:0:0:
192,192,116929,1,0,0:0:0:0:
64,192,116929,1,0,0:0:0:0:
448,192,117159,1,0,0:0:0:0:
192,192,117159,1,0,0:0:0:0:
64,192,117159,1,0,0:0:0:0:
320,192,117390,1,0,0:0:0:0:
448,192,117390,1,0,0:0:0:0:
64,192,117390,1,0,0:0:0:0:
192,192,117390,1,0,0:0:0:0:
320,192,117621,1,0,0:0:0:0:
64,192,117621,1,0,0:0:0:0:
448,192,117852,1,0,0:0:0:0:
320,192,117852,1,0,0:0:0:0:
192,192,117852,1,0,0:0:0:0:
448,192,118083,1,0,0:0:0:0:
192,192,118083,1,0,0:0:0:0:
64,192,118083,1,0,0:0:0:0:
448,192,118313,1,0,0:0:0:0:
320,192,118313,1,0,0:0:0:0:
64,192,118313,1,0,0:0:0:0:
448,192,118544,1,0,0:0:0:0:
320,192,118544,1,0,0:0:0:0:
192,192,118544,1,0,0:0:0:0:
448,192,118775,1,0,0:0:0:0:
320,192,118775,1,0,0:0:0:0:
64,192,118775,1,0,0:0:0:0:
320,192,119006,1,0,0:0:0:0:
192,192,119006,1,0,0:0:0:0:
64,192,119006,1,0,0:0:0:0:
448,192,119236,1,0,0:0:0:0:
192,192,119236,1,0,0:0:0:0:
448,192,119467,1,0,0:0:0:0:
320,192,119467,1,0,0:0:0:0:
64,192,119467,1,0,0:0:0:0:
448,192,119698,1,0,0:0:0:0:
320,192,119698,1,0,0:0:0:0:
192,192,119698,1,0,0:0:0:0:
448,192,119929,1,0,0:0:0:0:
192,192,119929,1,0,0:0:0:0:
64,192,119929,1,0,0:0:0:0:
320,192,120159,1,0,0:0:0:0:
192,192,120159,1,0,0:0:0:0:
64,192,120159,1,0,0:0:0:0:
448,192,120390,1,0,0:0:0:0:
320,192,120390,1,0,0:0:0:0:
192,192,120390,1,0,0:0:0:0:
320,192,120621,1,0,0:0:0:0:
192,192,120621,1,0,0:0:0:0:
64,192,120621,1,0,0:0:0:0:
448,192,120852,1,0,0:0:0:0:
320,192,120852,1,0,0:0:0:0:
64,192,120852,1,0,0:0:0:0:
448,192,121083,1,0,0:0:0:0:
320,192,121083,1,0,0:0:0:0:
192,192,121083,1,0,0:0:0:0:
448,192,121313,1,0,0:0:0:0:
64,192,121313,1,0,0:0:0:0:
448,192,121544,1,0,0:0:0:0:
320,192,121544,1,0,0:0:0:0:
192,192,121544,1,0,0:0:0:0:
192,192,121775,1,0,0:0:0:0:
64,192,121775,1,0,0:0:0:0:
448,192,122006,1,0,0:0:0:0:
320,192,122006,1,0,0:0:0:0:
192,192,122006,1,0,0:0:0:0:
448,192,122236,1,0,0:0:0:0:
192,192,122236,1,0,0:0:0:0:
64,192,122236,1,0,0:0:0:0:
448,192,122467,1,0,0:0:0:0:
320,192,122467,1,0,0:0:0:0:
64,192,122467,1,0,0:0:0:0:
448,192,122698,1,0,0:0:0:0:
320,192,122698,1,0,0:0:0:0:
192,192,122698,1,0,0:0:0:0:
448,192,122929,1,0,0:0:0:0:
320,192,122929,1,0,0:0:0:0:
64,192,122929,1,0,0:0:0:0:
320,192,123044,1,0,0:0:0:0:
192,192,123159,1,0,0:0:0:0:
192,192,123275,1,0,0:0:0:0:
320,192,123390,1,0,0:0:0:0:
320,192,123506,1,0,0:0:0:0:
192,192,123621,1,0,0:0:0:0:
192,192,123736,1,0,0:0:0:0:
320,192,123852,1,0,0:0:0:0:
64,192,123852,1,0,0:0:0:0:
64,192,123967,1,0,0:0:0:0:
448,192,124083,1,0,0:0:0:0:
448,192,124198,1,0,0:0:0:0:
320,192,124313,1,0,0:0:0:0:
192,192,124313,1,0,0:0:0:0:
320,192,124429,1,0,0:0:0:0:
448,192,124544,1,0,0:0:0:0:
448,192,124659,1,0,0:0:0:0:
320,192,124775,1,0,0:0:0:0:
192,192,124775,1,0,0:0:0:0:
64,192,124775,1,0,0:0:0:0:
192,192,125006,1,0,0:0:0:0:
64,192,125006,1,0,0:0:0:0:
448,192,125236,1,0,0:0:0:0:
320,192,125236,1,0,0:0:0:0:
192,192,125236,1,0,0:0:0:0:
192,192,125467,1,0,0:0:0:0:
64,192,125467,1,0,0:0:0:0:
448,192,125698,1,0,0:0:0:0:
320,192,125698,1,0,0:0:0:0:
192,192,125698,1,0,0:0:0:0:
448,192,125813,1,0,0:0:0:0:
320,192,125929,1,0,0:0:0:0:
192,192,125929,1,0,0:0:0:0:
64,192,125929,1,0,0:0:0:0:
448,192,126159,1,0,0:0:0:0:
320,192,126159,1,0,0:0:0:0:
64,192,126159,1,0,0:0:0:0:
448,192,126390,1,0,0:0:0:0:
320,192,126390,1,0,0:0:0:0:
192,192,126506,1,0,0:0:0:0:
64,192,126506,1,0,0:0:0:0:
448,192,126621,1,0,0:0:0:0:
320,192,126621,1,0,0:0:0:0:
64,192,126621,1,0,0:0:0:0:
448,192,126852,1,0,0:0:0:0:
192,192,126852,1,0,0:0:0:0:
64,192,126852,1,0,0:0:0:0:
448,192,127083,1,0,0:0:0:0:
192,192,127083,1,0,0:0:0:0:
320,192,127313,1,0,0:0:0:0:
192,192,127313,1,0,0:0:0:0:
64,192,127313,1,0,0:0:0:0:
448,192,127544,1,0,0:0:0:0:
320,192,127544,1,0,0:0:0:0:
64,192,127544,1,0,0:0:0:0:
192,192,127659,1,0,0:0:0:0:
64,192,127659,1,0,0:0:0:0:
448,192,127775,1,0,0:0:0:0:
320,192,127775,1,0,0:0:0:0:
192,192,127890,1,0,0:0:0:0:
448,192,128006,1,0,0:0:0:0:
320,192,128006,1,0,0:0:0:0:
64,192,128006,1,0,0:0:0:0:
320,192,128236,1,0,0:0:0:0:
192,192,128236,1,0,0:0:0:0:
64,192,128236,1,0,0:0:0:0:
448,192,128467,1,0,0:0:0:0:
192,192,128467,1,0,0:0:0:0:
64,192,128467,1,0,0:0:0:0:
448,192,128698,1,0,0:0:0:0:
320,192,128698,1,0,0:0:0:0:
448,192,128929,1,0,0:0:0:0:
320,192,128929,1,0,0:0:0:0:
192,192,128929,1,0,0:0:0:0:
192,192,129159,1,0,0:0:0:0:
64,192,129159,1,0,0:0:0:0:
448,192,129390,1,0,0:0:0:0:
320,192,129390,1,0,0:0:0:0:
192,192,129390,1,0,0:0:0:0:
320,192,129506,1,0,0:0:0:0:
448,192,129621,1,0,0:0:0:0:
64,192,129621,1,0,0:0:0:0:
192,192,129736,1,0,0:0:0:0:
448,192,129852,1,0,0:0:0:0:
320,192,129852,1,0,0:0:0:0:
64,192,129852,1,0,0:0:0:0:
448,192,130083,1,0,0:0:0:0:
320,192,130083,1,0,0:0:0:0:
192,192,130083,1,0,0:0:0:0:
448,192,130313,1,0,0:0:0:0:
320,192,130313,1,0,0:0:0:0:
64,192,130313,1,0,0:0:0:0:
320,192,130544,1,0,0:0:0:0:
192,192,130544,1,0,0:0:0:0:
64,192,130544,1,0,0:0:0:0:
448,192,130775,1,0,0:0:0:0:
320,192,130775,1,0,0:0:0:0:
192,192,130775,1,0,0:0:0:0:
448,192,131006,1,0,0:0:0:0:
192,192,131006,1,0,0:0:0:0:
64,192,131006,1,0,0:0:0:0:
448,192,131236,1,0,0:0:0:0:
320,192,131236,1,0,0:0:0:0:
64,192,131236,1,0,0:0:0:0:
192,192,131352,1,0,0:0:0:0:
64,192,131352,1,0,0:0:0:0:
448,192,131467,1,0,0:0:0:0:
320,192,131467,1,0,0:0:0:0:
192,192,131583,1,0,0:0:0:0:
448,192,131698,1,0,0:0:0:0:
320,192,131698,1,0,0:0:0:0:
64,192,131698,1,0,0:0:0:0:
320,192,131929,1,0,0:0:0:0:
64,192,131929,1,0,0:0:0:0:
320,192,132159,1,0,0:0:0:0:
448,192,132159,1,0,0:0:0:0:
64,192,132159,1,0,0:0:0:0:
192,192,132159,1,0,0:0:0:0:
448,192,132390,1,0,0:0:0:0:
192,192,132390,1,0,0:0:0:0:
448,192,132621,1,0,0:0:0:0:
320,192,132621,1,0,0:0:0:0:
64,192,132621,1,0,0:0:0:0:
320,192,132852,1,0,0:0:0:0:
64,192,132852,1,0,0:0:0:0:
192,192,132967,1,0,0:0:0:0:
448,192,133083,1,0,0:0:0:0:
320,192,133083,1,0,0:0:0:0:
64,192,133083,1,0,0:0:0:0:
448,192,133313,1,0,0:0:0:0:
64,192,133313,1,0,0:0:0:0:
320,192,133429,1,0,0:0:0:0:
448,192,133544,1,0,0:0:0:0:
192,192,133544,1,0,0:0:0:0:
64,192,133544,1,0,0:0:0:0:
320,192,133775,1,0,0:0:0:0:
192,192,133775,1,0,0:0:0:0:
448,192,133890,1,0,0:0:0:0:
448,192,134006,1,0,0:0:0:0:
320,192,134006,1,0,0:0:0:0:
64,192,134006,1,0,0:0:0:0:
448,192,134236,1,0,0:0:0:0:
192,192,134236,1,0,0:0:0:0:
448,192,134467,1,0,0:0:0:0:
320,192,134467,1,0,0:0:0:0:
64,192,134467,1,0,0:0:0:0:
192,192,134698,1,0,0:0:0:0:
64,192,134698,1,0,0:0:0:0:
448,192,134929,1,0,0:0:0:0:
192,192,134929,1,0,0:0:0:0:
64,192,134929,1,0,0:0:0:0:
448,192,135044,1,0,0:0:0:0:
320,192,135044,1,0,0:0:0:0:
192,192,135159,1,0,0:0:0:0:
64,192,135159,1,0,0:0:0:0:
320,192,135275,1,0,0:0:0:0:
448,192,135390,1,0,0:0:0:0:
192,192,135390,1,0,0:0:0:0:
64,192,135390,1,0,0:0:0:0:
448,192,135621,1,0,0:0:0:0:
320,192,135621,1,0,0:0:0:0:
448,192,135852,1,0,0:0:0:0:
320,192,135852,1,0,0:0:0:0:
192,192,135852,1,0,0:0:0:0:
192,192,136083,1,0,0:0:0:0:
64,192,136083,1,0,0:0:0:0:
448,192,136313,1,0,0:0:0:0:
320,192,136313,1,0,0:0:0:0:
64,192,136313,1,0,0:0:0:0:
448,192,136544,1,0,0:0:0:0:
320,192,136544,1,0,0:0:0:0:
448,192,136775,1,0,0:0:0:0:
192,192,136775,1,0,0:0:0:0:
64,192,136775,1,0,0:0:0:0:
320,192,136890,1,0,0:0:0:0:
192,192,137006,1,0,0:0:0:0:
64,192,137006,1,0,0:0:0:0:
448,192,137121,1,0,0:0:0:0:
320,192,137236,1,0,0:0:0:0:
192,192,137236,1,0,0:0:0:0:
64,192,137236,1,0,0:0:0:0:
448,192,137467,1,0,0:0:0:0:
192,192,137467,1,0,0:0:0:0:
320,192,137698,1,0,0:0:0:0:
448,192,137698,1,0,0:0:0:0:
64,192,137698,1,0,0:0:0:0:
192,192,137698,1,0,0:0:0:0:
320,192,137929,1,0,0:0:0:0:
64,192,137929,1,0,0:0:0:0:
448,192,138159,1,0,0:0:0:0:
192,192,138159,1,0,0:0:0:0:
448,192,138390,1,0,0:0:0:0:
192,192,138390,1,0,0:0:0:0:
192,192,138621,1,0,0:0:0:0:
64,192,138621,1,0,0:0:0:0:
192,192,138736,1,0,0:0:0:0:
64,192,138736,1,0,0:0:0:0:
448,192,138967,1,0,0:0:0:0:
320,192,138967,1,0,0:0:0:0:
192,192,139313,1,0,0:0:0:0:
64,192,139313,1,0,0:0:0:0:
448,192,139544,1,0,0:0:0:0:
320,192,139544,1,0,0:0:0:0:
192,192,139544,1,0,0:0:0:0:
192,192,140006,1,0,0:0:0:0:
448,192,140467,1,0,0:0:0:0:
320,192,140467,1,0,0:0:0:0:
192,192,141410,1,0,0:0:0:0:
320,192,141670,1,0,0:0:0:0:
64,192,141862,1,0,0:0:0:0:
320,192,142121,1,0,0:0:0:0:
192,192,142323,1,0,0:0:0:0:
448,192,142554,1,0,0:0:0:0:
192,192,142785,1,0,0:0:0:0:
320,192,143006,1,0,0:0:0:0:
192,192,143236,1,0,0:0:0:0:
320,192,143583,1,0,0:0:0:0:
192,192,143698,1,0,0:0:0:0:
64,192,143939,1,0,0:0:0:0:
448,192,144159,1,0,0:0:0:0:
320,192,144159,1,0,0:0:0:0:
192,192,144390,1,0,0:0:0:0:
320,192,144670,1,0,0:0:0:0:
64,192,144872,1,0,0:0:0:0:
192,192,144967,1,0,0:0:0:0:
448,192,145083,1,0,0:0:0:0:
320,192,145083,1,0,0:0:0:0:
64,192,145371,1,0,0:0:0:0:
448,192,145544,1,0,0:0:0:0:
320,192,145544,1,0,0:0:0:0:
320,192,145861,1,0,0:0:0:0:
192,192,146006,1,0,0:0:0:0:
64,192,146006,1,0,0:0:0:0:
448,192,146929,1,0,0:0:0:0:
192,192,146929,1,0,0:0:0:0:
320,192,147352,1,0,0:0:0:0:
64,192,147352,1,0,0:0:0:0:
320,192,147631,1,0,0:0:0:0:
192,192,147631,1,0,0:0:0:0:
448,192,147852,1,0,0:0:0:0:
320,192,147852,1,0,0:0:0:0:
192,192,148313,1,0,0:0:0:0:
64,192,148313,1,0,0:0:0:0:
448,192,148564,1,0,0:0:0:0:
320,192,148564,1,0,0:0:0:0:
448,192,149275,1,0,0:0:0:0:
192,192,149275,1,0,0:0:0:0:
448,192,149506,1,0,0:0:0:0:
64,192,149506,1,0,0:0:0:0:
320,192,149698,1,0,0:0:0:0:
192,192,149698,1,0,0:0:0:0:
320,192,150573,1,0,0:0:0:0:
64,192,150573,1,0,0:0:0:0:
320,192,150775,1,0,0:0:0:0:
192,192,150775,1,0,0:0:0:0:
448,192,151054,1,0,0:0:0:0:
320,192,151054,1,0,0:0:0:0:
448,192,151323,1,0,0:0:0:0:
64,192,151323,1,0,0:0:0:0:
320,192,151525,1,0,0:0:0:0:
64,192,151525,1,0,0:0:0:0:
192,192,151708,1,0,0:0:0:0:
448,192,151997,1,0,0:0:0:0:
320,192,151997,1,0,0:0:0:0:
320,192,152247,1,0,0:0:0:0:
64,192,152247,1,0,0:0:0:0:
448,192,152467,1,0,0:0:0:0:
320,192,152467,1,0,0:0:0:0:
192,192,152718,1,0,0:0:0:0:
64,192,152718,1,0,0:0:0:0:
320,192,152929,128,0,154775:0:0:0:0:
448,192,152929,128,0,154775:0:0:0:0:
192,192,154775,1,0,0:0:0:0:
64,192,154775,1,0,0:0:0:0:
448,192,155236,1,0,0:0:0:0:
192,192,155236,1,0,0:0:0:0:
320,192,155698,1,0,0:0:0:0:
192,192,155698,1,0,0:0:0:0:
64,192,155698,1,0,0:0:0:0:
320,192,156159,1,0,0:0:0:0:
448,192,156159,1,0,0:0:0:0:
64,192,156159,1,0,0:0:0:0:
192,192,156159,1,0,0:0:0:0:
192,192,156506,1,0,0:0:0:0:
64,192,156506,1,0,0:0:0:0:
448,192,156621,1,0,0:0:0:0:
320,192,156621,1,0,0:0:0:0:
448,192,156852,1,0,0:0:0:0:
320,192,156852,1,0,0:0:0:0:
320,192,157083,1,0,0:0:0:0:
64,192,157083,1,0,0:0:0:0:
448,192,157198,1,0,0:0:0:0:
192,192,157198,1,0,0:0:0:0:
320,192,157313,1,0,0:0:0:0:
64,192,157313,1,0,0:0:0:0:
448,192,157544,1,0,0:0:0:0:
64,192,157544,1,0,0:0:0:0:
192,192,157659,1,0,0:0:0:0:
448,192,157890,1,0,0:0:0:0:
320,192,157890,1,0,0:0:0:0:
192,192,158006,1,0,0:0:0:0:
64,192,158006,1,0,0:0:0:0:
192,192,158236,1,0,0:0:0:0:
448,192,158352,1,0,0:0:0:0:
320,192,158352,1,0,0:0:0:0:
192,192,158467,1,0,0:0:0:0:
64,192,158467,1,0,0:0:0:0:
448,192,158698,1,0,0:0:0:0:
320,192,158698,1,0,0:0:0:0:
448,192,158929,1,0,0:0:0:0:
64,192,158929,1,0,0:0:0:0:
320,192,159044,1,0,0:0:0:0:
192,192,159044,1,0,0:0:0:0:
320,192,159390,1,0,0:0:0:0:
192,192,159390,1,0,0:0:0:0:
448,192,159736,1,0,0:0:0:0:
320,192,159736,1,0,0:0:0:0:
192,192,159852,1,0,0:0:0:0:
64,192,159852,1,0,0:0:0:0:
448,192,160083,1,0,0:0:0:0:
192,192,160083,1,0,0:0:0:0:
320,192,160198,1,0,0:0:0:0:
64,192,160198,1,0,0:0:0:0:
448,192,160313,1,0,0:0:0:0:
192,192,160313,1,0,0:0:0:0:
448,192,160544,1,0,0:0:0:0:
64,192,160544,1,0,0:0:0:0:
448,192,160775,1,0,0:0:0:0:
320,192,160775,1,0,0:0:0:0:
192,192,160890,1,0,0:0:0:0:
64,192,160890,1,0,0:0:0:0:
448,192,161006,1,0,0:0:0:0:
320,192,161006,1,0,0:0:0:0:
192,192,161236,1,0,0:0:0:0:
64,192,161236,1,0,0:0:0:0:
448,192,161352,1,0,0:0:0:0:
320,192,161352,1,0,0:0:0:0:
192,192,161467,1,0,0:0:0:0:
448,192,161583,1,0,0:0:0:0:
320,192,161698,1,0,0:0:0:0:
64,192,161698,1,0,0:0:0:0:
448,192,161929,1,0,0:0:0:0:
192,192,162044,1,0,0:0:0:0:
64,192,162044,1,0,0:0:0:0:
448,192,162159,1,0,0:0:0:0:
320,192,162159,1,0,0:0:0:0:
320,192,162390,1,0,0:0:0:0:
192,192,162390,1,0,0:0:0:0:
320,192,162621,1,0,0:0:0:0:
192,192,162621,1,0,0:0:0:0:
448,192,162736,1,0,0:0:0:0:
64,192,162736,1,0,0:0:0:0:
448,192,163083,1,0,0:0:0:0:
192,192,163083,1,0,0:0:0:0:
192,192,163429,1,0,0:0:0:0:
64,192,163429,1,0,0:0:0:0:
448,192,163544,1,0,0:0:0:0:
320,192,163544,1,0,0:0:0:0:
320,192,163775,1,0,0:0:0:0:
64,192,163775,1,0,0:0:0:0:
448,192,163890,1,0,0:0:0:0:
192,192,163890,1,0,0:0:0:0:
320,192,164006,1,0,0:0:0:0:
64,192,164006,1,0,0:0:0:0:
448,192,164236,1,0,0:0:0:0:
192,192,164236,1,0,0:0:0:0:
448,192,164467,1,0,0:0:0:0:
64,192,164467,1,0,0:0:0:0:
320,192,164583,1,0,0:0:0:0:
192,192,164583,1,0,0:0:0:0:
448,192,164698,1,0,0:0:0:0:
64,192,164698,1,0,0:0:0:0:
192,192,164929,1,0,0:0:0:0:
64,192,164929,1,0,0:0:0:0:
448,192,165044,1,0,0:0:0:0:
320,192,165044,1,0,0:0:0:0:
448,192,165275,1,0,0:0:0:0:
64,192,165275,1,0,0:0:0:0:
320,192,165390,1,0,0:0:0:0:
192,192,165390,1,0,0:0:0:0:
320,192,165736,1,0,0:0:0:0:
64,192,165736,1,0,0:0:0:0:
448,192,165852,1,0,0:0:0:0:
192,192,165852,1,0,0:0:0:0:
448,192,166083,1,0,0:0:0:0:
192,192,166083,1,0,0:0:0:0:
192,192,166313,1,0,0:0:0:0:
64,192,166313,1,0,0:0:0:0:
448,192,166429,1,0,0:0:0:0:
320,192,166429,1,0,0:0:0:0:
192,192,166775,1,0,0:0:0:0:
64,192,166775,1,0,0:0:0:0:
448,192,167121,1,0,0:0:0:0:
320,192,167121,1,0,0:0:0:0:
192,192,167236,1,0,0:0:0:0:
64,192,167236,1,0,0:0:0:0:
448,192,167467,1,0,0:0:0:0:
192,192,167467,1,0,0:0:0:0:
320,192,167583,1,0,0:0:0:0:
64,192,167583,1,0,0:0:0:0:
448,192,167698,1,0,0:0:0:0:
192,192,167698,1,0,0:0:0:0:
320,192,167929,1,0,0:0:0:0:
64,192,167929,1,0,0:0:0:0:
448,192,168159,1,0,0:0:0:0:
64,192,168159,1,0,0:0:0:0:
320,192,168275,1,0,0:0:0:0:
192,192,168275,1,0,0:0:0:0:
448,192,168390,1,0,0:0:0:0:
64,192,168390,1,0,0:0:0:0:
448,192,168621,1,0,0:0:0:0:
320,192,168621,1,0,0:0:0:0:
192,192,168736,1,0,0:0:0:0:
64,192,168736,1,0,0:0:0:0:
320,192,168852,1,0,0:0:0:0:
448,192,168967,1,0,0:0:0:0:
64,192,168967,1,0,0:0:0:0:
320,192,169083,1,0,0:0:0:0:
192,192,169083,1,0,0:0:0:0:
192,192,169313,1,0,0:0:0:0:
448,192,169544,1,0,0:0:0:0:
320,192,169544,1,0,0:0:0:0:
64,192,169544,1,0,0:0:0:0:
192,192,169775,1,0,0:0:0:0:
320,192,170006,1,0,0:0:0:0:
192,192,170006,1,0,0:0:0:0:
64,192,170006,1,0,0:0:0:0:
448,192,170236,1,0,0:0:0:0:
320,192,170236,1,0,0:0:0:0:
448,192,170467,1,0,0:0:0:0:
192,192,170467,1,0,0:0:0:0:
64,192,170467,1,0,0:0:0:0:
320,192,170698,1,0,0:0:0:0:
64,192,170698,1,0,0:0:0:0:
320,192,170929,1,0,0:0:0:0:
448,192,170929,1,0,0:0:0:0:
64,192,170929,1,0,0:0:0:0:
192,192,170929,1,0,0:0:0:0:
192,192,171159,1,0,0:0:0:0:
64,192,171159,1,0,0:0:0:0:
448,192,171390,1,0,0:0:0:0:
320,192,171390,1,0,0:0:0:0:
192,192,171390,1,0,0:0:0:0:
448,192,171621,1,0,0:0:0:0:
192,192,171621,1,0,0:0:0:0:
64,192,171621,1,0,0:0:0:0:
448,192,171852,1,0,0:0:0:0:
320,192,171852,1,0,0:0:0:0:
64,192,171852,1,0,0:0:0:0:
448,192,172083,1,0,0:0:0:0:
320,192,172083,1,0,0:0:0:0:
192,192,172083,1,0,0:0:0:0:
448,192,172313,1,0,0:0:0:0:
320,192,172313,1,0,0:0:0:0:
64,192,172313,1,0,0:0:0:0:
320,192,172544,1,0,0:0:0:0:
192,192,172544,1,0,0:0:0:0:
64,192,172544,1,0,0:0:0:0:
448,192,172775,1,0,0:0:0:0:
192,192,172775,1,0,0:0:0:0:
448,192,173006,1,0,0:0:0:0:
320,192,173006,1,0,0:0:0:0:
64,192,173006,1,0,0:0:0:0:
448,192,173236,1,0,0:0:0:0:
320,192,173236,1,0,0:0:0:0:
192,192,173236,1,0,0:0:0:0:
448,192,173467,1,0,0:0:0:0:
192,192,173467,1,0,0:0:0:0:
64,192,173467,1,0,0:0:0:0:
320,192,173698,1,0,0:0:0:0:
448,192,173698,1,0,0:0:0:0:
64,192,173698,1,0,0:0:0:0:
192,192,173698,1,0,0:0:0:0:
320,192,173929,1,0,0:0:0:0:
192,192,173929,1,0,0:0:0:0:
320,192,174159,1,0,0:0:0:0:
448,192,174159,1,0,0:0:0:0:
64,192,174159,1,0,0:0:0:0:
192,192,174159,1,0,0:0:0:0:
320,192,174390,1,0,0:0:0:0:
64,192,174390,1,0,0:0:0:0:
448,192,174621,1,0,0:0:0:0:
320,192,174621,1,0,0:0:0:0:
192,192,174621,1,0,0:0:0:0:
192,192,174852,1,0,0:0:0:0:
64,192,174852,1,0,0:0:0:0:
448,192,175083,1,0,0:0:0:0:
320,192,175083,1,0,0:0:0:0:
192,192,175083,1,0,0:0:0:0:
448,192,175313,1,0,0:0:0:0:
192,192,175313,1,0,0:0:0:0:
64,192,175313,1,0,0:0:0:0:
448,192,175544,1,0,0:0:0:0:
320,192,175544,1,0,0:0:0:0:
64,192,175544,1,0,0:0:0:0:
448,192,175775,1,0,0:0:0:0:
320,192,175775,1,0,0:0:0:0:
192,192,175775,1,0,0:0:0:0:
448,192,176006,1,0,0:0:0:0:
320,192,176006,1,0,0:0:0:0:
64,192,176006,1,0,0:0:0:0:
320,192,176236,1,0,0:0:0:0:
192,192,176236,1,0,0:0:0:0:
64,192,176236,1,0,0:0:0:0:
448,192,176467,1,0,0:0:0:0:
192,192,176467,1,0,0:0:0:0:
448,192,176698,1,0,0:0:0:0:
192,192,176698,1,0,0:0:0:0:
64,192,176698,1,0,0:0:0:0:
448,192,176929,1,0,0:0:0:0:
320,192,176929,1,0,0:0:0:0:
64,192,176929,1,0,0:0:0:0:
448,192,177159,1,0,0:0:0:0:
320,192,177159,1,0,0:0:0:0:
192,192,177159,1,0,0:0:0:0:
448,192,177390,1,0,0:0:0:0:
320,192,177390,1,0,0:0:0:0:
64,192,177390,1,0,0:0:0:0:
320,192,177621,1,0,0:0:0:0:
192,192,177621,1,0,0:0:0:0:
64,192,177621,1,0,0:0:0:0:
448,192,177852,1,0,0:0:0:0:
192,192,177852,1,0,0:0:0:0:
64,192,177852,1,0,0:0:0:0:
448,192,178083,1,0,0:0:0:0:
320,192,178083,1,0,0:0:0:0:
192,192,178083,1,0,0:0:0:0:
320,192,178313,1,0,0:0:0:0:
448,192,178313,1,0,0:0:0:0:
64,192,178313,1,0,0:0:0:0:
192,192,178313,1,0,0:0:0:0:
320,192,178544,1,0,0:0:0:0:
64,192,178544,1,0,0:0:0:0:
448,192,178775,1,0,0:0:0:0:
320,192,178775,1,0,0:0:0:0:
192,192,178775,1,0,0:0:0:0:
448,192,179006,1,0,0:0:0:0:
192,192,179006,1,0,0:0:0:0:
64,192,179006,1,0,0:0:0:0:
448,192,179236,1,0,0:0:0:0:
320,192,179236,1,0,0:0:0:0:
64,192,179236,1,0,0:0:0:0:
448,192,179467,1,0,0:0:0:0:
320,192,179467,1,0,0:0:0:0:
192,192,179467,1,0,0:0:0:0:
448,192,179698,1,0,0:0:0:0:
320,192,179698,1,0,0:0:0:0:
64,192,179698,1,0,0:0:0:0:
320,192,179929,1,0,0:0:0:0:
192,192,179929,1,0,0:0:0:0:
64,192,179929,1,0,0:0:0:0:
448,192,180159,1,0,0:0:0:0:
192,192,180159,1,0,0:0:0:0:
448,192,180390,1,0,0:0:0:0:
320,192,180390,1,0,0:0:0:0:
64,192,180390,1,0,0:0:0:0:
448,192,180621,1,0,0:0:0:0:
320,192,180621,1,0,0:0:0:0:
192,192,180621,1,0,0:0:0:0:
448,192,180852,1,0,0:0:0:0:
192,192,180852,1,0,0:0:0:0:
64,192,180852,1,0,0:0:0:0:
320,192,181083,1,0,0:0:0:0:
192,192,181083,1,0,0:0:0:0:
64,192,181083,1,0,0:0:0:0:
448,192,181313,1,0,0:0:0:0:
320,192,181313,1,0,0:0:0:0:
192,192,181313,1,0,0:0:0:0:
320,192,181544,1,0,0:0:0:0:
192,192,181544,1,0,0:0:0:0:
64,192,181544,1,0,0:0:0:0:
448,192,181775,1,0,0:0:0:0:
320,192,181775,1,0,0:0:0:0:
64,192,181775,1,0,0:0:0:0:
448,192,182006,1,0,0:0:0:0:
320,192,182006,1,0,0:0:0:0:
192,192,182006,1,0,0:0:0:0:
448,192,182236,1,0,0:0:0:0:
64,192,182236,1,0,0:0:0:0:
448,192,182467,1,0,0:0:0:0:
320,192,182467,1,0,0:0:0:0:
192,192,182467,1,0,0:0:0:0:
192,192,182698,1,0,0:0:0:0:
64,192,182698,1,0,0:0:0:0:
448,192,182929,1,0,0:0:0:0:
320,192,182929,1,0,0:0:0:0:
192,192,182929,1,0,0:0:0:0:
448,192,183159,1,0,0:0:0:0:
192,192,183159,1,0,0:0:0:0:
64,192,183159,1,0,0:0:0:0:
448,192,183390,1,0,0:0:0:0:
320,192,183390,1,0,0:0:0:0:
64,192,183390,1,0,0:0:0:0:
448,192,183621,1,0,0:0:0:0:
320,192,183621,1,0,0:0:0:0:
192,192,183621,1,0,0:0:0:0:
448,192,183852,1,0,0:0:0:0:
320,192,183852,1,0,0:0:0:0:
64,192,183852,1,0,0:0:0:0:
192,192,184083,1,0,0:0:0:0:
448,192,184198,1,0,0:0:0:0:
320,192,184313,1,0,0:0:0:0:
64,192,184429,1,0,0:0:0:0:
192,192,184544,1,0,0:0:0:0:
448,192,184659,1,0,0:0:0:0:
320,192,184775,1,0,0:0:0:0:
192,192,184775,1,0,0:0:0:0:
64,192,184890,1,0,0:0:0:0:
448,192,185006,1,0,0:0:0:0:
320,192,185121,1,0,0:0:0:0:
448,192,185236,1,0,0:0:0:0:
64,192,185236,1,0,0:0:0:0:
192,192,185352,1,0,0:0:0:0:
320,192,185467,1,0,0:0:0:0:
320,192,185698,1,0,0:0:0:0:
448,192,185698,1,0,0:0:0:0:
64,192,185698,1,0,0:0:0:0:
192,192,185698,1,0,0:0:0:0:
448,192,185929,1,0,0:0:0:0:
320,192,185929,1,0,0:0:0:0:
320,192,186159,1,0,0:0:0:0:
192,192,186159,1,0,0:0:0:0:
64,192,186159,1,0,0:0:0:0:
448,192,186390,1,0,0:0:0:0:
320,192,186390,1,0,0:0:0:0:
64,192,186390,1,0,0:0:0:0:
448,192,186621,1,0,0:0:0:0:
192,192,186621,1,0,0:0:0:0:
64,192,186621,1,0,0:0:0:0:
320,192,186852,1,0,0:0:0:0:
192,192,186852,1,0,0:0:0:0:
64,192,186852,1,0,0:0:0:0:
448,192,187083,1,0,0:0:0:0:
192,192,187083,1,0,0:0:0:0:
64,192,187083,1,0,0:0:0:0:
448,192,187313,1,0,0:0:0:0:
320,192,187313,1,0,0:0:0:0:
192,192,187313,1,0,0:0:0:0:
320,192,187544,1,0,0:0:0:0:
64,192,187544,1,0,0:0:0:0:
448,192,187775,1,0,0:0:0:0:
192,192,187775,1,0,0:0:0:0:
64,192,187775,1,0,0:0:0:0:
320,192,188006,1,0,0:0:0:0:
192,192,188006,1,0,0:0:0:0:
64,192,188006,1,0,0:0:0:0:
448,192,188236,1,0,0:0:0:0:
320,192,188236,1,0,0:0:0:0:
64,192,188236,1,0,0:0:0:0:
320,192,188467,1,0,0:0:0:0:
448,192,188467,1,0,0:0:0:0:
64,192,188467,1,0,0:0:0:0:
192,192,188467,1,0,0:0:0:0:
320,192,188698,1,0,0:0:0:0:
192,192,188698,1,0,0:0:0:0:
320,192,188929,1,0,0:0:0:0:
448,192,188929,1,0,0:0:0:0:
64,192,188929,1,0,0:0:0:0:
192,192,188929,1,0,0:0:0:0:
448,192,189159,1,0,0:0:0:0:
192,192,189159,1,0,0:0:0:0:
320,192,189390,1,0,0:0:0:0:
192,192,189390,1,0,0:0:0:0:
64,192,189390,1,0,0:0:0:0:
448,192,189621,1,0,0:0:0:0:
320,192,189621,1,0,0:0:0:0:
320,192,189852,1,0,0:0:0:0:
192,192,189852,1,0,0:0:0:0:
64,192,189852,1,0,0:0:0:0:
448,192,190083,1,0,0:0:0:0:
320,192,190083,1,0,0:0:0:0:
64,192,190083,1,0,0:0:0:0:
448,192,190313,1,0,0:0:0:0:
192,192,190313,1,0,0:0:0:0:
64,192,190313,1,0,0:0:0:0:
320,192,190544,1,0,0:0:0:0:
192,192,190544,1,0,0:0:0:0:
64,192,190544,1,0,0:0:0:0:
448,192,190775,1,0,0:0:0:0:
192,192,190775,1,0,0:0:0:0:
64,192,190775,1,0,0:0:0:0:
448,192,191006,1,0,0:0:0:0:
320,192,191006,1,0,0:0:0:0:
192,192,191006,1,0,0:0:0:0:
320,192,191236,1,0,0:0:0:0:
64,192,191236,1,0,0:0:0:0:
448,192,191467,1,0,0:0:0:0:
320,192,191467,1,0,0:0:0:0:
64,192,191467,1,0,0:0:0:0:
448,192,191698,1,0,0:0:0:0:
192,192,191698,1,0,0:0:0:0:
64,192,191698,1,0,0:0:0:0:
320,192,191929,1,0,0:0:0:0:
192,192,191929,1,0,0:0:0:0:
64,192,191929,1,0,0:0:0:0:
448,192,192159,1,0,0:0:0:0:
192,192,192159,1,0,0:0:0:0:
64,192,192159,1,0,0:0:0:0:
320,192,192390,1,0,0:0:0:0:
192,192,192390,1,0,0:0:0:0:
448,192,192621,1,0,0:0:0:0:
320,192,192621,1,0,0:0:0:0:
64,192,192621,1,0,0:0:0:0:
320,192,192852,1,0,0:0:0:0:
192,192,192852,1,0,0:0:0:0:
320,192,193083,1,0,0:0:0:0:
448,192,193083,1,0,0:0:0:0:
64,192,193083,1,0,0:0:0:0:
192,192,193083,1,0,0:0:0:0:
448,192,193313,1,0,0:0:0:0:
192,192,193313,1,0,0:0:0:0:
320,192,193544,1,0,0:0:0:0:
192,192,193544,1,0,0:0:0:0:
64,192,193544,1,0,0:0:0:0:
448,192,193775,1,0,0:0:0:0:
320,192,193775,1,0,0:0:0:0:
64,192,193775,1,0,0:0:0:0:
448,192,194006,1,0,0:0:0:0:
192,192,194006,1,0,0:0:0:0:
64,192,194006,1,0,0:0:0:0:
320,192,194236,1,0,0:0:0:0:
192,192,194236,1,0,0:0:0:0:
64,192,194236,1,0,0:0:0:0:
448,192,194467,1,0,0:0:0:0:
192,192,194467,1,0,0:0:0:0:
64,192,194467,1,0,0:0:0:0:
448,192,194698,1,0,0:0:0:0:
320,192,194698,1,0,0:0:0:0:
192,192,194698,1,0,0:0:0:0:
320,192,194929,1,0,0:0:0:0:
64,192,194929,1,0,0:0:0:0:
448,192,195159,1,0,0:0:0:0:
192,192,195159,1,0,0:0:0:0:
64,192,195159,1,0,0:0:0:0:
320,192,195390,1,0,0:0:0:0:
192,192,195390,1,0,0:0:0:0:
64,192,195390,1,0,0:0:0:0:
448,192,195621,1,0,0:0:0:0:
320,192,195621,1,0,0:0:0:0:
64,192,195621,1,0,0:0:0:0:
448,192,195852,1,0,0:0:0:0:
320,192,195852,1,0,0:0:0:0:
192,192,195852,1,0,0:0:0:0:
320,192,196083,1,0,0:0:0:0:
192,192,196083,1,0,0:0:0:0:
64,192,196083,1,0,0:0:0:0:
448,192,196313,1,0,0:0:0:0:
320,192,196313,1,0,0:0:0:0:
192,192,196313,1,0,0:0:0:0:
448,192,196544,1,0,0:0:0:0:
192,192,196544,1,0,0:0:0:0:
64,192,196544,1,0,0:0:0:0:
320,192,196775,1,0,0:0:0:0:
192,192,196775,1,0,0:0:0:0:
64,192,196775,1,0,0:0:0:0:
448,192,197006,1,0,0:0:0:0:
64,192,197006,1,0,0:0:0:0:
320,192,197236,1,0,0:0:0:0:
192,192,197236,1,0,0:0:0:0:
64,192,197236,1,0,0:0:0:0:
448,192,197467,1,0,0:0:0:0:
320,192,197467,1,0,0:0:0:0:
320,192,197698,1,0,0:0:0:0:
192,192,197698,1,0,0:0:0:0:
64,192,197698,1,0,0:0:0:0:
448,192,197929,1,0,0:0:0:0:
320,192,197929,1,0,0:0:0:0:
64,192,197929,1,0,0:0:0:0:
448,192,198159,1,0,0:0:0:0:
192,192,198159,1,0,0:0:0:0:
64,192,198159,1,0,0:0:0:0:
320,192,198390,1,0,0:0:0:0:
192,192,198390,1,0,0:0:0:0:
64,192,198390,1,0,0:0:0:0:
448,192,198621,1,0,0:0:0:0:
192,192,198621,1,0,0:0:0:0:
64,192,198621,1,0,0:0:0:0:
192,192,198736,1,0,0:0:0:0:
320,192,198852,1,0,0:0:0:0:
320,192,198967,1,0,0:0:0:0:
192,192,199083,1,0,0:0:0:0:
192,192,199198,1,0,0:0:0:0:
320,192,199313,1,0,0:0:0:0:
320,192,199429,1,0,0:0:0:0:
192,192,199544,1,0,0:0:0:0:
64,192,199544,1,0,0:0:0:0:
64,192,199659,1,0,0:0:0:0:
192,192,199775,1,0,0:0:0:0:
192,192,199890,1,0,0:0:0:0:
448,192,200006,1,0,0:0:0:0:
64,192,200006,1,0,0:0:0:0:
64,192,200121,1,0,0:0:0:0:
192,192,200236,1,0,0:0:0:0:
192,192,200352,1,0,0:0:0:0:
448,192,200467,1,0,0:0:0:0:
320,192,200467,1,0,0:0:0:0:
64,192,200467,1,0,0:0:0:0:
192,192,200698,1,0,0:0:0:0:
64,192,200698,1,0,0:0:0:0:
448,192,200929,1,0,0:0:0:0:
320,192,200929,1,0,0:0:0:0:
192,192,200929,1,0,0:0:0:0:
192,192,201159,1,0,0:0:0:0:
64,192,201159,1,0,0:0:0:0:
448,192,201390,1,0,0:0:0:0:
320,192,201390,1,0,0:0:0:0:
192,192,201390,1,0,0:0:0:0:
448,192,201506,1,0,0:0:0:0:
320,192,201621,1,0,0:0:0:0:
192,192,201621,1,0,0:0:0:0:
64,192,201621,1,0,0:0:0:0:
448,192,201852,1,0,0:0:0:0:
320,192,201852,1,0,0:0:0:0:
64,192,201852,1,0,0:0:0:0:
448,192,202083,1,0,0:0:0:0:
192,192,202083,1,0,0:0:0:0:
320,192,202198,1,0,0:0:0:0:
64,192,202198,1,0,0:0:0:0:
448,192,202313,1,0,0:0:0:0:
320,192,202313,1,0,0:0:0:0:
64,192,202313,1,0,0:0:0:0:
320,192,202544,1,0,0:0:0:0:
192,192,202544,1,0,0:0:0:0:
64,192,202544,1,0,0:0:0:0:
448,192,202775,1,0,0:0:0:0:
192,192,202775,1,0,0:0:0:0:
448,192,203006,1,0,0:0:0:0:
192,192,203006,1,0,0:0:0:0:
64,192,203006,1,0,0:0:0:0:
448,192,203236,1,0,0:0:0:0:
320,192,203236,1,0,0:0:0:0:
64,192,203236,1,0,0:0:0:0:
320,192,203352,1,0,0:0:0:0:
64,192,203352,1,0,0:0:0:0:
448,192,203467,1,0,0:0:0:0:
192,192,203467,1,0,0:0:0:0:
320,192,203583,1,0,0:0:0:0:
448,192,203698,1,0,0:0:0:0:
192,192,203698,1,0,0:0:0:0:
64,192,203698,1,0,0:0:0:0:
320,192,203929,1,0,0:0:0:0:
192,192,203929,1,0,0:0:0:0:
64,192,203929,1,0,0:0:0:0:
448,192,204159,1,0,0:0:0:0:
192,192,204159,1,0,0:0:0:0:
64,192,204159,1,0,0:0:0:0:
448,192,204390,1,0,0:0:0:0:
320,192,204390,1,0,0:0:0:0:
448,192,204621,1,0,0:0:0:0:
320,192,204621,1,0,0:0:0:0:
192,192,204621,1,0,0:0:0:0:
192,192,204852,1,0,0:0:0:0:
64,192,204852,1,0,0:0:0:0:
448,192,205083,1,0,0:0:0:0:
320,192,205083,1,0,0:0:0:0:
192,192,205083,1,0,0:0:0:0:
320,192,205198,1,0,0:0:0:0:
448,192,205313,1,0,0:0:0:0:
64,192,205313,1,0,0:0:0:0:
192,192,205429,1,0,0:0:0:0:
448,192,205544,1,0,0:0:0:0:
320,192,205544,1,0,0:0:0:0:
64,192,205544,1,0,0:0:0:0:
448,192,205775,1,0,0:0:0:0:
320,192,205775,1,0,0:0:0:0:
192,192,205775,1,0,0:0:0:0:
448,192,206006,1,0,0:0:0:0:
320,192,206006,1,0,0:0:0:0:
64,192,206006,1,0,0:0:0:0:
320,192,206236,1,0,0:0:0:0:
192,192,206236,1,0,0:0:0:0:
64,192,206236,1,0,0:0:0:0:
448,192,206467,1,0,0:0:0:0:
320,192,206467,1,0,0:0:0:0:
192,192,206467,1,0,0:0:0:0:
448,192,206698,1,0,0:0:0:0:
192,192,206698,1,0,0:0:0:0:
64,192,206698,1,0,0:0:0:0:
448,192,206929,1,0,0:0:0:0:
320,192,206929,1,0,0:0:0:0:
64,192,206929,1,0,0:0:0:0:
320,192,207044,1,0,0:0:0:0:
64,192,207044,1,0,0:0:0:0:
448,192,207159,1,0,0:0:0:0:
192,192,207159,1,0,0:0:0:0:
320,192,207275,1,0,0:0:0:0:
448,192,207390,1,0,0:0:0:0:
192,192,207390,1,0,0:0:0:0:
64,192,207390,1,0,0:0:0:0:
320,192,207621,1,0,0:0:0:0:
64,192,207621,1,0,0:0:0:0:
320,192,207852,1,0,0:0:0:0:
448,192,207852,1,0,0:0:0:0:
64,192,207852,1,0,0:0:0:0:
192,192,207852,1,0,0:0:0:0:
448,192,208083,1,0,0:0:0:0:
192,192,208083,1,0,0:0:0:0:
448,192,208313,1,0,0:0:0:0:
320,192,208313,1,0,0:0:0:0:
64,192,208313,1,0,0:0:0:0:
320,192,208544,1,0,0:0:0:0:
64,192,208544,1,0,0:0:0:0:
192,192,208659,1,0,0:0:0:0:
448,192,208775,1,0,0:0:0:0:
320,192,208775,1,0,0:0:0:0:
64,192,208775,1,0,0:0:0:0:
448,192,209006,1,0,0:0:0:0:
64,192,209006,1,0,0:0:0:0:
320,192,209121,1,0,0:0:0:0:
448,192,209236,1,0,0:0:0:0:
192,192,209236,1,0,0:0:0:0:
64,192,209236,1,0,0:0:0:0:
320,192,209467,1,0,0:0:0:0:
192,192,209467,1,0,0:0:0:0:
448,192,209583,1,0,0:0:0:0:
448,192,209698,1,0,0:0:0:0:
320,192,209698,1,0,0:0:0:0:
64,192,209698,1,0,0:0:0:0:
448,192,209929,1,0,0:0:0:0:
192,192,209929,1,0,0:0:0:0:
448,192,210159,1,0,0:0:0:0:
320,192,210159,1,0,0:0:0:0:
64,192,210159,1,0,0:0:0:0:
192,192,210390,1,0,0:0:0:0:
64,192,210390,1,0,0:0:0:0:
448,192,210621,1,0,0:0:0:0:
192,192,210621,1,0,0:0:0:0:
64,192,210621,1,0,0:0:0:0:
448,192,210736,1,0,0:0:0:0:
192,192,210736,1,0,0:0:0:0:
320,192,210852,1,0,0:0:0:0:
64,192,210852,1,0,0:0:0:0:
192,192,210967,1,0,0:0:0:0:
448,192,211083,1,0,0:0:0:0:
320,192,211083,1,0,0:0:0:0:
64,192,211083,1,0,0:0:0:0:
448,192,211313,1,0,0:0:0:0:
192,192,211313,1,0,0:0:0:0:
448,192,211544,1,0,0:0:0:0:
320,192,211544,1,0,0:0:0:0:
192,192,211544,1,0,0:0:0:0:
192,192,211775,1,0,0:0:0:0:
64,192,211775,1,0,0:0:0:0:
448,192,212006,1,0,0:0:0:0:
320,192,212006,1,0,0:0:0:0:
64,192,212006,1,0,0:0:0:0:
448,192,212236,1,0,0:0:0:0:
320,192,212236,1,0,0:0:0:0:
448,192,212467,1,0,0:0:0:0:
192,192,212467,1,0,0:0:0:0:
64,192,212467,1,0,0:0:0:0:
320,192,212583,1,0,0:0:0:0:
192,192,212698,1,0,0:0:0:0:
64,192,212698,1,0,0:0:0:0:
448,192,212813,1,0,0:0:0:0:
320,192,212929,1,0,0:0:0:0:
192,192,212929,1,0,0:0:0:0:
64,192,212929,1,0,0:0:0:0:
448,192,213159,1,0,0:0:0:0:
192,192,213159,1,0,0:0:0:0:
320,192,213390,1,0,0:0:0:0:
448,192,213390,1,0,0:0:0:0:
64,192,213390,1,0,0:0:0:0:
192,192,213390,1,0,0:0:0:0:
320,192,213621,1,0,0:0:0:0:
64,192,213621,1,0,0:0:0:0:
448,192,213852,1,0,0:0:0:0:
320,192,213852,1,0,0:0:0:0:
192,192,214083,1,0,0:0:0:0:
64,192,214083,1,0,0:0:0:0:
448,192,214313,1,0,0:0:0:0:
64,192,214313,1,0,0:0:0:0:
448,192,214429,1,0,0:0:0:0:
64,192,214429,1,0,0:0:0:0:
320,192,214659,1,0,0:0:0:0:
192,192,214775,1,0,0:0:0:0:
64,192,214775,1,0,0:0:0:0:
448,192,215006,1,0,0:0:0:0:
320,192,215006,1,0,0:0:0:0:
192,192,215236,1,0,0:0:0:0:
