osu file format v14

[General]
AudioFilename: love 1.400x (pitch raised).mp3
AudioLeadIn: 0
PreviewTime: 77545
Countdown: 0
SampleSet: Drum
StackLeniency: 0.7
Mode: 3
LetterboxInBreaks: 0
SpecialStyle: 0
WidescreenStoryboard: 0

[Editor]
DistanceSpacing: 0.8
BeatDivisor: 8
GridSize: 32
TimelineZoom: 1

[Metadata]
Title:Rhythm of Love
TitleUnicode:Rhythm of Love
Artist:Yoomiii
ArtistUnicode:Yoomiii
Creator:riktoi
Version:Cadence 1.4x
Source:
Tags:chordjacks euro let the music play Electronic Pop Europop English
BeatmapID:3173288
BeatmapSetID:727196

[Difficulty]
HPDrainRate:8
CircleSize:4
OverallDifficulty:8
ApproachRate:5
SliderMultiplier:1.4
SliderTickRate:1

[Events]
//Background and Video events
0,0,"bg.png",0,0
//Break Periods
//Storyboard Layer 0 (Background)
//Storyboard Layer 1 (Fail)
//Storyboard Layer 2 (Pass)
//Storyboard Layer 3 (Foreground)
//Storyboard Layer 4 (Overlay)
//Storyboard Sound Samples

[TimingPoints]
773,329.67033,4,3,0,40,1,0

[HitObjects]
192,192,773,5,0,0:0:0:0:
320,192,1102,1,0,0:0:0:0:
64,192,1267,1,0,0:0:0:0:
320,192,1432,1,0,0:0:0:0:
448,192,1597,1,0,0:0:0:0:
320,192,1762,1,0,0:0:0:0:
64,192,1927,1,0,0:0:0:0:
64,192,2256,1,0,0:0:0:0:
448,192,2421,1,0,0:0:0:0:
192,192,2586,1,0,0:0:0:0:
320,192,2751,1,0,0:0:0:0:
64,192,2916,1,0,0:0:0:0:
448,192,3080,1,0,0:0:0:0:
192,192,3245,1,0,0:0:0:0:
192,192,3410,1,0,0:0:0:0:
320,192,3740,1,0,0:0:0:0:
64,192,3905,1,0,0:0:0:0:
320,192,4070,1,0,0:0:0:0:
448,192,4235,1,0,0:0:0:0:
320,192,4399,1,0,0:0:0:0:
64,192,4564,1,0,0:0:0:0:
64,192,4894,1,0,0:0:0:0:
448,192,5059,1,0,0:0:0:0:
320,192,5223,1,0,0:0:0:0:
64,192,5388,1,0,0:0:0:0:
64,192,5553,1,0,0:0:0:0:
320,192,5718,1,0,0:0:0:0:
320,192,5882,1,0,0:0:0:0:
192,192,6047,1,0,0:0:0:0:
320,192,6377,1,0,0:0:0:0:
64,192,6542,1,0,0:0:0:0:
320,192,6707,1,0,0:0:0:0:
448,192,6872,1,0,0:0:0:0:
320,192,7037,1,0,0:0:0:0:
64,192,7202,1,0,0:0:0:0:
64,192,7531,1,0,0:0:0:0:
448,192,7696,1,0,0:0:0:0:
192,192,7861,1,0,0:0:0:0:
320,192,8025,1,0,0:0:0:0:
64,192,8190,1,0,0:0:0:0:
448,192,8355,1,0,0:0:0:0:
192,192,8520,1,0,0:0:0:0:
448,192,8685,1,0,0:0:0:0:
192,192,9015,1,0,0:0:0:0:
320,192,9180,1,0,0:0:0:0:
64,192,9345,1,0,0:0:0:0:
192,192,9509,1,0,0:0:0:0:
448,192,9674,1,0,0:0:0:0:
192,192,9839,1,0,0:0:0:0:
448,192,10168,1,0,0:0:0:0:
64,192,10333,1,0,0:0:0:0:
320,192,10498,1,0,0:0:0:0:
192,192,10663,1,0,0:0:0:0:
192,192,10827,1,0,0:0:0:0:
448,192,10992,1,0,0:0:0:0:
448,192,11157,1,0,0:0:0:0:
192,192,11322,1,0,0:0:0:0:
64,192,11322,1,0,0:0:0:0:
320,192,11652,1,0,0:0:0:0:
64,192,11652,1,0,0:0:0:0:
448,192,11982,1,0,0:0:0:0:
320,192,11982,1,0,0:0:0:0:
192,192,12147,1,0,0:0:0:0:
64,192,12229,1,0,0:0:0:0:
448,192,12311,1,0,0:0:0:0:
320,192,12311,1,0,0:0:0:0:
192,192,12476,1,0,0:0:0:0:
448,192,12641,1,0,0:0:0:0:
192,192,12641,1,0,0:0:0:0:
64,192,12641,1,0,0:0:0:0:
448,192,12806,1,0,0:0:0:0:
320,192,12806,1,0,0:0:0:0:
320,192,12970,1,0,0:0:0:0:
192,192,12970,1,0,0:0:0:0:
64,192,12970,1,0,0:0:0:0:
448,192,13135,1,0,0:0:0:0:
192,192,13135,1,0,0:0:0:0:
448,192,13300,1,0,0:0:0:0:
320,192,13300,1,0,0:0:0:0:
64,192,13300,1,0,0:0:0:0:
192,192,13465,1,0,0:0:0:0:
64,192,13465,1,0,0:0:0:0:
448,192,13630,1,0,0:0:0:0:
320,192,13630,1,0,0:0:0:0:
64,192,13630,1,0,0:0:0:0:
320,192,13795,1,0,0:0:0:0:
192,192,13795,1,0,0:0:0:0:
448,192,13960,1,0,0:0:0:0:
192,192,13960,1,0,0:0:0:0:
64,192,13960,1,0,0:0:0:0:
448,192,14125,1,0,0:0:0:0:
64,192,14125,1,0,0:0:0:0:
448,192,14290,1,0,0:0:0:0:
320,192,14290,1,0,0:0:0:0:
192,192,14290,1,0,0:0:0:0:
192,192,14454,1,0,0:0:0:0:
64,192,14454,1,0,0:0:0:0:
448,192,14619,1,0,0:0:0:0:
320,192,14619,1,0,0:0:0:0:
64,192,14619,1,0,0:0:0:0:
320,192,14784,1,0,0:0:0:0:
192,192,14784,1,0,0:0:0:0:
448,192,14949,1,0,0:0:0:0:
320,192,14949,1,0,0:0:0:0:
64,192,14949,1,0,0:0:0:0:
448,192,15113,1,0,0:0:0:0:
192,192,15113,1,0,0:0:0:0:
448,192,15278,1,0,0:0:0:0:
192,192,15278,1,0,0:0:0:0:
64,192,15278,1,0,0:0:0:0:
320,192,15443,1,0,0:0:0:0:
64,192,15443,1,0,0:0:0:0:
448,192,15608,1,0,0:0:0:0:
320,192,15608,1,0,0:0:0:0:
192,192,15608,1,0,0:0:0:0:
448,192,15773,1,0,0:0:0:0:
64,192,15773,1,0,0:0:0:0:
320,192,15937,1,0,0:0:0:0:
192,192,15937,1,0,0:0:0:0:
64,192,15937,1,0,0:0:0:0:
320,192,16102,1,0,0:0:0:0:
192,192,16102,1,0,0:0:0:0:
448,192,16267,1,0,0:0:0:0:
320,192,16267,1,0,0:0:0:0:
64,192,16267,1,0,0:0:0:0:
448,192,16432,1,0,0:0:0:0:
192,192,16432,1,0,0:0:0:0:
320,192,16597,1,0,0:0:0:0:
192,192,16597,1,0,0:0:0:0:
64,192,16597,1,0,0:0:0:0:
448,192,16762,1,0,0:0:0:0:
320,192,16762,1,0,0:0:0:0:
448,192,16927,1,0,0:0:0:0:
192,192,16927,1,0,0:0:0:0:
64,192,16927,1,0,0:0:0:0:
320,192,17092,1,0,0:0:0:0:
192,192,17092,1,0,0:0:0:0:
448,192,17256,1,0,0:0:0:0:
192,192,17256,1,0,0:0:0:0:
64,192,17256,1,0,0:0:0:0:
448,192,17421,1,0,0:0:0:0:
320,192,17421,1,0,0:0:0:0:
320,192,17586,1,0,0:0:0:0:
192,192,17586,1,0,0:0:0:0:
64,192,17586,1,0,0:0:0:0:
192,192,17751,1,0,0:0:0:0:
64,192,17751,1,0,0:0:0:0:
448,192,17916,1,0,0:0:0:0:
320,192,17916,1,0,0:0:0:0:
64,192,17916,1,0,0:0:0:0:
320,192,18080,1,0,0:0:0:0:
192,192,18080,1,0,0:0:0:0:
448,192,18245,1,0,0:0:0:0:
320,192,18245,1,0,0:0:0:0:
64,192,18245,1,0,0:0:0:0:
448,192,18410,1,0,0:0:0:0:
320,192,18410,1,0,0:0:0:0:
448,192,18575,1,0,0:0:0:0:
192,192,18575,1,0,0:0:0:0:
64,192,18575,1,0,0:0:0:0:
320,192,18740,1,0,0:0:0:0:
64,192,18740,1,0,0:0:0:0:
448,192,18905,1,0,0:0:0:0:
192,192,18905,1,0,0:0:0:0:
64,192,18905,1,0,0:0:0:0:
448,192,19070,1,0,0:0:0:0:
192,192,19070,1,0,0:0:0:0:
448,192,19235,1,0,0:0:0:0:
320,192,19235,1,0,0:0:0:0:
64,192,19235,1,0,0:0:0:0:
320,192,19399,1,0,0:0:0:0:
192,192,19399,1,0,0:0:0:0:
448,192,19564,1,0,0:0:0:0:
192,192,19564,1,0,0:0:0:0:
64,192,19564,1,0,0:0:0:0:
448,192,19729,1,0,0:0:0:0:
320,192,19729,1,0,0:0:0:0:
320,192,19894,1,0,0:0:0:0:
192,192,19894,1,0,0:0:0:0:
64,192,19894,1,0,0:0:0:0:
448,192,20059,1,0,0:0:0:0:
64,192,20059,1,0,0:0:0:0:
448,192,20223,1,0,0:0:0:0:
320,192,20223,1,0,0:0:0:0:
192,192,20223,1,0,0:0:0:0:
192,192,20388,1,0,0:0:0:0:
64,192,20388,1,0,0:0:0:0:
448,192,20553,1,0,0:0:0:0:
192,192,20553,1,0,0:0:0:0:
64,192,20553,1,0,0:0:0:0:
448,192,20718,1,0,0:0:0:0:
320,192,20718,1,0,0:0:0:0:
320,192,20882,1,0,0:0:0:0:
192,192,20882,1,0,0:0:0:0:
64,192,20882,1,0,0:0:0:0:
320,192,21047,1,0,0:0:0:0:
64,192,21047,1,0,0:0:0:0:
448,192,21212,1,0,0:0:0:0:
192,192,21212,1,0,0:0:0:0:
64,192,21212,1,0,0:0:0:0:
448,192,21377,1,0,0:0:0:0:
192,192,21377,1,0,0:0:0:0:
448,192,21542,1,0,0:0:0:0:
320,192,21542,1,0,0:0:0:0:
64,192,21542,1,0,0:0:0:0:
448,192,21707,1,0,0:0:0:0:
64,192,21707,1,0,0:0:0:0:
320,192,21872,1,0,0:0:0:0:
192,192,21872,1,0,0:0:0:0:
64,192,21872,1,0,0:0:0:0:
448,192,22037,1,0,0:0:0:0:
320,192,22037,1,0,0:0:0:0:
320,192,22202,1,0,0:0:0:0:
192,192,22202,1,0,0:0:0:0:
64,192,22202,1,0,0:0:0:0:
320,192,22366,1,0,0:0:0:0:
64,192,22366,1,0,0:0:0:0:
448,192,22531,1,0,0:0:0:0:
320,192,22531,1,0,0:0:0:0:
64,192,22531,1,0,0:0:0:0:
448,192,22696,1,0,0:0:0:0:
192,192,22696,1,0,0:0:0:0:
192,192,22861,1,0,0:0:0:0:
448,192,23025,1,0,0:0:0:0:
320,192,23025,1,0,0:0:0:0:
64,192,23025,1,0,0:0:0:0:
320,192,23190,1,0,0:0:0:0:
448,192,23190,1,0,0:0:0:0:
64,192,23190,1,0,0:0:0:0:
192,192,23190,1,0,0:0:0:0:
320,192,23355,1,0,0:0:0:0:
192,192,23355,1,0,0:0:0:0:
448,192,23520,1,0,0:0:0:0:
192,192,23520,1,0,0:0:0:0:
64,192,23520,1,0,0:0:0:0:
448,192,23685,1,0,0:0:0:0:
64,192,23685,1,0,0:0:0:0:
448,192,23850,1,0,0:0:0:0:
320,192,23850,1,0,0:0:0:0:
64,192,23850,1,0,0:0:0:0:
320,192,24015,1,0,0:0:0:0:
64,192,24015,1,0,0:0:0:0:
448,192,24180,1,0,0:0:0:0:
320,192,24180,1,0,0:0:0:0:
192,192,24180,1,0,0:0:0:0:
448,192,24345,1,0,0:0:0:0:
192,192,24345,1,0,0:0:0:0:
320,192,24509,1,0,0:0:0:0:
192,192,24509,1,0,0:0:0:0:
64,192,24509,1,0,0:0:0:0:
448,192,24674,1,0,0:0:0:0:
320,192,24674,1,0,0:0:0:0:
448,192,24839,1,0,0:0:0:0:
192,192,24839,1,0,0:0:0:0:
64,192,24839,1,0,0:0:0:0:
320,192,25004,1,0,0:0:0:0:
64,192,25004,1,0,0:0:0:0:
448,192,25168,1,0,0:0:0:0:
320,192,25168,1,0,0:0:0:0:
64,192,25168,1,0,0:0:0:0:
320,192,25333,1,0,0:0:0:0:
192,192,25333,1,0,0:0:0:0:
448,192,25498,1,0,0:0:0:0:
192,192,25498,1,0,0:0:0:0:
64,192,25498,1,0,0:0:0:0:
320,192,25663,1,0,0:0:0:0:
64,192,25663,1,0,0:0:0:0:
448,192,25827,1,0,0:0:0:0:
320,192,25827,1,0,0:0:0:0:
64,192,25827,1,0,0:0:0:0:
192,192,25992,1,0,0:0:0:0:
64,192,25992,1,0,0:0:0:0:
448,192,26157,1,0,0:0:0:0:
320,192,26157,1,0,0:0:0:0:
192,192,26157,1,0,0:0:0:0:
448,192,26322,1,0,0:0:0:0:
64,192,26322,1,0,0:0:0:0:
448,192,26487,1,0,0:0:0:0:
192,192,26487,1,0,0:0:0:0:
64,192,26487,1,0,0:0:0:0:
320,192,26652,1,0,0:0:0:0:
192,192,26652,1,0,0:0:0:0:
448,192,26817,1,0,0:0:0:0:
320,192,26817,1,0,0:0:0:0:
64,192,26817,1,0,0:0:0:0:
192,192,26982,1,0,0:0:0:0:
64,192,26982,1,0,0:0:0:0:
448,192,27147,1,0,0:0:0:0:
192,192,27147,1,0,0:0:0:0:
64,192,27147,1,0,0:0:0:0:
448,192,27311,1,0,0:0:0:0:
320,192,27311,1,0,0:0:0:0:
448,192,27476,1,0,0:0:0:0:
192,192,27476,1,0,0:0:0:0:
64,192,27476,1,0,0:0:0:0:
448,192,27641,1,0,0:0:0:0:
192,192,27641,1,0,0:0:0:0:
448,192,27806,1,0,0:0:0:0:
320,192,27806,1,0,0:0:0:0:
192,192,27806,1,0,0:0:0:0:
192,192,27970,1,0,0:0:0:0:
64,192,27970,1,0,0:0:0:0:
448,192,28135,1,0,0:0:0:0:
192,192,28135,1,0,0:0:0:0:
64,192,28135,1,0,0:0:0:0:
320,192,28300,1,0,0:0:0:0:
64,192,28300,1,0,0:0:0:0:
448,192,28465,1,0,0:0:0:0:
320,192,28465,1,0,0:0:0:0:
192,192,28465,1,0,0:0:0:0:
448,192,28630,1,0,0:0:0:0:
192,192,28630,1,0,0:0:0:0:
320,192,28795,1,0,0:0:0:0:
192,192,28795,1,0,0:0:0:0:
64,192,28795,1,0,0:0:0:0:
448,192,28960,1,0,0:0:0:0:
64,192,28960,1,0,0:0:0:0:
320,192,29125,1,0,0:0:0:0:
192,192,29125,1,0,0:0:0:0:
64,192,29125,1,0,0:0:0:0:
320,192,29290,1,0,0:0:0:0:
192,192,29290,1,0,0:0:0:0:
448,192,29454,1,0,0:0:0:0:
192,192,29454,1,0,0:0:0:0:
64,192,29454,1,0,0:0:0:0:
320,192,29619,1,0,0:0:0:0:
64,192,29619,1,0,0:0:0:0:
448,192,29784,1,0,0:0:0:0:
320,192,29784,1,0,0:0:0:0:
64,192,29784,1,0,0:0:0:0:
320,192,29949,1,0,0:0:0:0:
192,192,29949,1,0,0:0:0:0:
448,192,30113,1,0,0:0:0:0:
192,192,30113,1,0,0:0:0:0:
64,192,30113,1,0,0:0:0:0:
448,192,30278,1,0,0:0:0:0:
64,192,30278,1,0,0:0:0:0:
448,192,30443,1,0,0:0:0:0:
192,192,30443,1,0,0:0:0:0:
64,192,30443,1,0,0:0:0:0:
448,192,30608,1,0,0:0:0:0:
192,192,30608,1,0,0:0:0:0:
320,192,30773,1,0,0:0:0:0:
192,192,30773,1,0,0:0:0:0:
64,192,30773,1,0,0:0:0:0:
448,192,30937,1,0,0:0:0:0:
64,192,30937,1,0,0:0:0:0:
320,192,31102,1,0,0:0:0:0:
448,192,31102,1,0,0:0:0:0:
64,192,31102,1,0,0:0:0:0:
192,192,31102,1,0,0:0:0:0:
192,192,31267,1,0,0:0:0:0:
448,192,31432,1,0,0:0:0:0:
320,192,31432,1,0,0:0:0:0:
192,192,31597,1,0,0:0:0:0:
320,192,31762,1,0,0:0:0:0:
64,192,31762,1,0,0:0:0:0:
192,192,31927,1,0,0:0:0:0:
448,192,32092,1,0,0:0:0:0:
64,192,32092,1,0,0:0:0:0:
320,192,32256,1,0,0:0:0:0:
64,192,32421,1,0,0:0:0:0:
448,192,32751,1,0,0:0:0:0:
320,192,32751,1,0,0:0:0:0:
192,192,32751,1,0,0:0:0:0:
320,192,33080,1,0,0:0:0:0:
192,192,33080,1,0,0:0:0:0:
64,192,33080,1,0,0:0:0:0:
448,192,33410,1,0,0:0:0:0:
320,192,33410,1,0,0:0:0:0:
64,192,33410,1,0,0:0:0:0:
320,192,33740,1,0,0:0:0:0:
448,192,33740,1,0,0:0:0:0:
64,192,33740,1,0,0:0:0:0:
192,192,33740,1,0,0:0:0:0:
448,192,33905,1,0,0:0:0:0:
320,192,33905,1,0,0:0:0:0:
320,192,34070,1,0,0:0:0:0:
192,192,34070,1,0,0:0:0:0:
64,192,34070,1,0,0:0:0:0:
448,192,34235,1,0,0:0:0:0:
192,192,34235,1,0,0:0:0:0:
64,192,34235,1,0,0:0:0:0:
448,192,34399,1,0,0:0:0:0:
320,192,34399,1,0,0:0:0:0:
64,192,34399,1,0,0:0:0:0:
320,192,34564,1,0,0:0:0:0:
192,192,34564,1,0,0:0:0:0:
64,192,34564,1,0,0:0:0:0:
448,192,34729,1,0,0:0:0:0:
320,192,34729,1,0,0:0:0:0:
64,192,34729,1,0,0:0:0:0:
448,192,34894,1,0,0:0:0:0:
320,192,34894,1,0,0:0:0:0:
192,192,34894,1,0,0:0:0:0:
192,192,35059,1,0,0:0:0:0:
64,192,35059,1,0,0:0:0:0:
448,192,35223,1,0,0:0:0:0:
320,192,35223,1,0,0:0:0:0:
64,192,35223,1,0,0:0:0:0:
320,192,35388,1,0,0:0:0:0:
192,192,35388,1,0,0:0:0:0:
64,192,35388,1,0,0:0:0:0:
448,192,35553,1,0,0:0:0:0:
192,192,35553,1,0,0:0:0:0:
64,192,35553,1,0,0:0:0:0:
448,192,35718,1,0,0:0:0:0:
320,192,35718,1,0,0:0:0:0:
192,192,35718,1,0,0:0:0:0:
320,192,35882,1,0,0:0:0:0:
192,192,35882,1,0,0:0:0:0:
64,192,35882,1,0,0:0:0:0:
448,192,36047,1,0,0:0:0:0:
320,192,36047,1,0,0:0:0:0:
192,192,36047,1,0,0:0:0:0:
448,192,36212,1,0,0:0:0:0:
320,192,36212,1,0,0:0:0:0:
64,192,36212,1,0,0:0:0:0:
320,192,36377,1,0,0:0:0:0:
192,192,36377,1,0,0:0:0:0:
64,192,36377,1,0,0:0:0:0:
448,192,36542,1,0,0:0:0:0:
192,192,36542,1,0,0:0:0:0:
320,192,36707,1,0,0:0:0:0:
192,192,36707,1,0,0:0:0:0:
64,192,36707,1,0,0:0:0:0:
448,192,36872,1,0,0:0:0:0:
192,192,36872,1,0,0:0:0:0:
64,192,36872,1,0,0:0:0:0:
448,192,37037,1,0,0:0:0:0:
320,192,37037,1,0,0:0:0:0:
64,192,37037,1,0,0:0:0:0:
320,192,37202,1,0,0:0:0:0:
192,192,37202,1,0,0:0:0:0:
64,192,37202,1,0,0:0:0:0:
448,192,37366,1,0,0:0:0:0:
320,192,37366,1,0,0:0:0:0:
64,192,37366,1,0,0:0:0:0:
448,192,37531,1,0,0:0:0:0:
320,192,37531,1,0,0:0:0:0:
192,192,37531,1,0,0:0:0:0:
192,192,37696,1,0,0:0:0:0:
64,192,37696,1,0,0:0:0:0:
448,192,37861,1,0,0:0:0:0:
192,192,37861,1,0,0:0:0:0:
64,192,37861,1,0,0:0:0:0:
448,192,38025,1,0,0:0:0:0:
320,192,38025,1,0,0:0:0:0:
64,192,38025,1,0,0:0:0:0:
320,192,38190,1,0,0:0:0:0:
192,192,38190,1,0,0:0:0:0:
64,192,38190,1,0,0:0:0:0:
448,192,38355,1,0,0:0:0:0:
320,192,38355,1,0,0:0:0:0:
64,192,38355,1,0,0:0:0:0:
448,192,38520,1,0,0:0:0:0:
320,192,38520,1,0,0:0:0:0:
192,192,38520,1,0,0:0:0:0:
448,192,38685,1,0,0:0:0:0:
192,192,38685,1,0,0:0:0:0:
64,192,38685,1,0,0:0:0:0:
448,192,38850,1,0,0:0:0:0:
192,192,38850,1,0,0:0:0:0:
64,192,38850,1,0,0:0:0:0:
320,192,39015,1,0,0:0:0:0:
192,192,39015,1,0,0:0:0:0:
64,192,39015,1,0,0:0:0:0:
448,192,39180,1,0,0:0:0:0:
320,192,39180,1,0,0:0:0:0:
320,192,39345,1,0,0:0:0:0:
192,192,39345,1,0,0:0:0:0:
64,192,39345,1,0,0:0:0:0:
448,192,39509,1,0,0:0:0:0:
192,192,39509,1,0,0:0:0:0:
64,192,39509,1,0,0:0:0:0:
448,192,39674,1,0,0:0:0:0:
320,192,39674,1,0,0:0:0:0:
64,192,39674,1,0,0:0:0:0:
320,192,39839,1,0,0:0:0:0:
192,192,39839,1,0,0:0:0:0:
64,192,39839,1,0,0:0:0:0:
448,192,40004,1,0,0:0:0:0:
320,192,40004,1,0,0:0:0:0:
64,192,40004,1,0,0:0:0:0:
448,192,40168,1,0,0:0:0:0:
320,192,40168,1,0,0:0:0:0:
192,192,40168,1,0,0:0:0:0:
192,192,40333,1,0,0:0:0:0:
64,192,40333,1,0,0:0:0:0:
448,192,40498,1,0,0:0:0:0:
320,192,40498,1,0,0:0:0:0:
64,192,40498,1,0,0:0:0:0:
320,192,40663,1,0,0:0:0:0:
192,192,40663,1,0,0:0:0:0:
64,192,40663,1,0,0:0:0:0:
448,192,40827,1,0,0:0:0:0:
192,192,40827,1,0,0:0:0:0:
64,192,40827,1,0,0:0:0:0:
448,192,40992,1,0,0:0:0:0:
320,192,40992,1,0,0:0:0:0:
192,192,40992,1,0,0:0:0:0:
320,192,41157,1,0,0:0:0:0:
192,192,41157,1,0,0:0:0:0:
64,192,41157,1,0,0:0:0:0:
448,192,41322,1,0,0:0:0:0:
320,192,41322,1,0,0:0:0:0:
192,192,41322,1,0,0:0:0:0:
448,192,41487,1,0,0:0:0:0:
320,192,41487,1,0,0:0:0:0:
64,192,41487,1,0,0:0:0:0:
320,192,41652,1,0,0:0:0:0:
192,192,41652,1,0,0:0:0:0:
64,192,41652,1,0,0:0:0:0:
448,192,41817,1,0,0:0:0:0:
64,192,41817,1,0,0:0:0:0:
320,192,41982,1,0,0:0:0:0:
192,192,41982,1,0,0:0:0:0:
64,192,41982,1,0,0:0:0:0:
448,192,42147,1,0,0:0:0:0:
192,192,42147,1,0,0:0:0:0:
320,192,42311,1,0,0:0:0:0:
192,192,42311,1,0,0:0:0:0:
64,192,42311,1,0,0:0:0:0:
448,192,42476,1,0,0:0:0:0:
192,192,42476,1,0,0:0:0:0:
64,192,42476,1,0,0:0:0:0:
448,192,42641,1,0,0:0:0:0:
320,192,42641,1,0,0:0:0:0:
64,192,42641,1,0,0:0:0:0:
320,192,42806,1,0,0:0:0:0:
192,192,42806,1,0,0:0:0:0:
64,192,42806,1,0,0:0:0:0:
448,192,42970,1,0,0:0:0:0:
320,192,42970,1,0,0:0:0:0:
64,192,42970,1,0,0:0:0:0:
320,192,43053,1,0,0:0:0:0:
192,192,43135,1,0,0:0:0:0:
192,192,43218,1,0,0:0:0:0:
320,192,43300,1,0,0:0:0:0:
320,192,43382,1,0,0:0:0:0:
192,192,43465,1,0,0:0:0:0:
192,192,43547,1,0,0:0:0:0:
448,192,43630,1,0,0:0:0:0:
320,192,43630,1,0,0:0:0:0:
448,192,43712,1,0,0:0:0:0:
64,192,43795,1,0,0:0:0:0:
64,192,43877,1,0,0:0:0:0:
320,192,43960,1,0,0:0:0:0:
192,192,43960,1,0,0:0:0:0:
320,192,44042,1,0,0:0:0:0:
64,192,44125,1,0,0:0:0:0:
64,192,44207,1,0,0:0:0:0:
448,192,44290,1,0,0:0:0:0:
320,192,44290,1,0,0:0:0:0:
192,192,44290,1,0,0:0:0:0:
448,192,44454,1,0,0:0:0:0:
192,192,44454,1,0,0:0:0:0:
320,192,44619,1,0,0:0:0:0:
192,192,44619,1,0,0:0:0:0:
64,192,44619,1,0,0:0:0:0:
448,192,44784,1,0,0:0:0:0:
192,192,44784,1,0,0:0:0:0:
320,192,44949,1,0,0:0:0:0:
192,192,44949,1,0,0:0:0:0:
64,192,44949,1,0,0:0:0:0:
64,192,45031,1,0,0:0:0:0:
448,192,45113,1,0,0:0:0:0:
320,192,45113,1,0,0:0:0:0:
192,192,45113,1,0,0:0:0:0:
448,192,45278,1,0,0:0:0:0:
320,192,45278,1,0,0:0:0:0:
64,192,45278,1,0,0:0:0:0:
192,192,45443,1,0,0:0:0:0:
64,192,45443,1,0,0:0:0:0:
448,192,45525,1,0,0:0:0:0:
320,192,45525,1,0,0:0:0:0:
448,192,45608,1,0,0:0:0:0:
320,192,45608,1,0,0:0:0:0:
64,192,45608,1,0,0:0:0:0:
448,192,45773,1,0,0:0:0:0:
320,192,45773,1,0,0:0:0:0:
192,192,45773,1,0,0:0:0:0:
192,192,45937,1,0,0:0:0:0:
64,192,45937,1,0,0:0:0:0:
448,192,46102,1,0,0:0:0:0:
192,192,46102,1,0,0:0:0:0:
64,192,46102,1,0,0:0:0:0:
448,192,46267,1,0,0:0:0:0:
320,192,46267,1,0,0:0:0:0:
64,192,46267,1,0,0:0:0:0:
448,192,46350,1,0,0:0:0:0:
320,192,46350,1,0,0:0:0:0:
192,192,46432,1,0,0:0:0:0:
64,192,46432,1,0,0:0:0:0:
320,192,46515,1,0,0:0:0:0:
448,192,46597,1,0,0:0:0:0:
192,192,46597,1,0,0:0:0:0:
64,192,46597,1,0,0:0:0:0:
448,192,46762,1,0,0:0:0:0:
320,192,46762,1,0,0:0:0:0:
192,192,46762,1,0,0:0:0:0:
448,192,46927,1,0,0:0:0:0:
192,192,46927,1,0,0:0:0:0:
64,192,46927,1,0,0:0:0:0:
320,192,47092,1,0,0:0:0:0:
64,192,47092,1,0,0:0:0:0:
320,192,47256,1,0,0:0:0:0:
192,192,47256,1,0,0:0:0:0:
64,192,47256,1,0,0:0:0:0:
448,192,47421,1,0,0:0:0:0:
192,192,47421,1,0,0:0:0:0:
320,192,47586,1,0,0:0:0:0:
192,192,47586,1,0,0:0:0:0:
64,192,47586,1,0,0:0:0:0:
320,192,47668,1,0,0:0:0:0:
448,192,47751,1,0,0:0:0:0:
64,192,47751,1,0,0:0:0:0:
192,192,47833,1,0,0:0:0:0:
448,192,47916,1,0,0:0:0:0:
320,192,47916,1,0,0:0:0:0:
64,192,47916,1,0,0:0:0:0:
320,192,48080,1,0,0:0:0:0:
192,192,48080,1,0,0:0:0:0:
64,192,48080,1,0,0:0:0:0:
448,192,48245,1,0,0:0:0:0:
320,192,48245,1,0,0:0:0:0:
64,192,48245,1,0,0:0:0:0:
448,192,48410,1,0,0:0:0:0:
320,192,48410,1,0,0:0:0:0:
192,192,48410,1,0,0:0:0:0:
320,192,48575,1,0,0:0:0:0:
192,192,48575,1,0,0:0:0:0:
64,192,48575,1,0,0:0:0:0:
448,192,48740,1,0,0:0:0:0:
192,192,48740,1,0,0:0:0:0:
64,192,48740,1,0,0:0:0:0:
448,192,48905,1,0,0:0:0:0:
320,192,48905,1,0,0:0:0:0:
64,192,48905,1,0,0:0:0:0:
448,192,48987,1,0,0:0:0:0:
320,192,48987,1,0,0:0:0:0:
192,192,49070,1,0,0:0:0:0:
64,192,49070,1,0,0:0:0:0:
320,192,49152,1,0,0:0:0:0:
448,192,49235,1,0,0:0:0:0:
192,192,49235,1,0,0:0:0:0:
64,192,49235,1,0,0:0:0:0:
448,192,49399,1,0,0:0:0:0:
320,192,49399,1,0,0:0:0:0:
320,192,49564,1,0,0:0:0:0:
448,192,49564,1,0,0:0:0:0:
64,192,49564,1,0,0:0:0:0:
192,192,49564,1,0,0:0:0:0:
192,192,49729,1,0,0:0:0:0:
64,192,49729,1,0,0:0:0:0:
448,192,49894,1,0,0:0:0:0:
320,192,49894,1,0,0:0:0:0:
64,192,49894,1,0,0:0:0:0:
448,192,50059,1,0,0:0:0:0:
320,192,50059,1,0,0:0:0:0:
192,192,50141,1,0,0:0:0:0:
448,192,50223,1,0,0:0:0:0:
320,192,50223,1,0,0:0:0:0:
64,192,50223,1,0,0:0:0:0:
448,192,50388,1,0,0:0:0:0:
64,192,50388,1,0,0:0:0:0:
320,192,50470,1,0,0:0:0:0:
448,192,50553,1,0,0:0:0:0:
192,192,50553,1,0,0:0:0:0:
64,192,50553,1,0,0:0:0:0:
320,192,50718,1,0,0:0:0:0:
192,192,50718,1,0,0:0:0:0:
64,192,50800,1,0,0:0:0:0:
448,192,50882,1,0,0:0:0:0:
320,192,50882,1,0,0:0:0:0:
64,192,50882,1,0,0:0:0:0:
192,192,51047,1,0,0:0:0:0:
64,192,51047,1,0,0:0:0:0:
448,192,51212,1,0,0:0:0:0:
320,192,51212,1,0,0:0:0:0:
64,192,51212,1,0,0:0:0:0:
448,192,51377,1,0,0:0:0:0:
192,192,51377,1,0,0:0:0:0:
448,192,51542,1,0,0:0:0:0:
192,192,51542,1,0,0:0:0:0:
64,192,51542,1,0,0:0:0:0:
192,192,51625,1,0,0:0:0:0:
64,192,51625,1,0,0:0:0:0:
448,192,51707,1,0,0:0:0:0:
320,192,51707,1,0,0:0:0:0:
192,192,51790,1,0,0:0:0:0:
448,192,51872,1,0,0:0:0:0:
320,192,51872,1,0,0:0:0:0:
64,192,51872,1,0,0:0:0:0:
192,192,52037,1,0,0:0:0:0:
64,192,52037,1,0,0:0:0:0:
320,192,52202,1,0,0:0:0:0:
192,192,52202,1,0,0:0:0:0:
64,192,52202,1,0,0:0:0:0:
448,192,52366,1,0,0:0:0:0:
192,192,52366,1,0,0:0:0:0:
448,192,52531,1,0,0:0:0:0:
320,192,52531,1,0,0:0:0:0:
64,192,52531,1,0,0:0:0:0:
320,192,52696,1,0,0:0:0:0:
64,192,52696,1,0,0:0:0:0:
448,192,52861,1,0,0:0:0:0:
192,192,52861,1,0,0:0:0:0:
64,192,52861,1,0,0:0:0:0:
320,192,52943,1,0,0:0:0:0:
448,192,53025,1,0,0:0:0:0:
192,192,53025,1,0,0:0:0:0:
64,192,53108,1,0,0:0:0:0:
448,192,53190,1,0,0:0:0:0:
320,192,53190,1,0,0:0:0:0:
192,192,53190,1,0,0:0:0:0:
192,192,53355,1,0,0:0:0:0:
64,192,53355,1,0,0:0:0:0:
320,192,53520,1,0,0:0:0:0:
448,192,53520,1,0,0:0:0:0:
64,192,53520,1,0,0:0:0:0:
192,192,53520,1,0,0:0:0:0:
448,192,53685,1,0,0:0:0:0:
320,192,53685,1,0,0:0:0:0:
192,192,53767,1,0,0:0:0:0:
64,192,53767,1,0,0:0:0:0:
448,192,53850,1,0,0:0:0:0:
320,192,53850,1,0,0:0:0:0:
192,192,54015,1,0,0:0:0:0:
64,192,54015,1,0,0:0:0:0:
448,192,54097,1,0,0:0:0:0:
320,192,54097,1,0,0:0:0:0:
192,192,54180,1,0,0:0:0:0:
64,192,54180,1,0,0:0:0:0:
320,192,54345,1,0,0:0:0:0:
320,192,54427,1,0,0:0:0:0:
192,192,54509,1,0,0:0:0:0:
448,192,54674,1,0,0:0:0:0:
320,192,54839,1,0,0:0:0:0:
192,192,54839,1,0,0:0:0:0:
64,192,54839,1,0,0:0:0:0:
192,192,55004,1,0,0:0:0:0:
448,192,55168,1,0,0:0:0:0:
320,192,55168,1,0,0:0:0:0:
320,192,55333,1,0,0:0:0:0:
64,192,55416,1,0,0:0:0:0:
448,192,55498,1,0,0:0:0:0:
192,192,55498,1,0,0:0:0:0:
192,192,55663,1,0,0:0:0:0:
448,192,55827,1,0,0:0:0:0:
320,192,55827,1,0,0:0:0:0:
64,192,55992,1,0,0:0:0:0:
192,192,56157,1,0,0:0:0:0:
64,192,56157,1,0,0:0:0:0:
320,192,56322,1,0,0:0:0:0:
448,192,56405,1,0,0:0:0:0:
320,192,56487,1,0,0:0:0:0:
192,192,56487,1,0,0:0:0:0:
64,192,56652,1,0,0:0:0:0:
192,192,56735,1,0,0:0:0:0:
320,192,56817,1,0,0:0:0:0:
64,192,56817,1,0,0:0:0:0:
192,192,56899,1,0,0:0:0:0:
448,192,56982,1,0,0:0:0:0:
320,192,57064,1,0,0:0:0:0:
192,192,57147,1,0,0:0:0:0:
64,192,57147,1,0,0:0:0:0:
320,192,57311,1,0,0:0:0:0:
320,192,57476,1,0,0:0:0:0:
448,192,57476,1,0,0:0:0:0:
64,192,57476,1,0,0:0:0:0:
192,192,57476,1,0,0:0:0:0:
192,192,57641,1,0,0:0:0:0:
320,192,57806,1,0,0:0:0:0:
192,192,57991,1,0,0:0:0:0:
64,192,57991,1,0,0:0:0:0:
192,192,58321,1,0,0:0:0:0:
448,192,58445,1,0,0:0:0:0:
320,192,58445,1,0,0:0:0:0:
192,192,58623,1,0,0:0:0:0:
64,192,58623,1,0,0:0:0:0:
448,192,58761,1,0,0:0:0:0:
320,192,58761,1,0,0:0:0:0:
64,192,58761,1,0,0:0:0:0:
448,192,58939,1,0,0:0:0:0:
192,192,58939,1,0,0:0:0:0:
64,192,58939,1,0,0:0:0:0:
320,192,59132,1,0,0:0:0:0:
192,192,59283,128,0,59386:0:0:0:0:
320,192,59619,1,0,0:0:0:0:
320,192,59784,1,0,0:0:0:0:
448,192,59784,1,0,0:0:0:0:
64,192,59784,1,0,0:0:0:0:
192,192,59784,1,0,0:0:0:0:
448,192,59949,1,0,0:0:0:0:
192,192,59949,1,0,0:0:0:0:
64,192,59949,1,0,0:0:0:0:
320,192,60113,1,0,0:0:0:0:
448,192,60113,1,0,0:0:0:0:
64,192,60113,1,0,0:0:0:0:
192,192,60113,1,0,0:0:0:0:
320,192,60278,1,0,0:0:0:0:
64,192,60278,1,0,0:0:0:0:
448,192,60443,1,0,0:0:0:0:
320,192,60443,1,0,0:0:0:0:
192,192,60443,1,0,0:0:0:0:
192,192,60608,1,0,0:0:0:0:
64,192,60608,1,0,0:0:0:0:
448,192,60773,1,0,0:0:0:0:
320,192,60773,1,0,0:0:0:0:
64,192,60773,1,0,0:0:0:0:
448,192,60937,1,0,0:0:0:0:
192,192,60937,1,0,0:0:0:0:
448,192,61102,1,0,0:0:0:0:
320,192,61102,1,0,0:0:0:0:
64,192,61102,1,0,0:0:0:0:
320,192,61267,1,0,0:0:0:0:
192,192,61267,1,0,0:0:0:0:
448,192,61432,1,0,0:0:0:0:
192,192,61432,1,0,0:0:0:0:
64,192,61432,1,0,0:0:0:0:
448,192,61597,1,0,0:0:0:0:
64,192,61597,1,0,0:0:0:0:
320,192,61762,1,0,0:0:0:0:
192,192,61762,1,0,0:0:0:0:
64,192,61762,1,0,0:0:0:0:
448,192,61927,1,0,0:0:0:0:
192,192,61927,1,0,0:0:0:0:
448,192,62092,1,0,0:0:0:0:
320,192,62092,1,0,0:0:0:0:
64,192,62092,1,0,0:0:0:0:
320,192,62256,1,0,0:0:0:0:
192,192,62256,1,0,0:0:0:0:
448,192,62421,1,0,0:0:0:0:
320,192,62421,1,0,0:0:0:0:
64,192,62421,1,0,0:0:0:0:
192,192,62586,1,0,0:0:0:0:
64,192,62586,1,0,0:0:0:0:
448,192,62751,1,0,0:0:0:0:
192,192,62751,1,0,0:0:0:0:
64,192,62751,1,0,0:0:0:0:
448,192,62916,1,0,0:0:0:0:
320,192,62916,1,0,0:0:0:0:
320,192,63080,1,0,0:0:0:0:
192,192,63080,1,0,0:0:0:0:
64,192,63080,1,0,0:0:0:0:
448,192,63245,1,0,0:0:0:0:
64,192,63245,1,0,0:0:0:0:
448,192,63410,1,0,0:0:0:0:
320,192,63410,1,0,0:0:0:0:
192,192,63410,1,0,0:0:0:0:
320,192,63575,1,0,0:0:0:0:
192,192,63575,1,0,0:0:0:0:
448,192,63740,1,0,0:0:0:0:
320,192,63740,1,0,0:0:0:0:
64,192,63740,1,0,0:0:0:0:
192,192,63905,1,0,0:0:0:0:
64,192,63905,1,0,0:0:0:0:
448,192,64070,1,0,0:0:0:0:
320,192,64070,1,0,0:0:0:0:
192,192,64070,1,0,0:0:0:0:
320,192,64235,1,0,0:0:0:0:
64,192,64235,1,0,0:0:0:0:
448,192,64399,1,0,0:0:0:0:
192,192,64399,1,0,0:0:0:0:
64,192,64399,1,0,0:0:0:0:
320,192,64564,1,0,0:0:0:0:
192,192,64564,1,0,0:0:0:0:
448,192,64729,1,0,0:0:0:0:
192,192,64729,1,0,0:0:0:0:
64,192,64729,1,0,0:0:0:0:
320,192,64894,1,0,0:0:0:0:
64,192,64894,1,0,0:0:0:0:
448,192,65059,1,0,0:0:0:0:
320,192,65059,1,0,0:0:0:0:
192,192,65059,1,0,0:0:0:0:
448,192,65223,1,0,0:0:0:0:
192,192,65223,1,0,0:0:0:0:
448,192,65388,1,0,0:0:0:0:
320,192,65388,1,0,0:0:0:0:
64,192,65388,1,0,0:0:0:0:
320,192,65553,1,0,0:0:0:0:
192,192,65553,1,0,0:0:0:0:
448,192,65718,1,0,0:0:0:0:
320,192,65718,1,0,0:0:0:0:
64,192,65718,1,0,0:0:0:0:
320,192,65882,1,0,0:0:0:0:
64,192,65882,1,0,0:0:0:0:
448,192,66047,1,0,0:0:0:0:
192,192,66047,1,0,0:0:0:0:
64,192,66047,1,0,0:0:0:0:
448,192,66212,1,0,0:0:0:0:
320,192,66212,1,0,0:0:0:0:
448,192,66377,1,0,0:0:0:0:
192,192,66377,1,0,0:0:0:0:
64,192,66377,1,0,0:0:0:0:
192,192,66542,1,0,0:0:0:0:
64,192,66542,1,0,0:0:0:0:
448,192,66707,1,0,0:0:0:0:
320,192,66707,1,0,0:0:0:0:
64,192,66707,1,0,0:0:0:0:
320,192,66872,1,0,0:0:0:0:
192,192,66872,1,0,0:0:0:0:
448,192,67037,1,0,0:0:0:0:
192,192,67037,1,0,0:0:0:0:
64,192,67037,1,0,0:0:0:0:
320,192,67202,1,0,0:0:0:0:
64,192,67202,1,0,0:0:0:0:
448,192,67366,1,0,0:0:0:0:
320,192,67366,1,0,0:0:0:0:
192,192,67366,1,0,0:0:0:0:
448,192,67531,1,0,0:0:0:0:
64,192,67531,1,0,0:0:0:0:
320,192,67696,1,0,0:0:0:0:
192,192,67696,1,0,0:0:0:0:
64,192,67696,1,0,0:0:0:0:
448,192,67861,1,0,0:0:0:0:
192,192,67861,1,0,0:0:0:0:
320,192,68025,1,0,0:0:0:0:
448,192,68025,1,0,0:0:0:0:
64,192,68025,1,0,0:0:0:0:
192,192,68025,1,0,0:0:0:0:
320,192,68190,1,0,0:0:0:0:
192,192,68190,1,0,0:0:0:0:
448,192,68355,1,0,0:0:0:0:
192,192,68355,1,0,0:0:0:0:
64,192,68355,1,0,0:0:0:0:
448,192,68520,1,0,0:0:0:0:
64,192,68520,1,0,0:0:0:0:
448,192,68685,1,0,0:0:0:0:
320,192,68685,1,0,0:0:0:0:
64,192,68685,1,0,0:0:0:0:
448,192,68850,1,0,0:0:0:0:
320,192,68850,1,0,0:0:0:0:
320,192,69015,1,0,0:0:0:0:
192,192,69015,1,0,0:0:0:0:
64,192,69015,1,0,0:0:0:0:
192,192,69180,1,0,0:0:0:0:
64,192,69180,1,0,0:0:0:0:
448,192,69345,1,0,0:0:0:0:
320,192,69345,1,0,0:0:0:0:
192,192,69345,1,0,0:0:0:0:
320,192,69509,1,0,0:0:0:0:
64,192,69509,1,0,0:0:0:0:
448,192,69674,1,0,0:0:0:0:
192,192,69674,1,0,0:0:0:0:
64,192,69674,1,0,0:0:0:0:
448,192,69839,1,0,0:0:0:0:
320,192,69839,1,0,0:0:0:0:
448,192,70004,1,0,0:0:0:0:
320,192,70004,1,0,0:0:0:0:
64,192,70004,1,0,0:0:0:0:
320,192,70168,1,0,0:0:0:0:
192,192,70168,1,0,0:0:0:0:
448,192,70333,1,0,0:0:0:0:
192,192,70333,1,0,0:0:0:0:
64,192,70333,1,0,0:0:0:0:
448,192,70498,1,0,0:0:0:0:
320,192,70498,1,0,0:0:0:0:
448,192,70663,1,0,0:0:0:0:
320,192,70663,1,0,0:0:0:0:
64,192,70663,1,0,0:0:0:0:
448,192,70827,1,0,0:0:0:0:
192,192,70827,1,0,0:0:0:0:
320,192,70992,1,0,0:0:0:0:
192,192,70992,1,0,0:0:0:0:
64,192,70992,1,0,0:0:0:0:
448,192,71157,1,0,0:0:0:0:
64,192,71157,1,0,0:0:0:0:
448,192,71322,1,0,0:0:0:0:
192,192,71322,1,0,0:0:0:0:
64,192,71322,1,0,0:0:0:0:
320,192,71487,1,0,0:0:0:0:
192,192,71487,1,0,0:0:0:0:
448,192,71652,1,0,0:0:0:0:
320,192,71652,1,0,0:0:0:0:
64,192,71652,1,0,0:0:0:0:
448,192,71817,1,0,0:0:0:0:
192,192,71817,1,0,0:0:0:0:
448,192,71982,1,0,0:0:0:0:
192,192,71982,1,0,0:0:0:0:
64,192,71982,1,0,0:0:0:0:
320,192,72147,1,0,0:0:0:0:
64,192,72147,1,0,0:0:0:0:
448,192,72311,1,0,0:0:0:0:
192,192,72311,1,0,0:0:0:0:
64,192,72311,1,0,0:0:0:0:
192,192,72476,1,0,0:0:0:0:
64,192,72476,1,0,0:0:0:0:
320,192,72641,1,0,0:0:0:0:
192,192,72641,1,0,0:0:0:0:
64,192,72641,1,0,0:0:0:0:
448,192,72806,1,0,0:0:0:0:
192,192,72806,1,0,0:0:0:0:
448,192,72970,1,0,0:0:0:0:
192,192,72970,1,0,0:0:0:0:
64,192,72970,1,0,0:0:0:0:
448,192,73135,1,0,0:0:0:0:
320,192,73135,1,0,0:0:0:0:
320,192,73300,1,0,0:0:0:0:
192,192,73300,1,0,0:0:0:0:
64,192,73300,1,0,0:0:0:0:
192,192,73465,1,0,0:0:0:0:
64,192,73465,1,0,0:0:0:0:
448,192,73630,1,0,0:0:0:0:
320,192,73630,1,0,0:0:0:0:
192,192,73630,1,0,0:0:0:0:
448,192,73795,1,0,0:0:0:0:
64,192,73795,1,0,0:0:0:0:
448,192,73960,1,0,0:0:0:0:
320,192,73960,1,0,0:0:0:0:
192,192,73960,1,0,0:0:0:0:
320,192,74125,1,0,0:0:0:0:
192,192,74125,1,0,0:0:0:0:
448,192,74290,1,0,0:0:0:0:
192,192,74290,1,0,0:0:0:0:
64,192,74290,1,0,0:0:0:0:
448,192,74454,1,0,0:0:0:0:
320,192,74454,1,0,0:0:0:0:
448,192,74619,1,0,0:0:0:0:
320,192,74619,1,0,0:0:0:0:
64,192,74619,1,0,0:0:0:0:
320,192,74784,1,0,0:0:0:0:
192,192,74784,1,0,0:0:0:0:
448,192,74949,1,0,0:0:0:0:
192,192,74949,1,0,0:0:0:0:
64,192,74949,1,0,0:0:0:0:
448,192,75113,1,0,0:0:0:0:
64,192,75113,1,0,0:0:0:0:
448,192,75278,1,0,0:0:0:0:
192,192,75278,1,0,0:0:0:0:
64,192,75278,1,0,0:0:0:0:
192,192,75443,1,0,0:0:0:0:
64,192,75443,1,0,0:0:0:0:
448,192,75608,1,0,0:0:0:0:
320,192,75608,1,0,0:0:0:0:
192,192,75608,1,0,0:0:0:0:
448,192,75773,1,0,0:0:0:0:
64,192,75773,1,0,0:0:0:0:
320,192,75937,1,0,0:0:0:0:
448,192,75937,1,0,0:0:0:0:
64,192,75937,1,0,0:0:0:0:
192,192,75937,1,0,0:0:0:0:
192,192,76102,1,0,0:0:0:0:
320,192,76267,1,0,0:0:0:0:
64,192,76267,1,0,0:0:0:0:
192,192,76432,1,0,0:0:0:0:
448,192,76597,1,0,0:0:0:0:
320,192,76597,1,0,0:0:0:0:
192,192,76762,1,0,0:0:0:0:
448,192,76927,1,0,0:0:0:0:
64,192,76927,1,0,0:0:0:0:
320,192,77092,1,0,0:0:0:0:
448,192,77256,1,0,0:0:0:0:
192,192,77421,1,0,0:0:0:0:
320,192,77586,1,0,0:0:0:0:
192,192,77586,1,0,0:0:0:0:
64,192,77586,1,0,0:0:0:0:
320,192,77751,1,0,0:0:0:0:
448,192,77916,1,0,0:0:0:0:
320,192,77916,1,0,0:0:0:0:
192,192,77916,1,0,0:0:0:0:
192,192,78080,1,0,0:0:0:0:
448,192,78245,1,0,0:0:0:0:
320,192,78245,1,0,0:0:0:0:
64,192,78245,1,0,0:0:0:0:
192,192,78410,1,0,0:0:0:0:
320,192,78575,1,0,0:0:0:0:
448,192,78575,1,0,0:0:0:0:
64,192,78575,1,0,0:0:0:0:
192,192,78575,1,0,0:0:0:0:
320,192,78740,1,0,0:0:0:0:
64,192,78740,1,0,0:0:0:0:
448,192,78905,1,0,0:0:0:0:
320,192,78905,1,0,0:0:0:0:
192,192,78905,1,0,0:0:0:0:
448,192,79070,1,0,0:0:0:0:
192,192,79070,1,0,0:0:0:0:
64,192,79070,1,0,0:0:0:0:
448,192,79235,1,0,0:0:0:0:
320,192,79235,1,0,0:0:0:0:
64,192,79235,1,0,0:0:0:0:
448,192,79399,1,0,0:0:0:0:
320,192,79399,1,0,0:0:0:0:
192,192,79399,1,0,0:0:0:0:
448,192,79564,1,0,0:0:0:0:
320,192,79564,1,0,0:0:0:0:
64,192,79564,1,0,0:0:0:0:
320,192,79729,1,0,0:0:0:0:
192,192,79729,1,0,0:0:0:0:
64,192,79729,1,0,0:0:0:0:
448,192,79894,1,0,0:0:0:0:
192,192,79894,1,0,0:0:0:0:
448,192,80059,1,0,0:0:0:0:
320,192,80059,1,0,0:0:0:0:
64,192,80059,1,0,0:0:0:0:
448,192,80223,1,0,0:0:0:0:
320,192,80223,1,0,0:0:0:0:
192,192,80223,1,0,0:0:0:0:
448,192,80388,1,0,0:0:0:0:
192,192,80388,1,0,0:0:0:0:
64,192,80388,1,0,0:0:0:0:
320,192,80553,1,0,0:0:0:0:
192,192,80553,1,0,0:0:0:0:
64,192,80553,1,0,0:0:0:0:
448,192,80718,1,0,0:0:0:0:
320,192,80718,1,0,0:0:0:0:
192,192,80718,1,0,0:0:0:0:
320,192,80882,1,0,0:0:0:0:
192,192,80882,1,0,0:0:0:0:
64,192,80882,1,0,0:0:0:0:
448,192,81047,1,0,0:0:0:0:
320,192,81047,1,0,0:0:0:0:
64,192,81047,1,0,0:0:0:0:
448,192,81212,1,0,0:0:0:0:
320,192,81212,1,0,0:0:0:0:
192,192,81212,1,0,0:0:0:0:
192,192,81377,1,0,0:0:0:0:
64,192,81377,1,0,0:0:0:0:
448,192,81542,1,0,0:0:0:0:
320,192,81542,1,0,0:0:0:0:
192,192,81542,1,0,0:0:0:0:
448,192,81707,1,0,0:0:0:0:
192,192,81707,1,0,0:0:0:0:
64,192,81707,1,0,0:0:0:0:
448,192,81872,1,0,0:0:0:0:
320,192,81872,1,0,0:0:0:0:
64,192,81872,1,0,0:0:0:0:
448,192,82037,1,0,0:0:0:0:
320,192,82037,1,0,0:0:0:0:
192,192,82037,1,0,0:0:0:0:
448,192,82202,1,0,0:0:0:0:
320,192,82202,1,0,0:0:0:0:
64,192,82202,1,0,0:0:0:0:
320,192,82366,1,0,0:0:0:0:
192,192,82366,1,0,0:0:0:0:
64,192,82366,1,0,0:0:0:0:
448,192,82531,1,0,0:0:0:0:
192,192,82531,1,0,0:0:0:0:
448,192,82696,1,0,0:0:0:0:
192,192,82696,1,0,0:0:0:0:
64,192,82696,1,0,0:0:0:0:
448,192,82861,1,0,0:0:0:0:
320,192,82861,1,0,0:0:0:0:
64,192,82861,1,0,0:0:0:0:
448,192,83025,1,0,0:0:0:0:
320,192,83025,1,0,0:0:0:0:
192,192,83025,1,0,0:0:0:0:
448,192,83190,1,0,0:0:0:0:
320,192,83190,1,0,0:0:0:0:
64,192,83190,1,0,0:0:0:0:
320,192,83355,1,0,0:0:0:0:
192,192,83355,1,0,0:0:0:0:
64,192,83355,1,0,0:0:0:0:
448,192,83520,1,0,0:0:0:0:
192,192,83520,1,0,0:0:0:0:
64,192,83520,1,0,0:0:0:0:
448,192,83685,1,0,0:0:0:0:
192,192,83685,1,0,0:0:0:0:
64,192,83685,1,0,0:0:0:0:
320,192,83850,1,0,0:0:0:0:
448,192,83850,1,0,0:0:0:0:
64,192,83850,1,0,0:0:0:0:
192,192,83850,1,0,0:0:0:0:
320,192,84015,1,0,0:0:0:0:
64,192,84015,1,0,0:0:0:0:
448,192,84180,1,0,0:0:0:0:
320,192,84180,1,0,0:0:0:0:
192,192,84180,1,0,0:0:0:0:
448,192,84345,1,0,0:0:0:0:
192,192,84345,1,0,0:0:0:0:
64,192,84345,1,0,0:0:0:0:
448,192,84509,1,0,0:0:0:0:
320,192,84509,1,0,0:0:0:0:
64,192,84509,1,0,0:0:0:0:
448,192,84674,1,0,0:0:0:0:
320,192,84674,1,0,0:0:0:0:
192,192,84674,1,0,0:0:0:0:
448,192,84839,1,0,0:0:0:0:
320,192,84839,1,0,0:0:0:0:
64,192,84839,1,0,0:0:0:0:
320,192,85004,1,0,0:0:0:0:
192,192,85004,1,0,0:0:0:0:
64,192,85004,1,0,0:0:0:0:
448,192,85168,1,0,0:0:0:0:
192,192,85168,1,0,0:0:0:0:
448,192,85333,1,0,0:0:0:0:
320,192,85333,1,0,0:0:0:0:
64,192,85333,1,0,0:0:0:0:
448,192,85498,1,0,0:0:0:0:
320,192,85498,1,0,0:0:0:0:
192,192,85498,1,0,0:0:0:0:
448,192,85663,1,0,0:0:0:0:
192,192,85663,1,0,0:0:0:0:
64,192,85663,1,0,0:0:0:0:
320,192,85827,1,0,0:0:0:0:
192,192,85827,1,0,0:0:0:0:
64,192,85827,1,0,0:0:0:0:
448,192,85992,1,0,0:0:0:0:
320,192,85992,1,0,0:0:0:0:
192,192,85992,1,0,0:0:0:0:
320,192,86157,1,0,0:0:0:0:
192,192,86157,1,0,0:0:0:0:
64,192,86157,1,0,0:0:0:0:
448,192,86322,1,0,0:0:0:0:
320,192,86322,1,0,0:0:0:0:
64,192,86322,1,0,0:0:0:0:
448,192,86487,1,0,0:0:0:0:
320,192,86487,1,0,0:0:0:0:
192,192,86487,1,0,0:0:0:0:
448,192,86652,1,0,0:0:0:0:
64,192,86652,1,0,0:0:0:0:
448,192,86817,1,0,0:0:0:0:
320,192,86817,1,0,0:0:0:0:
192,192,86817,1,0,0:0:0:0:
192,192,86982,1,0,0:0:0:0:
64,192,86982,1,0,0:0:0:0:
448,192,87147,1,0,0:0:0:0:
320,192,87147,1,0,0:0:0:0:
192,192,87147,1,0,0:0:0:0:
448,192,87311,1,0,0:0:0:0:
192,192,87311,1,0,0:0:0:0:
64,192,87311,1,0,0:0:0:0:
448,192,87476,1,0,0:0:0:0:
320,192,87476,1,0,0:0:0:0:
64,192,87476,1,0,0:0:0:0:
448,192,87641,1,0,0:0:0:0:
320,192,87641,1,0,0:0:0:0:
192,192,87641,1,0,0:0:0:0:
448,192,87806,1,0,0:0:0:0:
320,192,87806,1,0,0:0:0:0:
64,192,87806,1,0,0:0:0:0:
320,192,87888,1,0,0:0:0:0:
192,192,87970,1,0,0:0:0:0:
192,192,88053,1,0,0:0:0:0:
320,192,88135,1,0,0:0:0:0:
320,192,88218,1,0,0:0:0:0:
192,192,88300,1,0,0:0:0:0:
192,192,88382,1,0,0:0:0:0:
320,192,88465,1,0,0:0:0:0:
64,192,88465,1,0,0:0:0:0:
64,192,88547,1,0,0:0:0:0:
448,192,88630,1,0,0:0:0:0:
448,192,88712,1,0,0:0:0:0:
320,192,88795,1,0,0:0:0:0:
192,192,88795,1,0,0:0:0:0:
320,192,88877,1,0,0:0:0:0:
448,192,88960,1,0,0:0:0:0:
448,192,89042,1,0,0:0:0:0:
320,192,89125,1,0,0:0:0:0:
192,192,89125,1,0,0:0:0:0:
64,192,89125,1,0,0:0:0:0:
192,192,89290,1,0,0:0:0:0:
64,192,89290,1,0,0:0:0:0:
448,192,89454,1,0,0:0:0:0:
320,192,89454,1,0,0:0:0:0:
192,192,89454,1,0,0:0:0:0:
192,192,89619,1,0,0:0:0:0:
64,192,89619,1,0,0:0:0:0:
448,192,89784,1,0,0:0:0:0:
320,192,89784,1,0,0:0:0:0:
192,192,89784,1,0,0:0:0:0:
448,192,89866,1,0,0:0:0:0:
320,192,89949,1,0,0:0:0:0:
192,192,89949,1,0,0:0:0:0:
64,192,89949,1,0,0:0:0:0:
448,192,90113,1,0,0:0:0:0:
320,192,90113,1,0,0:0:0:0:
64,192,90113,1,0,0:0:0:0:
448,192,90278,1,0,0:0:0:0:
320,192,90278,1,0,0:0:0:0:
192,192,90361,1,0,0:0:0:0:
64,192,90361,1,0,0:0:0:0:
448,192,90443,1,0,0:0:0:0:
320,192,90443,1,0,0:0:0:0:
64,192,90443,1,0,0:0:0:0:
448,192,90608,1,0,0:0:0:0:
192,192,90608,1,0,0:0:0:0:
64,192,90608,1,0,0:0:0:0:
448,192,90773,1,0,0:0:0:0:
192,192,90773,1,0,0:0:0:0:
320,192,90937,1,0,0:0:0:0:
192,192,90937,1,0,0:0:0:0:
64,192,90937,1,0,0:0:0:0:
448,192,91102,1,0,0:0:0:0:
320,192,91102,1,0,0:0:0:0:
64,192,91102,1,0,0:0:0:0:
192,192,91185,1,0,0:0:0:0:
64,192,91185,1,0,0:0:0:0:
448,192,91267,1,0,0:0:0:0:
320,192,91267,1,0,0:0:0:0:
192,192,91350,1,0,0:0:0:0:
448,192,91432,1,0,0:0:0:0:
320,192,91432,1,0,0:0:0:0:
64,192,91432,1,0,0:0:0:0:
320,192,91597,1,0,0:0:0:0:
192,192,91597,1,0,0:0:0:0:
64,192,91597,1,0,0:0:0:0:
448,192,91762,1,0,0:0:0:0:
192,192,91762,1,0,0:0:0:0:
64,192,91762,1,0,0:0:0:0:
448,192,91927,1,0,0:0:0:0:
320,192,91927,1,0,0:0:0:0:
448,192,92092,1,0,0:0:0:0:
320,192,92092,1,0,0:0:0:0:
192,192,92092,1,0,0:0:0:0:
192,192,92256,1,0,0:0:0:0:
64,192,92256,1,0,0:0:0:0:
448,192,92421,1,0,0:0:0:0:
320,192,92421,1,0,0:0:0:0:
192,192,92421,1,0,0:0:0:0:
320,192,92504,1,0,0:0:0:0:
448,192,92586,1,0,0:0:0:0:
64,192,92586,1,0,0:0:0:0:
192,192,92668,1,0,0:0:0:0:
448,192,92751,1,0,0:0:0:0:
320,192,92751,1,0,0:0:0:0:
64,192,92751,1,0,0:0:0:0:
448,192,92916,1,0,0:0:0:0:
320,192,92916,1,0,0:0:0:0:
192,192,92916,1,0,0:0:0:0:
448,192,93080,1,0,0:0:0:0:
320,192,93080,1,0,0:0:0:0:
64,192,93080,1,0,0:0:0:0:
320,192,93245,1,0,0:0:0:0:
192,192,93245,1,0,0:0:0:0:
64,192,93245,1,0,0:0:0:0:
448,192,93410,1,0,0:0:0:0:
320,192,93410,1,0,0:0:0:0:
192,192,93410,1,0,0:0:0:0:
448,192,93575,1,0,0:0:0:0:
192,192,93575,1,0,0:0:0:0:
64,192,93575,1,0,0:0:0:0:
448,192,93740,1,0,0:0:0:0:
320,192,93740,1,0,0:0:0:0:
64,192,93740,1,0,0:0:0:0:
192,192,93822,1,0,0:0:0:0:
64,192,93822,1,0,0:0:0:0:
448,192,93905,1,0,0:0:0:0:
320,192,93905,1,0,0:0:0:0:
192,192,93987,1,0,0:0:0:0:
448,192,94070,1,0,0:0:0:0:
320,192,94070,1,0,0:0:0:0:
64,192,94070,1,0,0:0:0:0:
320,192,94235,1,0,0:0:0:0:
64,192,94235,1,0,0:0:0:0:
320,192,94399,1,0,0:0:0:0:
448,192,94399,1,0,0:0:0:0:
64,192,94399,1,0,0:0:0:0:
192,192,94399,1,0,0:0:0:0:
448,192,94564,1,0,0:0:0:0:
192,192,94564,1,0,0:0:0:0:
448,192,94729,1,0,0:0:0:0:
320,192,94729,1,0,0:0:0:0:
64,192,94729,1,0,0:0:0:0:
320,192,94894,1,0,0:0:0:0:
64,192,94894,1,0,0:0:0:0:
192,192,94976,1,0,0:0:0:0:
448,192,95059,1,0,0:0:0:0:
320,192,95059,1,0,0:0:0:0:
64,192,95059,1,0,0:0:0:0:
448,192,95223,1,0,0:0:0:0:
64,192,95223,1,0,0:0:0:0:
320,192,95306,1,0,0:0:0:0:
448,192,95388,1,0,0:0:0:0:
192,192,95388,1,0,0:0:0:0:
64,192,95388,1,0,0:0:0:0:
320,192,95553,1,0,0:0:0:0:
192,192,95553,1,0,0:0:0:0:
448,192,95635,1,0,0:0:0:0:
448,192,95718,1,0,0:0:0:0:
320,192,95718,1,0,0:0:0:0:
64,192,95718,1,0,0:0:0:0:
448,192,95882,1,0,0:0:0:0:
192,192,95882,1,0,0:0:0:0:
448,192,96047,1,0,0:0:0:0:
320,192,96047,1,0,0:0:0:0:
64,192,96047,1,0,0:0:0:0:
192,192,96212,1,0,0:0:0:0:
64,192,96212,1,0,0:0:0:0:
448,192,96377,1,0,0:0:0:0:
192,192,96377,1,0,0:0:0:0:
64,192,96377,1,0,0:0:0:0:
448,192,96460,1,0,0:0:0:0:
320,192,96460,1,0,0:0:0:0:
192,192,96542,1,0,0:0:0:0:
64,192,96542,1,0,0:0:0:0:
320,192,96625,1,0,0:0:0:0:
448,192,96707,1,0,0:0:0:0:
192,192,96707,1,0,0:0:0:0:
64,192,96707,1,0,0:0:0:0:
448,192,96872,1,0,0:0:0:0:
320,192,96872,1,0,0:0:0:0:
448,192,97037,1,0,0:0:0:0:
320,192,97037,1,0,0:0:0:0:
192,192,97037,1,0,0:0:0:0:
192,192,97202,1,0,0:0:0:0:
64,192,97202,1,0,0:0:0:0:
448,192,97366,1,0,0:0:0:0:
320,192,97366,1,0,0:0:0:0:
64,192,97366,1,0,0:0:0:0:
448,192,97531,1,0,0:0:0:0:
320,192,97531,1,0,0:0:0:0:
448,192,97696,1,0,0:0:0:0:
192,192,97696,1,0,0:0:0:0:
64,192,97696,1,0,0:0:0:0:
320,192,97778,1,0,0:0:0:0:
192,192,97861,1,0,0:0:0:0:
64,192,97861,1,0,0:0:0:0:
448,192,97943,1,0,0:0:0:0:
320,192,98025,1,0,0:0:0:0:
192,192,98025,1,0,0:0:0:0:
64,192,98025,1,0,0:0:0:0:
448,192,98190,1,0,0:0:0:0:
192,192,98190,1,0,0:0:0:0:
320,192,98355,1,0,0:0:0:0:
448,192,98355,1,0,0:0:0:0:
64,192,98355,1,0,0:0:0:0:
192,192,98355,1,0,0:0:0:0:
320,192,98520,1,0,0:0:0:0:
64,192,98520,1,0,0:0:0:0:
448,192,98685,1,0,0:0:0:0:
192,192,98685,1,0,0:0:0:0:
448,192,98850,1,0,0:0:0:0:
192,192,98850,1,0,0:0:0:0:
192,192,99015,1,0,0:0:0:0:
64,192,99015,1,0,0:0:0:0:
192,192,99097,1,0,0:0:0:0:
64,192,99097,1,0,0:0:0:0:
448,192,99262,1,0,0:0:0:0:
320,192,99262,1,0,0:0:0:0:
192,192,99509,1,0,0:0:0:0:
64,192,99509,1,0,0:0:0:0:
448,192,99674,1,0,0:0:0:0:
320,192,99674,1,0,0:0:0:0:
192,192,99674,1,0,0:0:0:0:
192,192,100004,1,0,0:0:0:0:
448,192,100333,1,0,0:0:0:0:
320,192,100333,1,0,0:0:0:0:
192,192,101007,1,0,0:0:0:0:
320,192,101192,1,0,0:0:0:0:
64,192,101330,1,0,0:0:0:0:
320,192,101515,1,0,0:0:0:0:
192,192,101659,1,0,0:0:0:0:
448,192,101824,1,0,0:0:0:0:
192,192,101989,1,0,0:0:0:0:
320,192,102147,1,0,0:0:0:0:
192,192,102311,1,0,0:0:0:0:
320,192,102559,1,0,0:0:0:0:
192,192,102641,1,0,0:0:0:0:
64,192,102813,1,0,0:0:0:0:
448,192,102970,1,0,0:0:0:0:
320,192,102970,1,0,0:0:0:0:
192,192,103135,1,0,0:0:0:0:
320,192,103335,1,0,0:0:0:0:
64,192,103480,1,0,0:0:0:0:
192,192,103547,1,0,0:0:0:0:
448,192,103630,1,0,0:0:0:0:
320,192,103630,1,0,0:0:0:0:
64,192,103836,1,0,0:0:0:0:
448,192,103960,1,0,0:0:0:0:
320,192,103960,1,0,0:0:0:0:
320,192,104186,1,0,0:0:0:0:
192,192,104290,1,0,0:0:0:0:
64,192,104290,1,0,0:0:0:0:
448,192,104949,1,0,0:0:0:0:
192,192,104949,1,0,0:0:0:0:
320,192,105251,1,0,0:0:0:0:
64,192,105251,1,0,0:0:0:0:
320,192,105450,1,0,0:0:0:0:
192,192,105450,1,0,0:0:0:0:
448,192,105608,1,0,0:0:0:0:
320,192,105608,1,0,0:0:0:0:
192,192,105937,1,0,0:0:0:0:
64,192,105937,1,0,0:0:0:0:
448,192,106117,1,0,0:0:0:0:
320,192,106117,1,0,0:0:0:0:
448,192,106625,1,0,0:0:0:0:
192,192,106625,1,0,0:0:0:0:
448,192,106790,1,0,0:0:0:0:
64,192,106790,1,0,0:0:0:0:
320,192,106927,1,0,0:0:0:0:
192,192,106927,1,0,0:0:0:0:
320,192,107552,1,0,0:0:0:0:
64,192,107552,1,0,0:0:0:0:
320,192,107696,1,0,0:0:0:0:
192,192,107696,1,0,0:0:0:0:
448,192,107895,1,0,0:0:0:0:
320,192,107895,1,0,0:0:0:0:
448,192,108087,1,0,0:0:0:0:
64,192,108087,1,0,0:0:0:0:
320,192,108232,1,0,0:0:0:0:
64,192,108232,1,0,0:0:0:0:
192,192,108362,1,0,0:0:0:0:
448,192,108569,1,0,0:0:0:0:
320,192,108569,1,0,0:0:0:0:
320,192,108747,1,0,0:0:0:0:
64,192,108747,1,0,0:0:0:0:
448,192,108905,1,0,0:0:0:0:
320,192,108905,1,0,0:0:0:0:
192,192,109084,1,0,0:0:0:0:
64,192,109084,1,0,0:0:0:0:
320,192,109235,128,0,110553:0:0:0:0:
448,192,109235,128,0,110553:0:0:0:0:
192,192,110553,1,0,0:0:0:0:
64,192,110553,1,0,0:0:0:0:
448,192,110882,1,0,0:0:0:0:
192,192,110882,1,0,0:0:0:0:
320,192,111212,1,0,0:0:0:0:
192,192,111212,1,0,0:0:0:0:
64,192,111212,1,0,0:0:0:0:
320,192,111542,1,0,0:0:0:0:
448,192,111542,1,0,0:0:0:0:
64,192,111542,1,0,0:0:0:0:
192,192,111542,1,0,0:0:0:0:
192,192,111790,1,0,0:0:0:0:
64,192,111790,1,0,0:0:0:0:
448,192,111872,1,0,0:0:0:0:
320,192,111872,1,0,0:0:0:0:
448,192,112037,1,0,0:0:0:0:
320,192,112037,1,0,0:0:0:0:
320,192,112202,1,0,0:0:0:0:
64,192,112202,1,0,0:0:0:0:
448,192,112284,1,0,0:0:0:0:
192,192,112284,1,0,0:0:0:0:
320,192,112366,1,0,0:0:0:0:
64,192,112366,1,0,0:0:0:0:
448,192,112531,1,0,0:0:0:0:
64,192,112531,1,0,0:0:0:0:
192,192,112613,1,0,0:0:0:0:
448,192,112778,1,0,0:0:0:0:
320,192,112778,1,0,0:0:0:0:
192,192,112861,1,0,0:0:0:0:
64,192,112861,1,0,0:0:0:0:
192,192,113025,1,0,0:0:0:0:
448,192,113108,1,0,0:0:0:0:
320,192,113108,1,0,0:0:0:0:
192,192,113190,1,0,0:0:0:0:
64,192,113190,1,0,0:0:0:0:
448,192,113355,1,0,0:0:0:0:
320,192,113355,1,0,0:0:0:0:
448,192,113520,1,0,0:0:0:0:
64,192,113520,1,0,0:0:0:0:
320,192,113602,1,0,0:0:0:0:
192,192,113602,1,0,0:0:0:0:
320,192,113850,1,0,0:0:0:0:
192,192,113850,1,0,0:0:0:0:
448,192,114097,1,0,0:0:0:0:
320,192,114097,1,0,0:0:0:0:
192,192,114180,1,0,0:0:0:0:
64,192,114180,1,0,0:0:0:0:
448,192,114345,1,0,0:0:0:0:
192,192,114345,1,0,0:0:0:0:
320,192,114427,1,0,0:0:0:0:
64,192,114427,1,0,0:0:0:0:
448,192,114509,1,0,0:0:0:0:
192,192,114509,1,0,0:0:0:0:
448,192,114674,1,0,0:0:0:0:
64,192,114674,1,0,0:0:0:0:
448,192,114839,1,0,0:0:0:0:
320,192,114839,1,0,0:0:0:0:
192,192,114921,1,0,0:0:0:0:
64,192,114921,1,0,0:0:0:0:
448,192,115004,1,0,0:0:0:0:
320,192,115004,1,0,0:0:0:0:
192,192,115168,1,0,0:0:0:0:
64,192,115168,1,0,0:0:0:0:
448,192,115251,1,0,0:0:0:0:
320,192,115251,1,0,0:0:0:0:
192,192,115333,1,0,0:0:0:0:
448,192,115416,1,0,0:0:0:0:
320,192,115498,1,0,0:0:0:0:
64,192,115498,1,0,0:0:0:0:
448,192,115663,1,0,0:0:0:0:
192,192,115745,1,0,0:0:0:0:
64,192,115745,1,0,0:0:0:0:
448,192,115827,1,0,0:0:0:0:
320,192,115827,1,0,0:0:0:0:
320,192,115992,1,0,0:0:0:0:
192,192,115992,1,0,0:0:0:0:
320,192,116157,1,0,0:0:0:0:
192,192,116157,1,0,0:0:0:0:
448,192,116240,1,0,0:0:0:0:
64,192,116240,1,0,0:0:0:0:
448,192,116487,1,0,0:0:0:0:
192,192,116487,1,0,0:0:0:0:
192,192,116735,1,0,0:0:0:0:
64,192,116735,1,0,0:0:0:0:
448,192,116817,1,0,0:0:0:0:
320,192,116817,1,0,0:0:0:0:
320,192,116982,1,0,0:0:0:0:
64,192,116982,1,0,0:0:0:0:
448,192,117064,1,0,0:0:0:0:
192,192,117064,1,0,0:0:0:0:
320,192,117147,1,0,0:0:0:0:
64,192,117147,1,0,0:0:0:0:
448,192,117311,1,0,0:0:0:0:
192,192,117311,1,0,0:0:0:0:
448,192,117476,1,0,0:0:0:0:
64,192,117476,1,0,0:0:0:0:
320,192,117559,1,0,0:0:0:0:
192,192,117559,1,0,0:0:0:0:
448,192,117641,1,0,0:0:0:0:
64,192,117641,1,0,0:0:0:0:
192,192,117806,1,0,0:0:0:0:
64,192,117806,1,0,0:0:0:0:
448,192,117888,1,0,0:0:0:0:
320,192,117888,1,0,0:0:0:0:
448,192,118053,1,0,0:0:0:0:
64,192,118053,1,0,0:0:0:0:
320,192,118135,1,0,0:0:0:0:
192,192,118135,1,0,0:0:0:0:
320,192,118382,1,0,0:0:0:0:
64,192,118382,1,0,0:0:0:0:
448,192,118465,1,0,0:0:0:0:
192,192,118465,1,0,0:0:0:0:
448,192,118630,1,0,0:0:0:0:
192,192,118630,1,0,0:0:0:0:
192,192,118795,1,0,0:0:0:0:
64,192,118795,1,0,0:0:0:0:
448,192,118877,1,0,0:0:0:0:
320,192,118877,1,0,0:0:0:0:
192,192,119125,1,0,0:0:0:0:
64,192,119125,1,0,0:0:0:0:
448,192,119372,1,0,0:0:0:0:
320,192,119372,1,0,0:0:0:0:
192,192,119454,1,0,0:0:0:0:
64,192,119454,1,0,0:0:0:0:
448,192,119619,1,0,0:0:0:0:
192,192,119619,1,0,0:0:0:0:
320,192,119702,1,0,0:0:0:0:
64,192,119702,1,0,0:0:0:0:
448,192,119784,1,0,0:0:0:0:
192,192,119784,1,0,0:0:0:0:
320,192,119949,1,0,0:0:0:0:
64,192,119949,1,0,0:0:0:0:
448,192,120113,1,0,0:0:0:0:
64,192,120113,1,0,0:0:0:0:
320,192,120196,1,0,0:0:0:0:
192,192,120196,1,0,0:0:0:0:
448,192,120278,1,0,0:0:0:0:
64,192,120278,1,0,0:0:0:0:
448,192,120443,1,0,0:0:0:0:
320,192,120443,1,0,0:0:0:0:
192,192,120525,1,0,0:0:0:0:
64,192,120525,1,0,0:0:0:0:
320,192,120608,1,0,0:0:0:0:
448,192,120690,1,0,0:0:0:0:
64,192,120690,1,0,0:0:0:0:
320,192,120773,1,0,0:0:0:0:
192,192,120773,1,0,0:0:0:0:
192,192,120937,1,0,0:0:0:0:
448,192,121102,1,0,0:0:0:0:
320,192,121102,1,0,0:0:0:0:
64,192,121102,1,0,0:0:0:0:
192,192,121267,1,0,0:0:0:0:
320,192,121432,1,0,0:0:0:0:
192,192,121432,1,0,0:0:0:0:
64,192,121432,1,0,0:0:0:0:
448,192,121597,1,0,0:0:0:0:
320,192,121597,1,0,0:0:0:0:
448,192,121762,1,0,0:0:0:0:
192,192,121762,1,0,0:0:0:0:
64,192,121762,1,0,0:0:0:0:
320,192,121927,1,0,0:0:0:0:
64,192,121927,1,0,0:0:0:0:
320,192,122092,1,0,0:0:0:0:
448,192,122092,1,0,0:0:0:0:
64,192,122092,1,0,0:0:0:0:
192,192,122092,1,0,0:0:0:0:
192,192,122256,1,0,0:0:0:0:
64,192,122256,1,0,0:0:0:0:
448,192,122421,1,0,0:0:0:0:
320,192,122421,1,0,0:0:0:0:
192,192,122421,1,0,0:0:0:0:
448,192,122586,1,0,0:0:0:0:
192,192,122586,1,0,0:0:0:0:
64,192,122586,1,0,0:0:0:0:
448,192,122751,1,0,0:0:0:0:
320,192,122751,1,0,0:0:0:0:
64,192,122751,1,0,0:0:0:0:
448,192,122916,1,0,0:0:0:0:
320,192,122916,1,0,0:0:0:0:
192,192,122916,1,0,0:0:0:0:
448,192,123080,1,0,0:0:0:0:
320,192,123080,1,0,0:0:0:0:
64,192,123080,1,0,0:0:0:0:
320,192,123245,1,0,0:0:0:0:
192,192,123245,1,0,0:0:0:0:
64,192,123245,1,0,0:0:0:0:
448,192,123410,1,0,0:0:0:0:
192,192,123410,1,0,0:0:0:0:
448,192,123575,1,0,0:0:0:0:
320,192,123575,1,0,0:0:0:0:
64,192,123575,1,0,0:0:0:0:
448,192,123740,1,0,0:0:0:0:
320,192,123740,1,0,0:0:0:0:
192,192,123740,1,0,0:0:0:0:
448,192,123905,1,0,0:0:0:0:
192,192,123905,1,0,0:0:0:0:
64,192,123905,1,0,0:0:0:0:
320,192,124070,1,0,0:0:0:0:
448,192,124070,1,0,0:0:0:0:
64,192,124070,1,0,0:0:0:0:
192,192,124070,1,0,0:0:0:0:
320,192,124235,1,0,0:0:0:0:
192,192,124235,1,0,0:0:0:0:
320,192,124399,1,0,0:0:0:0:
448,192,124399,1,0,0:0:0:0:
64,192,124399,1,0,0:0:0:0:
192,192,124399,1,0,0:0:0:0:
320,192,124564,1,0,0:0:0:0:
64,192,124564,1,0,0:0:0:0:
448,192,124729,1,0,0:0:0:0:
320,192,124729,1,0,0:0:0:0:
192,192,124729,1,0,0:0:0:0:
192,192,124894,1,0,0:0:0:0:
64,192,124894,1,0,0:0:0:0:
448,192,125059,1,0,0:0:0:0:
320,192,125059,1,0,0:0:0:0:
192,192,125059,1,0,0:0:0:0:
448,192,125223,1,0,0:0:0:0:
192,192,125223,1,0,0:0:0:0:
64,192,125223,1,0,0:0:0:0:
448,192,125388,1,0,0:0:0:0:
320,192,125388,1,0,0:0:0:0:
64,192,125388,1,0,0:0:0:0:
448,192,125553,1,0,0:0:0:0:
320,192,125553,1,0,0:0:0:0:
192,192,125553,1,0,0:0:0:0:
448,192,125718,1,0,0:0:0:0:
320,192,125718,1,0,0:0:0:0:
64,192,125718,1,0,0:0:0:0:
320,192,125882,1,0,0:0:0:0:
192,192,125882,1,0,0:0:0:0:
64,192,125882,1,0,0:0:0:0:
448,192,126047,1,0,0:0:0:0:
192,192,126047,1,0,0:0:0:0:
448,192,126212,1,0,0:0:0:0:
192,192,126212,1,0,0:0:0:0:
64,192,126212,1,0,0:0:0:0:
448,192,126377,1,0,0:0:0:0:
320,192,126377,1,0,0:0:0:0:
64,192,126377,1,0,0:0:0:0:
448,192,126542,1,0,0:0:0:0:
320,192,126542,1,0,0:0:0:0:
192,192,126542,1,0,0:0:0:0:
448,192,126707,1,0,0:0:0:0:
320,192,126707,1,0,0:0:0:0:
64,192,126707,1,0,0:0:0:0:
320,192,126872,1,0,0:0:0:0:
192,192,126872,1,0,0:0:0:0:
64,192,126872,1,0,0:0:0:0:
448,192,127037,1,0,0:0:0:0:
192,192,127037,1,0,0:0:0:0:
64,192,127037,1,0,0:0:0:0:
448,192,127202,1,0,0:0:0:0:
320,192,127202,1,0,0:0:0:0:
192,192,127202,1,0,0:0:0:0:
320,192,127366,1,0,0:0:0:0:
448,192,127366,1,0,0:0:0:0:
64,192,127366,1,0,0:0:0:0:
192,192,127366,1,0,0:0:0:0:
320,192,127531,1,0,0:0:0:0:
64,192,127531,1,0,0:0:0:0:
448,192,127696,1,0,0:0:0:0:
320,192,127696,1,0,0:0:0:0:
192,192,127696,1,0,0:0:0:0:
448,192,127861,1,0,0:0:0:0:
192,192,127861,1,0,0:0:0:0:
64,192,127861,1,0,0:0:0:0:
448,192,128025,1,0,0:0:0:0:
320,192,128025,1,0,0:0:0:0:
64,192,128025,1,0,0:0:0:0:
448,192,128190,1,0,0:0:0:0:
320,192,128190,1,0,0:0:0:0:
192,192,128190,1,0,0:0:0:0:
448,192,128355,1,0,0:0:0:0:
320,192,128355,1,0,0:0:0:0:
64,192,128355,1,0,0:0:0:0:
320,192,128520,1,0,0:0:0:0:
192,192,128520,1,0,0:0:0:0:
64,192,128520,1,0,0:0:0:0:
448,192,128685,1,0,0:0:0:0:
192,192,128685,1,0,0:0:0:0:
448,192,128850,1,0,0:0:0:0:
320,192,128850,1,0,0:0:0:0:
64,192,128850,1,0,0:0:0:0:
448,192,129015,1,0,0:0:0:0:
320,192,129015,1,0,0:0:0:0:
192,192,129015,1,0,0:0:0:0:
448,192,129180,1,0,0:0:0:0:
192,192,129180,1,0,0:0:0:0:
64,192,129180,1,0,0:0:0:0:
320,192,129345,1,0,0:0:0:0:
192,192,129345,1,0,0:0:0:0:
64,192,129345,1,0,0:0:0:0:
448,192,129509,1,0,0:0:0:0:
320,192,129509,1,0,0:0:0:0:
192,192,129509,1,0,0:0:0:0:
320,192,129674,1,0,0:0:0:0:
192,192,129674,1,0,0:0:0:0:
64,192,129674,1,0,0:0:0:0:
448,192,129839,1,0,0:0:0:0:
320,192,129839,1,0,0:0:0:0:
64,192,129839,1,0,0:0:0:0:
448,192,130004,1,0,0:0:0:0:
320,192,130004,1,0,0:0:0:0:
192,192,130004,1,0,0:0:0:0:
448,192,130168,1,0,0:0:0:0:
64,192,130168,1,0,0:0:0:0:
448,192,130333,1,0,0:0:0:0:
320,192,130333,1,0,0:0:0:0:
192,192,130333,1,0,0:0:0:0:
192,192,130498,1,0,0:0:0:0:
64,192,130498,1,0,0:0:0:0:
448,192,130663,1,0,0:0:0:0:
320,192,130663,1,0,0:0:0:0:
192,192,130663,1,0,0:0:0:0:
448,192,130827,1,0,0:0:0:0:
192,192,130827,1,0,0:0:0:0:
64,192,130827,1,0,0:0:0:0:
448,192,130992,1,0,0:0:0:0:
320,192,130992,1,0,0:0:0:0:
64,192,130992,1,0,0:0:0:0:
448,192,131157,1,0,0:0:0:0:
320,192,131157,1,0,0:0:0:0:
192,192,131157,1,0,0:0:0:0:
448,192,131322,1,0,0:0:0:0:
320,192,131322,1,0,0:0:0:0:
64,192,131322,1,0,0:0:0:0:
192,192,131487,1,0,0:0:0:0:
448,192,131570,1,0,0:0:0:0:
320,192,131652,1,0,0:0:0:0:
64,192,131735,1,0,0:0:0:0:
192,192,131817,1,0,0:0:0:0:
448,192,131899,1,0,0:0:0:0:
320,192,131982,1,0,0:0:0:0:
192,192,131982,1,0,0:0:0:0:
64,192,132064,1,0,0:0:0:0:
448,192,132147,1,0,0:0:0:0:
320,192,132229,1,0,0:0:0:0:
448,192,132311,1,0,0:0:0:0:
64,192,132311,1,0,0:0:0:0:
192,192,132394,1,0,0:0:0:0:
320,192,132476,1,0,0:0:0:0:
320,192,132641,1,0,0:0:0:0:
448,192,132641,1,0,0:0:0:0:
64,192,132641,1,0,0:0:0:0:
192,192,132641,1,0,0:0:0:0:
448,192,132806,1,0,0:0:0:0:
320,192,132806,1,0,0:0:0:0:
320,192,132970,1,0,0:0:0:0:
192,192,132970,1,0,0:0:0:0:
64,192,132970,1,0,0:0:0:0:
448,192,133135,1,0,0:0:0:0:
320,192,133135,1,0,0:0:0:0:
64,192,133135,1,0,0:0:0:0:
448,192,133300,1,0,0:0:0:0:
192,192,133300,1,0,0:0:0:0:
64,192,133300,1,0,0:0:0:0:
320,192,133465,1,0,0:0:0:0:
192,192,133465,1,0,0:0:0:0:
64,192,133465,1,0,0:0:0:0:
448,192,133630,1,0,0:0:0:0:
192,192,133630,1,0,0:0:0:0:
64,192,133630,1,0,0:0:0:0:
448,192,133795,1,0,0:0:0:0:
320,192,133795,1,0,0:0:0:0:
192,192,133795,1,0,0:0:0:0:
320,192,133960,1,0,0:0:0:0:
64,192,133960,1,0,0:0:0:0:
448,192,134125,1,0,0:0:0:0:
192,192,134125,1,0,0:0:0:0:
64,192,134125,1,0,0:0:0:0:
320,192,134290,1,0,0:0:0:0:
192,192,134290,1,0,0:0:0:0:
64,192,134290,1,0,0:0:0:0:
448,192,134454,1,0,0:0:0:0:
320,192,134454,1,0,0:0:0:0:
64,192,134454,1,0,0:0:0:0:
320,192,134619,1,0,0:0:0:0:
448,192,134619,1,0,0:0:0:0:
64,192,134619,1,0,0:0:0:0:
192,192,134619,1,0,0:0:0:0:
320,192,134784,1,0,0:0:0:0:
192,192,134784,1,0,0:0:0:0:
320,192,134949,1,0,0:0:0:0:
448,192,134949,1,0,0:0:0:0:
64,192,134949,1,0,0:0:0:0:
192,192,134949,1,0,0:0:0:0:
448,192,135113,1,0,0:0:0:0:
192,192,135113,1,0,0:0:0:0:
320,192,135278,1,0,0:0:0:0:
192,192,135278,1,0,0:0:0:0:
64,192,135278,1,0,0:0:0:0:
448,192,135443,1,0,0:0:0:0:
320,192,135443,1,0,0:0:0:0:
320,192,135608,1,0,0:0:0:0:
192,192,135608,1,0,0:0:0:0:
64,192,135608,1,0,0:0:0:0:
448,192,135773,1,0,0:0:0:0:
320,192,135773,1,0,0:0:0:0:
64,192,135773,1,0,0:0:0:0:
448,192,135937,1,0,0:0:0:0:
192,192,135937,1,0,0:0:0:0:
64,192,135937,1,0,0:0:0:0:
320,192,136102,1,0,0:0:0:0:
192,192,136102,1,0,0:0:0:0:
64,192,136102,1,0,0:0:0:0:
448,192,136267,1,0,0:0:0:0:
192,192,136267,1,0,0:0:0:0:
64,192,136267,1,0,0:0:0:0:
448,192,136432,1,0,0:0:0:0:
320,192,136432,1,0,0:0:0:0:
192,192,136432,1,0,0:0:0:0:
320,192,136597,1,0,0:0:0:0:
64,192,136597,1,0,0:0:0:0:
448,192,136762,1,0,0:0:0:0:
320,192,136762,1,0,0:0:0:0:
64,192,136762,1,0,0:0:0:0:
448,192,136927,1,0,0:0:0:0:
192,192,136927,1,0,0:0:0:0:
64,192,136927,1,0,0:0:0:0:
320,192,137092,1,0,0:0:0:0:
192,192,137092,1,0,0:0:0:0:
64,192,137092,1,0,0:0:0:0:
448,192,137256,1,0,0:0:0:0:
192,192,137256,1,0,0:0:0:0:
64,192,137256,1,0,0:0:0:0:
320,192,137421,1,0,0:0:0:0:
192,192,137421,1,0,0:0:0:0:
448,192,137586,1,0,0:0:0:0:
320,192,137586,1,0,0:0:0:0:
64,192,137586,1,0,0:0:0:0:
320,192,137751,1,0,0:0:0:0:
192,192,137751,1,0,0:0:0:0:
320,192,137916,1,0,0:0:0:0:
448,192,137916,1,0,0:0:0:0:
64,192,137916,1,0,0:0:0:0:
192,192,137916,1,0,0:0:0:0:
448,192,138080,1,0,0:0:0:0:
192,192,138080,1,0,0:0:0:0:
320,192,138245,1,0,0:0:0:0:
192,192,138245,1,0,0:0:0:0:
64,192,138245,1,0,0:0:0:0:
448,192,138410,1,0,0:0:0:0:
320,192,138410,1,0,0:0:0:0:
64,192,138410,1,0,0:0:0:0:
448,192,138575,1,0,0:0:0:0:
192,192,138575,1,0,0:0:0:0:
64,192,138575,1,0,0:0:0:0:
320,192,138740,1,0,0:0:0:0:
192,192,138740,1,0,0:0:0:0:
64,192,138740,1,0,0:0:0:0:
448,192,138905,1,0,0:0:0:0:
192,192,138905,1,0,0:0:0:0:
64,192,138905,1,0,0:0:0:0:
448,192,139070,1,0,0:0:0:0:
320,192,139070,1,0,0:0:0:0:
192,192,139070,1,0,0:0:0:0:
320,192,139235,1,0,0:0:0:0:
64,192,139235,1,0,0:0:0:0:
448,192,139399,1,0,0:0:0:0:
192,192,139399,1,0,0:0:0:0:
64,192,139399,1,0,0:0:0:0:
320,192,139564,1,0,0:0:0:0:
192,192,139564,1,0,0:0:0:0:
64,192,139564,1,0,0:0:0:0:
448,192,139729,1,0,0:0:0:0:
320,192,139729,1,0,0:0:0:0:
64,192,139729,1,0,0:0:0:0:
448,192,139894,1,0,0:0:0:0:
320,192,139894,1,0,0:0:0:0:
192,192,139894,1,0,0:0:0:0:
320,192,140059,1,0,0:0:0:0:
192,192,140059,1,0,0:0:0:0:
64,192,140059,1,0,0:0:0:0:
448,192,140223,1,0,0:0:0:0:
320,192,140223,1,0,0:0:0:0:
192,192,140223,1,0,0:0:0:0:
448,192,140388,1,0,0:0:0:0:
192,192,140388,1,0,0:0:0:0:
64,192,140388,1,0,0:0:0:0:
320,192,140553,1,0,0:0:0:0:
192,192,140553,1,0,0:0:0:0:
64,192,140553,1,0,0:0:0:0:
448,192,140718,1,0,0:0:0:0:
64,192,140718,1,0,0:0:0:0:
320,192,140882,1,0,0:0:0:0:
192,192,140882,1,0,0:0:0:0:
64,192,140882,1,0,0:0:0:0:
448,192,141047,1,0,0:0:0:0:
320,192,141047,1,0,0:0:0:0:
320,192,141212,1,0,0:0:0:0:
192,192,141212,1,0,0:0:0:0:
64,192,141212,1,0,0:0:0:0:
448,192,141377,1,0,0:0:0:0:
320,192,141377,1,0,0:0:0:0:
64,192,141377,1,0,0:0:0:0:
448,192,141542,1,0,0:0:0:0:
192,192,141542,1,0,0:0:0:0:
64,192,141542,1,0,0:0:0:0:
320,192,141707,1,0,0:0:0:0:
192,192,141707,1,0,0:0:0:0:
64,192,141707,1,0,0:0:0:0:
448,192,141872,1,0,0:0:0:0:
192,192,141872,1,0,0:0:0:0:
64,192,141872,1,0,0:0:0:0:
192,192,141954,1,0,0:0:0:0:
320,192,142037,1,0,0:0:0:0:
320,192,142119,1,0,0:0:0:0:
192,192,142202,1,0,0:0:0:0:
192,192,142284,1,0,0:0:0:0:
320,192,142366,1,0,0:0:0:0:
320,192,142449,1,0,0:0:0:0:
192,192,142531,1,0,0:0:0:0:
64,192,142531,1,0,0:0:0:0:
64,192,142613,1,0,0:0:0:0:
192,192,142696,1,0,0:0:0:0:
192,192,142778,1,0,0:0:0:0:
448,192,142861,1,0,0:0:0:0:
64,192,142861,1,0,0:0:0:0:
64,192,142943,1,0,0:0:0:0:
192,192,143025,1,0,0:0:0:0:
192,192,143108,1,0,0:0:0:0:
448,192,143190,1,0,0:0:0:0:
320,192,143190,1,0,0:0:0:0:
64,192,143190,1,0,0:0:0:0:
192,192,143355,1,0,0:0:0:0:
64,192,143355,1,0,0:0:0:0:
448,192,143520,1,0,0:0:0:0:
320,192,143520,1,0,0:0:0:0:
192,192,143520,1,0,0:0:0:0:
192,192,143685,1,0,0:0:0:0:
64,192,143685,1,0,0:0:0:0:
448,192,143850,1,0,0:0:0:0:
320,192,143850,1,0,0:0:0:0:
192,192,143850,1,0,0:0:0:0:
448,192,143932,1,0,0:0:0:0:
320,192,144015,1,0,0:0:0:0:
192,192,144015,1,0,0:0:0:0:
64,192,144015,1,0,0:0:0:0:
448,192,144180,1,0,0:0:0:0:
320,192,144180,1,0,0:0:0:0:
64,192,144180,1,0,0:0:0:0:
448,192,144345,1,0,0:0:0:0:
192,192,144345,1,0,0:0:0:0:
320,192,144427,1,0,0:0:0:0:
64,192,144427,1,0,0:0:0:0:
448,192,144509,1,0,0:0:0:0:
320,192,144509,1,0,0:0:0:0:
64,192,144509,1,0,0:0:0:0:
320,192,144674,1,0,0:0:0:0:
192,192,144674,1,0,0:0:0:0:
64,192,144674,1,0,0:0:0:0:
448,192,144839,1,0,0:0:0:0:
192,192,144839,1,0,0:0:0:0:
448,192,145004,1,0,0:0:0:0:
192,192,145004,1,0,0:0:0:0:
64,192,145004,1,0,0:0:0:0:
448,192,145168,1,0,0:0:0:0:
320,192,145168,1,0,0:0:0:0:
64,192,145168,1,0,0:0:0:0:
320,192,145251,1,0,0:0:0:0:
64,192,145251,1,0,0:0:0:0:
448,192,145333,1,0,0:0:0:0:
192,192,145333,1,0,0:0:0:0:
320,192,145416,1,0,0:0:0:0:
448,192,145498,1,0,0:0:0:0:
192,192,145498,1,0,0:0:0:0:
64,192,145498,1,0,0:0:0:0:
320,192,145663,1,0,0:0:0:0:
192,192,145663,1,0,0:0:0:0:
64,192,145663,1,0,0:0:0:0:
448,192,145827,1,0,0:0:0:0:
192,192,145827,1,0,0:0:0:0:
64,192,145827,1,0,0:0:0:0:
448,192,145992,1,0,0:0:0:0:
320,192,145992,1,0,0:0:0:0:
448,192,146157,1,0,0:0:0:0:
320,192,146157,1,0,0:0:0:0:
192,192,146157,1,0,0:0:0:0:
192,192,146322,1,0,0:0:0:0:
64,192,146322,1,0,0:0:0:0:
448,192,146487,1,0,0:0:0:0:
320,192,146487,1,0,0:0:0:0:
192,192,146487,1,0,0:0:0:0:
320,192,146570,1,0,0:0:0:0:
448,192,146652,1,0,0:0:0:0:
64,192,146652,1,0,0:0:0:0:
192,192,146735,1,0,0:0:0:0:
448,192,146817,1,0,0:0:0:0:
320,192,146817,1,0,0:0:0:0:
64,192,146817,1,0,0:0:0:0:
448,192,146982,1,0,0:0:0:0:
320,192,146982,1,0,0:0:0:0:
192,192,146982,1,0,0:0:0:0:
448,192,147147,1,0,0:0:0:0:
320,192,147147,1,0,0:0:0:0:
64,192,147147,1,0,0:0:0:0:
320,192,147311,1,0,0:0:0:0:
192,192,147311,1,0,0:0:0:0:
64,192,147311,1,0,0:0:0:0:
448,192,147476,1,0,0:0:0:0:
320,192,147476,1,0,0:0:0:0:
192,192,147476,1,0,0:0:0:0:
448,192,147641,1,0,0:0:0:0:
192,192,147641,1,0,0:0:0:0:
64,192,147641,1,0,0:0:0:0:
448,192,147806,1,0,0:0:0:0:
320,192,147806,1,0,0:0:0:0:
64,192,147806,1,0,0:0:0:0:
320,192,147888,1,0,0:0:0:0:
64,192,147888,1,0,0:0:0:0:
448,192,147970,1,0,0:0:0:0:
192,192,147970,1,0,0:0:0:0:
320,192,148053,1,0,0:0:0:0:
448,192,148135,1,0,0:0:0:0:
192,192,148135,1,0,0:0:0:0:
64,192,148135,1,0,0:0:0:0:
320,192,148300,1,0,0:0:0:0:
64,192,148300,1,0,0:0:0:0:
320,192,148465,1,0,0:0:0:0:
448,192,148465,1,0,0:0:0:0:
64,192,148465,1,0,0:0:0:0:
192,192,148465,1,0,0:0:0:0:
448,192,148630,1,0,0:0:0:0:
192,192,148630,1,0,0:0:0:0:
448,192,148795,1,0,0:0:0:0:
320,192,148795,1,0,0:0:0:0:
64,192,148795,1,0,0:0:0:0:
320,192,148960,1,0,0:0:0:0:
64,192,148960,1,0,0:0:0:0:
192,192,149042,1,0,0:0:0:0:
448,192,149125,1,0,0:0:0:0:
320,192,149125,1,0,0:0:0:0:
64,192,149125,1,0,0:0:0:0:
448,192,149290,1,0,0:0:0:0:
64,192,149290,1,0,0:0:0:0:
320,192,149372,1,0,0:0:0:0:
448,192,149454,1,0,0:0:0:0:
192,192,149454,1,0,0:0:0:0:
64,192,149454,1,0,0:0:0:0:
320,192,149619,1,0,0:0:0:0:
192,192,149619,1,0,0:0:0:0:
448,192,149702,1,0,0:0:0:0:
448,192,149784,1,0,0:0:0:0:
320,192,149784,1,0,0:0:0:0:
64,192,149784,1,0,0:0:0:0:
448,192,149949,1,0,0:0:0:0:
192,192,149949,1,0,0:0:0:0:
448,192,150113,1,0,0:0:0:0:
320,192,150113,1,0,0:0:0:0:
64,192,150113,1,0,0:0:0:0:
192,192,150278,1,0,0:0:0:0:
64,192,150278,1,0,0:0:0:0:
448,192,150443,1,0,0:0:0:0:
192,192,150443,1,0,0:0:0:0:
64,192,150443,1,0,0:0:0:0:
448,192,150525,1,0,0:0:0:0:
192,192,150525,1,0,0:0:0:0:
320,192,150608,1,0,0:0:0:0:
64,192,150608,1,0,0:0:0:0:
192,192,150690,1,0,0:0:0:0:
448,192,150773,1,0,0:0:0:0:
320,192,150773,1,0,0:0:0:0:
64,192,150773,1,0,0:0:0:0:
448,192,150937,1,0,0:0:0:0:
192,192,150937,1,0,0:0:0:0:
448,192,151102,1,0,0:0:0:0:
320,192,151102,1,0,0:0:0:0:
192,192,151102,1,0,0:0:0:0:
192,192,151267,1,0,0:0:0:0:
64,192,151267,1,0,0:0:0:0:
448,192,151432,1,0,0:0:0:0:
320,192,151432,1,0,0:0:0:0:
64,192,151432,1,0,0:0:0:0:
448,192,151597,1,0,0:0:0:0:
320,192,151597,1,0,0:0:0:0:
448,192,151762,1,0,0:0:0:0:
192,192,151762,1,0,0:0:0:0:
64,192,151762,1,0,0:0:0:0:
320,192,151845,1,0,0:0:0:0:
192,192,151927,1,0,0:0:0:0:
64,192,151927,1,0,0:0:0:0:
448,192,152009,1,0,0:0:0:0:
320,192,152092,1,0,0:0:0:0:
192,192,152092,1,0,0:0:0:0:
64,192,152092,1,0,0:0:0:0:
448,192,152256,1,0,0:0:0:0:
192,192,152256,1,0,0:0:0:0:
320,192,152421,1,0,0:0:0:0:
448,192,152421,1,0,0:0:0:0:
64,192,152421,1,0,0:0:0:0:
192,192,152421,1,0,0:0:0:0:
320,192,152586,1,0,0:0:0:0:
64,192,152586,1,0,0:0:0:0:
448,192,152751,1,0,0:0:0:0:
320,192,152751,1,0,0:0:0:0:
192,192,152916,1,0,0:0:0:0:
64,192,152916,1,0,0:0:0:0:
448,192,153080,1,0,0:0:0:0:
64,192,153080,1,0,0:0:0:0:
448,192,153163,1,0,0:0:0:0:
64,192,153163,1,0,0:0:0:0:
320,192,153327,1,0,0:0:0:0:
192,192,153410,1,0,0:0:0:0:
64,192,153410,1,0,0:0:0:0:
448,192,153575,1,0,0:0:0:0:
320,192,153575,1,0,0:0:0:0:
192,192,153740,1,0,0:0:0:0:
