osu file format v14

[General]
AudioFilename: love 1.100x (pitch raised).mp3
AudioLeadIn: 0
PreviewTime: 98693
Countdown: 0
SampleSet: Drum
StackLeniency: 0.7
Mode: 3
LetterboxInBreaks: 0
SpecialStyle: 0
WidescreenStoryboard: 0

[Editor]
DistanceSpacing: 0.8
BeatDivisor: 8
GridSize: 32
TimelineZoom: 1

[Metadata]
Title:Rhythm of Love
TitleUnicode:Rhythm of Love
Artist:Yoomiii
ArtistUnicode:Yoomiii
Creator:riktoi
Version:Cadence 1.1x
Source:
Tags:chordjacks euro let the music play Electronic Pop Europop English
BeatmapID:1535212
BeatmapSetID:727196

[Difficulty]
HPDrainRate:8
CircleSize:4
OverallDifficulty:8
ApproachRate:5
SliderMultiplier:1.4
SliderTickRate:1

[Events]
//Background and Video events
0,0,"bg.png",0,0
//Break Periods
//Storyboard Layer 0 (Background)
//Storyboard Layer 1 (Fail)
//Storyboard Layer 2 (Pass)
//Storyboard Layer 3 (Foreground)
//Storyboard Layer 4 (Overlay)
//Storyboard Sound Samples

[TimingPoints]
984,419.58042,4,3,0,40,1,0

[HitObjects]
192,192,984,5,0,0:0:0:0:
320,192,1403,1,0,0:0:0:0:
64,192,1613,1,0,0:0:0:0:
320,192,1823,1,0,0:0:0:0:
448,192,2032,1,0,0:0:0:0:
320,192,2242,1,0,0:0:0:0:
64,192,2452,1,0,0:0:0:0:
64,192,2871,1,0,0:0:0:0:
448,192,3081,1,0,0:0:0:0:
192,192,3291,1,0,0:0:0:0:
320,192,3501,1,0,0:0:0:0:
64,192,3711,1,0,0:0:0:0:
448,192,3920,1,0,0:0:0:0:
192,192,4130,1,0,0:0:0:0:
192,192,4340,1,0,0:0:0:0:
320,192,4760,1,0,0:0:0:0:
64,192,4970,1,0,0:0:0:0:
320,192,5180,1,0,0:0:0:0:
448,192,5390,1,0,0:0:0:0:
320,192,5599,1,0,0:0:0:0:
64,192,5809,1,0,0:0:0:0:
64,192,6229,1,0,0:0:0:0:
448,192,6439,1,0,0:0:0:0:
320,192,6648,1,0,0:0:0:0:
64,192,6858,1,0,0:0:0:0:
64,192,7068,1,0,0:0:0:0:
320,192,7278,1,0,0:0:0:0:
320,192,7487,1,0,0:0:0:0:
192,192,7697,1,0,0:0:0:0:
320,192,8117,1,0,0:0:0:0:
64,192,8326,1,0,0:0:0:0:
320,192,8536,1,0,0:0:0:0:
448,192,8746,1,0,0:0:0:0:
320,192,8956,1,0,0:0:0:0:
64,192,9166,1,0,0:0:0:0:
64,192,9585,1,0,0:0:0:0:
448,192,9795,1,0,0:0:0:0:
192,192,10005,1,0,0:0:0:0:
320,192,10214,1,0,0:0:0:0:
64,192,10424,1,0,0:0:0:0:
448,192,10634,1,0,0:0:0:0:
192,192,10844,1,0,0:0:0:0:
448,192,11053,1,0,0:0:0:0:
192,192,11473,1,0,0:0:0:0:
320,192,11683,1,0,0:0:0:0:
64,192,11893,1,0,0:0:0:0:
192,192,12102,1,0,0:0:0:0:
448,192,12312,1,0,0:0:0:0:
192,192,12522,1,0,0:0:0:0:
448,192,12941,1,0,0:0:0:0:
64,192,13151,1,0,0:0:0:0:
320,192,13361,1,0,0:0:0:0:
192,192,13571,1,0,0:0:0:0:
192,192,13780,1,0,0:0:0:0:
448,192,13990,1,0,0:0:0:0:
448,192,14200,1,0,0:0:0:0:
192,192,14410,1,0,0:0:0:0:
64,192,14410,1,0,0:0:0:0:
320,192,14830,1,0,0:0:0:0:
64,192,14830,1,0,0:0:0:0:
448,192,15250,1,0,0:0:0:0:
320,192,15250,1,0,0:0:0:0:
192,192,15460,1,0,0:0:0:0:
64,192,15564,1,0,0:0:0:0:
448,192,15669,1,0,0:0:0:0:
320,192,15669,1,0,0:0:0:0:
192,192,15879,1,0,0:0:0:0:
448,192,16089,1,0,0:0:0:0:
192,192,16089,1,0,0:0:0:0:
64,192,16089,1,0,0:0:0:0:
448,192,16299,1,0,0:0:0:0:
320,192,16299,1,0,0:0:0:0:
320,192,16508,1,0,0:0:0:0:
192,192,16508,1,0,0:0:0:0:
64,192,16508,1,0,0:0:0:0:
448,192,16718,1,0,0:0:0:0:
192,192,16718,1,0,0:0:0:0:
448,192,16928,1,0,0:0:0:0:
320,192,16928,1,0,0:0:0:0:
64,192,16928,1,0,0:0:0:0:
192,192,17138,1,0,0:0:0:0:
64,192,17138,1,0,0:0:0:0:
448,192,17348,1,0,0:0:0:0:
320,192,17348,1,0,0:0:0:0:
64,192,17348,1,0,0:0:0:0:
320,192,17557,1,0,0:0:0:0:
192,192,17557,1,0,0:0:0:0:
448,192,17767,1,0,0:0:0:0:
192,192,17767,1,0,0:0:0:0:
64,192,17767,1,0,0:0:0:0:
448,192,17977,1,0,0:0:0:0:
64,192,17977,1,0,0:0:0:0:
448,192,18187,1,0,0:0:0:0:
320,192,18187,1,0,0:0:0:0:
192,192,18187,1,0,0:0:0:0:
192,192,18396,1,0,0:0:0:0:
64,192,18396,1,0,0:0:0:0:
448,192,18606,1,0,0:0:0:0:
320,192,18606,1,0,0:0:0:0:
64,192,18606,1,0,0:0:0:0:
320,192,18816,1,0,0:0:0:0:
192,192,18816,1,0,0:0:0:0:
448,192,19026,1,0,0:0:0:0:
320,192,19026,1,0,0:0:0:0:
64,192,19026,1,0,0:0:0:0:
448,192,19235,1,0,0:0:0:0:
192,192,19235,1,0,0:0:0:0:
448,192,19445,1,0,0:0:0:0:
192,192,19445,1,0,0:0:0:0:
64,192,19445,1,0,0:0:0:0:
320,192,19655,1,0,0:0:0:0:
64,192,19655,1,0,0:0:0:0:
448,192,19865,1,0,0:0:0:0:
320,192,19865,1,0,0:0:0:0:
192,192,19865,1,0,0:0:0:0:
448,192,20075,1,0,0:0:0:0:
64,192,20075,1,0,0:0:0:0:
320,192,20284,1,0,0:0:0:0:
192,192,20284,1,0,0:0:0:0:
64,192,20284,1,0,0:0:0:0:
320,192,20494,1,0,0:0:0:0:
192,192,20494,1,0,0:0:0:0:
448,192,20704,1,0,0:0:0:0:
320,192,20704,1,0,0:0:0:0:
64,192,20704,1,0,0:0:0:0:
448,192,20914,1,0,0:0:0:0:
192,192,20914,1,0,0:0:0:0:
320,192,21123,1,0,0:0:0:0:
192,192,21123,1,0,0:0:0:0:
64,192,21123,1,0,0:0:0:0:
448,192,21333,1,0,0:0:0:0:
320,192,21333,1,0,0:0:0:0:
448,192,21543,1,0,0:0:0:0:
192,192,21543,1,0,0:0:0:0:
64,192,21543,1,0,0:0:0:0:
320,192,21753,1,0,0:0:0:0:
192,192,21753,1,0,0:0:0:0:
448,192,21962,1,0,0:0:0:0:
192,192,21962,1,0,0:0:0:0:
64,192,21962,1,0,0:0:0:0:
448,192,22172,1,0,0:0:0:0:
320,192,22172,1,0,0:0:0:0:
320,192,22382,1,0,0:0:0:0:
192,192,22382,1,0,0:0:0:0:
64,192,22382,1,0,0:0:0:0:
192,192,22592,1,0,0:0:0:0:
64,192,22592,1,0,0:0:0:0:
448,192,22802,1,0,0:0:0:0:
320,192,22802,1,0,0:0:0:0:
64,192,22802,1,0,0:0:0:0:
320,192,23011,1,0,0:0:0:0:
192,192,23011,1,0,0:0:0:0:
448,192,23221,1,0,0:0:0:0:
320,192,23221,1,0,0:0:0:0:
64,192,23221,1,0,0:0:0:0:
448,192,23431,1,0,0:0:0:0:
320,192,23431,1,0,0:0:0:0:
448,192,23641,1,0,0:0:0:0:
192,192,23641,1,0,0:0:0:0:
64,192,23641,1,0,0:0:0:0:
320,192,23850,1,0,0:0:0:0:
64,192,23850,1,0,0:0:0:0:
448,192,24060,1,0,0:0:0:0:
192,192,24060,1,0,0:0:0:0:
64,192,24060,1,0,0:0:0:0:
448,192,24270,1,0,0:0:0:0:
192,192,24270,1,0,0:0:0:0:
448,192,24480,1,0,0:0:0:0:
320,192,24480,1,0,0:0:0:0:
64,192,24480,1,0,0:0:0:0:
320,192,24690,1,0,0:0:0:0:
192,192,24690,1,0,0:0:0:0:
448,192,24900,1,0,0:0:0:0:
192,192,24900,1,0,0:0:0:0:
64,192,24900,1,0,0:0:0:0:
448,192,25110,1,0,0:0:0:0:
320,192,25110,1,0,0:0:0:0:
320,192,25320,1,0,0:0:0:0:
192,192,25320,1,0,0:0:0:0:
64,192,25320,1,0,0:0:0:0:
448,192,25530,1,0,0:0:0:0:
64,192,25530,1,0,0:0:0:0:
448,192,25739,1,0,0:0:0:0:
320,192,25739,1,0,0:0:0:0:
192,192,25739,1,0,0:0:0:0:
192,192,25949,1,0,0:0:0:0:
64,192,25949,1,0,0:0:0:0:
448,192,26159,1,0,0:0:0:0:
192,192,26159,1,0,0:0:0:0:
64,192,26159,1,0,0:0:0:0:
448,192,26369,1,0,0:0:0:0:
320,192,26369,1,0,0:0:0:0:
320,192,26578,1,0,0:0:0:0:
192,192,26578,1,0,0:0:0:0:
64,192,26578,1,0,0:0:0:0:
320,192,26788,1,0,0:0:0:0:
64,192,26788,1,0,0:0:0:0:
448,192,26998,1,0,0:0:0:0:
192,192,26998,1,0,0:0:0:0:
64,192,26998,1,0,0:0:0:0:
448,192,27208,1,0,0:0:0:0:
192,192,27208,1,0,0:0:0:0:
448,192,27417,1,0,0:0:0:0:
320,192,27417,1,0,0:0:0:0:
64,192,27417,1,0,0:0:0:0:
448,192,27627,1,0,0:0:0:0:
64,192,27627,1,0,0:0:0:0:
320,192,27837,1,0,0:0:0:0:
192,192,27837,1,0,0:0:0:0:
64,192,27837,1,0,0:0:0:0:
448,192,28047,1,0,0:0:0:0:
320,192,28047,1,0,0:0:0:0:
320,192,28257,1,0,0:0:0:0:
192,192,28257,1,0,0:0:0:0:
64,192,28257,1,0,0:0:0:0:
320,192,28466,1,0,0:0:0:0:
64,192,28466,1,0,0:0:0:0:
448,192,28676,1,0,0:0:0:0:
320,192,28676,1,0,0:0:0:0:
64,192,28676,1,0,0:0:0:0:
448,192,28886,1,0,0:0:0:0:
192,192,28886,1,0,0:0:0:0:
192,192,29096,1,0,0:0:0:0:
448,192,29305,1,0,0:0:0:0:
320,192,29305,1,0,0:0:0:0:
64,192,29305,1,0,0:0:0:0:
320,192,29515,1,0,0:0:0:0:
448,192,29515,1,0,0:0:0:0:
64,192,29515,1,0,0:0:0:0:
192,192,29515,1,0,0:0:0:0:
320,192,29725,1,0,0:0:0:0:
192,192,29725,1,0,0:0:0:0:
448,192,29935,1,0,0:0:0:0:
192,192,29935,1,0,0:0:0:0:
64,192,29935,1,0,0:0:0:0:
448,192,30144,1,0,0:0:0:0:
64,192,30144,1,0,0:0:0:0:
448,192,30354,1,0,0:0:0:0:
320,192,30354,1,0,0:0:0:0:
64,192,30354,1,0,0:0:0:0:
320,192,30564,1,0,0:0:0:0:
64,192,30564,1,0,0:0:0:0:
448,192,30774,1,0,0:0:0:0:
320,192,30774,1,0,0:0:0:0:
192,192,30774,1,0,0:0:0:0:
448,192,30984,1,0,0:0:0:0:
192,192,30984,1,0,0:0:0:0:
320,192,31193,1,0,0:0:0:0:
192,192,31193,1,0,0:0:0:0:
64,192,31193,1,0,0:0:0:0:
448,192,31403,1,0,0:0:0:0:
320,192,31403,1,0,0:0:0:0:
448,192,31613,1,0,0:0:0:0:
192,192,31613,1,0,0:0:0:0:
64,192,31613,1,0,0:0:0:0:
320,192,31823,1,0,0:0:0:0:
64,192,31823,1,0,0:0:0:0:
448,192,32032,1,0,0:0:0:0:
320,192,32032,1,0,0:0:0:0:
64,192,32032,1,0,0:0:0:0:
320,192,32242,1,0,0:0:0:0:
192,192,32242,1,0,0:0:0:0:
448,192,32452,1,0,0:0:0:0:
192,192,32452,1,0,0:0:0:0:
64,192,32452,1,0,0:0:0:0:
320,192,32662,1,0,0:0:0:0:
64,192,32662,1,0,0:0:0:0:
448,192,32871,1,0,0:0:0:0:
320,192,32871,1,0,0:0:0:0:
64,192,32871,1,0,0:0:0:0:
192,192,33081,1,0,0:0:0:0:
64,192,33081,1,0,0:0:0:0:
448,192,33291,1,0,0:0:0:0:
320,192,33291,1,0,0:0:0:0:
192,192,33291,1,0,0:0:0:0:
448,192,33501,1,0,0:0:0:0:
64,192,33501,1,0,0:0:0:0:
448,192,33711,1,0,0:0:0:0:
192,192,33711,1,0,0:0:0:0:
64,192,33711,1,0,0:0:0:0:
320,192,33920,1,0,0:0:0:0:
192,192,33920,1,0,0:0:0:0:
448,192,34130,1,0,0:0:0:0:
320,192,34130,1,0,0:0:0:0:
64,192,34130,1,0,0:0:0:0:
192,192,34340,1,0,0:0:0:0:
64,192,34340,1,0,0:0:0:0:
448,192,34550,1,0,0:0:0:0:
192,192,34550,1,0,0:0:0:0:
64,192,34550,1,0,0:0:0:0:
448,192,34760,1,0,0:0:0:0:
320,192,34760,1,0,0:0:0:0:
448,192,34970,1,0,0:0:0:0:
192,192,34970,1,0,0:0:0:0:
64,192,34970,1,0,0:0:0:0:
448,192,35180,1,0,0:0:0:0:
192,192,35180,1,0,0:0:0:0:
448,192,35390,1,0,0:0:0:0:
320,192,35390,1,0,0:0:0:0:
192,192,35390,1,0,0:0:0:0:
192,192,35599,1,0,0:0:0:0:
64,192,35599,1,0,0:0:0:0:
448,192,35809,1,0,0:0:0:0:
192,192,35809,1,0,0:0:0:0:
64,192,35809,1,0,0:0:0:0:
320,192,36019,1,0,0:0:0:0:
64,192,36019,1,0,0:0:0:0:
448,192,36229,1,0,0:0:0:0:
320,192,36229,1,0,0:0:0:0:
192,192,36229,1,0,0:0:0:0:
448,192,36439,1,0,0:0:0:0:
192,192,36439,1,0,0:0:0:0:
320,192,36648,1,0,0:0:0:0:
192,192,36648,1,0,0:0:0:0:
64,192,36648,1,0,0:0:0:0:
448,192,36858,1,0,0:0:0:0:
64,192,36858,1,0,0:0:0:0:
320,192,37068,1,0,0:0:0:0:
192,192,37068,1,0,0:0:0:0:
64,192,37068,1,0,0:0:0:0:
320,192,37278,1,0,0:0:0:0:
192,192,37278,1,0,0:0:0:0:
448,192,37487,1,0,0:0:0:0:
192,192,37487,1,0,0:0:0:0:
64,192,37487,1,0,0:0:0:0:
320,192,37697,1,0,0:0:0:0:
64,192,37697,1,0,0:0:0:0:
448,192,37907,1,0,0:0:0:0:
320,192,37907,1,0,0:0:0:0:
64,192,37907,1,0,0:0:0:0:
320,192,38117,1,0,0:0:0:0:
192,192,38117,1,0,0:0:0:0:
448,192,38326,1,0,0:0:0:0:
192,192,38326,1,0,0:0:0:0:
64,192,38326,1,0,0:0:0:0:
448,192,38536,1,0,0:0:0:0:
64,192,38536,1,0,0:0:0:0:
448,192,38746,1,0,0:0:0:0:
192,192,38746,1,0,0:0:0:0:
64,192,38746,1,0,0:0:0:0:
448,192,38956,1,0,0:0:0:0:
192,192,38956,1,0,0:0:0:0:
320,192,39166,1,0,0:0:0:0:
192,192,39166,1,0,0:0:0:0:
64,192,39166,1,0,0:0:0:0:
448,192,39375,1,0,0:0:0:0:
64,192,39375,1,0,0:0:0:0:
320,192,39585,1,0,0:0:0:0:
448,192,39585,1,0,0:0:0:0:
64,192,39585,1,0,0:0:0:0:
192,192,39585,1,0,0:0:0:0:
192,192,39795,1,0,0:0:0:0:
448,192,40005,1,0,0:0:0:0:
320,192,40005,1,0,0:0:0:0:
192,192,40214,1,0,0:0:0:0:
320,192,40424,1,0,0:0:0:0:
64,192,40424,1,0,0:0:0:0:
192,192,40634,1,0,0:0:0:0:
448,192,40844,1,0,0:0:0:0:
64,192,40844,1,0,0:0:0:0:
320,192,41053,1,0,0:0:0:0:
64,192,41263,1,0,0:0:0:0:
448,192,41683,1,0,0:0:0:0:
320,192,41683,1,0,0:0:0:0:
192,192,41683,1,0,0:0:0:0:
320,192,42102,1,0,0:0:0:0:
192,192,42102,1,0,0:0:0:0:
64,192,42102,1,0,0:0:0:0:
448,192,42522,1,0,0:0:0:0:
320,192,42522,1,0,0:0:0:0:
64,192,42522,1,0,0:0:0:0:
320,192,42941,1,0,0:0:0:0:
448,192,42941,1,0,0:0:0:0:
64,192,42941,1,0,0:0:0:0:
192,192,42941,1,0,0:0:0:0:
448,192,43151,1,0,0:0:0:0:
320,192,43151,1,0,0:0:0:0:
320,192,43361,1,0,0:0:0:0:
192,192,43361,1,0,0:0:0:0:
64,192,43361,1,0,0:0:0:0:
448,192,43571,1,0,0:0:0:0:
192,192,43571,1,0,0:0:0:0:
64,192,43571,1,0,0:0:0:0:
448,192,43780,1,0,0:0:0:0:
320,192,43780,1,0,0:0:0:0:
64,192,43780,1,0,0:0:0:0:
320,192,43990,1,0,0:0:0:0:
192,192,43990,1,0,0:0:0:0:
64,192,43990,1,0,0:0:0:0:
448,192,44200,1,0,0:0:0:0:
320,192,44200,1,0,0:0:0:0:
64,192,44200,1,0,0:0:0:0:
448,192,44410,1,0,0:0:0:0:
320,192,44410,1,0,0:0:0:0:
192,192,44410,1,0,0:0:0:0:
192,192,44620,1,0,0:0:0:0:
64,192,44620,1,0,0:0:0:0:
448,192,44830,1,0,0:0:0:0:
320,192,44830,1,0,0:0:0:0:
64,192,44830,1,0,0:0:0:0:
320,192,45040,1,0,0:0:0:0:
192,192,45040,1,0,0:0:0:0:
64,192,45040,1,0,0:0:0:0:
448,192,45250,1,0,0:0:0:0:
192,192,45250,1,0,0:0:0:0:
64,192,45250,1,0,0:0:0:0:
448,192,45460,1,0,0:0:0:0:
320,192,45460,1,0,0:0:0:0:
192,192,45460,1,0,0:0:0:0:
320,192,45669,1,0,0:0:0:0:
192,192,45669,1,0,0:0:0:0:
64,192,45669,1,0,0:0:0:0:
448,192,45879,1,0,0:0:0:0:
320,192,45879,1,0,0:0:0:0:
192,192,45879,1,0,0:0:0:0:
448,192,46089,1,0,0:0:0:0:
320,192,46089,1,0,0:0:0:0:
64,192,46089,1,0,0:0:0:0:
320,192,46299,1,0,0:0:0:0:
192,192,46299,1,0,0:0:0:0:
64,192,46299,1,0,0:0:0:0:
448,192,46508,1,0,0:0:0:0:
192,192,46508,1,0,0:0:0:0:
320,192,46718,1,0,0:0:0:0:
192,192,46718,1,0,0:0:0:0:
64,192,46718,1,0,0:0:0:0:
448,192,46928,1,0,0:0:0:0:
192,192,46928,1,0,0:0:0:0:
64,192,46928,1,0,0:0:0:0:
448,192,47138,1,0,0:0:0:0:
320,192,47138,1,0,0:0:0:0:
64,192,47138,1,0,0:0:0:0:
320,192,47348,1,0,0:0:0:0:
192,192,47348,1,0,0:0:0:0:
64,192,47348,1,0,0:0:0:0:
448,192,47557,1,0,0:0:0:0:
320,192,47557,1,0,0:0:0:0:
64,192,47557,1,0,0:0:0:0:
448,192,47767,1,0,0:0:0:0:
320,192,47767,1,0,0:0:0:0:
192,192,47767,1,0,0:0:0:0:
192,192,47977,1,0,0:0:0:0:
64,192,47977,1,0,0:0:0:0:
448,192,48187,1,0,0:0:0:0:
192,192,48187,1,0,0:0:0:0:
64,192,48187,1,0,0:0:0:0:
448,192,48396,1,0,0:0:0:0:
320,192,48396,1,0,0:0:0:0:
64,192,48396,1,0,0:0:0:0:
320,192,48606,1,0,0:0:0:0:
192,192,48606,1,0,0:0:0:0:
64,192,48606,1,0,0:0:0:0:
448,192,48816,1,0,0:0:0:0:
320,192,48816,1,0,0:0:0:0:
64,192,48816,1,0,0:0:0:0:
448,192,49026,1,0,0:0:0:0:
320,192,49026,1,0,0:0:0:0:
192,192,49026,1,0,0:0:0:0:
448,192,49235,1,0,0:0:0:0:
192,192,49235,1,0,0:0:0:0:
64,192,49235,1,0,0:0:0:0:
448,192,49445,1,0,0:0:0:0:
192,192,49445,1,0,0:0:0:0:
64,192,49445,1,0,0:0:0:0:
320,192,49655,1,0,0:0:0:0:
192,192,49655,1,0,0:0:0:0:
64,192,49655,1,0,0:0:0:0:
448,192,49865,1,0,0:0:0:0:
320,192,49865,1,0,0:0:0:0:
320,192,50075,1,0,0:0:0:0:
192,192,50075,1,0,0:0:0:0:
64,192,50075,1,0,0:0:0:0:
448,192,50284,1,0,0:0:0:0:
192,192,50284,1,0,0:0:0:0:
64,192,50284,1,0,0:0:0:0:
448,192,50494,1,0,0:0:0:0:
320,192,50494,1,0,0:0:0:0:
64,192,50494,1,0,0:0:0:0:
320,192,50704,1,0,0:0:0:0:
192,192,50704,1,0,0:0:0:0:
64,192,50704,1,0,0:0:0:0:
448,192,50914,1,0,0:0:0:0:
320,192,50914,1,0,0:0:0:0:
64,192,50914,1,0,0:0:0:0:
448,192,51123,1,0,0:0:0:0:
320,192,51123,1,0,0:0:0:0:
192,192,51123,1,0,0:0:0:0:
192,192,51333,1,0,0:0:0:0:
64,192,51333,1,0,0:0:0:0:
448,192,51543,1,0,0:0:0:0:
320,192,51543,1,0,0:0:0:0:
64,192,51543,1,0,0:0:0:0:
320,192,51753,1,0,0:0:0:0:
192,192,51753,1,0,0:0:0:0:
64,192,51753,1,0,0:0:0:0:
448,192,51962,1,0,0:0:0:0:
192,192,51962,1,0,0:0:0:0:
64,192,51962,1,0,0:0:0:0:
448,192,52172,1,0,0:0:0:0:
320,192,52172,1,0,0:0:0:0:
192,192,52172,1,0,0:0:0:0:
320,192,52382,1,0,0:0:0:0:
192,192,52382,1,0,0:0:0:0:
64,192,52382,1,0,0:0:0:0:
448,192,52592,1,0,0:0:0:0:
320,192,52592,1,0,0:0:0:0:
192,192,52592,1,0,0:0:0:0:
448,192,52802,1,0,0:0:0:0:
320,192,52802,1,0,0:0:0:0:
64,192,52802,1,0,0:0:0:0:
320,192,53011,1,0,0:0:0:0:
192,192,53011,1,0,0:0:0:0:
64,192,53011,1,0,0:0:0:0:
448,192,53221,1,0,0:0:0:0:
64,192,53221,1,0,0:0:0:0:
320,192,53431,1,0,0:0:0:0:
192,192,53431,1,0,0:0:0:0:
64,192,53431,1,0,0:0:0:0:
448,192,53641,1,0,0:0:0:0:
192,192,53641,1,0,0:0:0:0:
320,192,53850,1,0,0:0:0:0:
192,192,53850,1,0,0:0:0:0:
64,192,53850,1,0,0:0:0:0:
448,192,54060,1,0,0:0:0:0:
192,192,54060,1,0,0:0:0:0:
64,192,54060,1,0,0:0:0:0:
448,192,54270,1,0,0:0:0:0:
320,192,54270,1,0,0:0:0:0:
64,192,54270,1,0,0:0:0:0:
320,192,54480,1,0,0:0:0:0:
192,192,54480,1,0,0:0:0:0:
64,192,54480,1,0,0:0:0:0:
448,192,54690,1,0,0:0:0:0:
320,192,54690,1,0,0:0:0:0:
64,192,54690,1,0,0:0:0:0:
320,192,54795,1,0,0:0:0:0:
192,192,54900,1,0,0:0:0:0:
192,192,55005,1,0,0:0:0:0:
320,192,55110,1,0,0:0:0:0:
320,192,55214,1,0,0:0:0:0:
192,192,55320,1,0,0:0:0:0:
192,192,55424,1,0,0:0:0:0:
448,192,55530,1,0,0:0:0:0:
320,192,55530,1,0,0:0:0:0:
448,192,55634,1,0,0:0:0:0:
64,192,55739,1,0,0:0:0:0:
64,192,55844,1,0,0:0:0:0:
320,192,55949,1,0,0:0:0:0:
192,192,55949,1,0,0:0:0:0:
320,192,56053,1,0,0:0:0:0:
64,192,56159,1,0,0:0:0:0:
64,192,56263,1,0,0:0:0:0:
448,192,56369,1,0,0:0:0:0:
320,192,56369,1,0,0:0:0:0:
192,192,56369,1,0,0:0:0:0:
448,192,56578,1,0,0:0:0:0:
192,192,56578,1,0,0:0:0:0:
320,192,56788,1,0,0:0:0:0:
192,192,56788,1,0,0:0:0:0:
64,192,56788,1,0,0:0:0:0:
448,192,56998,1,0,0:0:0:0:
192,192,56998,1,0,0:0:0:0:
320,192,57208,1,0,0:0:0:0:
192,192,57208,1,0,0:0:0:0:
64,192,57208,1,0,0:0:0:0:
64,192,57312,1,0,0:0:0:0:
448,192,57417,1,0,0:0:0:0:
320,192,57417,1,0,0:0:0:0:
192,192,57417,1,0,0:0:0:0:
448,192,57627,1,0,0:0:0:0:
320,192,57627,1,0,0:0:0:0:
64,192,57627,1,0,0:0:0:0:
192,192,57837,1,0,0:0:0:0:
64,192,57837,1,0,0:0:0:0:
448,192,57941,1,0,0:0:0:0:
320,192,57941,1,0,0:0:0:0:
448,192,58047,1,0,0:0:0:0:
320,192,58047,1,0,0:0:0:0:
64,192,58047,1,0,0:0:0:0:
448,192,58257,1,0,0:0:0:0:
320,192,58257,1,0,0:0:0:0:
192,192,58257,1,0,0:0:0:0:
192,192,58466,1,0,0:0:0:0:
64,192,58466,1,0,0:0:0:0:
448,192,58676,1,0,0:0:0:0:
192,192,58676,1,0,0:0:0:0:
64,192,58676,1,0,0:0:0:0:
448,192,58886,1,0,0:0:0:0:
320,192,58886,1,0,0:0:0:0:
64,192,58886,1,0,0:0:0:0:
448,192,58990,1,0,0:0:0:0:
320,192,58990,1,0,0:0:0:0:
192,192,59096,1,0,0:0:0:0:
64,192,59096,1,0,0:0:0:0:
320,192,59200,1,0,0:0:0:0:
448,192,59305,1,0,0:0:0:0:
192,192,59305,1,0,0:0:0:0:
64,192,59305,1,0,0:0:0:0:
448,192,59515,1,0,0:0:0:0:
320,192,59515,1,0,0:0:0:0:
192,192,59515,1,0,0:0:0:0:
448,192,59725,1,0,0:0:0:0:
192,192,59725,1,0,0:0:0:0:
64,192,59725,1,0,0:0:0:0:
320,192,59935,1,0,0:0:0:0:
64,192,59935,1,0,0:0:0:0:
320,192,60144,1,0,0:0:0:0:
192,192,60144,1,0,0:0:0:0:
64,192,60144,1,0,0:0:0:0:
448,192,60354,1,0,0:0:0:0:
192,192,60354,1,0,0:0:0:0:
320,192,60564,1,0,0:0:0:0:
192,192,60564,1,0,0:0:0:0:
64,192,60564,1,0,0:0:0:0:
320,192,60669,1,0,0:0:0:0:
448,192,60774,1,0,0:0:0:0:
64,192,60774,1,0,0:0:0:0:
192,192,60879,1,0,0:0:0:0:
448,192,60984,1,0,0:0:0:0:
320,192,60984,1,0,0:0:0:0:
64,192,60984,1,0,0:0:0:0:
320,192,61193,1,0,0:0:0:0:
192,192,61193,1,0,0:0:0:0:
64,192,61193,1,0,0:0:0:0:
448,192,61403,1,0,0:0:0:0:
320,192,61403,1,0,0:0:0:0:
64,192,61403,1,0,0:0:0:0:
448,192,61613,1,0,0:0:0:0:
320,192,61613,1,0,0:0:0:0:
192,192,61613,1,0,0:0:0:0:
320,192,61823,1,0,0:0:0:0:
192,192,61823,1,0,0:0:0:0:
64,192,61823,1,0,0:0:0:0:
448,192,62032,1,0,0:0:0:0:
192,192,62032,1,0,0:0:0:0:
64,192,62032,1,0,0:0:0:0:
448,192,62242,1,0,0:0:0:0:
320,192,62242,1,0,0:0:0:0:
64,192,62242,1,0,0:0:0:0:
448,192,62348,1,0,0:0:0:0:
320,192,62348,1,0,0:0:0:0:
192,192,62452,1,0,0:0:0:0:
64,192,62452,1,0,0:0:0:0:
320,192,62557,1,0,0:0:0:0:
448,192,62662,1,0,0:0:0:0:
192,192,62662,1,0,0:0:0:0:
64,192,62662,1,0,0:0:0:0:
448,192,62871,1,0,0:0:0:0:
320,192,62871,1,0,0:0:0:0:
320,192,63081,1,0,0:0:0:0:
448,192,63081,1,0,0:0:0:0:
64,192,63081,1,0,0:0:0:0:
192,192,63081,1,0,0:0:0:0:
192,192,63291,1,0,0:0:0:0:
64,192,63291,1,0,0:0:0:0:
448,192,63501,1,0,0:0:0:0:
320,192,63501,1,0,0:0:0:0:
64,192,63501,1,0,0:0:0:0:
448,192,63711,1,0,0:0:0:0:
320,192,63711,1,0,0:0:0:0:
192,192,63816,1,0,0:0:0:0:
448,192,63920,1,0,0:0:0:0:
320,192,63920,1,0,0:0:0:0:
64,192,63920,1,0,0:0:0:0:
448,192,64130,1,0,0:0:0:0:
64,192,64130,1,0,0:0:0:0:
320,192,64235,1,0,0:0:0:0:
448,192,64340,1,0,0:0:0:0:
192,192,64340,1,0,0:0:0:0:
64,192,64340,1,0,0:0:0:0:
320,192,64550,1,0,0:0:0:0:
192,192,64550,1,0,0:0:0:0:
64,192,64655,1,0,0:0:0:0:
448,192,64760,1,0,0:0:0:0:
320,192,64760,1,0,0:0:0:0:
64,192,64760,1,0,0:0:0:0:
192,192,64970,1,0,0:0:0:0:
64,192,64970,1,0,0:0:0:0:
448,192,65180,1,0,0:0:0:0:
320,192,65180,1,0,0:0:0:0:
64,192,65180,1,0,0:0:0:0:
448,192,65390,1,0,0:0:0:0:
192,192,65390,1,0,0:0:0:0:
448,192,65599,1,0,0:0:0:0:
192,192,65599,1,0,0:0:0:0:
64,192,65599,1,0,0:0:0:0:
192,192,65704,1,0,0:0:0:0:
64,192,65704,1,0,0:0:0:0:
448,192,65809,1,0,0:0:0:0:
320,192,65809,1,0,0:0:0:0:
192,192,65914,1,0,0:0:0:0:
448,192,66019,1,0,0:0:0:0:
320,192,66019,1,0,0:0:0:0:
64,192,66019,1,0,0:0:0:0:
192,192,66229,1,0,0:0:0:0:
64,192,66229,1,0,0:0:0:0:
320,192,66439,1,0,0:0:0:0:
192,192,66439,1,0,0:0:0:0:
64,192,66439,1,0,0:0:0:0:
448,192,66648,1,0,0:0:0:0:
192,192,66648,1,0,0:0:0:0:
448,192,66858,1,0,0:0:0:0:
320,192,66858,1,0,0:0:0:0:
64,192,66858,1,0,0:0:0:0:
320,192,67068,1,0,0:0:0:0:
64,192,67068,1,0,0:0:0:0:
448,192,67278,1,0,0:0:0:0:
192,192,67278,1,0,0:0:0:0:
64,192,67278,1,0,0:0:0:0:
320,192,67382,1,0,0:0:0:0:
448,192,67487,1,0,0:0:0:0:
192,192,67487,1,0,0:0:0:0:
64,192,67592,1,0,0:0:0:0:
448,192,67697,1,0,0:0:0:0:
320,192,67697,1,0,0:0:0:0:
192,192,67697,1,0,0:0:0:0:
192,192,67907,1,0,0:0:0:0:
64,192,67907,1,0,0:0:0:0:
320,192,68117,1,0,0:0:0:0:
448,192,68117,1,0,0:0:0:0:
64,192,68117,1,0,0:0:0:0:
192,192,68117,1,0,0:0:0:0:
448,192,68326,1,0,0:0:0:0:
320,192,68326,1,0,0:0:0:0:
192,192,68431,1,0,0:0:0:0:
64,192,68431,1,0,0:0:0:0:
448,192,68536,1,0,0:0:0:0:
320,192,68536,1,0,0:0:0:0:
192,192,68746,1,0,0:0:0:0:
64,192,68746,1,0,0:0:0:0:
448,192,68850,1,0,0:0:0:0:
320,192,68850,1,0,0:0:0:0:
192,192,68956,1,0,0:0:0:0:
64,192,68956,1,0,0:0:0:0:
320,192,69166,1,0,0:0:0:0:
320,192,69270,1,0,0:0:0:0:
192,192,69375,1,0,0:0:0:0:
448,192,69585,1,0,0:0:0:0:
320,192,69795,1,0,0:0:0:0:
192,192,69795,1,0,0:0:0:0:
64,192,69795,1,0,0:0:0:0:
192,192,70005,1,0,0:0:0:0:
448,192,70214,1,0,0:0:0:0:
320,192,70214,1,0,0:0:0:0:
320,192,70424,1,0,0:0:0:0:
64,192,70530,1,0,0:0:0:0:
448,192,70634,1,0,0:0:0:0:
192,192,70634,1,0,0:0:0:0:
192,192,70844,1,0,0:0:0:0:
448,192,71053,1,0,0:0:0:0:
320,192,71053,1,0,0:0:0:0:
64,192,71263,1,0,0:0:0:0:
192,192,71473,1,0,0:0:0:0:
64,192,71473,1,0,0:0:0:0:
320,192,71683,1,0,0:0:0:0:
448,192,71788,1,0,0:0:0:0:
320,192,71893,1,0,0:0:0:0:
192,192,71893,1,0,0:0:0:0:
64,192,72102,1,0,0:0:0:0:
192,192,72208,1,0,0:0:0:0:
320,192,72312,1,0,0:0:0:0:
64,192,72312,1,0,0:0:0:0:
192,192,72417,1,0,0:0:0:0:
448,192,72522,1,0,0:0:0:0:
320,192,72627,1,0,0:0:0:0:
192,192,72732,1,0,0:0:0:0:
64,192,72732,1,0,0:0:0:0:
320,192,72941,1,0,0:0:0:0:
320,192,73151,1,0,0:0:0:0:
448,192,73151,1,0,0:0:0:0:
64,192,73151,1,0,0:0:0:0:
192,192,73151,1,0,0:0:0:0:
192,192,73361,1,0,0:0:0:0:
320,192,73571,1,0,0:0:0:0:
192,192,73807,1,0,0:0:0:0:
64,192,73807,1,0,0:0:0:0:
192,192,74227,1,0,0:0:0:0:
448,192,74384,1,0,0:0:0:0:
320,192,74384,1,0,0:0:0:0:
192,192,74611,1,0,0:0:0:0:
64,192,74611,1,0,0:0:0:0:
448,192,74787,1,0,0:0:0:0:
320,192,74787,1,0,0:0:0:0:
64,192,74787,1,0,0:0:0:0:
448,192,75013,1,0,0:0:0:0:
192,192,75013,1,0,0:0:0:0:
64,192,75013,1,0,0:0:0:0:
320,192,75259,1,0,0:0:0:0:
192,192,75451,128,0,75582:0:0:0:0:
320,192,75879,1,0,0:0:0:0:
320,192,76089,1,0,0:0:0:0:
448,192,76089,1,0,0:0:0:0:
64,192,76089,1,0,0:0:0:0:
192,192,76089,1,0,0:0:0:0:
448,192,76299,1,0,0:0:0:0:
192,192,76299,1,0,0:0:0:0:
64,192,76299,1,0,0:0:0:0:
320,192,76508,1,0,0:0:0:0:
448,192,76508,1,0,0:0:0:0:
64,192,76508,1,0,0:0:0:0:
192,192,76508,1,0,0:0:0:0:
320,192,76718,1,0,0:0:0:0:
64,192,76718,1,0,0:0:0:0:
448,192,76928,1,0,0:0:0:0:
320,192,76928,1,0,0:0:0:0:
192,192,76928,1,0,0:0:0:0:
192,192,77138,1,0,0:0:0:0:
64,192,77138,1,0,0:0:0:0:
448,192,77348,1,0,0:0:0:0:
320,192,77348,1,0,0:0:0:0:
64,192,77348,1,0,0:0:0:0:
448,192,77557,1,0,0:0:0:0:
192,192,77557,1,0,0:0:0:0:
448,192,77767,1,0,0:0:0:0:
320,192,77767,1,0,0:0:0:0:
64,192,77767,1,0,0:0:0:0:
320,192,77977,1,0,0:0:0:0:
192,192,77977,1,0,0:0:0:0:
448,192,78187,1,0,0:0:0:0:
192,192,78187,1,0,0:0:0:0:
64,192,78187,1,0,0:0:0:0:
448,192,78396,1,0,0:0:0:0:
64,192,78396,1,0,0:0:0:0:
320,192,78606,1,0,0:0:0:0:
192,192,78606,1,0,0:0:0:0:
64,192,78606,1,0,0:0:0:0:
448,192,78816,1,0,0:0:0:0:
192,192,78816,1,0,0:0:0:0:
448,192,79026,1,0,0:0:0:0:
320,192,79026,1,0,0:0:0:0:
64,192,79026,1,0,0:0:0:0:
320,192,79235,1,0,0:0:0:0:
192,192,79235,1,0,0:0:0:0:
448,192,79445,1,0,0:0:0:0:
320,192,79445,1,0,0:0:0:0:
64,192,79445,1,0,0:0:0:0:
192,192,79655,1,0,0:0:0:0:
64,192,79655,1,0,0:0:0:0:
448,192,79865,1,0,0:0:0:0:
192,192,79865,1,0,0:0:0:0:
64,192,79865,1,0,0:0:0:0:
448,192,80075,1,0,0:0:0:0:
320,192,80075,1,0,0:0:0:0:
320,192,80284,1,0,0:0:0:0:
192,192,80284,1,0,0:0:0:0:
64,192,80284,1,0,0:0:0:0:
448,192,80494,1,0,0:0:0:0:
64,192,80494,1,0,0:0:0:0:
448,192,80704,1,0,0:0:0:0:
320,192,80704,1,0,0:0:0:0:
192,192,80704,1,0,0:0:0:0:
320,192,80914,1,0,0:0:0:0:
192,192,80914,1,0,0:0:0:0:
448,192,81123,1,0,0:0:0:0:
320,192,81123,1,0,0:0:0:0:
64,192,81123,1,0,0:0:0:0:
192,192,81333,1,0,0:0:0:0:
64,192,81333,1,0,0:0:0:0:
448,192,81543,1,0,0:0:0:0:
320,192,81543,1,0,0:0:0:0:
192,192,81543,1,0,0:0:0:0:
320,192,81753,1,0,0:0:0:0:
64,192,81753,1,0,0:0:0:0:
448,192,81962,1,0,0:0:0:0:
192,192,81962,1,0,0:0:0:0:
64,192,81962,1,0,0:0:0:0:
320,192,82172,1,0,0:0:0:0:
192,192,82172,1,0,0:0:0:0:
448,192,82382,1,0,0:0:0:0:
192,192,82382,1,0,0:0:0:0:
64,192,82382,1,0,0:0:0:0:
320,192,82592,1,0,0:0:0:0:
64,192,82592,1,0,0:0:0:0:
448,192,82802,1,0,0:0:0:0:
320,192,82802,1,0,0:0:0:0:
192,192,82802,1,0,0:0:0:0:
448,192,83011,1,0,0:0:0:0:
192,192,83011,1,0,0:0:0:0:
448,192,83221,1,0,0:0:0:0:
320,192,83221,1,0,0:0:0:0:
64,192,83221,1,0,0:0:0:0:
320,192,83431,1,0,0:0:0:0:
192,192,83431,1,0,0:0:0:0:
448,192,83641,1,0,0:0:0:0:
320,192,83641,1,0,0:0:0:0:
64,192,83641,1,0,0:0:0:0:
320,192,83850,1,0,0:0:0:0:
64,192,83850,1,0,0:0:0:0:
448,192,84060,1,0,0:0:0:0:
192,192,84060,1,0,0:0:0:0:
64,192,84060,1,0,0:0:0:0:
448,192,84270,1,0,0:0:0:0:
320,192,84270,1,0,0:0:0:0:
448,192,84480,1,0,0:0:0:0:
192,192,84480,1,0,0:0:0:0:
64,192,84480,1,0,0:0:0:0:
192,192,84690,1,0,0:0:0:0:
64,192,84690,1,0,0:0:0:0:
448,192,84900,1,0,0:0:0:0:
320,192,84900,1,0,0:0:0:0:
64,192,84900,1,0,0:0:0:0:
320,192,85110,1,0,0:0:0:0:
192,192,85110,1,0,0:0:0:0:
448,192,85320,1,0,0:0:0:0:
192,192,85320,1,0,0:0:0:0:
64,192,85320,1,0,0:0:0:0:
320,192,85530,1,0,0:0:0:0:
64,192,85530,1,0,0:0:0:0:
448,192,85739,1,0,0:0:0:0:
320,192,85739,1,0,0:0:0:0:
192,192,85739,1,0,0:0:0:0:
448,192,85949,1,0,0:0:0:0:
64,192,85949,1,0,0:0:0:0:
320,192,86159,1,0,0:0:0:0:
192,192,86159,1,0,0:0:0:0:
64,192,86159,1,0,0:0:0:0:
448,192,86369,1,0,0:0:0:0:
192,192,86369,1,0,0:0:0:0:
320,192,86578,1,0,0:0:0:0:
448,192,86578,1,0,0:0:0:0:
64,192,86578,1,0,0:0:0:0:
192,192,86578,1,0,0:0:0:0:
320,192,86788,1,0,0:0:0:0:
192,192,86788,1,0,0:0:0:0:
448,192,86998,1,0,0:0:0:0:
192,192,86998,1,0,0:0:0:0:
64,192,86998,1,0,0:0:0:0:
448,192,87208,1,0,0:0:0:0:
64,192,87208,1,0,0:0:0:0:
448,192,87417,1,0,0:0:0:0:
320,192,87417,1,0,0:0:0:0:
64,192,87417,1,0,0:0:0:0:
448,192,87627,1,0,0:0:0:0:
320,192,87627,1,0,0:0:0:0:
320,192,87837,1,0,0:0:0:0:
192,192,87837,1,0,0:0:0:0:
64,192,87837,1,0,0:0:0:0:
192,192,88047,1,0,0:0:0:0:
64,192,88047,1,0,0:0:0:0:
448,192,88257,1,0,0:0:0:0:
320,192,88257,1,0,0:0:0:0:
192,192,88257,1,0,0:0:0:0:
320,192,88466,1,0,0:0:0:0:
64,192,88466,1,0,0:0:0:0:
448,192,88676,1,0,0:0:0:0:
192,192,88676,1,0,0:0:0:0:
64,192,88676,1,0,0:0:0:0:
448,192,88886,1,0,0:0:0:0:
320,192,88886,1,0,0:0:0:0:
448,192,89096,1,0,0:0:0:0:
320,192,89096,1,0,0:0:0:0:
64,192,89096,1,0,0:0:0:0:
320,192,89305,1,0,0:0:0:0:
192,192,89305,1,0,0:0:0:0:
448,192,89515,1,0,0:0:0:0:
192,192,89515,1,0,0:0:0:0:
64,192,89515,1,0,0:0:0:0:
448,192,89725,1,0,0:0:0:0:
320,192,89725,1,0,0:0:0:0:
448,192,89935,1,0,0:0:0:0:
320,192,89935,1,0,0:0:0:0:
64,192,89935,1,0,0:0:0:0:
448,192,90144,1,0,0:0:0:0:
192,192,90144,1,0,0:0:0:0:
320,192,90354,1,0,0:0:0:0:
192,192,90354,1,0,0:0:0:0:
64,192,90354,1,0,0:0:0:0:
448,192,90564,1,0,0:0:0:0:
64,192,90564,1,0,0:0:0:0:
448,192,90774,1,0,0:0:0:0:
192,192,90774,1,0,0:0:0:0:
64,192,90774,1,0,0:0:0:0:
320,192,90984,1,0,0:0:0:0:
192,192,90984,1,0,0:0:0:0:
448,192,91193,1,0,0:0:0:0:
320,192,91193,1,0,0:0:0:0:
64,192,91193,1,0,0:0:0:0:
448,192,91403,1,0,0:0:0:0:
192,192,91403,1,0,0:0:0:0:
448,192,91613,1,0,0:0:0:0:
192,192,91613,1,0,0:0:0:0:
64,192,91613,1,0,0:0:0:0:
320,192,91823,1,0,0:0:0:0:
64,192,91823,1,0,0:0:0:0:
448,192,92032,1,0,0:0:0:0:
192,192,92032,1,0,0:0:0:0:
64,192,92032,1,0,0:0:0:0:
192,192,92242,1,0,0:0:0:0:
64,192,92242,1,0,0:0:0:0:
320,192,92452,1,0,0:0:0:0:
192,192,92452,1,0,0:0:0:0:
64,192,92452,1,0,0:0:0:0:
448,192,92662,1,0,0:0:0:0:
192,192,92662,1,0,0:0:0:0:
448,192,92871,1,0,0:0:0:0:
192,192,92871,1,0,0:0:0:0:
64,192,92871,1,0,0:0:0:0:
448,192,93081,1,0,0:0:0:0:
320,192,93081,1,0,0:0:0:0:
320,192,93291,1,0,0:0:0:0:
192,192,93291,1,0,0:0:0:0:
64,192,93291,1,0,0:0:0:0:
192,192,93501,1,0,0:0:0:0:
64,192,93501,1,0,0:0:0:0:
448,192,93711,1,0,0:0:0:0:
320,192,93711,1,0,0:0:0:0:
192,192,93711,1,0,0:0:0:0:
448,192,93920,1,0,0:0:0:0:
64,192,93920,1,0,0:0:0:0:
448,192,94130,1,0,0:0:0:0:
320,192,94130,1,0,0:0:0:0:
192,192,94130,1,0,0:0:0:0:
320,192,94340,1,0,0:0:0:0:
192,192,94340,1,0,0:0:0:0:
448,192,94550,1,0,0:0:0:0:
192,192,94550,1,0,0:0:0:0:
64,192,94550,1,0,0:0:0:0:
448,192,94760,1,0,0:0:0:0:
320,192,94760,1,0,0:0:0:0:
448,192,94970,1,0,0:0:0:0:
320,192,94970,1,0,0:0:0:0:
64,192,94970,1,0,0:0:0:0:
320,192,95180,1,0,0:0:0:0:
192,192,95180,1,0,0:0:0:0:
448,192,95390,1,0,0:0:0:0:
192,192,95390,1,0,0:0:0:0:
64,192,95390,1,0,0:0:0:0:
448,192,95599,1,0,0:0:0:0:
64,192,95599,1,0,0:0:0:0:
448,192,95809,1,0,0:0:0:0:
192,192,95809,1,0,0:0:0:0:
64,192,95809,1,0,0:0:0:0:
192,192,96019,1,0,0:0:0:0:
64,192,96019,1,0,0:0:0:0:
448,192,96229,1,0,0:0:0:0:
320,192,96229,1,0,0:0:0:0:
192,192,96229,1,0,0:0:0:0:
448,192,96439,1,0,0:0:0:0:
64,192,96439,1,0,0:0:0:0:
320,192,96648,1,0,0:0:0:0:
448,192,96648,1,0,0:0:0:0:
64,192,96648,1,0,0:0:0:0:
192,192,96648,1,0,0:0:0:0:
192,192,96858,1,0,0:0:0:0:
320,192,97068,1,0,0:0:0:0:
64,192,97068,1,0,0:0:0:0:
192,192,97278,1,0,0:0:0:0:
448,192,97487,1,0,0:0:0:0:
320,192,97487,1,0,0:0:0:0:
192,192,97697,1,0,0:0:0:0:
448,192,97907,1,0,0:0:0:0:
64,192,97907,1,0,0:0:0:0:
320,192,98117,1,0,0:0:0:0:
448,192,98326,1,0,0:0:0:0:
192,192,98536,1,0,0:0:0:0:
320,192,98746,1,0,0:0:0:0:
192,192,98746,1,0,0:0:0:0:
64,192,98746,1,0,0:0:0:0:
320,192,98956,1,0,0:0:0:0:
448,192,99166,1,0,0:0:0:0:
320,192,99166,1,0,0:0:0:0:
192,192,99166,1,0,0:0:0:0:
192,192,99375,1,0,0:0:0:0:
448,192,99585,1,0,0:0:0:0:
320,192,99585,1,0,0:0:0:0:
64,192,99585,1,0,0:0:0:0:
192,192,99795,1,0,0:0:0:0:
320,192,100005,1,0,0:0:0:0:
448,192,100005,1,0,0:0:0:0:
64,192,100005,1,0,0:0:0:0:
192,192,100005,1,0,0:0:0:0:
320,192,100214,1,0,0:0:0:0:
64,192,100214,1,0,0:0:0:0:
448,192,100424,1,0,0:0:0:0:
320,192,100424,1,0,0:0:0:0:
192,192,100424,1,0,0:0:0:0:
448,192,100634,1,0,0:0:0:0:
192,192,100634,1,0,0:0:0:0:
64,192,100634,1,0,0:0:0:0:
448,192,100844,1,0,0:0:0:0:
320,192,100844,1,0,0:0:0:0:
64,192,100844,1,0,0:0:0:0:
448,192,101053,1,0,0:0:0:0:
320,192,101053,1,0,0:0:0:0:
192,192,101053,1,0,0:0:0:0:
448,192,101263,1,0,0:0:0:0:
320,192,101263,1,0,0:0:0:0:
64,192,101263,1,0,0:0:0:0:
320,192,101473,1,0,0:0:0:0:
192,192,101473,1,0,0:0:0:0:
64,192,101473,1,0,0:0:0:0:
448,192,101683,1,0,0:0:0:0:
192,192,101683,1,0,0:0:0:0:
448,192,101893,1,0,0:0:0:0:
320,192,101893,1,0,0:0:0:0:
64,192,101893,1,0,0:0:0:0:
448,192,102102,1,0,0:0:0:0:
320,192,102102,1,0,0:0:0:0:
192,192,102102,1,0,0:0:0:0:
448,192,102312,1,0,0:0:0:0:
192,192,102312,1,0,0:0:0:0:
64,192,102312,1,0,0:0:0:0:
320,192,102522,1,0,0:0:0:0:
192,192,102522,1,0,0:0:0:0:
64,192,102522,1,0,0:0:0:0:
448,192,102732,1,0,0:0:0:0:
320,192,102732,1,0,0:0:0:0:
192,192,102732,1,0,0:0:0:0:
320,192,102941,1,0,0:0:0:0:
192,192,102941,1,0,0:0:0:0:
64,192,102941,1,0,0:0:0:0:
448,192,103151,1,0,0:0:0:0:
320,192,103151,1,0,0:0:0:0:
64,192,103151,1,0,0:0:0:0:
448,192,103361,1,0,0:0:0:0:
320,192,103361,1,0,0:0:0:0:
192,192,103361,1,0,0:0:0:0:
192,192,103571,1,0,0:0:0:0:
64,192,103571,1,0,0:0:0:0:
448,192,103780,1,0,0:0:0:0:
320,192,103780,1,0,0:0:0:0:
192,192,103780,1,0,0:0:0:0:
448,192,103990,1,0,0:0:0:0:
192,192,103990,1,0,0:0:0:0:
64,192,103990,1,0,0:0:0:0:
448,192,104200,1,0,0:0:0:0:
320,192,104200,1,0,0:0:0:0:
64,192,104200,1,0,0:0:0:0:
448,192,104410,1,0,0:0:0:0:
320,192,104410,1,0,0:0:0:0:
192,192,104410,1,0,0:0:0:0:
448,192,104620,1,0,0:0:0:0:
320,192,104620,1,0,0:0:0:0:
64,192,104620,1,0,0:0:0:0:
320,192,104830,1,0,0:0:0:0:
192,192,104830,1,0,0:0:0:0:
64,192,104830,1,0,0:0:0:0:
448,192,105040,1,0,0:0:0:0:
192,192,105040,1,0,0:0:0:0:
448,192,105250,1,0,0:0:0:0:
192,192,105250,1,0,0:0:0:0:
64,192,105250,1,0,0:0:0:0:
448,192,105460,1,0,0:0:0:0:
320,192,105460,1,0,0:0:0:0:
64,192,105460,1,0,0:0:0:0:
448,192,105669,1,0,0:0:0:0:
320,192,105669,1,0,0:0:0:0:
192,192,105669,1,0,0:0:0:0:
448,192,105879,1,0,0:0:0:0:
320,192,105879,1,0,0:0:0:0:
64,192,105879,1,0,0:0:0:0:
320,192,106089,1,0,0:0:0:0:
192,192,106089,1,0,0:0:0:0:
64,192,106089,1,0,0:0:0:0:
448,192,106299,1,0,0:0:0:0:
192,192,106299,1,0,0:0:0:0:
64,192,106299,1,0,0:0:0:0:
448,192,106508,1,0,0:0:0:0:
192,192,106508,1,0,0:0:0:0:
64,192,106508,1,0,0:0:0:0:
320,192,106718,1,0,0:0:0:0:
448,192,106718,1,0,0:0:0:0:
64,192,106718,1,0,0:0:0:0:
192,192,106718,1,0,0:0:0:0:
320,192,106928,1,0,0:0:0:0:
64,192,106928,1,0,0:0:0:0:
448,192,107138,1,0,0:0:0:0:
320,192,107138,1,0,0:0:0:0:
192,192,107138,1,0,0:0:0:0:
448,192,107348,1,0,0:0:0:0:
192,192,107348,1,0,0:0:0:0:
64,192,107348,1,0,0:0:0:0:
448,192,107557,1,0,0:0:0:0:
320,192,107557,1,0,0:0:0:0:
64,192,107557,1,0,0:0:0:0:
448,192,107767,1,0,0:0:0:0:
320,192,107767,1,0,0:0:0:0:
192,192,107767,1,0,0:0:0:0:
448,192,107977,1,0,0:0:0:0:
320,192,107977,1,0,0:0:0:0:
64,192,107977,1,0,0:0:0:0:
320,192,108187,1,0,0:0:0:0:
192,192,108187,1,0,0:0:0:0:
64,192,108187,1,0,0:0:0:0:
448,192,108396,1,0,0:0:0:0:
192,192,108396,1,0,0:0:0:0:
448,192,108606,1,0,0:0:0:0:
320,192,108606,1,0,0:0:0:0:
64,192,108606,1,0,0:0:0:0:
448,192,108816,1,0,0:0:0:0:
320,192,108816,1,0,0:0:0:0:
192,192,108816,1,0,0:0:0:0:
448,192,109026,1,0,0:0:0:0:
192,192,109026,1,0,0:0:0:0:
64,192,109026,1,0,0:0:0:0:
320,192,109235,1,0,0:0:0:0:
192,192,109235,1,0,0:0:0:0:
64,192,109235,1,0,0:0:0:0:
448,192,109445,1,0,0:0:0:0:
320,192,109445,1,0,0:0:0:0:
192,192,109445,1,0,0:0:0:0:
320,192,109655,1,0,0:0:0:0:
192,192,109655,1,0,0:0:0:0:
64,192,109655,1,0,0:0:0:0:
448,192,109865,1,0,0:0:0:0:
320,192,109865,1,0,0:0:0:0:
64,192,109865,1,0,0:0:0:0:
448,192,110075,1,0,0:0:0:0:
320,192,110075,1,0,0:0:0:0:
192,192,110075,1,0,0:0:0:0:
448,192,110284,1,0,0:0:0:0:
64,192,110284,1,0,0:0:0:0:
448,192,110494,1,0,0:0:0:0:
320,192,110494,1,0,0:0:0:0:
192,192,110494,1,0,0:0:0:0:
192,192,110704,1,0,0:0:0:0:
64,192,110704,1,0,0:0:0:0:
448,192,110914,1,0,0:0:0:0:
320,192,110914,1,0,0:0:0:0:
192,192,110914,1,0,0:0:0:0:
448,192,111123,1,0,0:0:0:0:
192,192,111123,1,0,0:0:0:0:
64,192,111123,1,0,0:0:0:0:
448,192,111333,1,0,0:0:0:0:
320,192,111333,1,0,0:0:0:0:
64,192,111333,1,0,0:0:0:0:
448,192,111543,1,0,0:0:0:0:
320,192,111543,1,0,0:0:0:0:
192,192,111543,1,0,0:0:0:0:
448,192,111753,1,0,0:0:0:0:
320,192,111753,1,0,0:0:0:0:
64,192,111753,1,0,0:0:0:0:
320,192,111858,1,0,0:0:0:0:
192,192,111962,1,0,0:0:0:0:
192,192,112068,1,0,0:0:0:0:
320,192,112172,1,0,0:0:0:0:
320,192,112278,1,0,0:0:0:0:
192,192,112382,1,0,0:0:0:0:
192,192,112487,1,0,0:0:0:0:
320,192,112592,1,0,0:0:0:0:
64,192,112592,1,0,0:0:0:0:
64,192,112697,1,0,0:0:0:0:
448,192,112802,1,0,0:0:0:0:
448,192,112907,1,0,0:0:0:0:
320,192,113011,1,0,0:0:0:0:
192,192,113011,1,0,0:0:0:0:
320,192,113117,1,0,0:0:0:0:
448,192,113221,1,0,0:0:0:0:
448,192,113326,1,0,0:0:0:0:
320,192,113431,1,0,0:0:0:0:
192,192,113431,1,0,0:0:0:0:
64,192,113431,1,0,0:0:0:0:
192,192,113641,1,0,0:0:0:0:
64,192,113641,1,0,0:0:0:0:
448,192,113850,1,0,0:0:0:0:
320,192,113850,1,0,0:0:0:0:
192,192,113850,1,0,0:0:0:0:
192,192,114060,1,0,0:0:0:0:
64,192,114060,1,0,0:0:0:0:
448,192,114270,1,0,0:0:0:0:
320,192,114270,1,0,0:0:0:0:
192,192,114270,1,0,0:0:0:0:
448,192,114375,1,0,0:0:0:0:
320,192,114480,1,0,0:0:0:0:
192,192,114480,1,0,0:0:0:0:
64,192,114480,1,0,0:0:0:0:
448,192,114690,1,0,0:0:0:0:
320,192,114690,1,0,0:0:0:0:
64,192,114690,1,0,0:0:0:0:
448,192,114900,1,0,0:0:0:0:
320,192,114900,1,0,0:0:0:0:
192,192,115005,1,0,0:0:0:0:
64,192,115005,1,0,0:0:0:0:
448,192,115110,1,0,0:0:0:0:
320,192,115110,1,0,0:0:0:0:
64,192,115110,1,0,0:0:0:0:
448,192,115320,1,0,0:0:0:0:
192,192,115320,1,0,0:0:0:0:
64,192,115320,1,0,0:0:0:0:
448,192,115530,1,0,0:0:0:0:
192,192,115530,1,0,0:0:0:0:
320,192,115739,1,0,0:0:0:0:
192,192,115739,1,0,0:0:0:0:
64,192,115739,1,0,0:0:0:0:
448,192,115949,1,0,0:0:0:0:
320,192,115949,1,0,0:0:0:0:
64,192,115949,1,0,0:0:0:0:
192,192,116053,1,0,0:0:0:0:
64,192,116053,1,0,0:0:0:0:
448,192,116159,1,0,0:0:0:0:
320,192,116159,1,0,0:0:0:0:
192,192,116263,1,0,0:0:0:0:
448,192,116369,1,0,0:0:0:0:
320,192,116369,1,0,0:0:0:0:
64,192,116369,1,0,0:0:0:0:
320,192,116578,1,0,0:0:0:0:
192,192,116578,1,0,0:0:0:0:
64,192,116578,1,0,0:0:0:0:
448,192,116788,1,0,0:0:0:0:
192,192,116788,1,0,0:0:0:0:
64,192,116788,1,0,0:0:0:0:
448,192,116998,1,0,0:0:0:0:
320,192,116998,1,0,0:0:0:0:
448,192,117208,1,0,0:0:0:0:
320,192,117208,1,0,0:0:0:0:
192,192,117208,1,0,0:0:0:0:
192,192,117417,1,0,0:0:0:0:
64,192,117417,1,0,0:0:0:0:
448,192,117627,1,0,0:0:0:0:
320,192,117627,1,0,0:0:0:0:
192,192,117627,1,0,0:0:0:0:
320,192,117732,1,0,0:0:0:0:
448,192,117837,1,0,0:0:0:0:
64,192,117837,1,0,0:0:0:0:
192,192,117941,1,0,0:0:0:0:
448,192,118047,1,0,0:0:0:0:
320,192,118047,1,0,0:0:0:0:
64,192,118047,1,0,0:0:0:0:
448,192,118257,1,0,0:0:0:0:
320,192,118257,1,0,0:0:0:0:
192,192,118257,1,0,0:0:0:0:
448,192,118466,1,0,0:0:0:0:
320,192,118466,1,0,0:0:0:0:
64,192,118466,1,0,0:0:0:0:
320,192,118676,1,0,0:0:0:0:
192,192,118676,1,0,0:0:0:0:
64,192,118676,1,0,0:0:0:0:
448,192,118886,1,0,0:0:0:0:
320,192,118886,1,0,0:0:0:0:
192,192,118886,1,0,0:0:0:0:
448,192,119096,1,0,0:0:0:0:
192,192,119096,1,0,0:0:0:0:
64,192,119096,1,0,0:0:0:0:
448,192,119305,1,0,0:0:0:0:
320,192,119305,1,0,0:0:0:0:
64,192,119305,1,0,0:0:0:0:
192,192,119410,1,0,0:0:0:0:
64,192,119410,1,0,0:0:0:0:
448,192,119515,1,0,0:0:0:0:
320,192,119515,1,0,0:0:0:0:
192,192,119620,1,0,0:0:0:0:
448,192,119725,1,0,0:0:0:0:
320,192,119725,1,0,0:0:0:0:
64,192,119725,1,0,0:0:0:0:
320,192,119935,1,0,0:0:0:0:
64,192,119935,1,0,0:0:0:0:
320,192,120144,1,0,0:0:0:0:
448,192,120144,1,0,0:0:0:0:
64,192,120144,1,0,0:0:0:0:
192,192,120144,1,0,0:0:0:0:
448,192,120354,1,0,0:0:0:0:
192,192,120354,1,0,0:0:0:0:
448,192,120564,1,0,0:0:0:0:
320,192,120564,1,0,0:0:0:0:
64,192,120564,1,0,0:0:0:0:
320,192,120774,1,0,0:0:0:0:
64,192,120774,1,0,0:0:0:0:
192,192,120879,1,0,0:0:0:0:
448,192,120984,1,0,0:0:0:0:
320,192,120984,1,0,0:0:0:0:
64,192,120984,1,0,0:0:0:0:
448,192,121193,1,0,0:0:0:0:
64,192,121193,1,0,0:0:0:0:
320,192,121299,1,0,0:0:0:0:
448,192,121403,1,0,0:0:0:0:
192,192,121403,1,0,0:0:0:0:
64,192,121403,1,0,0:0:0:0:
320,192,121613,1,0,0:0:0:0:
192,192,121613,1,0,0:0:0:0:
448,192,121718,1,0,0:0:0:0:
448,192,121823,1,0,0:0:0:0:
320,192,121823,1,0,0:0:0:0:
64,192,121823,1,0,0:0:0:0:
448,192,122032,1,0,0:0:0:0:
192,192,122032,1,0,0:0:0:0:
448,192,122242,1,0,0:0:0:0:
320,192,122242,1,0,0:0:0:0:
64,192,122242,1,0,0:0:0:0:
192,192,122452,1,0,0:0:0:0:
64,192,122452,1,0,0:0:0:0:
448,192,122662,1,0,0:0:0:0:
192,192,122662,1,0,0:0:0:0:
64,192,122662,1,0,0:0:0:0:
448,192,122767,1,0,0:0:0:0:
320,192,122767,1,0,0:0:0:0:
192,192,122871,1,0,0:0:0:0:
64,192,122871,1,0,0:0:0:0:
320,192,122977,1,0,0:0:0:0:
448,192,123081,1,0,0:0:0:0:
192,192,123081,1,0,0:0:0:0:
64,192,123081,1,0,0:0:0:0:
448,192,123291,1,0,0:0:0:0:
320,192,123291,1,0,0:0:0:0:
448,192,123501,1,0,0:0:0:0:
320,192,123501,1,0,0:0:0:0:
192,192,123501,1,0,0:0:0:0:
192,192,123711,1,0,0:0:0:0:
64,192,123711,1,0,0:0:0:0:
448,192,123920,1,0,0:0:0:0:
320,192,123920,1,0,0:0:0:0:
64,192,123920,1,0,0:0:0:0:
448,192,124130,1,0,0:0:0:0:
320,192,124130,1,0,0:0:0:0:
448,192,124340,1,0,0:0:0:0:
192,192,124340,1,0,0:0:0:0:
64,192,124340,1,0,0:0:0:0:
320,192,124445,1,0,0:0:0:0:
192,192,124550,1,0,0:0:0:0:
64,192,124550,1,0,0:0:0:0:
448,192,124655,1,0,0:0:0:0:
320,192,124760,1,0,0:0:0:0:
192,192,124760,1,0,0:0:0:0:
64,192,124760,1,0,0:0:0:0:
448,192,124970,1,0,0:0:0:0:
192,192,124970,1,0,0:0:0:0:
320,192,125180,1,0,0:0:0:0:
448,192,125180,1,0,0:0:0:0:
64,192,125180,1,0,0:0:0:0:
192,192,125180,1,0,0:0:0:0:
320,192,125390,1,0,0:0:0:0:
64,192,125390,1,0,0:0:0:0:
448,192,125599,1,0,0:0:0:0:
192,192,125599,1,0,0:0:0:0:
448,192,125809,1,0,0:0:0:0:
192,192,125809,1,0,0:0:0:0:
192,192,126019,1,0,0:0:0:0:
64,192,126019,1,0,0:0:0:0:
192,192,126123,1,0,0:0:0:0:
64,192,126123,1,0,0:0:0:0:
448,192,126333,1,0,0:0:0:0:
320,192,126333,1,0,0:0:0:0:
192,192,126648,1,0,0:0:0:0:
64,192,126648,1,0,0:0:0:0:
448,192,126858,1,0,0:0:0:0:
320,192,126858,1,0,0:0:0:0:
192,192,126858,1,0,0:0:0:0:
192,192,127278,1,0,0:0:0:0:
448,192,127697,1,0,0:0:0:0:
320,192,127697,1,0,0:0:0:0:
192,192,128554,1,0,0:0:0:0:
320,192,128790,1,0,0:0:0:0:
64,192,128965,1,0,0:0:0:0:
320,192,129200,1,0,0:0:0:0:
192,192,129384,1,0,0:0:0:0:
448,192,129594,1,0,0:0:0:0:
192,192,129804,1,0,0:0:0:0:
320,192,130005,1,0,0:0:0:0:
192,192,130214,1,0,0:0:0:0:
320,192,130530,1,0,0:0:0:0:
192,192,130634,1,0,0:0:0:0:
64,192,130853,1,0,0:0:0:0:
448,192,131053,1,0,0:0:0:0:
320,192,131053,1,0,0:0:0:0:
192,192,131263,1,0,0:0:0:0:
320,192,131518,1,0,0:0:0:0:
64,192,131701,1,0,0:0:0:0:
192,192,131788,1,0,0:0:0:0:
448,192,131893,1,0,0:0:0:0:
320,192,131893,1,0,0:0:0:0:
64,192,132155,1,0,0:0:0:0:
448,192,132312,1,0,0:0:0:0:
320,192,132312,1,0,0:0:0:0:
320,192,132600,1,0,0:0:0:0:
192,192,132732,1,0,0:0:0:0:
64,192,132732,1,0,0:0:0:0:
448,192,133571,1,0,0:0:0:0:
192,192,133571,1,0,0:0:0:0:
320,192,133956,1,0,0:0:0:0:
64,192,133956,1,0,0:0:0:0:
320,192,134210,1,0,0:0:0:0:
192,192,134210,1,0,0:0:0:0:
448,192,134410,1,0,0:0:0:0:
320,192,134410,1,0,0:0:0:0:
192,192,134830,1,0,0:0:0:0:
64,192,134830,1,0,0:0:0:0:
448,192,135058,1,0,0:0:0:0:
320,192,135058,1,0,0:0:0:0:
448,192,135704,1,0,0:0:0:0:
192,192,135704,1,0,0:0:0:0:
448,192,135914,1,0,0:0:0:0:
64,192,135914,1,0,0:0:0:0:
320,192,136089,1,0,0:0:0:0:
192,192,136089,1,0,0:0:0:0:
320,192,136884,1,0,0:0:0:0:
64,192,136884,1,0,0:0:0:0:
320,192,137068,1,0,0:0:0:0:
192,192,137068,1,0,0:0:0:0:
448,192,137321,1,0,0:0:0:0:
320,192,137321,1,0,0:0:0:0:
448,192,137566,1,0,0:0:0:0:
64,192,137566,1,0,0:0:0:0:
320,192,137750,1,0,0:0:0:0:
64,192,137750,1,0,0:0:0:0:
192,192,137916,1,0,0:0:0:0:
448,192,138179,1,0,0:0:0:0:
320,192,138179,1,0,0:0:0:0:
320,192,138406,1,0,0:0:0:0:
64,192,138406,1,0,0:0:0:0:
448,192,138606,1,0,0:0:0:0:
320,192,138606,1,0,0:0:0:0:
192,192,138834,1,0,0:0:0:0:
64,192,138834,1,0,0:0:0:0:
320,192,139026,128,0,140704:0:0:0:0:
448,192,139026,128,0,140704:0:0:0:0:
192,192,140704,1,0,0:0:0:0:
64,192,140704,1,0,0:0:0:0:
448,192,141123,1,0,0:0:0:0:
192,192,141123,1,0,0:0:0:0:
320,192,141543,1,0,0:0:0:0:
192,192,141543,1,0,0:0:0:0:
64,192,141543,1,0,0:0:0:0:
320,192,141962,1,0,0:0:0:0:
448,192,141962,1,0,0:0:0:0:
64,192,141962,1,0,0:0:0:0:
192,192,141962,1,0,0:0:0:0:
192,192,142278,1,0,0:0:0:0:
64,192,142278,1,0,0:0:0:0:
448,192,142382,1,0,0:0:0:0:
320,192,142382,1,0,0:0:0:0:
448,192,142592,1,0,0:0:0:0:
320,192,142592,1,0,0:0:0:0:
320,192,142802,1,0,0:0:0:0:
64,192,142802,1,0,0:0:0:0:
448,192,142907,1,0,0:0:0:0:
192,192,142907,1,0,0:0:0:0:
320,192,143011,1,0,0:0:0:0:
64,192,143011,1,0,0:0:0:0:
448,192,143221,1,0,0:0:0:0:
64,192,143221,1,0,0:0:0:0:
192,192,143326,1,0,0:0:0:0:
448,192,143536,1,0,0:0:0:0:
320,192,143536,1,0,0:0:0:0:
192,192,143641,1,0,0:0:0:0:
64,192,143641,1,0,0:0:0:0:
192,192,143850,1,0,0:0:0:0:
448,192,143956,1,0,0:0:0:0:
320,192,143956,1,0,0:0:0:0:
192,192,144060,1,0,0:0:0:0:
64,192,144060,1,0,0:0:0:0:
448,192,144270,1,0,0:0:0:0:
320,192,144270,1,0,0:0:0:0:
448,192,144480,1,0,0:0:0:0:
64,192,144480,1,0,0:0:0:0:
320,192,144585,1,0,0:0:0:0:
192,192,144585,1,0,0:0:0:0:
320,192,144900,1,0,0:0:0:0:
192,192,144900,1,0,0:0:0:0:
448,192,145214,1,0,0:0:0:0:
320,192,145214,1,0,0:0:0:0:
192,192,145320,1,0,0:0:0:0:
64,192,145320,1,0,0:0:0:0:
448,192,145530,1,0,0:0:0:0:
192,192,145530,1,0,0:0:0:0:
320,192,145634,1,0,0:0:0:0:
64,192,145634,1,0,0:0:0:0:
448,192,145739,1,0,0:0:0:0:
192,192,145739,1,0,0:0:0:0:
448,192,145949,1,0,0:0:0:0:
64,192,145949,1,0,0:0:0:0:
448,192,146159,1,0,0:0:0:0:
320,192,146159,1,0,0:0:0:0:
192,192,146263,1,0,0:0:0:0:
64,192,146263,1,0,0:0:0:0:
448,192,146369,1,0,0:0:0:0:
320,192,146369,1,0,0:0:0:0:
192,192,146578,1,0,0:0:0:0:
64,192,146578,1,0,0:0:0:0:
448,192,146683,1,0,0:0:0:0:
320,192,146683,1,0,0:0:0:0:
192,192,146788,1,0,0:0:0:0:
448,192,146893,1,0,0:0:0:0:
320,192,146998,1,0,0:0:0:0:
64,192,146998,1,0,0:0:0:0:
448,192,147208,1,0,0:0:0:0:
192,192,147312,1,0,0:0:0:0:
64,192,147312,1,0,0:0:0:0:
448,192,147417,1,0,0:0:0:0:
320,192,147417,1,0,0:0:0:0:
320,192,147627,1,0,0:0:0:0:
192,192,147627,1,0,0:0:0:0:
320,192,147837,1,0,0:0:0:0:
192,192,147837,1,0,0:0:0:0:
448,192,147941,1,0,0:0:0:0:
64,192,147941,1,0,0:0:0:0:
448,192,148257,1,0,0:0:0:0:
192,192,148257,1,0,0:0:0:0:
192,192,148571,1,0,0:0:0:0:
64,192,148571,1,0,0:0:0:0:
448,192,148676,1,0,0:0:0:0:
320,192,148676,1,0,0:0:0:0:
320,192,148886,1,0,0:0:0:0:
64,192,148886,1,0,0:0:0:0:
448,192,148990,1,0,0:0:0:0:
192,192,148990,1,0,0:0:0:0:
320,192,149096,1,0,0:0:0:0:
64,192,149096,1,0,0:0:0:0:
448,192,149305,1,0,0:0:0:0:
192,192,149305,1,0,0:0:0:0:
448,192,149515,1,0,0:0:0:0:
64,192,149515,1,0,0:0:0:0:
320,192,149620,1,0,0:0:0:0:
192,192,149620,1,0,0:0:0:0:
448,192,149725,1,0,0:0:0:0:
64,192,149725,1,0,0:0:0:0:
192,192,149935,1,0,0:0:0:0:
64,192,149935,1,0,0:0:0:0:
448,192,150040,1,0,0:0:0:0:
320,192,150040,1,0,0:0:0:0:
448,192,150250,1,0,0:0:0:0:
64,192,150250,1,0,0:0:0:0:
320,192,150354,1,0,0:0:0:0:
192,192,150354,1,0,0:0:0:0:
320,192,150669,1,0,0:0:0:0:
64,192,150669,1,0,0:0:0:0:
448,192,150774,1,0,0:0:0:0:
192,192,150774,1,0,0:0:0:0:
448,192,150984,1,0,0:0:0:0:
192,192,150984,1,0,0:0:0:0:
192,192,151193,1,0,0:0:0:0:
64,192,151193,1,0,0:0:0:0:
448,192,151299,1,0,0:0:0:0:
320,192,151299,1,0,0:0:0:0:
192,192,151613,1,0,0:0:0:0:
64,192,151613,1,0,0:0:0:0:
448,192,151928,1,0,0:0:0:0:
320,192,151928,1,0,0:0:0:0:
192,192,152032,1,0,0:0:0:0:
64,192,152032,1,0,0:0:0:0:
448,192,152242,1,0,0:0:0:0:
192,192,152242,1,0,0:0:0:0:
320,192,152348,1,0,0:0:0:0:
64,192,152348,1,0,0:0:0:0:
448,192,152452,1,0,0:0:0:0:
192,192,152452,1,0,0:0:0:0:
320,192,152662,1,0,0:0:0:0:
64,192,152662,1,0,0:0:0:0:
448,192,152871,1,0,0:0:0:0:
64,192,152871,1,0,0:0:0:0:
320,192,152977,1,0,0:0:0:0:
192,192,152977,1,0,0:0:0:0:
448,192,153081,1,0,0:0:0:0:
64,192,153081,1,0,0:0:0:0:
448,192,153291,1,0,0:0:0:0:
320,192,153291,1,0,0:0:0:0:
192,192,153396,1,0,0:0:0:0:
64,192,153396,1,0,0:0:0:0:
320,192,153501,1,0,0:0:0:0:
448,192,153606,1,0,0:0:0:0:
64,192,153606,1,0,0:0:0:0:
320,192,153711,1,0,0:0:0:0:
192,192,153711,1,0,0:0:0:0:
192,192,153920,1,0,0:0:0:0:
448,192,154130,1,0,0:0:0:0:
320,192,154130,1,0,0:0:0:0:
64,192,154130,1,0,0:0:0:0:
192,192,154340,1,0,0:0:0:0:
320,192,154550,1,0,0:0:0:0:
192,192,154550,1,0,0:0:0:0:
64,192,154550,1,0,0:0:0:0:
448,192,154760,1,0,0:0:0:0:
320,192,154760,1,0,0:0:0:0:
448,192,154970,1,0,0:0:0:0:
192,192,154970,1,0,0:0:0:0:
64,192,154970,1,0,0:0:0:0:
320,192,155180,1,0,0:0:0:0:
64,192,155180,1,0,0:0:0:0:
320,192,155390,1,0,0:0:0:0:
448,192,155390,1,0,0:0:0:0:
64,192,155390,1,0,0:0:0:0:
192,192,155390,1,0,0:0:0:0:
192,192,155599,1,0,0:0:0:0:
64,192,155599,1,0,0:0:0:0:
448,192,155809,1,0,0:0:0:0:
320,192,155809,1,0,0:0:0:0:
192,192,155809,1,0,0:0:0:0:
448,192,156019,1,0,0:0:0:0:
192,192,156019,1,0,0:0:0:0:
64,192,156019,1,0,0:0:0:0:
448,192,156229,1,0,0:0:0:0:
320,192,156229,1,0,0:0:0:0:
64,192,156229,1,0,0:0:0:0:
448,192,156439,1,0,0:0:0:0:
320,192,156439,1,0,0:0:0:0:
192,192,156439,1,0,0:0:0:0:
448,192,156648,1,0,0:0:0:0:
320,192,156648,1,0,0:0:0:0:
64,192,156648,1,0,0:0:0:0:
320,192,156858,1,0,0:0:0:0:
192,192,156858,1,0,0:0:0:0:
64,192,156858,1,0,0:0:0:0:
448,192,157068,1,0,0:0:0:0:
192,192,157068,1,0,0:0:0:0:
448,192,157278,1,0,0:0:0:0:
320,192,157278,1,0,0:0:0:0:
64,192,157278,1,0,0:0:0:0:
448,192,157487,1,0,0:0:0:0:
320,192,157487,1,0,0:0:0:0:
192,192,157487,1,0,0:0:0:0:
448,192,157697,1,0,0:0:0:0:
192,192,157697,1,0,0:0:0:0:
64,192,157697,1,0,0:0:0:0:
320,192,157907,1,0,0:0:0:0:
448,192,157907,1,0,0:0:0:0:
64,192,157907,1,0,0:0:0:0:
192,192,157907,1,0,0:0:0:0:
320,192,158117,1,0,0:0:0:0:
192,192,158117,1,0,0:0:0:0:
320,192,158326,1,0,0:0:0:0:
448,192,158326,1,0,0:0:0:0:
64,192,158326,1,0,0:0:0:0:
192,192,158326,1,0,0:0:0:0:
320,192,158536,1,0,0:0:0:0:
64,192,158536,1,0,0:0:0:0:
448,192,158746,1,0,0:0:0:0:
320,192,158746,1,0,0:0:0:0:
192,192,158746,1,0,0:0:0:0:
192,192,158956,1,0,0:0:0:0:
64,192,158956,1,0,0:0:0:0:
448,192,159166,1,0,0:0:0:0:
320,192,159166,1,0,0:0:0:0:
192,192,159166,1,0,0:0:0:0:
448,192,159375,1,0,0:0:0:0:
192,192,159375,1,0,0:0:0:0:
64,192,159375,1,0,0:0:0:0:
448,192,159585,1,0,0:0:0:0:
320,192,159585,1,0,0:0:0:0:
64,192,159585,1,0,0:0:0:0:
448,192,159795,1,0,0:0:0:0:
320,192,159795,1,0,0:0:0:0:
192,192,159795,1,0,0:0:0:0:
448,192,160005,1,0,0:0:0:0:
320,192,160005,1,0,0:0:0:0:
64,192,160005,1,0,0:0:0:0:
320,192,160214,1,0,0:0:0:0:
192,192,160214,1,0,0:0:0:0:
64,192,160214,1,0,0:0:0:0:
448,192,160424,1,0,0:0:0:0:
192,192,160424,1,0,0:0:0:0:
448,192,160634,1,0,0:0:0:0:
192,192,160634,1,0,0:0:0:0:
64,192,160634,1,0,0:0:0:0:
448,192,160844,1,0,0:0:0:0:
320,192,160844,1,0,0:0:0:0:
64,192,160844,1,0,0:0:0:0:
448,192,161053,1,0,0:0:0:0:
320,192,161053,1,0,0:0:0:0:
192,192,161053,1,0,0:0:0:0:
448,192,161263,1,0,0:0:0:0:
320,192,161263,1,0,0:0:0:0:
64,192,161263,1,0,0:0:0:0:
320,192,161473,1,0,0:0:0:0:
192,192,161473,1,0,0:0:0:0:
64,192,161473,1,0,0:0:0:0:
448,192,161683,1,0,0:0:0:0:
192,192,161683,1,0,0:0:0:0:
64,192,161683,1,0,0:0:0:0:
448,192,161893,1,0,0:0:0:0:
320,192,161893,1,0,0:0:0:0:
192,192,161893,1,0,0:0:0:0:
320,192,162102,1,0,0:0:0:0:
448,192,162102,1,0,0:0:0:0:
64,192,162102,1,0,0:0:0:0:
192,192,162102,1,0,0:0:0:0:
320,192,162312,1,0,0:0:0:0:
64,192,162312,1,0,0:0:0:0:
448,192,162522,1,0,0:0:0:0:
320,192,162522,1,0,0:0:0:0:
192,192,162522,1,0,0:0:0:0:
448,192,162732,1,0,0:0:0:0:
192,192,162732,1,0,0:0:0:0:
64,192,162732,1,0,0:0:0:0:
448,192,162941,1,0,0:0:0:0:
320,192,162941,1,0,0:0:0:0:
64,192,162941,1,0,0:0:0:0:
448,192,163151,1,0,0:0:0:0:
320,192,163151,1,0,0:0:0:0:
192,192,163151,1,0,0:0:0:0:
448,192,163361,1,0,0:0:0:0:
320,192,163361,1,0,0:0:0:0:
64,192,163361,1,0,0:0:0:0:
320,192,163571,1,0,0:0:0:0:
192,192,163571,1,0,0:0:0:0:
64,192,163571,1,0,0:0:0:0:
448,192,163780,1,0,0:0:0:0:
192,192,163780,1,0,0:0:0:0:
448,192,163990,1,0,0:0:0:0:
320,192,163990,1,0,0:0:0:0:
64,192,163990,1,0,0:0:0:0:
448,192,164200,1,0,0:0:0:0:
320,192,164200,1,0,0:0:0:0:
192,192,164200,1,0,0:0:0:0:
448,192,164410,1,0,0:0:0:0:
192,192,164410,1,0,0:0:0:0:
64,192,164410,1,0,0:0:0:0:
320,192,164620,1,0,0:0:0:0:
192,192,164620,1,0,0:0:0:0:
64,192,164620,1,0,0:0:0:0:
448,192,164830,1,0,0:0:0:0:
320,192,164830,1,0,0:0:0:0:
192,192,164830,1,0,0:0:0:0:
320,192,165040,1,0,0:0:0:0:
192,192,165040,1,0,0:0:0:0:
64,192,165040,1,0,0:0:0:0:
448,192,165250,1,0,0:0:0:0:
320,192,165250,1,0,0:0:0:0:
64,192,165250,1,0,0:0:0:0:
448,192,165460,1,0,0:0:0:0:
320,192,165460,1,0,0:0:0:0:
192,192,165460,1,0,0:0:0:0:
448,192,165669,1,0,0:0:0:0:
64,192,165669,1,0,0:0:0:0:
448,192,165879,1,0,0:0:0:0:
320,192,165879,1,0,0:0:0:0:
192,192,165879,1,0,0:0:0:0:
192,192,166089,1,0,0:0:0:0:
64,192,166089,1,0,0:0:0:0:
448,192,166299,1,0,0:0:0:0:
320,192,166299,1,0,0:0:0:0:
192,192,166299,1,0,0:0:0:0:
448,192,166508,1,0,0:0:0:0:
192,192,166508,1,0,0:0:0:0:
64,192,166508,1,0,0:0:0:0:
448,192,166718,1,0,0:0:0:0:
320,192,166718,1,0,0:0:0:0:
64,192,166718,1,0,0:0:0:0:
448,192,166928,1,0,0:0:0:0:
320,192,166928,1,0,0:0:0:0:
192,192,166928,1,0,0:0:0:0:
448,192,167138,1,0,0:0:0:0:
320,192,167138,1,0,0:0:0:0:
64,192,167138,1,0,0:0:0:0:
192,192,167348,1,0,0:0:0:0:
448,192,167452,1,0,0:0:0:0:
320,192,167557,1,0,0:0:0:0:
64,192,167662,1,0,0:0:0:0:
192,192,167767,1,0,0:0:0:0:
448,192,167871,1,0,0:0:0:0:
320,192,167977,1,0,0:0:0:0:
192,192,167977,1,0,0:0:0:0:
64,192,168081,1,0,0:0:0:0:
448,192,168187,1,0,0:0:0:0:
320,192,168291,1,0,0:0:0:0:
448,192,168396,1,0,0:0:0:0:
64,192,168396,1,0,0:0:0:0:
192,192,168501,1,0,0:0:0:0:
320,192,168606,1,0,0:0:0:0:
320,192,168816,1,0,0:0:0:0:
448,192,168816,1,0,0:0:0:0:
64,192,168816,1,0,0:0:0:0:
192,192,168816,1,0,0:0:0:0:
448,192,169026,1,0,0:0:0:0:
320,192,169026,1,0,0:0:0:0:
320,192,169235,1,0,0:0:0:0:
192,192,169235,1,0,0:0:0:0:
64,192,169235,1,0,0:0:0:0:
448,192,169445,1,0,0:0:0:0:
320,192,169445,1,0,0:0:0:0:
64,192,169445,1,0,0:0:0:0:
448,192,169655,1,0,0:0:0:0:
192,192,169655,1,0,0:0:0:0:
64,192,169655,1,0,0:0:0:0:
320,192,169865,1,0,0:0:0:0:
192,192,169865,1,0,0:0:0:0:
64,192,169865,1,0,0:0:0:0:
448,192,170075,1,0,0:0:0:0:
192,192,170075,1,0,0:0:0:0:
64,192,170075,1,0,0:0:0:0:
448,192,170284,1,0,0:0:0:0:
320,192,170284,1,0,0:0:0:0:
192,192,170284,1,0,0:0:0:0:
320,192,170494,1,0,0:0:0:0:
64,192,170494,1,0,0:0:0:0:
448,192,170704,1,0,0:0:0:0:
192,192,170704,1,0,0:0:0:0:
64,192,170704,1,0,0:0:0:0:
320,192,170914,1,0,0:0:0:0:
192,192,170914,1,0,0:0:0:0:
64,192,170914,1,0,0:0:0:0:
448,192,171123,1,0,0:0:0:0:
320,192,171123,1,0,0:0:0:0:
64,192,171123,1,0,0:0:0:0:
320,192,171333,1,0,0:0:0:0:
448,192,171333,1,0,0:0:0:0:
64,192,171333,1,0,0:0:0:0:
192,192,171333,1,0,0:0:0:0:
320,192,171543,1,0,0:0:0:0:
192,192,171543,1,0,0:0:0:0:
320,192,171753,1,0,0:0:0:0:
448,192,171753,1,0,0:0:0:0:
64,192,171753,1,0,0:0:0:0:
192,192,171753,1,0,0:0:0:0:
448,192,171962,1,0,0:0:0:0:
192,192,171962,1,0,0:0:0:0:
320,192,172172,1,0,0:0:0:0:
192,192,172172,1,0,0:0:0:0:
64,192,172172,1,0,0:0:0:0:
448,192,172382,1,0,0:0:0:0:
320,192,172382,1,0,0:0:0:0:
320,192,172592,1,0,0:0:0:0:
192,192,172592,1,0,0:0:0:0:
64,192,172592,1,0,0:0:0:0:
448,192,172802,1,0,0:0:0:0:
320,192,172802,1,0,0:0:0:0:
64,192,172802,1,0,0:0:0:0:
448,192,173011,1,0,0:0:0:0:
192,192,173011,1,0,0:0:0:0:
64,192,173011,1,0,0:0:0:0:
320,192,173221,1,0,0:0:0:0:
192,192,173221,1,0,0:0:0:0:
64,192,173221,1,0,0:0:0:0:
448,192,173431,1,0,0:0:0:0:
192,192,173431,1,0,0:0:0:0:
64,192,173431,1,0,0:0:0:0:
448,192,173641,1,0,0:0:0:0:
320,192,173641,1,0,0:0:0:0:
192,192,173641,1,0,0:0:0:0:
320,192,173850,1,0,0:0:0:0:
64,192,173850,1,0,0:0:0:0:
448,192,174060,1,0,0:0:0:0:
320,192,174060,1,0,0:0:0:0:
64,192,174060,1,0,0:0:0:0:
448,192,174270,1,0,0:0:0:0:
192,192,174270,1,0,0:0:0:0:
64,192,174270,1,0,0:0:0:0:
320,192,174480,1,0,0:0:0:0:
192,192,174480,1,0,0:0:0:0:
64,192,174480,1,0,0:0:0:0:
448,192,174690,1,0,0:0:0:0:
192,192,174690,1,0,0:0:0:0:
64,192,174690,1,0,0:0:0:0:
320,192,174900,1,0,0:0:0:0:
192,192,174900,1,0,0:0:0:0:
448,192,175110,1,0,0:0:0:0:
320,192,175110,1,0,0:0:0:0:
64,192,175110,1,0,0:0:0:0:
320,192,175320,1,0,0:0:0:0:
192,192,175320,1,0,0:0:0:0:
320,192,175530,1,0,0:0:0:0:
448,192,175530,1,0,0:0:0:0:
64,192,175530,1,0,0:0:0:0:
192,192,175530,1,0,0:0:0:0:
448,192,175739,1,0,0:0:0:0:
192,192,175739,1,0,0:0:0:0:
320,192,175949,1,0,0:0:0:0:
192,192,175949,1,0,0:0:0:0:
64,192,175949,1,0,0:0:0:0:
448,192,176159,1,0,0:0:0:0:
320,192,176159,1,0,0:0:0:0:
64,192,176159,1,0,0:0:0:0:
448,192,176369,1,0,0:0:0:0:
192,192,176369,1,0,0:0:0:0:
64,192,176369,1,0,0:0:0:0:
320,192,176578,1,0,0:0:0:0:
192,192,176578,1,0,0:0:0:0:
64,192,176578,1,0,0:0:0:0:
448,192,176788,1,0,0:0:0:0:
192,192,176788,1,0,0:0:0:0:
64,192,176788,1,0,0:0:0:0:
448,192,176998,1,0,0:0:0:0:
320,192,176998,1,0,0:0:0:0:
192,192,176998,1,0,0:0:0:0:
320,192,177208,1,0,0:0:0:0:
64,192,177208,1,0,0:0:0:0:
448,192,177417,1,0,0:0:0:0:
192,192,177417,1,0,0:0:0:0:
64,192,177417,1,0,0:0:0:0:
320,192,177627,1,0,0:0:0:0:
192,192,177627,1,0,0:0:0:0:
64,192,177627,1,0,0:0:0:0:
448,192,177837,1,0,0:0:0:0:
320,192,177837,1,0,0:0:0:0:
64,192,177837,1,0,0:0:0:0:
448,192,178047,1,0,0:0:0:0:
320,192,178047,1,0,0:0:0:0:
192,192,178047,1,0,0:0:0:0:
320,192,178257,1,0,0:0:0:0:
192,192,178257,1,0,0:0:0:0:
64,192,178257,1,0,0:0:0:0:
448,192,178466,1,0,0:0:0:0:
320,192,178466,1,0,0:0:0:0:
192,192,178466,1,0,0:0:0:0:
448,192,178676,1,0,0:0:0:0:
192,192,178676,1,0,0:0:0:0:
64,192,178676,1,0,0:0:0:0:
320,192,178886,1,0,0:0:0:0:
192,192,178886,1,0,0:0:0:0:
64,192,178886,1,0,0:0:0:0:
448,192,179096,1,0,0:0:0:0:
64,192,179096,1,0,0:0:0:0:
320,192,179305,1,0,0:0:0:0:
192,192,179305,1,0,0:0:0:0:
64,192,179305,1,0,0:0:0:0:
448,192,179515,1,0,0:0:0:0:
320,192,179515,1,0,0:0:0:0:
320,192,179725,1,0,0:0:0:0:
192,192,179725,1,0,0:0:0:0:
64,192,179725,1,0,0:0:0:0:
448,192,179935,1,0,0:0:0:0:
320,192,179935,1,0,0:0:0:0:
64,192,179935,1,0,0:0:0:0:
448,192,180144,1,0,0:0:0:0:
192,192,180144,1,0,0:0:0:0:
64,192,180144,1,0,0:0:0:0:
320,192,180354,1,0,0:0:0:0:
192,192,180354,1,0,0:0:0:0:
64,192,180354,1,0,0:0:0:0:
448,192,180564,1,0,0:0:0:0:
192,192,180564,1,0,0:0:0:0:
64,192,180564,1,0,0:0:0:0:
192,192,180669,1,0,0:0:0:0:
320,192,180774,1,0,0:0:0:0:
320,192,180879,1,0,0:0:0:0:
192,192,180984,1,0,0:0:0:0:
192,192,181089,1,0,0:0:0:0:
320,192,181193,1,0,0:0:0:0:
320,192,181299,1,0,0:0:0:0:
192,192,181403,1,0,0:0:0:0:
64,192,181403,1,0,0:0:0:0:
64,192,181508,1,0,0:0:0:0:
192,192,181613,1,0,0:0:0:0:
192,192,181718,1,0,0:0:0:0:
448,192,181823,1,0,0:0:0:0:
64,192,181823,1,0,0:0:0:0:
64,192,181928,1,0,0:0:0:0:
192,192,182032,1,0,0:0:0:0:
192,192,182138,1,0,0:0:0:0:
448,192,182242,1,0,0:0:0:0:
320,192,182242,1,0,0:0:0:0:
64,192,182242,1,0,0:0:0:0:
192,192,182452,1,0,0:0:0:0:
64,192,182452,1,0,0:0:0:0:
448,192,182662,1,0,0:0:0:0:
320,192,182662,1,0,0:0:0:0:
192,192,182662,1,0,0:0:0:0:
192,192,182871,1,0,0:0:0:0:
64,192,182871,1,0,0:0:0:0:
448,192,183081,1,0,0:0:0:0:
320,192,183081,1,0,0:0:0:0:
192,192,183081,1,0,0:0:0:0:
448,192,183187,1,0,0:0:0:0:
320,192,183291,1,0,0:0:0:0:
192,192,183291,1,0,0:0:0:0:
64,192,183291,1,0,0:0:0:0:
448,192,183501,1,0,0:0:0:0:
320,192,183501,1,0,0:0:0:0:
64,192,183501,1,0,0:0:0:0:
448,192,183711,1,0,0:0:0:0:
192,192,183711,1,0,0:0:0:0:
320,192,183816,1,0,0:0:0:0:
64,192,183816,1,0,0:0:0:0:
448,192,183920,1,0,0:0:0:0:
320,192,183920,1,0,0:0:0:0:
64,192,183920,1,0,0:0:0:0:
320,192,184130,1,0,0:0:0:0:
192,192,184130,1,0,0:0:0:0:
64,192,184130,1,0,0:0:0:0:
448,192,184340,1,0,0:0:0:0:
192,192,184340,1,0,0:0:0:0:
448,192,184550,1,0,0:0:0:0:
192,192,184550,1,0,0:0:0:0:
64,192,184550,1,0,0:0:0:0:
448,192,184760,1,0,0:0:0:0:
320,192,184760,1,0,0:0:0:0:
64,192,184760,1,0,0:0:0:0:
320,192,184865,1,0,0:0:0:0:
64,192,184865,1,0,0:0:0:0:
448,192,184970,1,0,0:0:0:0:
192,192,184970,1,0,0:0:0:0:
320,192,185075,1,0,0:0:0:0:
448,192,185180,1,0,0:0:0:0:
192,192,185180,1,0,0:0:0:0:
64,192,185180,1,0,0:0:0:0:
320,192,185390,1,0,0:0:0:0:
192,192,185390,1,0,0:0:0:0:
64,192,185390,1,0,0:0:0:0:
448,192,185599,1,0,0:0:0:0:
192,192,185599,1,0,0:0:0:0:
64,192,185599,1,0,0:0:0:0:
448,192,185809,1,0,0:0:0:0:
320,192,185809,1,0,0:0:0:0:
448,192,186019,1,0,0:0:0:0:
320,192,186019,1,0,0:0:0:0:
192,192,186019,1,0,0:0:0:0:
192,192,186229,1,0,0:0:0:0:
64,192,186229,1,0,0:0:0:0:
448,192,186439,1,0,0:0:0:0:
320,192,186439,1,0,0:0:0:0:
192,192,186439,1,0,0:0:0:0:
320,192,186543,1,0,0:0:0:0:
448,192,186648,1,0,0:0:0:0:
64,192,186648,1,0,0:0:0:0:
192,192,186753,1,0,0:0:0:0:
448,192,186858,1,0,0:0:0:0:
320,192,186858,1,0,0:0:0:0:
64,192,186858,1,0,0:0:0:0:
448,192,187068,1,0,0:0:0:0:
320,192,187068,1,0,0:0:0:0:
192,192,187068,1,0,0:0:0:0:
448,192,187278,1,0,0:0:0:0:
320,192,187278,1,0,0:0:0:0:
64,192,187278,1,0,0:0:0:0:
320,192,187487,1,0,0:0:0:0:
192,192,187487,1,0,0:0:0:0:
64,192,187487,1,0,0:0:0:0:
448,192,187697,1,0,0:0:0:0:
320,192,187697,1,0,0:0:0:0:
192,192,187697,1,0,0:0:0:0:
448,192,187907,1,0,0:0:0:0:
192,192,187907,1,0,0:0:0:0:
64,192,187907,1,0,0:0:0:0:
448,192,188117,1,0,0:0:0:0:
320,192,188117,1,0,0:0:0:0:
64,192,188117,1,0,0:0:0:0:
320,192,188221,1,0,0:0:0:0:
64,192,188221,1,0,0:0:0:0:
448,192,188326,1,0,0:0:0:0:
192,192,188326,1,0,0:0:0:0:
320,192,188431,1,0,0:0:0:0:
448,192,188536,1,0,0:0:0:0:
192,192,188536,1,0,0:0:0:0:
64,192,188536,1,0,0:0:0:0:
320,192,188746,1,0,0:0:0:0:
64,192,188746,1,0,0:0:0:0:
320,192,188956,1,0,0:0:0:0:
448,192,188956,1,0,0:0:0:0:
64,192,188956,1,0,0:0:0:0:
192,192,188956,1,0,0:0:0:0:
448,192,189166,1,0,0:0:0:0:
192,192,189166,1,0,0:0:0:0:
448,192,189375,1,0,0:0:0:0:
320,192,189375,1,0,0:0:0:0:
64,192,189375,1,0,0:0:0:0:
320,192,189585,1,0,0:0:0:0:
64,192,189585,1,0,0:0:0:0:
192,192,189690,1,0,0:0:0:0:
448,192,189795,1,0,0:0:0:0:
320,192,189795,1,0,0:0:0:0:
64,192,189795,1,0,0:0:0:0:
448,192,190005,1,0,0:0:0:0:
64,192,190005,1,0,0:0:0:0:
320,192,190110,1,0,0:0:0:0:
448,192,190214,1,0,0:0:0:0:
192,192,190214,1,0,0:0:0:0:
64,192,190214,1,0,0:0:0:0:
320,192,190424,1,0,0:0:0:0:
192,192,190424,1,0,0:0:0:0:
448,192,190530,1,0,0:0:0:0:
448,192,190634,1,0,0:0:0:0:
320,192,190634,1,0,0:0:0:0:
64,192,190634,1,0,0:0:0:0:
448,192,190844,1,0,0:0:0:0:
192,192,190844,1,0,0:0:0:0:
448,192,191053,1,0,0:0:0:0:
320,192,191053,1,0,0:0:0:0:
64,192,191053,1,0,0:0:0:0:
192,192,191263,1,0,0:0:0:0:
64,192,191263,1,0,0:0:0:0:
448,192,191473,1,0,0:0:0:0:
192,192,191473,1,0,0:0:0:0:
64,192,191473,1,0,0:0:0:0:
448,192,191578,1,0,0:0:0:0:
192,192,191578,1,0,0:0:0:0:
320,192,191683,1,0,0:0:0:0:
64,192,191683,1,0,0:0:0:0:
192,192,191788,1,0,0:0:0:0:
448,192,191893,1,0,0:0:0:0:
320,192,191893,1,0,0:0:0:0:
64,192,191893,1,0,0:0:0:0:
448,192,192102,1,0,0:0:0:0:
192,192,192102,1,0,0:0:0:0:
448,192,192312,1,0,0:0:0:0:
320,192,192312,1,0,0:0:0:0:
192,192,192312,1,0,0:0:0:0:
192,192,192522,1,0,0:0:0:0:
64,192,192522,1,0,0:0:0:0:
448,192,192732,1,0,0:0:0:0:
320,192,192732,1,0,0:0:0:0:
64,192,192732,1,0,0:0:0:0:
448,192,192941,1,0,0:0:0:0:
320,192,192941,1,0,0:0:0:0:
448,192,193151,1,0,0:0:0:0:
192,192,193151,1,0,0:0:0:0:
64,192,193151,1,0,0:0:0:0:
320,192,193257,1,0,0:0:0:0:
192,192,193361,1,0,0:0:0:0:
64,192,193361,1,0,0:0:0:0:
448,192,193466,1,0,0:0:0:0:
320,192,193571,1,0,0:0:0:0:
192,192,193571,1,0,0:0:0:0:
64,192,193571,1,0,0:0:0:0:
448,192,193780,1,0,0:0:0:0:
192,192,193780,1,0,0:0:0:0:
320,192,193990,1,0,0:0:0:0:
448,192,193990,1,0,0:0:0:0:
64,192,193990,1,0,0:0:0:0:
192,192,193990,1,0,0:0:0:0:
320,192,194200,1,0,0:0:0:0:
64,192,194200,1,0,0:0:0:0:
448,192,194410,1,0,0:0:0:0:
320,192,194410,1,0,0:0:0:0:
192,192,194620,1,0,0:0:0:0:
64,192,194620,1,0,0:0:0:0:
448,192,194830,1,0,0:0:0:0:
64,192,194830,1,0,0:0:0:0:
448,192,194935,1,0,0:0:0:0:
64,192,194935,1,0,0:0:0:0:
320,192,195144,1,0,0:0:0:0:
192,192,195250,1,0,0:0:0:0:
64,192,195250,1,0,0:0:0:0:
448,192,195460,1,0,0:0:0:0:
320,192,195460,1,0,0:0:0:0:
192,192,195669,1,0,0:0:0:0:
