osu file format v14

[General]
AudioFilename: audio.mp3
AudioLeadIn: 0
PreviewTime: 153398
Countdown: 0
SampleSet: Soft
StackLeniency: 0.7
Mode: 0
LetterboxInBreaks: 0
WidescreenStoryboard: 0

[Editor]
Bookmarks: 142532,202725,227340
DistanceSpacing: 0.8
BeatDivisor: 4
GridSize: 8
TimelineZoom: 5.699997

[Metadata]
Title:Quimi
TitleUnicode:Quimi
Artist:Yoohsic Roomz
ArtistUnicode:Yoohsic Roomz
Creator:Crystar
Version:for fun.
Source:
Tags:AD:PIANO VIVACE Diverse System
BeatmapID:2188385
BeatmapSetID:1046850

[Difficulty]
HPDrainRate:6
CircleSize:4
OverallDifficulty:7
ApproachRate:9
SliderMultiplier:1.7
SliderTickRate:1

[Events]
//Background and Video events
0,0,"timg.jpg",0,0
//Break Periods
//Storyboard Layer 0 (Background)
//Storyboard Layer 1 (Fail)
//Storyboard Layer 2 (Pass)
//Storyboard Layer 3 (Foreground)
//Storyboard Layer 4 (Overlay)
//Storyboard Sound Samples

[TimingPoints]
2725,384.615384615385,4,2,0,40,1,0
15032,-83.3333333333333,4,2,0,60,0,0
30417,-100,4,2,0,40,0,0
31186,-133.333333333333,4,2,0,40,0,0
32148,-100,4,2,0,40,0,0
34263,-133.333333333333,4,2,0,40,0,0
35417,-100,4,2,0,40,0,0
37340,-133.333333333333,4,2,0,40,0,0
38301,-100,4,2,0,40,0,0
40417,-133.333333333333,4,2,0,40,0,0
41378,-100,4,2,0,40,0,0
41475,-100,4,2,0,40,0,0
42340,-133.333333333333,4,2,0,40,0,0
42725,-100,4,2,0,60,0,0
55801,-133.333333333333,4,2,0,40,0,0
56763,-100,4,2,0,40,0,0
58878,-133.333333333333,4,2,0,40,0,0
59840,-100,4,2,0,40,0,0
61955,-133.333333333333,4,2,0,40,0,0
62917,-100,4,2,0,40,0,0
65032,-133.333333333333,4,2,0,40,0,0
65994,-100,4,2,0,40,0,0
66955,-133.333333333333,4,2,0,40,0,0
67340,-83.3333333333333,4,2,0,60,0,0
102725,-399.999999999997,4,2,0,40,0,0
104263,-83.3333333333333,4,2,0,60,0,0
116571,-76.9230769230769,4,2,0,60,0,0
128878,-71.4285714285714,4,2,0,65,0,0
153494,-66.6666666666667,4,2,0,75,0,0
176571,-100,4,2,0,40,0,0
178109,-66.6666666666667,4,2,0,75,0,0
199648,-100,4,2,0,40,0,0
202725,-83.3333333333333,4,2,0,55,0,0
227340,-100,4,2,0,40,0,0
239648,-83.3333333333333,4,2,0,50,0,0

[HitObjects]
472,343,2725,6,0,P|408:349|357:294,1,127.5
363,310,3109,1,0,0:0:0:0:
264,374,3301,2,0,L|285:254,1,85
282,271,3590,1,0,0:0:0:0:
416,156,3878,6,0,L|463:140,1,42.5
359,221,4071,2,0,L|420:244,1,42.5
284,178,4263,6,0,L|274:44,1,127.5
274,50,4648,1,0,0:0:0:0:
102,94,4840,2,0,P|158:96|196:140,1,85
191,131,5128,1,0,0:0:0:0:
397,204,5417,2,0,P|348:220|341:219,1,42.5
315,296,5609,2,0,P|276:261|274:255,1,42.5
261,66,5801,6,0,P|298:124|278:184,1,127.5
267,191,6186,1,0,0:0:0:0:
139,226,6378,2,0,L|42:210,1,85
151,247,6667,1,0,0:0:0:0:
257,368,6955,2,0,P|254:346|253:325,1,42.5
338,315,7148,2,0,P|340:293|341:272,1,42.5
428,298,7340,6,0,P|448:239|481:181,1,127.5
480,182,7725,1,0,0:0:0:0:
308,85,7917,2,0,P|344:123|387:138,1,85
398,133,8205,1,0,0:0:0:0:
224,201,8494,2,0,L|284:186,1,42.5
324,264,8686,2,0,L|366:270,1,42.5
152,298,8878,6,0,P|192:290|256:351,1,127.5
254,342,9263,1,0,0:0:0:0:
336,160,9455,2,0,L|325:251,1,85
324,264,9744,1,0,0:0:0:0:
141,81,10032,2,0,P|143:112|153:145,1,42.5
90,190,10225,2,0,P|117:203|151:211,1,42.5
336,160,10417,6,0,L|194:183,1,127.5
210,180,10801,1,0,0:0:0:0:
327,352,10994,2,0,P|294:325|294:273,1,85
298,272,11282,1,0,0:0:0:0:
483,160,11571,2,0,P|494:109|488:87,1,42.5
386,70,11763,2,0,P|435:54|451:37,1,42.5
322,160,11955,6,0,P|378:166|408:226,1,127.5
408,224,12340,1,0,0:0:0:0:
467,372,12532,2,0,L|477:272,1,85
487,272,12821,1,0,0:0:0:0:
310,297,13109,2,0,L|231:306,1,42.5
191,352,13301,2,0,L|142:340,1,42.5
50,358,13494,6,0,P|33:280|37:216,1,127.5
34,232,13878,1,0,0:0:0:0:
185,137,14071,2,0,P|127:168|88:160,1,85
91,156,14359,1,0,0:0:0:0:
192,311,14648,2,0,P|186:264|189:242,1,42.5
265,360,14840,1,0,0:0:0:0:
294,157,15032,6,0,B|379:140|358:215|461:177,1,152.999995330811
424,162,15417,1,0,0:0:0:0:
236,226,15609,1,0,0:0:0:0:
311,288,15801,1,0,0:0:0:0:
315,263,15897,1,0,0:0:0:0:
319,238,15993,1,0,0:0:0:0:
192,39,16186,2,0,L|205:146,1,101.999996887207
390,151,16571,6,0,B|344:124|344:124|281:138,1,101.999996887207
144,213,16955,2,0,L|157:333,1,101.999996887207
308,239,17340,1,0,0:0:0:0:
282,236,17436,1,0,0:0:0:0:
257,233,17532,1,0,0:0:0:0:
57,126,17725,2,0,P|128:116|151:87,1,101.999996887207
136,83,18013,1,0,0:0:0:0:
216,48,18109,6,0,L|384:67,1,152.999995330811
346,84,18494,1,0,0:0:0:0:
358,305,18686,1,0,0:0:0:0:
461,139,18878,1,0,0:0:0:0:
456,164,18974,1,0,0:0:0:0:
452,189,19070,1,0,0:0:0:0:
276,263,19263,2,0,L|259:147,1,101.999996887207
400,38,19648,6,0,P|369:82|308:81,1,101.999996887207
92,44,20032,2,0,B|199:12|199:12|227:32|238:71,1,152.999995330811
229,70,20417,1,0,0:0:0:0:
117,251,20609,1,0,0:0:0:0:
46,181,20801,2,0,P|99:147|157:165,1,101.999996887207
313,108,21186,5,0,0:0:0:0:
229,180,21378,2,0,L|238:256,1,50.9999984436036
303,98,21571,1,0,0:0:0:0:
303,304,21763,1,0,0:0:0:0:
389,142,21955,2,0,P|418:138|436:118,1,50.9999984436036
319,197,22148,1,0,0:0:0:0:
490,281,22340,2,0,P|433:237|390:247,1,101.999996887207
386,376,22725,1,0,0:0:0:0:
303,304,22917,1,0,0:0:0:0:
303,304,23013,1,0,0:0:0:0:
303,304,23109,6,0,B|268:302|241:313|241:313|204:301|204:301|171:319|124:318,1,152.999995330811
68,273,23494,2,0,B|60:207|60:190|60:189,1,50.9999984436036
72,367,23686,1,0,0:0:0:0:
180,86,23878,2,0,P|220:153|204:191,1,101.999996887207
140,207,24167,1,0,0:0:0:0:
130,218,24263,6,0,L|72:210,2,50.9999984436036
228,284,24551,1,0,0:0:0:0:
216,296,24648,6,0,L|143:311,2,50.9999984436036
326,307,24936,1,0,0:0:0:0:
321,324,25033,6,0,L|293:377,2,50.9999984436036
408,255,25321,1,0,0:0:0:0:
419,269,25417,6,0,L|432:344,2,50.9999984436036
79,211,25801,5,0,0:0:0:0:
179,280,26090,1,0,0:0:0:0:
166,306,26186,1,0,0:0:0:0:
272,241,26378,1,0,0:0:0:0:
297,369,26571,1,0,0:0:0:0:
323,365,26667,1,0,0:0:0:0:
427,319,26955,5,0,0:0:0:0:
82,70,30417,6,0,P|158:64|197:119,1,127.5
190,97,31186,6,0,L|183:-8,1,95.6250036478044
119,191,31667,1,0,0:0:0:0:
116,159,31763,1,0,0:0:0:0:
255,342,32148,6,0,L|268:242,1,85
281,242,32436,1,0,0:0:0:0:
458,101,32628,6,0,P|385:96|350:46,1,127.5
511,169,33109,1,0,0:0:0:0:
458,101,33301,1,0,0:0:0:0:
423,215,33494,6,0,L|408:367,1,127.5
410,341,34263,6,0,L|292:326,1,95.6250036478044
512,278,34744,1,0,0:0:0:0:
480,283,34840,1,0,0:0:0:0:
285,111,35225,5,0,0:0:0:0:
308,226,35417,2,0,P|319:203|320:170,1,42.5
321,186,35705,6,0,P|354:221|438:208,1,127.5
268,326,36186,2,0,P|316:306|350:315,1,85
199,147,36571,6,0,P|223:185|176:266,1,127.5
22,71,37340,6,0,L|140:89,1,95.6250036478044
0,205,37821,1,0,0:0:0:0:
31,198,37917,1,0,0:0:0:0:
88,381,38301,2,0,L|124:266,1,85
136,291,38590,1,0,0:0:0:0:
361,335,38782,6,0,P|296:344|255:290,1,127.5
342,143,39263,2,0,P|354:192|342:227,1,85
123,167,39648,6,0,L|135:33,1,127.5
134,40,40417,6,0,P|192:44|215:71,1,95.6250036478044
342,50,40898,1,0,0:0:0:0:
336,81,40994,1,0,0:0:0:0:
495,215,41378,6,0,P|438:214|413:183,1,85
408,172,41667,1,0,0:0:0:0:
311,344,41859,2,0,P|265:283|283:217,1,127.5
126,175,42340,6,0,P|150:124|195:111,1,95.6250036478044
190,114,42725,6,0,B|126:132|151:71|59:88,1,127.5
241,50,43109,2,0,P|272:80|272:131,1,85
363,145,43494,6,0,P|314:207|256:202,1,127.5
275,119,43878,2,0,P|272:59|305:24,1,85
447,157,44263,6,0,L|327:139,1,85
187,71,44648,1,0,0:0:0:0:
200,56,44744,2,0,L|311:34,1,85
288,203,45032,6,0,P|266:139|285:99,1,85
373,346,45417,1,0,0:0:0:0:
213,294,45609,1,0,0:0:0:0:
233,297,45705,1,0,0:0:0:0:
254,301,45801,1,0,0:0:0:0:
448,292,46090,5,0,0:0:0:0:
462,270,46186,2,0,L|449:173,1,85
351,45,46571,1,0,0:0:0:0:
504,105,46667,6,0,L|383:92,1,85
243,161,46955,2,0,P|259:97|258:66,1,85
462,270,47340,5,0,0:0:0:0:
352,187,47532,1,0,0:0:0:0:
276,252,47725,1,0,0:0:0:0:
276,252,47821,2,0,L|158:239,1,85
370,286,48109,5,0,0:0:0:0:
261,151,48301,1,0,0:0:0:0:
253,131,48397,1,0,0:0:0:0:
252,109,48493,1,0,0:0:0:0:
426,129,48686,1,0,0:0:0:0:
276,252,48878,6,0,L|178:242,1,85
167,259,49167,1,0,0:0:0:0:
100,200,49263,2,0,P|109:138|108:133,1,42.5
79,284,49455,1,0,0:0:0:0:
25,100,49648,5,0,0:0:0:0:
19,120,49744,1,0,0:0:0:0:
23,142,49840,2,0,L|69:155,1,42.5
200,82,50032,2,0,L|99:65,1,85
300,157,50417,6,0,B|243:167|213:194|213:193,1,85
361,307,50801,1,0,0:0:0:0:
363,285,50897,1,0,0:0:0:0:
366,264,50993,1,0,0:0:0:0:
368,244,51090,1,0,0:0:0:0:
284,255,51186,6,0,L|270:360,1,85
106,52,51571,2,0,P|178:38|219:89,1,127.5
277,133,51955,6,0,P|331:118|351:107,1,42.5
428,72,52148,1,0,0:0:0:0:
420,65,52244,1,0,0:0:0:0:
410,55,52340,2,0,L|416:127,1,42.5
466,169,52532,2,0,L|472:226,1,42.5
400,324,52725,5,0,0:0:0:0:
360,340,52821,1,0,0:0:0:0:
321,324,52917,1,0,0:0:0:0:
305,284,53013,1,0,0:0:0:0:
321,245,53109,1,0,0:0:0:0:
360,229,53205,1,0,0:0:0:0:
400,245,53301,1,0,0:0:0:0:
416,284,53398,1,0,0:0:0:0:
102,100,53686,5,0,0:0:0:0:
0,139,53878,1,0,0:0:0:0:
0,139,53975,6,0,L|114:123,1,85
162,169,54263,2,0,L|155:212,1,42.5
50,250,54455,2,0,L|43:293,1,42.5
272,253,54648,2,0,L|265:296,1,42.5
160,334,54840,2,0,L|153:377,1,42.5
318,366,55032,6,0,L|465:348,1,127.5
309,271,55801,6,0,P|318:308|316:376,1,95.6250036478044
393,193,56282,1,0,0:0:0:0:
396,225,56378,1,0,0:0:0:0:
257,42,56763,6,0,L|244:142,1,85
231,142,57051,1,0,0:0:0:0:
54,283,57244,6,0,P|119:280|154:330,1,127.5
1,215,57724,1,0,0:0:0:0:
54,283,57916,1,0,0:0:0:0:
89,169,58109,6,0,L|104:17,1,127.5
102,43,58878,6,0,L|220:58,1,95.6250036478044
0,106,59359,1,0,0:0:0:0:
32,101,59455,1,0,0:0:0:0:
227,273,59840,5,0,0:0:0:0:
204,158,60032,2,0,P|188:178|184:206,1,42.5
183,194,60321,6,0,P|150:159|66:172,1,127.5
247,54,60801,2,0,P|199:74|165:65,1,85
313,237,61186,6,0,P|289:199|336:118,1,127.5
490,313,61955,6,0,L|372:295,1,95.6250036478044
512,179,62436,1,0,0:0:0:0:
481,186,62532,1,0,0:0:0:0:
424,3,62917,2,0,L|388:118,1,85
376,93,63205,1,0,0:0:0:0:
151,49,63398,6,0,P|216:40|257:94,1,127.5
170,241,63878,2,0,P|158:192|170:157,1,85
389,217,64263,6,0,L|377:351,1,127.5
378,344,65032,6,0,P|320:340|297:313,1,95.6250036478044
170,334,65513,1,0,0:0:0:0:
176,303,65609,1,0,0:0:0:0:
17,169,65994,6,0,P|74:170|99:201,1,85
104,212,66282,1,0,0:0:0:0:
201,40,66474,2,0,P|247:101|229:167,1,127.5
220,166,66859,1,0,0:0:0:0:
331,84,66955,6,0,P|381:86|412:35,1,95.6250036478044
410,55,67340,6,0,P|391:121|455:196,1,152.999995330811
512,146,67725,1,0,0:0:0:0:
446,359,67917,1,0,0:0:0:0:
289,244,68109,1,0,0:0:0:0:
282,240,68205,1,0,0:0:0:0:
276,233,68301,2,0,L|287:317,1,50.9999984436036
446,359,68494,2,0,L|324:349,1,101.999996887207
188,190,68878,6,0,P|234:142|290:144,1,101.999996887207
337,179,69167,1,0,0:0:0:0:
351,171,69263,2,0,L|346:106,1,50.9999984436036
282,9,69455,2,0,L|289:75,1,50.9999984436036
472,58,69648,2,0,L|369:39,1,101.999996887207
24,158,70032,6,0,P|103:132|135:146,1,101.999996887207
177,195,70321,1,0,0:0:0:0:
157,211,70417,2,0,L|163:322,1,101.999996887207
224,122,70705,1,0,0:0:0:0:
203,117,70801,1,0,0:0:0:0:
309,228,70994,1,0,0:0:0:0:
375,71,71186,1,0,0:0:0:0:
392,54,71282,6,0,L|501:47,1,101.999996887207
336,144,71571,2,0,P|297:100|310:42,1,101.999996887207
459,208,71955,1,0,0:0:0:0:
439,323,72148,1,0,0:0:0:0:
352,252,72340,1,0,0:0:0:0:
361,244,72436,1,0,0:0:0:0:
370,234,72532,2,0,L|454:248,1,50.9999984436036
282,365,72725,6,0,L|271:296,1,50.9999984436036
155,287,72917,2,0,L|202:255,1,50.9999984436036
159,138,73109,2,0,L|210:162,1,50.9999984436036
290,66,73301,2,0,L|294:122,1,50.9999984436036
452,143,73494,6,0,P|360:171|332:144,1,101.999996887207
278,54,73782,1,0,0:0:0:0:
290,66,73878,2,0,L|294:122,1,50.9999984436036
227,338,74071,2,0,L|221:257,1,50.9999984436036
64,180,74263,6,0,B|154:139|154:139|224:167,1,152.999995330811
289,215,74648,2,0,L|350:205,1,50.9999984436036
198,258,74840,1,0,0:0:0:0:
431,300,75032,1,0,0:0:0:0:
506,326,75225,6,0,L|377:311,1,101.999996887207
321,366,75513,2,0,L|310:304,1,50.9999984436036
343,115,75705,1,0,0:0:0:0:
355,101,75801,2,0,P|396:135|390:208,1,101.999996887207
322,228,76090,1,0,0:0:0:0:
322,228,76186,2,0,L|203:219,1,101.999996887207
120,294,76475,5,0,0:0:0:0:
126,283,76571,2,0,L|135:205,1,50.9999984436036
92,126,76859,1,0,0:0:0:0:
63,4,76955,2,0,L|73:110,1,101.999996887207
216,89,77340,6,0,L|166:84,1,50.9999984436036
377,264,77628,1,0,0:0:0:0:
499,226,77725,2,0,L|385:242,1,101.999996887207
90,328,78109,5,0,0:0:0:0:
150,261,78301,2,0,P|183:326|168:371,1,101.999996887207
60,246,78590,1,0,0:0:0:0:
48,240,78686,2,0,L|57:152,1,50.9999984436036
90,328,78878,5,0,0:0:0:0:
78,337,78975,2,0,L|21:332,1,50.9999984436036
228,356,79167,2,0,L|145:348,1,50.9999984436036
101,111,79648,6,0,B|225:81|167:185|307:142,1,203.999993774414
44,227,80225,2,0,P|114:193|143:201,1,101.999996887207
195,332,80609,1,0,0:0:0:0:
98,384,80801,2,0,L|115:271,1,101.999996887207
134,197,81090,1,0,0:0:0:0:
134,197,81186,6,0,L|16:210,1,101.999996887207
265,277,81571,2,0,L|381:288,1,101.999996887207
191,29,81955,1,0,0:0:0:0:
229,190,82148,1,0,0:0:0:0:
276,84,82340,1,0,0:0:0:0:
125,125,82532,1,0,0:0:0:0:
125,125,82628,1,0,0:0:0:0:
125,125,82725,6,0,B|257:99|194:209|355:151,1,203.999993774414
430,224,83301,2,0,P|428:174|446:127,1,101.999996887207
303,345,83686,1,0,0:0:0:0:
280,261,83878,2,0,P|326:258|377:305,1,101.999996887207
452,351,84167,1,0,0:0:0:0:
452,351,84263,6,0,B|460:298|446:270|446:270|468:232|468:232|446:191|448:153,1,203.999993774414
474,27,84840,2,0,P|517:74|506:134,1,101.999996887207
349,211,85225,1,0,0:0:0:0:
285,70,85417,2,0,L|402:90,1,101.999996887207
447,157,85705,1,0,0:0:0:0:
434,166,85801,6,0,B|312:178|312:178|254:240,1,203.999993774414
160,79,86378,2,0,P|195:106|185:162,1,101.999996887207
47,330,86763,1,0,0:0:0:0:
9,210,86955,2,0,L|112:228,1,101.999996887207
198,311,87244,1,0,0:0:0:0:
219,298,87340,6,0,L|430:277,1,203.999993774414
367,84,87917,2,0,B|340:127|340:126|340:126|353:189,1,101.999996887207
472,156,88301,1,0,0:0:0:0:
246,110,88494,2,0,L|134:125,1,101.999996887207
63,182,88782,1,0,0:0:0:0:
48,198,88878,6,0,L|258:226,1,203.999993774414
326,357,89455,2,0,P|378:322|372:259,1,101.999996887207
341,192,89840,1,0,0:0:0:0:
512,114,90032,2,0,L|383:128,1,101.999996887207
341,192,90321,1,0,0:0:0:0:
317,178,90417,6,0,P|266:111|329:20,1,203.999993774414
159,88,90994,2,0,P|97:119|54:89,1,101.999996887207
208,238,91378,1,0,0:0:0:0:
128,300,91571,2,0,P|102:241|128:190,1,101.999996887207
194,221,91859,1,0,0:0:0:0:
208,238,91955,6,0,L|383:221,1,152.999995330811
445,255,92340,1,0,0:0:0:0:
313,92,92532,1,0,0:0:0:0:
268,346,92725,1,0,0:0:0:0:
202,152,92917,1,0,0:0:0:0:
205,177,93013,1,0,0:0:0:0:
209,202,93109,1,0,0:0:0:0:
369,241,93301,1,0,0:0:0:0:
369,241,93398,1,0,0:0:0:0:
369,241,93494,6,0,P|406:197|382:111,1,152.999995330811
312,60,93878,1,0,0:0:0:0:
279,280,94071,1,0,0:0:0:0:
202,152,94263,1,0,0:0:0:0:
134,208,94455,1,0,0:0:0:0:
134,208,94551,1,0,0:0:0:0:
134,208,94648,2,0,L|22:200,1,101.999996887207
8,123,94936,1,0,0:0:0:0:
8,123,95032,6,0,P|63:75|154:106,1,152.999995330811
202,152,95417,1,0,0:0:0:0:
102,339,95609,1,0,0:0:0:0:
93,184,95801,1,0,0:0:0:0:
238,317,95994,1,0,0:0:0:0:
263,313,96090,1,0,0:0:0:0:
288,309,96186,1,0,0:0:0:0:
439,349,96378,1,0,0:0:0:0:
439,349,96475,1,0,0:0:0:0:
439,349,96571,6,0,P|399:277|439:178,1,152.999995330811
481,169,96955,1,0,0:0:0:0:
317,271,97148,1,0,0:0:0:0:
291,275,97244,1,0,0:0:0:0:
266,281,97340,1,0,0:0:0:0:
166,157,97532,1,0,0:0:0:0:
103,365,97725,1,0,0:0:0:0:
33,289,97917,1,0,0:0:0:0:
33,289,98013,1,0,0:0:0:0:
33,289,98109,6,0,P|-8:220|22:131,1,152.999995330811
76,93,98494,2,0,L|182:107,1,101.999996887207
12,38,98782,1,0,0:0:0:0:
0,68,98878,1,0,0:0:0:0:
150,252,99071,1,0,0:0:0:0:
284,143,99263,2,0,L|274:25,1,101.999996887207
150,252,99648,6,0,B|235:273|197:211|315:238,1,152.999995330811
368,286,100032,1,0,0:0:0:0:
184,112,100225,1,0,0:0:0:0:
178,136,100321,1,0,0:0:0:0:
172,161,100417,1,0,0:0:0:0:
306,335,100609,1,0,0:0:0:0:
451,120,100801,2,0,P|374:101|319:160,1,152.999995330811
297,234,101186,6,0,L|308:345,1,101.999996887207
451,120,101571,2,0,P|374:101|319:160,1,152.999995330811
297,234,101955,2,0,L|184:219,1,101.999996887207
37,138,102340,2,0,L|141:128,1,101.999996887207
83,294,102725,6,0,L|93:226,2,63.75
346,122,104263,6,0,B|431:135|394:78|514:95,1,152.999995330811
463,170,104648,1,0,0:0:0:0:
264,77,104840,1,0,0:0:0:0:
248,71,104936,1,0,0:0:0:0:
234,64,105032,2,0,L|239:134,1,50.9999984436036
340,211,105321,1,0,0:0:0:0:
340,211,105417,2,0,L|400:198,2,50.9999984436036
269,267,105705,1,0,0:0:0:0:
250,260,105801,6,0,L|105:248,1,101.999996887207
293,366,106090,1,0,0:0:0:0:
299,352,106186,1,0,0:0:0:0:
306,339,106282,1,0,0:0:0:0:
413,289,106378,1,0,0:0:0:0:
423,297,106475,6,0,P|431:323|431:351,1,50.9999984436036
412,160,106667,1,0,0:0:0:0:
421,151,106763,2,0,L|482:155,1,50.9999984436036
283,115,106955,1,0,0:0:0:0:
287,89,107051,1,0,0:0:0:0:
291,64,107147,1,0,0:0:0:0:
165,268,107340,6,0,B|75:254|99:312|6:297,1,152.999995330811
38,212,107725,1,0,0:0:0:0:
269,347,107917,1,0,0:0:0:0:
279,355,108013,1,0,0:0:0:0:
288,360,108109,2,0,P|303:297|300:286,1,50.9999984436036
197,177,108398,1,0,0:0:0:0:
197,177,108494,2,0,L|193:113,2,50.9999984436036
285,211,108782,1,0,0:0:0:0:
297,198,108878,6,0,L|408:180,1,101.999996887207
212,278,109167,1,0,0:0:0:0:
198,271,109263,2,0,L|137:264,1,50.9999984436036
39,331,109455,1,0,0:0:0:0:
39,331,109551,1,0,0:0:0:0:
39,331,109648,2,0,L|56:219,1,101.999996887207
177,50,110032,2,0,P|95:115|35:93,1,152.999995330811
26,84,110417,5,0,0:0:0:0:
252,228,110705,1,0,0:0:0:0:
389,145,110994,1,0,0:0:0:0:
389,145,111090,1,0,0:0:0:0:
389,145,111186,2,0,L|377:82,1,50.9999984436036
261,218,111475,1,0,0:0:0:0:
252,228,111571,2,0,L|260:285,2,50.9999984436036
177,185,111859,1,0,0:0:0:0:
161,200,111955,6,0,B|74:216|109:140|-9:183,1,152.999995330811
28,306,112340,2,0,P|40:269|40:235,1,50.9999984436036
153,89,112532,1,0,0:0:0:0:
146,96,112628,1,0,0:0:0:0:
140,102,112725,6,0,L|208:93,1,50.9999984436036
236,216,112917,2,0,L|262:152,1,50.9999984436036
382,189,113109,2,0,L|340:134,1,50.9999984436036
431,49,113301,2,0,L|363:57,1,50.9999984436036
236,216,113494,6,0,B|305:184|305:184|386:190,1,152.999995330811
456,236,113878,1,0,0:0:0:0:
461,226,113975,1,0,0:0:0:0:
468,215,114071,2,0,L|459:294,1,50.9999984436036
464,134,114263,2,0,L|455:213,1,50.9999984436036
460,53,114455,2,0,L|451:132,1,50.9999984436036
361,194,114648,1,0,0:0:0:0:
381,189,114744,1,0,0:0:0:0:
234,104,114936,1,0,0:0:0:0:
406,323,115225,6,0,B|302:308|302:308|255:345,1,152.999995330811
165,260,115801,1,0,0:0:0:0:
177,252,115898,2,0,L|170:302,1,50.9999984436036
76,370,116090,1,0,0:0:0:0:
12,311,116186,1,0,0:0:0:0:
9,277,116282,1,0,0:0:0:0:
6,243,116378,1,0,0:0:0:0:
4,209,116474,1,0,0:0:0:0:
56,132,116571,6,0,B|157:108|107:189|251:140,1,165.749992412568
239,64,116955,2,0,L|166:78,1,55.2499974708558
301,144,117148,1,0,0:0:0:0:
323,124,117244,2,0,L|311:233,1,110.499994941712
173,283,117532,6,0,L|252:268,1,55.2499974708558
383,355,117725,2,0,L|393:264,1,55.2499974708558
221,95,117917,2,0,L|211:171,1,55.2499974708558
480,101,118109,6,0,B|391:76|397:153|313:120,1,165.749992412568
162,166,118494,2,0,P|222:150|233:152,1,55.2499974708558
249,295,118686,1,0,0:0:0:0:
263,319,118782,2,0,L|276:210,1,110.499994941712
226,40,119071,6,0,L|217:130,1,55.2499974708558
376,115,119263,2,0,L|282:129,1,55.2499974708558
112,203,119455,2,0,L|186:186,1,55.2499974708558
403,311,119648,6,0,P|333:245|259:261,1,165.749992412568
210,325,120032,1,0,0:0:0:0:
27,235,120225,2,0,B|108:213|96:275|183:237|183:237|147:242|124:206,1,220.999989883423
280,82,120801,2,0,B|228:61|228:61|248:182,1,165.749992412568
310,244,121186,6,0,P|401:237|407:135,1,165.749992412568
284,371,121571,1,0,0:0:0:0:
203,262,121763,1,0,0:0:0:0:
199,289,121859,1,0,0:0:0:0:
195,316,121955,6,0,L|177:179,1,110.499994941712
38,88,122244,1,0,0:0:0:0:
15,178,122340,1,0,0:0:0:0:
55,185,122436,1,0,0:0:0:0:
94,172,122532,1,0,0:0:0:0:
122,142,122628,1,0,0:0:0:0:
132,102,122725,6,0,L|135:43,2,55.2499974708558
157,306,123013,2,0,L|152:372,2,55.2499974708558
247,125,123301,2,0,L|250:66,2,55.2499974708558
272,329,123589,2,0,L|267:395,2,55.2499974708558
362,148,123878,5,0,0:0:0:0:
387,352,123975,2,0,L|461:339,1,55.2499974708558
287,286,124166,1,0,0:0:0:0:
278,281,124262,1,0,0:0:0:0:
268,273,124359,2,0,L|274:366,1,55.2499974708558
461,264,124551,1,0,0:0:0:0:
471,255,124648,2,0,L|457:172,1,55.2499974708558
218,383,124936,6,0,L|236:202,1,165.749992412568
204,119,125321,1,0,0:0:0:0:
196,125,125417,2,0,B|178:143|178:143|263:129,1,110.499994941712
76,259,125705,1,0,0:0:0:0:
134,208,125801,6,0,P|155:244|147:279,1,55.2499974708558
168,370,125994,2,0,P|189:353|199:327,1,55.2499974708558
292,253,126186,2,0,P|250:253|224:228,1,55.2499974708558
379,356,126378,2,0,P|358:319|366:284,1,55.2499974708558
351,166,126571,2,0,P|372:202|364:237,1,55.2499974708558
435,272,126763,2,0,L|511:282,1,55.2499974708558
322,384,126955,5,0,0:0:0:0:
331,310,127051,1,0,0:0:0:0:
341,237,127147,1,0,0:0:0:0:
351,164,127243,1,0,0:0:0:0:
75,115,127532,6,0,B|34:169|34:169|151:125,1,165.749992412568
203,168,127917,2,0,P|209:124|199:90,1,55.2499974708558
85,240,128109,2,0,P|135:231|182:295,1,110.499994941712
30,364,128398,1,0,0:0:0:0:
21,356,128494,2,0,L|32:282,1,55.2499974708558
75,115,128686,2,0,L|67:26,1,55.2499974708558
0,215,128878,6,0,L|85:201,1,59.4999981842042
167,350,129071,2,0,L|177:272,1,59.4999981842042
202,43,129263,2,0,P|172:101|197:158,1,118.999996368408
357,157,129551,1,0,0:0:0:0:
345,144,129648,2,0,L|272:153,1,59.4999981842042
167,350,129840,2,0,L|248:341,1,59.4999981842042
422,239,130032,5,0,0:0:0:0:
362,244,130128,1,0,0:0:0:0:
303,249,130224,1,0,0:0:0:0:
244,255,130320,1,0,0:0:0:0:
195,220,130417,6,0,P|165:158|190:95,1,118.999996368408
78,54,130705,1,0,0:0:0:0:
90,43,130801,2,0,L|76:126,1,59.4999981842042
323,164,130994,2,0,P|284:152|234:166,1,59.4999981842042
70,298,131186,5,0,0:0:0:0:
58,289,131282,2,0,B|139:259|139:259|201:299,1,118.999996368408
297,362,131571,1,0,0:0:0:0:
304,302,131667,1,0,0:0:0:0:
311,243,131763,1,0,0:0:0:0:
318,184,131859,1,0,0:0:0:0:
364,146,131955,6,0,P|430:142|481:202,1,118.999996368408
225,151,132244,1,0,0:0:0:0:
214,132,132340,2,0,L|225:52,1,59.4999981842042
387,300,132532,1,0,0:0:0:0:
365,319,132628,2,0,L|217:302,1,118.999996368408
93,256,132917,2,0,L|10:276,1,59.4999981842042
154,373,133109,5,0,0:0:0:0:
164,314,133205,1,0,0:0:0:0:
174,255,133301,1,0,0:0:0:0:
184,197,133397,1,0,0:0:0:0:
147,146,133494,6,0,L|28:171,1,118.999996368408
326,306,133878,1,0,0:0:0:0:
312,316,133975,2,0,B|281:294|281:294|298:165,1,118.999996368408
341,49,134263,6,0,P|394:106|374:151,1,118.999996368408
252,142,134551,1,0,0:0:0:0:
245,131,134648,2,0,L|329:139,1,59.4999981842042
441,207,134840,2,0,L|507:200,1,59.4999981842042
371,292,135032,6,0,B|344:258|344:258|264:239,1,118.999996368408
179,286,135321,1,0,0:0:0:0:
188,274,135417,2,0,L|179:351,1,59.4999981842042
98,220,135609,1,0,0:0:0:0:
84,207,135705,2,0,L|235:181,1,118.999996368408
402,96,135994,2,0,L|323:110,1,59.4999981842042
284,48,136186,5,0,0:0:0:0:
256,99,136282,1,0,0:0:0:0:
271,155,136378,1,0,0:0:0:0:
320,187,136474,1,0,0:0:0:0:
381,191,136571,1,0,0:0:0:0:
393,171,136699,6,0,B|383:220|383:220|387:251|387:251|369:280|369:280|369:357,1,158.666661824544
469,364,137019,2,0,P|438:299|366:329,1,158.666661824544
298,365,137340,6,0,B|255:366|235:354|235:354|207:372|207:372|172:360|172:360|158:370|127:364|127:364,1,158.666661824544
10,297,137660,2,0,P|91:304|122:233,1,158.666661824544
130,64,138109,6,0,L|62:71,1,59.4999981842042
223,139,138301,1,0,0:0:0:0:
215,130,138398,1,0,0:0:0:0:
204,121,138494,2,0,L|182:186,1,59.4999981842042
284,33,138686,1,0,0:0:0:0:
276,45,138782,1,0,0:0:0:0:
269,57,138878,6,0,L|362:44,1,59.4999981842042
506,146,139071,2,0,L|448:155,1,59.4999981842042
181,288,139263,5,0,0:0:0:0:
240,293,139359,1,0,0:0:0:0:
299,298,139455,1,0,0:0:0:0:
358,303,139551,1,0,0:0:0:0:
408,337,139648,1,0,0:0:0:0:
415,333,139744,1,0,0:0:0:0:
422,328,139840,6,0,L|426:252,1,59.4999981842042
460,64,140032,1,0,0:0:0:0:
492,85,140128,1,0,0:0:0:0:
505,122,140224,1,0,0:0:0:0:
493,159,140320,1,0,0:0:0:0:
456,190,140417,6,0,L|377:178,1,59.4999981842042
245,21,140609,2,0,L|259:91,1,59.4999981842042
182,267,140801,1,0,0:0:0:0:
182,267,140898,1,0,0:0:0:0:
182,267,140994,2,0,P|241:234|249:207,1,59.4999981842042
387,49,141186,5,0,0:0:0:0:
370,44,141282,1,0,0:0:0:0:
349,35,141378,2,0,L|360:105,1,59.4999981842042
508,356,141571,2,0,L|501:297,1,59.4999981842042
289,188,141763,1,0,0:0:0:0:
254,264,141859,2,0,B|317:274|317:274|383:212|383:210,1,118.999996368408
387,49,142148,5,0,0:0:0:0:
370,44,142244,1,0,0:0:0:0:
349,35,142340,2,0,L|360:105,1,59.4999981842042
501,297,142532,2,0,L|508:356,1,59.4999981842042
289,188,142725,5,0,0:0:0:0:
296,180,142821,1,0,0:0:0:0:
304,171,142917,2,0,L|390:185,1,59.4999981842042
508,356,143109,2,0,L|426:345,1,59.4999981842042
438,83,143301,1,0,0:0:0:0:
491,17,143398,2,0,B|523:66|523:66|500:168,1,118.999996368408
289,188,143686,5,0,0:0:0:0:
296,180,143782,1,0,0:0:0:0:
304,171,143878,2,0,L|390:185,1,59.4999981842042
449,348,144070,2,0,L|508:356,1,59.4999981842042
57,355,144263,6,0,B|124:318|124:318|190:331,1,118.999996368408
197,353,144551,1,0,0:0:0:0:
73,237,144744,5,0,0:0:0:0:
196,376,144840,1,0,0:0:0:0:
152,172,145032,5,0,0:0:0:0:
177,383,145128,1,0,0:0:0:0:
253,151,145321,5,0,0:0:0:0:
155,377,145417,1,0,0:0:0:0:
334,203,145609,1,0,0:0:0:0:
341,211,145705,1,0,0:0:0:0:
346,218,145801,6,0,L|428:205,1,59.4999981842042
203,307,145994,1,0,0:0:0:0:
132,256,146186,6,0,L|43:244,1,59.4999981842042
347,360,146378,1,0,0:0:0:0:
417,313,146571,6,0,L|475:302,1,59.4999981842042
335,160,146763,2,0,P|346:199|339:240,1,59.4999981842042
265,356,146955,2,0,P|254:317|261:276,1,59.4999981842042
475,302,147148,2,0,L|417:313,1,59.4999981842042
195,222,147340,5,0,0:0:0:0:
131,293,147436,2,0,L|146:356,1,59.4999981842042
243,146,147628,2,0,B|179:128|179:128|104:180|104:179,1,118.999996368408
10,230,147917,2,0,L|89:215,1,59.4999981842042
284,342,148109,5,0,0:0:0:0:
276,347,148205,1,0,0:0:0:0:
268,354,148301,2,0,L|273:264,1,59.4999981842042
391,118,148494,2,0,L|397:44,1,59.4999981842042
226,180,148686,1,0,0:0:0:0:
230,189,148782,1,0,0:0:0:0:
234,196,148878,6,0,L|330:189,1,59.4999981842042
70,268,149071,1,0,0:0:0:0:
123,205,149167,2,0,B|158:232|158:232|145:325,1,118.999996368408
269,375,149455,2,0,L|259:297,1,59.4999981842042
388,166,149648,6,0,L|407:266,1,79.3333309122722
306,116,149904,1,0,0:0:0:0:
376,50,150032,2,0,L|472:58,1,79.3333309122722
297,208,150289,2,0,P|257:194|251:178,1,39.6666654561361
270,13,150417,6,0,B|298:34|298:34|286:122,1,118.999996368408
125,339,150705,1,0,0:0:0:0:
301,291,150898,5,0,0:0:0:0:
109,328,150994,1,0,0:0:0:0:
314,306,151186,5,0,0:0:0:0:
74,238,151282,1,0,0:0:0:0:
375,146,151475,5,0,0:0:0:0:
303,97,151571,2,0,P|286:152|290:170,1,59.4999981842042
341,8,151763,2,0,P|380:50|397:55,1,59.4999981842042
461,158,151955,6,0,B|485:124|485:124|361:152,1,118.999996368408
325,233,152244,6,0,B|274:231|274:231|237:217|237:217|213:241,1,118.999996368408
121,353,152532,6,0,P|69:326|94:281,1,118.999996368408
195,81,152821,6,0,P|214:117|198:154,1,59.4999981842042
66,199,153013,1,0,0:0:0:0:
50,183,153109,2,0,L|190:205,1,118.999996368408
422,171,153398,1,0,0:0:0:0:
430,149,153494,6,0,B|454:97|454:97|292:131,1,191.250007295609
115,162,153878,1,0,0:0:0:0:
192,27,154071,1,0,0:0:0:0:
200,30,154167,1,0,0:0:0:0:
207,33,154263,2,0,P|217:70|214:105,1,63.7500024318696
331,186,154455,2,0,P|321:149|324:114,1,63.7500024318696
197,246,154648,1,0,0:0:0:0:
437,64,154840,1,0,0:0:0:0:
443,58,154936,1,0,0:0:0:0:
450,51,155032,6,0,L|457:127,1,63.7500024318696
356,339,155225,2,0,L|368:269,1,63.7500024318696
505,215,155417,2,0,B|393:237|441:155|317:169,1,191.250007295609
239,211,155801,2,0,P|234:245|260:290,1,63.7500024318696
475,109,155994,2,0,L|462:46,1,63.7500024318696
167,8,156186,6,0,B|152:82|152:82|283:58|283:59,1,191.250007295609
337,124,156571,2,0,P|358:147|405:150,1,63.7500024318696
215,226,156763,2,0,P|245:219|271:180,1,63.7500024318696
242,382,156955,2,0,P|251:352|230:310,1,63.7500024318696
128,195,157148,2,0,P|118:224|139:266,1,63.7500024318696
399,111,157340,6,0,L|311:128,1,63.7500024318696
65,243,157532,2,0,L|143:257,1,63.7500024318696
346,368,157725,1,0,0:0:0:0:
191,172,157917,1,0,0:0:0:0:
169,196,158013,6,0,B|140:185|90:184|90:184|143:182|282:160,1,255.000009727478
336,123,158494,6,0,P|339:94|312:57,1,63.7500024318696
275,294,158686,1,0,0:0:0:0:
280,304,158782,1,0,0:0:0:0:
284,315,158878,2,0,L|367:323,1,63.7500024318696
504,171,159071,2,0,L|419:184,1,63.7500024318696
304,40,159263,6,0,P|288:109|295:112,1,63.7500024318696
426,343,159455,2,0,P|423:294|402:268,1,63.7500024318696
209,273,159648,6,0,B|108:251|144:357|15:328,1,191.250007295609
186,361,160032,2,0,L|277:347,1,63.7500024318696
253,193,160225,1,0,0:0:0:0:
243,189,160321,1,0,0:0:0:0:
230,184,160417,6,0,P|219:135|232:100,1,63.7500024318696
347,321,160609,2,0,P|310:355|273:361,1,63.7500024318696
406,158,160801,2,0,L|484:145,1,63.7500024318696
182,284,160994,1,0,0:0:0:0:
171,281,161090,1,0,0:0:0:0:
159,277,161186,6,0,L|169:350,1,63.7500024318696
39,191,161378,2,0,L|26:261,1,63.7500024318696
197,136,161571,6,0,B|145:169|145:169|288:151,1,191.250007295609
351,99,161955,2,0,P|355:62|340:32,1,63.7500024318696
362,190,162148,1,0,0:0:0:0:
368,198,162244,1,0,0:0:0:0:
373,205,162340,2,0,L|460:189,1,63.7500024318696
505,40,162532,2,0,L|422:55,1,63.7500024318696
255,4,162725,6,0,P|269:73|261:96,1,63.7500024318696
151,217,162917,2,0,P|137:148|145:125,1,63.7500024318696
388,209,163109,2,0,P|314:222|283:270,1,127.500004863739
410,345,163398,1,0,0:0:0:0:
424,359,163494,6,0,L|436:276,1,63.7500024318696
406,80,163686,2,0,L|416:6,1,63.7500024318696
487,174,163878,6,0,L|424:185,1,63.7500024318696
257,229,164071,1,0,0:0:0:0:
251,214,164167,2,0,B|304:149|304:149|272:361,1,255.000009727478
205,362,164648,6,0,P|165:342|159:302,1,63.7500024318696
332,295,164840,2,0,P|294:319|257:304,1,63.7500024318696
67,205,165032,1,0,0:0:0:0:
60,199,165128,1,0,0:0:0:0:
54,190,165225,2,0,L|157:203,1,63.7500024318696
231,115,165417,1,0,0:0:0:0:
273,109,165513,1,0,0:0:0:0:
315,104,165609,1,0,0:0:0:0:
357,98,165705,1,0,0:0:0:0:
398,123,165801,6,0,B|421:248|345:177|406:366,1,191.250007295609
482,341,166186,2,0,L|472:252,1,63.7500024318696
243,186,166378,1,0,0:0:0:0:
236,194,166475,1,0,0:0:0:0:
227,205,166571,6,0,L|317:188,1,63.7500024318696
491,38,166763,2,0,L|409:51,1,63.7500024318696
350,297,166955,1,0,0:0:0:0:
389,309,167051,1,0,0:0:0:0:
429,296,167147,1,0,0:0:0:0:
453,262,167243,1,0,0:0:0:0:
454,215,167340,6,0,L|435:140,1,63.7500024318696
229,85,167532,2,0,L|249:4,1,63.7500024318696
415,74,167725,6,0,B|322:101|322:101|297:162|297:162|221:186,1,191.250007295609
174,164,168109,2,0,L|90:155,1,63.7500024318696
14,351,168301,2,0,L|126:363,1,63.7500024318696
219,293,168494,2,0,B|193:247|193:247|173:425,1,191.250007295609
211,171,168878,6,0,P|154:176|117:223,1,63.7500024318696
270,105,169071,2,0,P|237:58|177:49,1,63.7500024318696
356,123,169263,2,0,P|380:71|357:15,1,63.7500024318696
323,211,169455,1,0,0:0:0:0:
313,208,169551,1,0,0:0:0:0:
305,201,169648,6,0,L|295:284,1,63.7500024318696
446,363,169840,2,0,L|453:299,1,63.7500024318696
492,108,170032,2,0,L|405:129,1,63.7500024318696
167,169,170225,1,0,0:0:0:0:
156,152,170321,2,0,B|260:169|260:169|296:252|296:252|326:221|354:211,1,255.000009727478
410,257,170801,5,0,0:0:0:0:
418,252,170898,1,0,0:0:0:0:
423,246,170994,2,0,L|416:160,1,63.7500024318696
205,192,171186,2,0,P|247:171|271:171,1,63.7500024318696
416,15,171378,2,0,P|374:36|350:36,1,63.7500024318696
86,53,171571,1,0,0:0:0:0:
106,45,171667,1,0,0:0:0:0:
127,38,171763,2,0,L|109:162,1,63.7500024318696
182,375,171955,6,0,B|191:296|191:296|215:257|215:257|204:190,1,191.250007295609
24,242,172340,2,0,P|103:251|125:214,1,127.500004863739
147,82,172628,1,0,0:0:0:0:
133,74,172725,2,0,B|140:146|140:145,1,63.7500024318696
364,238,172917,2,0,P|333:220|291:223,1,63.7500024318696
29,331,173109,2,0,P|123:330|151:288,1,127.500004863739
211,261,173398,1,0,0:0:0:0:
227,273,173494,6,0,L|215:345,1,63.7500024318696
106,219,173686,1,0,0:0:0:0:
129,211,173782,1,0,0:0:0:0:
150,190,173878,2,0,L|236:177,1,63.7500024318696
381,275,174071,1,0,0:0:0:0:
332,352,174167,2,0,B|422:365|422:365|487:266,1,191.250007295609
284,213,174551,1,0,0:0:0:0:
268,228,174648,6,0,B|259:303|259:302,1,63.7500024318696
438,160,174840,2,0,P|401:140|352:155,1,63.7500024318696
60,291,175032,2,0,L|151:274,1,63.7500024318696
193,17,175225,2,0,L|180:115,1,63.7500024318696
338,370,175417,2,0,L|350:282,1,63.7500024318696
221,202,175609,1,0,0:0:0:0:
139,196,175705,2,0,P|143:247|273:262,1,191.250007295609
366,120,176090,1,0,0:0:0:0:
382,97,176186,6,0,L|490:112,1,63.7500024318696
346,306,176378,2,0,P|337:252|349:216,1,63.7500024318696
202,34,176571,6,0,P|217:106|181:162,1,127.5
114,189,176955,2,0,L|26:170,1,85
207,238,177244,1,0,0:0:0:0:
187,245,177340,2,0,L|173:338,1,85
296,170,177628,1,0,0:0:0:0:
281,188,177725,2,0,P|331:200|377:176,1,85
503,286,178109,6,0,P|410:265|352:342,1,191.250007295609
252,371,178494,2,0,L|264:282,1,63.7500024318696
183,124,178686,1,0,0:0:0:0:
171,135,178782,1,0,0:0:0:0:
161,148,178878,2,0,L|61:132,1,63.7500024318696
320,189,179071,2,0,L|223:206,1,63.7500024318696
31,300,179263,1,0,0:0:0:0:
58,268,179359,1,0,0:0:0:0:
98,255,179455,1,0,0:0:0:0:
138,265,179551,1,0,0:0:0:0:
165,302,179648,6,0,L|239:293,1,63.7500024318696
406,78,179840,2,0,P|303:98|302:98,1,63.7500024318696
370,354,180032,2,0,P|342:278|361:212,1,127.500004863739
476,150,180321,1,0,0:0:0:0:
489,159,180417,6,0,L|418:177,1,63.7500024318696
209,146,180609,2,0,L|266:177,1,63.7500024318696
420,280,180801,2,0,P|344:258|273:337,1,191.250007295609
190,370,181186,6,0,P|170:323|171:276,1,63.7500024318696
25,238,181378,2,0,P|75:244|115:268,1,63.7500024318696
246,195,181571,2,0,L|161:219,1,63.7500024318696
99,89,181763,1,0,0:0:0:0:
105,83,181859,1,0,0:0:0:0:
113,77,181955,6,0,L|96:168,1,63.7500024318696
410,139,182148,2,0,L|399:77,1,63.7500024318696
53,320,182340,2,0,P|93:300|146:310,1,63.7500024318696
301,345,182532,1,0,0:0:0:0:
267,242,182628,2,0,P|329:236|404:386,1,255.000009727478
168,280,183109,5,0,0:0:0:0:
161,274,183205,1,0,0:0:0:0:
153,263,183301,2,0,L|168:166,1,63.7500024318696
310,86,183494,2,0,L|290:1,1,63.7500024318696
305,224,183686,1,0,0:0:0:0:
313,233,183782,1,0,0:0:0:0:
319,240,183878,6,0,L|410:214,1,63.7500024318696
484,38,184071,2,0,L|399:58,1,63.7500024318696
142,145,184263,6,0,B|248:170|212:64|313:86,1,191.250007295609
328,300,184647,2,0,L|318:236,1,63.7500024318696
453,117,184840,1,0,0:0:0:0:
463,121,184936,1,0,0:0:0:0:
476,126,185032,6,0,P|487:175|474:210,1,63.7500024318696
265,310,185225,2,0,L|343:297,1,63.7500024318696
400,33,185417,2,0,L|300:54,1,63.7500024318696
201,178,185609,1,0,0:0:0:0:
212,181,185705,1,0,0:0:0:0:
224,185,185801,6,0,L|214:112,1,63.7500024318696
52,340,185994,2,0,B|67:253|67:254,1,63.7500024318696
367,317,186186,2,0,B|265:355|282:267|175:310,1,191.250007295609
320,171,186570,6,0,P|330:200|326:231,1,63.7500024318696
163,128,186763,1,0,0:0:0:0:
158,118,186859,1,0,0:0:0:0:
150,105,186955,2,0,L|242:119,1,63.7500024318696
429,305,187147,2,0,L|346:320,1,63.7500024318696
414,40,187340,6,0,P|425:71|426:128,1,63.7500024318696
280,342,187532,2,0,B|278:289|304:247|304:246,1,63.7500024318696
501,214,187725,2,0,P|427:232|371:174,1,127.500004863739
273,100,188013,1,0,0:0:0:0:
285,115,188109,6,0,L|179:139,1,63.7500024318696
107,269,188301,2,0,L|10:292,1,63.7500024318696
265,370,188494,2,0,B|277:333|268:287|268:286,1,63.7500024318696
129,127,188686,1,0,0:0:0:0:
44,121,188782,2,0,B|-10:76|-10:76|182:43,1,255.000009727478
232,190,189263,6,0,P|222:163|224:121,1,63.7500024318696
392,232,189455,2,0,P|354:256|317:241,1,63.7500024318696
173,331,189647,1,0,0:0:0:0:
166,325,189743,1,0,0:0:0:0:
160,316,189840,2,0,L|263:329,1,63.7500024318696
466,165,190032,1,0,0:0:0:0:
432,139,190128,1,0,0:0:0:0:
391,133,190224,1,0,0:0:0:0:
352,150,190320,1,0,0:0:0:0:
326,187,190417,6,0,B|225:213|261:122|122:163,1,191.250007295609
192,320,190801,2,0,L|182:231,1,63.7500024318696
66,51,190994,1,0,0:0:0:0:
60,64,191090,1,0,0:0:0:0:
52,80,191186,2,0,P|94:79|133:34,1,63.7500024318696
326,187,191378,2,0,P|284:186|245:141,1,63.7500024318696
25,291,191571,1,0,0:0:0:0:
63,307,191667,1,0,0:0:0:0:
105,300,191763,1,0,0:0:0:0:
136,273,191859,1,0,0:0:0:0:
150,238,191955,6,0,B|150:239|147:174,1,63.7500024318696
293,375,192148,2,0,P|304:284|304:283,1,63.7500024318696
498,148,192340,6,0,B|429:168|429:168|393:164|393:164|373:208|373:208|279:228,1,191.250007295609
315,132,192724,2,0,L|322:69,1,63.7500024318696
512,268,192916,2,0,L|448:261,1,63.7500024318696
84,247,193109,2,0,P|160:177|262:198,1,191.250007295609
299,362,193494,6,0,P|313:311|306:278,1,63.7500024318696
270,105,193686,2,0,P|237:58|177:49,1,63.7500024318696
422,202,193878,2,0,P|446:150|423:94,1,63.7500024318696
178,251,194071,1,0,0:0:0:0:
169,263,194167,1,0,0:0:0:0:
160,275,194263,6,0,L|238:260,1,63.7500024318696
460,97,194455,2,0,L|373:118,1,63.7500024318696
382,365,194648,2,0,P|395:322|394:280,1,63.7500024318696
161,122,194840,1,0,0:0:0:0:
107,190,194936,2,0,P|71:118|214:61,1,255.000009727478
276,92,195416,5,0,0:0:0:0:
268,97,195513,1,0,0:0:0:0:
263,103,195609,2,0,L|270:189,1,63.7500024318696
465,195,195801,5,0,0:0:0:0:
423,188,195897,1,0,0:0:0:0:
385,205,195993,1,0,0:0:0:0:
362,241,196089,1,0,0:0:0:0:
317,361,196186,5,0,0:0:0:0:
309,341,196282,1,0,0:0:0:0:
302,320,196378,2,0,L|426:338,1,63.7500024318696
231,247,196571,6,0,B|144:265|144:265|115:298|115:298|21:323,1,191.250007295609
13,113,196955,2,0,P|4:175|79:213,1,127.500004863739
128,61,197243,1,0,0:0:0:0:
136,47,197340,2,0,B|64:54|65:54,1,63.7500024318696
214,113,197532,1,0,0:0:0:0:
218,94,197628,1,0,0:0:0:0:
289,47,197724,2,0,P|383:46|411:4,1,127.500004863739
309,150,198013,1,0,0:0:0:0:
325,162,198109,6,0,L|313:234,1,63.7500024318696
125,344,198301,2,0,L|135:281,1,63.7500024318696
329,336,198494,2,0,L|226:357,1,63.7500024318696
127,179,198686,1,0,0:0:0:0:
176,96,198782,2,0,B|86:83|86:83|21:182,1,191.250007295609
240,204,199166,1,0,0:0:0:0:
256,189,199263,6,0,B|265:114|265:115,1,63.7500024318696
403,74,199455,2,0,P|366:54|317:69,1,63.7500024318696
330,321,199648,6,0,L|488:302,1,127.5
456,305,200225,1,0,0:0:0:0:
502,237,200417,2,0,P|514:180|494:106,1,127.5
425,9,200898,2,0,P|412:58|415:82,1,42.5
280,190,201186,5,0,0:0:0:0:
377,271,201378,1,0,0:0:0:0:
403,153,201571,1,0,0:0:0:0:
403,153,201667,2,0,L|395:35,1,85
324,23,201955,6,0,L|263:37,1,42.5
113,142,202148,2,0,L|45:118,1,42.5
191,77,202340,1,0,0:0:0:0:
208,99,202436,1,0,0:0:0:0:
214,126,202532,1,0,0:0:0:0:
208,154,202628,1,0,0:0:0:0:
151,225,202725,6,0,L|138:400,1,152.999995330811
385,293,203109,1,0,0:0:0:0:
326,231,203205,2,0,L|256:216,1,50.9999984436036
276,220,203494,6,0,B|394:227|327:145|483:159,1,203.999993774414
285,58,204167,6,0,P|214:117|117:89,1,152.999995330811
0,99,204551,1,0,0:0:0:0:
70,159,204648,2,0,L|79:223,1,50.9999984436036
88,50,204840,1,0,0:0:0:0:
15,304,205032,6,0,P|85:235|194:282,1,203.999993774414
388,363,205801,6,0,B|363:255|416:324|377:174,1,152.999995330811
468,317,206185,1,0,0:0:0:0:
252,238,206281,2,0,L|322:253,1,50.9999984436036
470,89,206571,2,0,P|410:176|302:147,1,203.999993774414
0,101,207243,6,0,P|71:42|168:70,1,152.999995330811
256,76,207627,1,0,0:0:0:0:
187,166,207724,2,0,L|179:115,1,50.9999984436036
266,223,207916,1,0,0:0:0:0:
15,311,208108,6,0,P|85:242|194:289,1,203.999993774414
469,160,208878,6,0,B|372:166|427:92|295:106|294:106,1,152.999995330811
458,72,209263,1,0,0:0:0:0:
284,209,209359,2,0,P|332:195|364:195,1,50.9999984436036
170,157,209648,2,0,P|241:199|201:320,1,203.999993774414
72,120,210321,6,0,P|122:69|229:85,1,152.999995330811
391,88,210705,1,0,0:0:0:0:
279,21,210801,2,0,L|364:29,1,50.9999984436036
232,148,210994,1,0,0:0:0:0:
493,207,211186,6,0,P|401:186|316:264,1,203.999993774414
118,384,211763,1,0,0:0:0:0:
50,334,211955,6,0,L|79:140,1,152.999995330811
181,188,212340,2,0,L|191:256,1,50.9999984436036
129,101,212532,1,0,0:0:0:0:
145,316,212725,2,0,P|243:259|335:301,1,203.999993774414
494,103,213398,6,0,B|414:137|421:66|328:104,1,152.999995330811
181,67,213782,1,0,0:0:0:0:
243,189,213878,2,0,L|255:122,1,50.9999984436036
154,249,214071,1,0,0:0:0:0:
369,182,214263,2,0,P|423:242|370:385,1,203.999993774414
9,263,215032,6,0,P|91:234|174:261,1,152.999995330811
239,330,215417,2,0,L|164:342,1,50.9999984436036
295,236,215609,1,0,0:0:0:0:
174,13,215801,2,0,P|232:70|201:202,1,203.999993774414
278,316,216475,6,0,P|348:256|438:275,1,152.999995330811
242,219,216859,1,0,0:0:0:0:
390,384,216955,2,0,P|363:343|363:308,1,50.9999984436036
485,310,217148,1,0,0:0:0:0:
489,84,217340,6,0,P|439:154|308:129,1,203.999993774414
47,60,218109,6,0,B|146:38|146:38|205:78,1,152.999995330811
115,195,218494,2,0,L|126:104,1,50.9999984436036
149,307,218686,1,0,0:0:0:0:
54,288,218878,2,0,P|101:228|229:245,1,203.999993774414
380,361,219551,6,0,P|359:290|394:210,1,152.999995330811
460,86,219936,1,0,0:0:0:0:
506,162,220032,2,0,L|442:170,1,50.9999984436036
259,259,220225,1,0,0:0:0:0:
200,189,220417,6,0,P|272:172|355:286,1,203.999993774414
96,308,221186,6,0,P|49:261|83:163,1,152.999995330811
221,110,221571,2,0,B|172:138|151:139|151:138,1,50.9999984436036
75,68,221763,1,0,0:0:0:0:
165,247,221955,2,0,P|239:225|316:320,1,203.999993774414
481,66,222628,6,0,P|394:57|354:117,1,152.999995330811
277,11,223013,1,0,0:0:0:0:
232,137,223109,2,0,B|225:96|226:56|226:55,1,50.9999984436036
318,194,223301,1,0,0:0:0:0:
31,261,223494,2,0,P|111:210|224:265,1,203.999993774414
363,361,224071,1,0,0:0:0:0:
434,302,224263,6,0,L|414:134,1,152.999995330811
466,69,224648,2,0,L|454:4,1,50.9999984436036
338,193,224840,1,0,0:0:0:0:
348,44,225032,2,0,P|265:51|196:154,1,203.999993774414
17,221,225705,6,0,P|95:237|138:312,1,152.999995330811
307,289,226090,1,0,0:0:0:0:
237,347,226186,2,0,P|223:291|223:271,1,50.9999984436036
150,380,226378,1,0,0:0:0:0:
277,176,226763,1,0,0:0:0:0:
263,187,226859,1,0,0:0:0:0:
250,203,226955,2,0,L|77:184,1,152.999995330811
40,41,227340,6,0,P|104:35|155:90,1,127.5
149,74,227724,1,0,0:0:0:0:
248,10,227916,2,0,L|227:130,1,85
230,113,228205,1,0,0:0:0:0:
96,228,228493,6,0,L|49:244,1,42.5
153,163,228686,2,0,L|92:140,1,42.5
228,206,228878,6,0,L|238:340,1,127.5
238,334,229263,1,0,0:0:0:0:
410,290,229455,2,0,P|354:288|316:244,1,85
321,253,229743,1,0,0:0:0:0:
115,180,230032,2,0,P|164:164|171:165,1,42.5
197,88,230224,2,0,P|236:123|238:129,1,42.5
251,318,230416,6,0,P|214:260|234:200,1,127.5
245,193,230801,1,0,0:0:0:0:
373,158,230993,2,0,L|470:174,1,85
361,137,231282,1,0,0:0:0:0:
255,16,231570,2,0,P|258:38|259:59,1,42.5
174,69,231763,2,0,P|172:91|171:112,1,42.5
84,86,231955,6,0,P|64:145|31:203,1,127.5
32,202,232340,1,0,0:0:0:0:
204,299,232532,2,0,P|168:261|125:246,1,85
114,251,232820,1,0,0:0:0:0:
288,183,233109,2,0,L|228:198,1,42.5
188,120,233301,2,0,L|146:114,1,42.5
360,86,233493,6,0,P|320:94|256:33,1,127.5
258,42,233878,1,0,0:0:0:0:
176,224,234070,2,0,L|187:133,1,85
188,120,234359,1,0,0:0:0:0:
371,303,234647,2,0,P|369:272|359:239,1,42.5
422,194,234840,2,0,P|395:181|361:173,1,42.5
176,224,235032,6,0,L|318:201,1,127.5
302,204,235416,1,0,0:0:0:0:
185,32,235609,2,0,P|218:59|218:111,1,85
214,112,235897,1,0,0:0:0:0:
29,224,236186,2,0,P|18:275|24:297,1,42.5
126,314,236378,2,0,P|77:330|61:347,1,42.5
190,224,236570,6,0,P|134:218|104:158,1,127.5
104,160,236955,1,0,0:0:0:0:
45,12,237147,2,0,L|35:112,1,85
25,112,237436,1,0,0:0:0:0:
202,87,237724,2,0,L|281:78,1,42.5
321,32,237916,2,0,L|370:44,1,42.5
462,26,238109,6,0,P|479:104|475:168,1,127.5
478,152,238493,1,0,0:0:0:0:
327,247,238686,2,0,P|385:216|424:224,1,85
421,228,238974,1,0,0:0:0:0:
225,353,239263,6,0,P|199:311|199:298,1,42.5
58,308,239455,2,0,P|93:271|122:268,1,42.5
199,77,239648,6,0,P|217:161|181:226,1,152.999995330811
163,65,240032,2,0,L|296:53,1,101.999996887207
365,135,240417,1,0,0:0:0:0:
102,132,240609,1,0,0:0:0:0:
338,72,240801,1,0,0:0:0:0:
139,273,240994,1,0,0:0:0:0:
147,255,241090,1,0,0:0:0:0:
156,239,241186,6,0,P|195:300|150:389,1,152.999995330811
40,220,241571,2,0,L|64:112,1,101.999996887207
308,202,241955,1,0,0:0:0:0:
61,338,242148,1,0,0:0:0:0:
192,115,242340,1,0,0:0:0:0:
326,344,242532,1,0,0:0:0:0:
326,344,242628,1,0,0:0:0:0:
326,344,242725,6,0,P|406:346|448:264,1,152.999995330811
423,88,243109,2,0,P|395:157|405:184,1,101.999996887207
497,147,243494,1,0,0:0:0:0:
309,269,243686,1,0,0:0:0:0:
327,79,243878,1,0,0:0:0:0:
458,296,244071,1,0,0:0:0:0:
458,296,244167,1,0,0:0:0:0:
458,296,244263,6,0,L|261:318,1,152.999995330811
126,241,244648,2,0,L|5:216,1,101.999996887207
197,340,245032,1,0,0:0:0:0:
177,89,245225,1,0,0:0:0:0:
40,333,245417,1,0,0:0:0:0:
311,197,245609,1,0,0:0:0:0:
311,197,245705,1,0,0:0:0:0:
311,197,245801,6,0,P|360:184|410:226,1,101.999996887207
216,277,246186,1,0,0:0:0:0:
308,94,246378,1,0,0:0:0:0:
346,317,246571,1,0,0:0:0:0:
186,166,246763,1,0,0:0:0:0:
415,126,246955,1,0,0:0:0:0:
201,317,247148,1,0,0:0:0:0:
201,317,247244,1,0,0:0:0:0:
201,317,247340,6,0,P|113:304|102:260,1,101.999996887207
232,12,247725,2,0,B|272:54|247:119,1,101.999996887207
77,198,248109,1,0,0:0:0:0:
183,71,248301,1,0,0:0:0:0:
296,249,248494,1,0,0:0:0:0:
392,104,248686,1,0,0:0:0:0:
392,104,248782,1,0,0:0:0:0:
392,104,248878,6,0,L|464:85,3,50.9999984436036
336,190,249263,2,0,L|356:266,3,50.9999984436036
248,142,249648,2,0,L|162:164,3,50.9999984436036
302,64,250032,2,0,L|289:-5,3,50.9999984436036
169,345,250417,5,0,0:0:0:0:
362,349,250705,1,0,0:0:0:0:
75,212,250994,1,0,0:0:0:0:
446,211,251378,1,0,0:0:0:0:
149,84,251763,1,0,0:0:0:0:
363,91,252051,1,0,0:0:0:0:
277,244,252340,6,0,L|267:289,2,25.4999992218018
256,192,252532,12,0,256571,0:0:0:0:
