osu file format v14

[General]
AudioFilename: Yooh-salvation-fromBLACK-Remixed-by-BlackY.mp3
AudioLeadIn: 0
PreviewTime: 232270
Countdown: 0
SampleSet: Normal
StackLeniency: 0.7
Mode: 1
LetterboxInBreaks: 0
WidescreenStoryboard: 0

[Editor]
Bookmarks: 227029,229771
DistanceSpacing: 0.5
BeatDivisor: 4
GridSize: 32
TimelineZoom: 1.599999

[Metadata]
Title:salvation -from:BLACK-
TitleUnicode:salvation -from:BLACK-
Artist:Yooh Remixed by BlackY
ArtistUnicode:Yooh Remixed by BlackY
Creator:iloveyou4ever
Version:sanctification
Source:
Tags:Yoohsic Roomz C86 Eutopia electronic instrumental
BeatmapID:2252742
BeatmapSetID:1076605

[Difficulty]
HPDrainRate:5
CircleSize:5
OverallDifficulty:6.3
ApproachRate:5
SliderMultiplier:1.4
SliderTickRate:1

[Events]
//Background and Video events
0,0,"sal.jpg",0,-8
//Break Periods
2,111264,115025
2,227389,228571
//Storyboard Layer 0 (Background)
//Storyboard Layer 1 (Fail)
//Storyboard Layer 2 (Pass)
//Storyboard Layer 3 (Foreground)
//Storyboard Layer 4 (Overlay)
//Storyboard Sound Samples

[TimingPoints]
98,322.58064516129,4,1,0,10,1,0
904,-100,4,1,0,15,0,0
1065,-100,4,1,0,22,0,0
1227,-100,4,1,0,30,0,0
1388,-100,4,1,0,40,0,0
1549,-100,4,1,0,50,0,0
1710,-100,4,1,0,60,0,0
1872,-100,4,1,0,70,0,0
2678,-117.647058823529,4,1,0,70,0,0
13001,-108.108108108108,4,1,0,85,0,0
18162,-108.695652173913,4,1,0,85,0,0
18485,-109.89010989011,4,1,0,85,0,0
18807,-111.111111111111,4,1,0,85,0,0
18968,-112.359550561798,4,1,0,85,0,0
19130,-113.636363636364,4,1,0,85,0,0
19291,-114.942528735632,4,1,0,85,0,0
19452,-116.279069767442,4,1,0,85,0,0
19775,-117.647058823529,4,1,0,85,0,0
20097,-119.047619047619,4,1,0,85,0,0
20420,-120.481927710843,4,1,0,85,0,0
20581,-121.951219512195,4,1,0,85,0,0
20743,-123.456790123457,4,1,0,85,0,0
21065,-125,4,1,0,85,0,0
21388,-126.582278481013,4,1,0,85,0,0
21549,-128.205128205128,4,1,0,85,0,0
21710,-129.87012987013,4,1,0,85,0,0
21872,-131.578947368421,4,1,0,85,0,0
22033,-133.333333333333,4,1,0,85,0,0
23323,-100,4,1,0,90,0,0
23968,-125,4,1,0,60,0,0
24614,-125,4,1,0,65,0,0
25259,-125,4,1,0,67,0,0
25904,-125,4,1,0,70,0,0
26065,-123.456790123457,4,1,0,70,0,0
26227,-121.951219512195,4,1,0,70,0,0
26388,-120.481927710843,4,1,0,72,0,0
26549,-119.047619047619,4,1,0,72,0,0
26710,-117.647058823529,4,1,0,72,0,0
26872,-116.279069767442,4,1,0,75,0,0
27033,-114.942528735632,4,1,0,75,0,0
27114,-113.636363636364,4,1,0,75,0,0
27194,-112.359550561798,4,1,0,77,0,0
27356,-111.111111111111,4,1,0,77,0,0
27517,-109.89010989011,4,1,0,77,0,0
27678,-108.695652173913,4,1,0,77,0,0
27759,-107.52688172043,4,1,0,77,0,0
27839,-106.382978723404,4,1,0,80,0,0
28001,-105.263157894737,4,1,0,80,0,0
28162,-104.166666666667,4,1,0,80,0,0
28243,-103.092783505155,4,1,0,80,0,0
28323,-102.040816326531,4,1,0,80,0,0
28404,-101.010101010101,4,1,0,80,0,0
28485,-100,4,1,0,85,0,0
29775,-95.2380952380952,4,1,0,85,0,0
31065,-90.9090909090909,4,1,0,90,0,0
32356,-86.9565217391304,4,1,0,90,0,0
33646,-83.3333333333333,4,1,0,90,0,0
33807,-85.4700854700855,4,1,0,90,0,0
33861,-86.5800865800866,4,1,0,90,0,0
33915,-87.719298245614,4,1,0,90,0,0
33968,-88.8888888888889,4,1,0,90,0,0
34022,-90.0900900900901,4,1,0,90,0,0
34076,-91.324200913242,4,1,0,90,0,0
34130,-92.5925925925926,4,1,0,90,0,0
34291,-93.8967136150235,4,1,0,90,0,0
34452,-96.6183574879227,4,1,0,90,0,0
34614,-99.502487562189,4,1,0,90,0,0
34936,-102.040816326531,4,1,0,85,0,0
42839,-100.704934541793,4,1,0,85,0,0
42920,-99.403578528827,4,1,0,85,0,0
43001,-98.135426889107,4,1,0,85,0,0
43162,-96.8992248062015,4,1,0,85,0,0
43323,-95.6937799043062,4,1,0,85,0,0
43404,-94.5179584120983,4,1,0,85,0,0
43485,-93.3706816059757,4,1,0,85,0,0
43565,-92.2509225092251,4,1,0,85,0,0
43727,-91.1577028258888,4,1,0,85,0,0
43807,-90.0900900900901,4,1,0,85,0,0
43968,-88.4955752212389,4,1,0,85,0,0
44210,-105.263157894737,4,1,0,80,0,0
45097,-102.564102564103,4,1,0,85,0,0
45259,-100,4,1,0,90,0,0
54291,-98.0392156862745,4,1,0,90,0,0
73646,-76.9230769230769,4,1,0,90,0,0
74291,-105.263157894737,4,1,0,80,0,0
74372,-104.166666666667,4,1,0,80,0,0
74452,-103.092783505155,4,1,0,80,0,0
74533,-102.040816326531,4,1,0,85,0,0
74614,-101.010101010101,4,1,0,85,0,0
74694,-100,4,1,0,85,0,0
74775,-99.009900990099,4,1,0,85,0,0
74856,-98.0392156862745,4,1,0,85,0,0
74936,-97.0873786407767,4,1,0,85,0,0
83968,-75.7575757575758,4,1,0,85,0,0
85259,-96.1538461538461,4,1,0,90,0,0
90420,-93.4579439252336,4,1,0,90,0,0
91710,-90.0900900900901,4,1,0,90,0,0
93001,-86.9565217391304,4,1,0,90,0,0
95259,-100,4,1,0,88,0,0
95581,322.58064516129,6,1,0,93,1,8
95581,-95.2380952380952,4,1,0,93,0,0
102784,-95.2380952380952,4,1,0,97,0,0
102891,-94.3396226415094,4,1,0,97,0,0
102999,-93.4579439252336,4,1,0,97,0,0
103106,-92.5925925925926,4,1,0,97,0,0
103214,-91.743119266055,4,1,0,97,0,0
103321,-90.9090909090909,4,1,0,97,0,0
107031,-89.6860986547085,4,1,0,97,0,0
107085,-88.4955752212389,4,1,0,97,0,0
107139,-87.3362445414847,4,1,0,97,0,0
107192,-86.2068965517241,4,1,0,97,0,0
111064,322.58064516129,4,1,0,97,1,0
111064,-86.2068965517241,4,1,0,97,0,0
111144,-90.0900900900901,4,1,0,80,0,0
112434,-94.3396226415094,4,1,0,72,0,0
113725,-99.009900990099,4,1,0,64,0,0
115015,-104.166666666667,4,1,0,56,0,0
117434,-104.166666666667,4,1,0,20,0,0
118160,-104.166666666667,4,1,0,30,0,0
118805,-98.0392156862745,4,1,0,40,0,0
119128,-98.0392156862745,4,1,0,50,0,0
119773,-98.0392156862745,4,1,0,60,0,0
120096,-90.9090909090909,4,1,0,70,0,0
120418,-90.9090909090909,4,1,0,80,0,0
121386,321.888412017167,3,1,0,30,1,8
121393,321.888412017167,3,1,0,30,1,0
121393,-133.333333333333,3,1,0,30,0,0
136527,322.58064516129,6,1,0,30,1,8
136527,-133.333333333333,6,1,0,30,0,0
136849,-133.333333333333,6,1,0,45,0,0
137172,-133.333333333333,6,1,0,60,0,0
137494,-133.333333333333,6,1,0,75,0,0
138156,322.58064516129,3,1,0,80,1,0
138156,-117.647058823529,3,1,0,80,0,0
140091,-112.359550561798,3,1,0,82,0,0
142026,-107.52688172043,3,1,0,84,0,0
143962,-103.092783505155,3,1,0,86,0,0
145897,-99.009900990099,3,1,0,88,0,0
147833,-93.4579439252336,3,1,0,90,0,0
149768,-88.4955752212389,3,1,0,90,0,0
153629,322.58064516129,3,1,0,90,1,8
153642,322.58064516129,3,1,0,90,1,1
153642,-87.719298245614,3,1,0,90,0,1
153803,-89.9280575539568,3,1,0,90,0,1
153856,-90.9090909090909,3,1,0,90,0,1
153910,-92.5925925925926,3,1,0,90,0,1
153964,-94.3396226415094,3,1,0,90,0,1
154125,-96.1538461538461,3,1,0,90,0,1
154206,-97.0873786407767,3,1,0,90,0,1
154287,-98.0392156862745,3,1,0,90,0,1
168480,-91.743119266055,3,1,0,90,0,1
168642,-98.0392156862745,3,1,0,90,0,1
168803,-91.743119266055,3,1,0,90,0,1
168964,-98.0392156862745,3,1,0,90,0,1
169125,-96.6183574879227,3,1,0,92,0,1
174932,-84.7457627118644,3,1,0,92,0,1
175658,-85.1788756388416,3,1,0,92,0,1
175738,-86.0585197934596,3,1,0,92,0,1
175819,-86.9565217391304,3,1,0,92,0,1
175900,-87.8734622144112,3,1,0,92,0,1
175980,-88.809946714032,3,1,0,92,0,1
176061,-89.2857142857143,3,1,0,92,0,1
176222,-90.7441016333938,3,1,0,92,0,1
176383,-91.743119266055,3,1,0,92,0,1
176464,-92.7643784786642,3,1,0,92,0,1
176545,-93.8086303939962,3,1,0,92,0,1
176625,-94.876660341556,3,1,0,92,0,1
176706,-95.9692898272553,3,1,0,92,0,1
176867,-96.6183574879227,3,1,0,92,0,1
183803,-95.2380952380952,3,1,0,92,0,1
184125,-93.8967136150235,3,1,0,92,0,1
184448,-92.5925925925926,3,1,0,94,0,1
193964,-93.4579439252336,3,1,0,92,0,1
194125,-94.3396226415094,3,1,0,90,0,1
194287,-95.2380952380952,3,1,0,88,0,1
200093,-95.2380952380952,3,1,0,85,0,0
200254,-96.3855421686747,3,1,0,85,0,0
200308,-97.5609756097561,3,1,0,85,0,0
200362,-98.7654320987654,3,1,0,85,0,0
200416,-100,3,1,0,85,0,0
207512,-97.5609756097561,3,1,0,85,0,0
207674,-95.2380952380952,3,1,0,85,0,0
207835,-93.0232558139535,3,1,0,85,0,0
207996,-94.5626477541371,3,1,0,85,0,0
208050,-96.6183574879227,3,1,0,85,0,0
208104,-98.2800982800983,3,1,0,85,0,0
208158,-100,3,1,0,85,0,0
211383,-98.6874568242376,3,1,0,90,0,0
211545,-97.4089226573154,3,1,0,90,0,0
211706,-96.1538461538461,3,1,0,90,0,0
212674,-93.4579439252336,3,1,0,90,0,0
213641,-90.9090909090909,3,1,0,95,0,0
214609,-86.9565217391304,3,1,0,95,0,0
215093,-93.0232558139535,3,1,0,80,0,0
215577,-100,3,1,0,65,0,0
216545,-111.111111111111,3,1,0,60,0,0
217512,-125,3,1,0,60,0,0
223319,322.58064516129,4,1,0,60,1,0
223319,-125,3,1,0,60,0,0
223399,-125,3,1,0,45,0,0
224609,-125,3,1,0,35,0,0
225899,-133.333333333333,3,1,0,25,0,0
227189,-142.857142857143,3,1,0,15,0,0
230093,-142.857142857143,3,1,0,25,0,0
230577,-142.857142857143,3,1,0,35,0,0
231060,-117.647058823529,3,1,0,40,0,0
231544,-117.647058823529,3,1,0,45,0,0
232028,-117.647058823529,3,1,0,50,0,0
232351,322.58064516129,4,1,0,45,1,8
232353,322.58064516129,4,1,0,45,1,0
232353,-125,4,1,0,45,0,0
232514,-121.951219512195,4,1,0,47,0,0
232675,-118.343195266272,4,1,0,49,0,0
232836,-114.285714285714,4,1,0,51,0,0
232998,-109.89010989011,4,1,0,55,0,0
233159,-105.263157894737,4,1,0,61,0,0
233320,-100.502512562814,4,1,0,67,0,0
233482,-94.7867298578199,4,1,0,73,0,0
233643,-89.6860986547085,4,1,0,79,0,0
233723,-133.333333333333,4,1,0,75,0,0
252998,-119.047619047619,4,1,0,80,0,0
254288,-108.695652173913,4,1,0,82,0,0
259449,-108.695652173913,4,1,0,79,0,0
264611,-100,4,1,0,85,0,0
265901,-116.279069767442,4,1,0,50,0,0
266385,-116.279069767442,4,1,0,57,0,0
266870,-116.279069767442,4,1,0,65,0,0
267030,-113.636363636364,4,1,0,65,0,0
267191,-113.636363636364,4,1,0,70,0,0
267675,-111.111111111111,4,1,0,70,0,0
268159,-108.695652173913,4,1,0,70,0,0
268482,-106.382978723404,4,1,0,72,0,0
268643,-105.042016806723,4,1,0,72,0,0
268804,-103.734439834025,4,1,0,74,0,0
268965,-102.459016393443,4,1,0,74,0,0
269127,-101.214574898785,4,1,0,76,0,0
269288,-100,4,1,0,76,0,0
269449,-98.8142292490118,4,1,0,78,0,0
269530,-97.65625,4,1,0,80,0,0
269611,-96.5250965250965,4,1,0,80,0,0
269691,-95.4198473282443,4,1,0,80,0,0
269772,-94.3396226415094,4,1,0,85,0,0
271062,-90.0900900900901,4,1,0,85,0,0
272352,-86.2068965517241,4,1,0,90,0,0
275578,-107.52688172043,4,1,0,75,0,0
275659,-104.712041884817,4,1,0,75,0,0
275740,-102.040816326531,4,1,0,75,0,0
275820,-99.502487562189,4,1,0,75,0,0
275901,-97.0873786407767,4,1,0,75,0,0
275982,-94.7867298578199,4,1,0,75,0,0
276062,-92.5925925925926,4,1,0,75,0,0
276223,322.58064516129,4,1,0,85,1,8
276224,322.58064516129,4,1,0,85,1,1
276224,-88.4955752212389,4,1,0,85,0,1
276385,-90.4977375565611,4,1,0,85,0,1
276439,-91.743119266055,4,1,0,85,0,1
276492,-93.0232558139535,4,1,0,85,0,1
276546,-94.3396226415094,4,1,0,85,0,1
276707,-95.9232613908873,4,1,0,85,0,1
276869,-97.5609756097561,4,1,0,85,0,1
282353,-97.5609756097561,4,1,0,85,0,0
282675,-97.5609756097561,4,1,0,85,0,1
284933,-97.5609756097561,4,1,0,60,0,0
285256,-97.5609756097561,4,1,0,85,0,1
286546,-94.7867298578199,4,1,0,88,0,1
290740,-89.2857142857143,4,1,0,88,0,1
290901,-94.7867298578199,4,1,0,88,0,1
291062,-89.2857142857143,4,1,0,88,0,1
291224,-94.7867298578199,4,1,0,88,0,1
291385,-89.2857142857143,4,1,0,88,0,1
291707,-94.7867298578199,4,1,0,88,0,1
294288,-91.533180778032,4,1,0,95,0,1
295578,-88.4955752212389,4,1,0,95,0,1
296869,-88.4955752212389,4,1,0,88,0,0
297030,-93.4579439252336,4,1,0,88,0,0
297084,-95.2380952380952,4,1,0,88,0,0
297137,-97.0873786407767,4,1,0,88,0,0
297191,-99.009900990099,4,1,0,88,0,0
297514,-99.009900990099,4,1,0,88,0,0
297756,-97.5609756097561,4,1,0,88,0,0
297836,-96.1538461538461,4,1,0,88,0,0
297998,-94.7867298578199,4,1,0,88,0,0
298159,-93.4579439252336,4,1,0,90,0,1
307191,-93.4579439252336,4,1,0,92,0,0
308482,-98.0392156862745,4,1,0,92,0,0
312353,-95.2380952380952,4,1,0,96,0,0
313643,-92.1658986175115,4,1,0,96,0,0
314933,-89.2857142857143,4,1,0,96,0,0
317514,-88.4955752212389,4,1,0,100,0,1
322353,-87.719298245614,4,1,0,100,0,1
322433,-86.9565217391304,4,1,0,100,0,1
322514,-86.2068965517241,4,1,0,100,0,1
322594,-85.4700854700855,4,1,0,100,0,1
322675,-84.7457627118644,4,1,0,100,0,1
327514,-83.6820083682008,4,1,0,100,0,1
327568,-82.6446280991736,4,1,0,100,0,1
327621,-81.6326530612245,4,1,0,100,0,1
327675,-80.6451612903226,4,1,0,100,0,1
327729,-79.6812749003984,4,1,0,100,0,1
327783,-78.7401574803149,4,1,0,100,0,1
327836,-77.8210116731517,4,1,0,100,0,0
327917,-117.647058823529,4,1,0,80,0,0
334288,-125,4,1,0,80,0,0
336707,-133.333333333333,4,1,0,50,0,0
336869,-133.333333333333,4,1,0,44,0,0
338159,-133.333333333333,4,1,0,38,0,0
339449,-133.333333333333,4,1,0,32,0,0
340740,-133.333333333333,4,1,0,26,0,0
342030,-133.333333333333,4,1,0,20,0,0

[HitObjects]
256,192,904,12,0,2033,0:0:0:0:
236,198,2678,5,0,0:0:0:0:
350,186,3001,1,8,0:0:0:0:
471,174,3323,1,0,0:0:0:0:
409,188,3485,1,8,0:0:0:0:
409,188,3646,1,8,0:0:0:0:
438,226,3807,1,8,0:0:0:0:
420,169,3968,1,0,0:0:0:0:
420,169,4291,1,8,0:0:0:0:
405,167,4614,1,8,0:0:0:0:
434,166,4936,1,0,0:0:0:0:
466,187,5259,1,0,0:0:0:0:
413,173,5581,1,8,0:0:0:0:
469,169,5904,1,0,0:0:0:0:
435,198,6065,1,8,0:0:0:0:
435,198,6227,1,8,0:0:0:0:
445,169,6388,1,0,0:0:0:0:
445,169,6549,1,0,0:0:0:0:
456,171,6872,1,8,0:0:0:0:
460,166,7033,1,0,0:0:0:0:
465,186,7194,1,8,0:0:0:0:
460,166,7517,1,0,0:0:0:0:
442,181,7839,1,8,0:0:0:0:
449,165,8162,1,0,0:0:0:0:
449,165,8485,1,0,0:0:0:0:
462,164,8646,1,8,0:0:0:0:
462,164,8807,1,8,0:0:0:0:
462,164,8968,1,8,0:0:0:0:
494,160,9130,1,0,0:0:0:0:
426,177,9452,1,8,0:0:0:0:
459,198,9775,1,8,0:0:0:0:
459,198,9936,1,8,0:0:0:0:
446,176,10097,1,0,0:0:0:0:
469,203,10420,1,0,0:0:0:0:
447,159,10743,1,8,0:0:0:0:
482,159,11065,1,0,0:0:0:0:
463,165,11227,1,8,0:0:0:0:
472,161,11388,1,8,0:0:0:0:
439,170,11549,1,0,0:0:0:0:
439,170,11710,1,0,0:0:0:0:
469,171,12033,1,8,0:0:0:0:
432,171,12356,1,8,0:0:0:0:
432,171,12678,1,0,0:0:0:0:
410,175,13001,1,4,0:0:0:0:
416,189,13485,1,0,0:0:0:0:
412,195,13646,1,8,0:0:0:0:
464,196,14130,1,0,0:0:0:0:
464,196,14452,1,0,0:0:0:0:
509,176,14775,1,0,0:0:0:0:
456,189,14936,1,8,0:0:0:0:
448,224,15259,1,0,0:0:0:0:
480,224,15339,1,0,0:0:0:0:
491,173,15420,1,8,0:0:0:0:
491,173,15501,1,8,0:0:0:0:
442,178,15581,1,0,0:0:0:0:
457,192,15904,1,0,0:0:0:0:
435,167,16227,1,8,0:0:0:0:
435,167,16388,1,8,0:0:0:0:
472,182,16710,1,0,0:0:0:0:
474,178,17194,1,0,0:0:0:0:
480,192,17517,1,8,0:0:0:0:
480,192,17839,1,8,0:0:0:0:
448,192,18162,1,0,0:0:0:0:
448,192,18485,1,8,0:0:0:0:
416,192,18807,1,0,0:0:0:0:
416,192,18968,1,8,0:0:0:0:
416,192,19130,1,8,0:0:0:0:
448,192,19291,1,8,0:0:0:0:
416,192,19452,1,0,0:0:0:0:
448,192,19775,1,8,0:0:0:0:
384,160,20097,1,8,0:0:0:0:
416,160,20420,1,0,0:0:0:0:
415,236,20581,1,0,0:0:0:0:
384,192,20743,1,8,0:0:0:0:
416,160,21065,1,0,0:0:0:0:
384,192,21388,1,8,0:0:0:0:
416,160,21549,1,0,0:0:0:0:
384,160,21710,1,8,0:0:0:0:
384,160,21872,1,8,0:0:0:0:
256,192,22033,12,0,23162,0:0:0:0:
416,192,23323,5,4,0:0:0:0:
416,192,23968,1,0,0:0:0:0:
416,192,24130,1,0,0:0:0:0:
448,192,24291,1,0,0:0:0:0:
416,192,24452,1,0,0:0:0:0:
416,192,24533,1,0,0:0:0:0:
416,192,24614,1,0,0:0:0:0:
448,192,24775,1,0,0:0:0:0:
448,192,24936,1,0,0:0:0:0:
448,192,25097,1,0,0:0:0:0:
448,192,25178,1,0,0:0:0:0:
448,192,25259,1,0,0:0:0:0:
448,192,25420,1,0,0:0:0:0:
448,192,25581,1,0,0:0:0:0:
448,192,25662,1,0,0:0:0:0:
448,192,25743,1,0,0:0:0:0:
448,192,25823,1,0,0:0:0:0:
384,192,25904,1,8,0:0:0:0:
396,205,26065,1,0,0:0:0:0:
480,160,26227,1,0,0:0:0:0:
480,192,26388,1,8,0:0:0:0:
480,192,26549,1,0,0:0:0:0:
480,192,26710,1,0,0:0:0:0:
512,160,26872,1,8,0:0:0:0:
448,192,27033,1,0,0:0:0:0:
448,192,27114,1,0,0:0:0:0:
448,192,27194,1,0,0:0:0:0:
448,160,27356,1,0,0:0:0:0:
448,160,27517,1,0,0:0:0:0:
448,160,27678,1,0,0:0:0:0:
448,160,27759,1,0,0:0:0:0:
416,192,27839,1,8,0:0:0:0:
480,160,28001,1,0,0:0:0:0:
480,160,28162,1,0,0:0:0:0:
480,160,28243,1,0,0:0:0:0:
480,160,28323,1,0,0:0:0:0:
480,160,28404,1,0,0:0:0:0:
437,271,28485,1,8,0:0:0:0:
480,192,28646,1,0,0:0:0:0:
448,160,28807,1,0,0:0:0:0:
448,160,28968,1,0,0:0:0:0:
384,128,29049,1,0,0:0:0:0:
416,192,29130,1,8,0:0:0:0:
448,160,29291,1,0,0:0:0:0:
448,160,29452,1,8,0:0:0:0:
448,160,29614,1,8,0:0:0:0:
414,185,29775,1,4,0:0:0:0:
448,160,29936,1,0,0:0:0:0:
352,192,30097,1,8,0:0:0:0:
416,160,30259,1,0,0:0:0:0:
384,192,30339,1,0,0:0:0:0:
352,192,30420,1,8,0:0:0:0:
352,192,30581,1,8,0:0:0:0:
416,160,30743,1,0,0:0:0:0:
416,160,30904,1,0,0:0:0:0:
480,160,31065,1,8,0:0:0:0:
448,192,31146,1,0,0:0:0:0:
416,192,31227,1,0,0:0:0:0:
448,192,31307,1,0,0:0:0:0:
448,160,31388,1,8,0:0:0:0:
448,192,31468,1,0,0:0:0:0:
448,192,31549,1,0,0:0:0:0:
448,192,31630,1,0,0:0:0:0:
448,192,31710,1,8,0:0:0:0:
448,160,31791,1,0,0:0:0:0:
416,192,31872,1,8,0:0:0:0:
416,192,31952,1,8,0:0:0:0:
416,192,32033,1,0,0:0:0:0:
416,192,32114,1,0,0:0:0:0:
416,192,32194,1,8,0:0:0:0:
480,192,32356,1,4,0:0:0:0:
480,192,32517,1,4,0:0:0:0:
416,192,32678,1,12,0:0:0:0:
416,192,32839,1,0,0:0:0:0:
416,192,32920,1,0,0:0:0:0:
416,192,33001,1,8,0:0:0:0:
480,192,33054,1,8,0:0:0:0:
480,192,33108,1,8,0:0:0:0:
480,192,33162,1,8,0:0:0:0:
480,192,33216,1,8,0:0:0:0:
448,224,33270,1,8,0:0:0:0:
416,224,33646,1,4,0:0:0:0:
448,224,33807,1,0,0:0:0:0:
416,192,33861,1,8,0:0:0:0:
416,192,33915,1,8,0:0:0:0:
416,192,33968,1,8,0:0:0:0:
416,192,34022,1,8,0:0:0:0:
416,192,34076,1,8,0:0:0:0:
384,192,34130,1,0,0:0:0:0:
448,160,34291,1,12,0:0:0:0:
352,192,34533,1,12,0:0:0:0:
416,224,34775,1,12,0:0:0:0:
448,192,34936,1,4,0:0:0:0:
448,192,35097,1,8,0:0:0:0:
448,192,35178,1,8,0:0:0:0:
416,192,35259,1,0,0:0:0:0:
416,192,35420,1,8,0:0:0:0:
416,192,35581,1,0,0:0:0:0:
416,192,35823,1,8,0:0:0:0:
384,192,35904,1,0,0:0:0:0:
448,224,36227,1,0,0:0:0:0:
480,160,36388,1,8,0:0:0:0:
480,160,36468,1,8,0:0:0:0:
448,192,36549,1,0,0:0:0:0:
448,160,36710,1,8,0:0:0:0:
416,192,36872,1,0,0:0:0:0:
448,192,36952,1,8,0:0:0:0:
448,192,37114,1,8,0:0:0:0:
448,192,37194,1,0,0:0:0:0:
448,192,37356,1,8,0:0:0:0:
448,192,37517,1,0,0:0:0:0:
384,192,37678,1,8,0:0:0:0:
384,192,37759,1,8,0:0:0:0:
384,192,37839,1,0,0:0:0:0:
480,192,38001,1,8,0:0:0:0:
480,192,38162,1,0,0:0:0:0:
448,192,38243,1,8,0:0:0:0:
480,192,38404,1,8,0:0:0:0:
480,192,38485,1,0,0:0:0:0:
448,192,38565,1,0,0:0:0:0:
480,160,38646,1,8,0:0:0:0:
480,160,38727,1,8,0:0:0:0:
416,160,38807,1,0,0:0:0:0:
416,192,39049,1,8,0:0:0:0:
384,192,39130,1,0,0:0:0:0:
384,192,39291,1,8,0:0:0:0:
352,192,39452,1,0,0:0:0:0:
442,183,39533,1,0,0:0:0:0:
448,160,39614,1,8,0:0:0:0:
407,173,39694,1,8,0:0:0:0:
395,223,39775,1,0,0:0:0:0:
512,160,39936,1,8,0:0:0:0:
480,160,40097,1,0,0:0:0:0:
480,192,40259,1,8,0:0:0:0:
480,192,40339,1,8,0:0:0:0:
416,192,40420,1,0,0:0:0:0:
448,192,40581,1,8,0:0:0:0:
416,192,40743,1,0,0:0:0:0:
424,190,40985,1,8,0:0:0:0:
454,255,41065,1,0,0:0:0:0:
424,186,41388,1,0,0:0:0:0:
455,181,41549,1,8,0:0:0:0:
455,181,41630,1,8,0:0:0:0:
406,183,41710,1,0,0:0:0:0:
431,188,41872,1,8,0:0:0:0:
430,178,42033,1,0,0:0:0:0:
414,171,42114,1,8,0:0:0:0:
434,184,42275,1,8,0:0:0:0:
430,201,42356,1,0,0:0:0:0:
458,166,42517,1,8,0:0:0:0:
443,174,42678,1,0,0:0:0:0:
437,189,42839,1,0,0:0:0:0:
453,169,42920,1,8,0:0:0:0:
441,186,43001,1,0,0:0:0:0:
379,191,43162,1,8,0:0:0:0:
488,175,43323,1,8,0:0:0:0:
402,169,43404,1,0,0:0:0:0:
459,169,43485,1,0,0:0:0:0:
469,171,43565,1,8,0:0:0:0:
466,172,43727,1,8,0:0:0:0:
422,175,43807,1,0,0:0:0:0:
470,214,43968,1,4,0:0:0:0:
430,184,44210,1,0,0:0:0:0:
413,189,44291,1,8,0:0:0:0:
411,189,44372,1,8,0:0:0:0:
443,184,44452,1,0,0:0:0:0:
444,187,44533,1,8,0:0:0:0:
395,175,44614,1,0,0:0:0:0:
440,182,44775,1,8,0:0:0:0:
451,178,44856,1,0,0:0:0:0:
486,196,44936,1,8,0:0:0:0:
428,172,45097,1,0,0:0:0:0:
460,173,45259,1,4,0:0:0:0:
430,183,45420,1,8,0:0:0:0:
430,183,45501,1,8,0:0:0:0:
474,175,45581,1,0,0:0:0:0:
454,174,45743,1,8,0:0:0:0:
448,189,45904,1,0,0:0:0:0:
450,174,45985,1,8,0:0:0:0:
450,174,46146,1,8,0:0:0:0:
409,186,46227,1,0,0:0:0:0:
476,196,46549,1,0,0:0:0:0:
445,169,46710,1,8,0:0:0:0:
445,169,46791,1,8,0:0:0:0:
479,182,46872,1,0,0:0:0:0:
479,180,47033,1,8,0:0:0:0:
435,180,47194,1,0,0:0:0:0:
436,181,47275,1,8,0:0:0:0:
433,211,47436,1,8,0:0:0:0:
438,169,47517,1,0,0:0:0:0:
418,191,47678,1,8,0:0:0:0:
471,179,47839,1,0,0:0:0:0:
462,184,48001,1,8,0:0:0:0:
462,184,48081,1,8,0:0:0:0:
431,189,48162,1,0,0:0:0:0:
441,175,48243,1,0,0:0:0:0:
492,167,48323,1,8,0:0:0:0:
450,186,48485,1,0,0:0:0:0:
419,186,48646,1,8,0:0:0:0:
487,170,48807,1,8,0:0:0:0:
461,177,48888,1,0,0:0:0:0:
402,182,48968,1,8,0:0:0:0:
468,175,49130,1,0,0:0:0:0:
435,187,49210,1,8,0:0:0:0:
435,187,49291,1,8,0:0:0:0:
435,187,49372,1,8,0:0:0:0:
377,190,49452,1,0,0:0:0:0:
446,180,49614,1,8,0:0:0:0:
461,178,49775,1,0,0:0:0:0:
445,180,49936,1,8,0:0:0:0:
445,180,50017,1,8,0:0:0:0:
449,198,50097,1,0,0:0:0:0:
458,173,50259,1,8,0:0:0:0:
439,183,50420,1,0,0:0:0:0:
448,182,50581,1,8,0:0:0:0:
448,181,50662,1,8,0:0:0:0:
499,191,50743,1,0,0:0:0:0:
445,183,50904,1,8,0:0:0:0:
452,184,51065,1,0,0:0:0:0:
452,181,51307,1,8,0:0:0:0:
400,185,51388,1,0,0:0:0:0:
435,206,51710,1,4,0:0:0:0:
402,171,51872,1,4,0:0:0:0:
402,171,52033,1,4,0:0:0:0:
408,153,52356,1,0,0:0:0:0:
414,174,52517,1,0,0:0:0:0:
414,174,52678,1,0,0:0:0:0:
414,174,52839,1,0,0:0:0:0:
458,190,53001,1,12,0:0:0:0:
460,178,53162,1,0,0:0:0:0:
412,183,53243,1,8,0:0:0:0:
407,179,53404,1,0,0:0:0:0:
411,184,53485,1,8,0:0:0:0:
453,187,53646,1,0,0:0:0:0:
442,181,53727,1,8,0:0:0:0:
414,202,53888,1,0,0:0:0:0:
437,171,53968,1,8,0:0:0:0:
437,171,54022,1,8,0:0:0:0:
437,171,54076,1,8,0:0:0:0:
378,181,54130,1,0,0:0:0:0:
416,166,54291,1,12,0:0:0:0:
427,166,54452,1,0,0:0:0:0:
446,178,54614,1,8,0:0:0:0:
448,164,54775,1,0,0:0:0:0:
392,166,54856,1,0,0:0:0:0:
387,169,54936,1,8,0:0:0:0:
428,180,55097,1,0,0:0:0:0:
454,170,55259,1,8,0:0:0:0:
454,170,55420,1,8,0:0:0:0:
395,189,55501,1,8,0:0:0:0:
422,197,55581,1,0,0:0:0:0:
445,220,55743,1,0,0:0:0:0:
367,180,55823,1,8,0:0:0:0:
409,189,55904,1,8,0:0:0:0:
428,200,56065,1,0,0:0:0:0:
430,178,56227,1,8,0:0:0:0:
459,192,56307,1,0,0:0:0:0:
389,192,56388,1,0,0:0:0:0:
432,214,56468,1,0,0:0:0:0:
431,174,56549,1,8,0:0:0:0:
467,174,56710,1,0,0:0:0:0:
469,167,56872,1,8,0:0:0:0:
449,170,57033,1,0,0:0:0:0:
449,170,57114,1,0,0:0:0:0:
472,180,57194,1,8,0:0:0:0:
438,180,57356,1,0,0:0:0:0:
468,166,57517,1,8,0:0:0:0:
430,178,57597,1,0,0:0:0:0:
436,164,57678,1,8,0:0:0:0:
437,229,57839,1,0,0:0:0:0:
435,169,58001,1,8,0:0:0:0:
445,189,58081,1,8,0:0:0:0:
451,176,58162,1,0,0:0:0:0:
363,169,58323,1,0,0:0:0:0:
419,178,58404,1,8,0:0:0:0:
415,167,58485,1,8,0:0:0:0:
397,166,58646,1,0,0:0:0:0:
424,169,58807,1,8,0:0:0:0:
354,178,58888,1,8,0:0:0:0:
404,174,58968,1,0,0:0:0:0:
404,174,59049,1,0,0:0:0:0:
454,167,59130,1,8,0:0:0:0:
451,174,59291,1,8,0:0:0:0:
418,177,59452,1,0,0:0:0:0:
418,177,59533,1,0,0:0:0:0:
458,194,59614,1,8,0:0:0:0:
458,194,59667,1,8,0:0:0:0:
458,194,59721,1,8,0:0:0:0:
389,185,59775,1,0,0:0:0:0:
469,198,59936,1,0,0:0:0:0:
462,201,60097,1,8,0:0:0:0:
366,180,60259,1,0,0:0:0:0:
420,190,60339,1,0,0:0:0:0:
412,178,60420,1,8,0:0:0:0:
436,222,60581,1,8,0:0:0:0:
433,177,60743,1,0,0:0:0:0:
458,162,60904,1,0,0:0:0:0:
382,200,60985,1,8,0:0:0:0:
415,168,61065,1,8,0:0:0:0:
434,171,61227,1,8,0:0:0:0:
440,172,61388,1,0,0:0:0:0:
434,177,61468,1,0,0:0:0:0:
410,182,61549,1,8,0:0:0:0:
419,202,61630,1,0,0:0:0:0:
429,195,61710,1,0,0:0:0:0:
437,191,61872,1,8,0:0:0:0:
436,193,61952,1,8,0:0:0:0:
440,183,62033,1,0,0:0:0:0:
459,169,62194,1,0,0:0:0:0:
449,207,62356,1,8,0:0:0:0:
397,204,62436,1,0,0:0:0:0:
497,203,62517,1,8,0:0:0:0:
459,238,62678,1,0,0:0:0:0:
414,187,62759,1,8,0:0:0:0:
452,179,62839,1,0,0:0:0:0:
443,262,62920,1,0,0:0:0:0:
435,179,63001,1,8,0:0:0:0:
384,218,63162,1,0,0:0:0:0:
459,172,63323,1,0,0:0:0:0:
455,174,63485,1,0,0:0:0:0:
435,189,63565,1,8,0:0:0:0:
466,167,63646,1,8,0:0:0:0:
498,176,63807,1,0,0:0:0:0:
498,176,63888,1,0,0:0:0:0:
468,181,63968,1,8,0:0:0:0:
436,181,64049,1,0,0:0:0:0:
431,174,64130,1,0,0:0:0:0:
466,182,64210,1,8,0:0:0:0:
366,170,64372,1,8,0:0:0:0:
386,174,64452,1,0,0:0:0:0:
460,161,64614,1,4,0:0:0:0:
499,172,64775,1,8,0:0:0:0:
499,172,64829,1,8,0:0:0:0:
499,172,64882,1,8,0:0:0:0:
472,187,64936,1,0,0:0:0:0:
490,181,65097,1,8,0:0:0:0:
459,171,65259,1,0,0:0:0:0:
470,216,65339,1,0,0:0:0:0:
485,199,65420,1,8,0:0:0:0:
462,176,65581,1,0,0:0:0:0:
428,192,65743,1,0,0:0:0:0:
439,171,65823,1,8,0:0:0:0:
428,192,65904,1,0,0:0:0:0:
448,224,66065,1,0,0:0:0:0:
416,160,66146,1,8,0:0:0:0:
448,160,66227,1,8,0:0:0:0:
416,160,66388,1,0,0:0:0:0:
448,192,66549,1,8,0:0:0:0:
419,242,66630,1,0,0:0:0:0:
448,160,66710,1,0,0:0:0:0:
480,160,66791,1,0,0:0:0:0:
447,174,66872,1,8,0:0:0:0:
419,180,67033,1,8,0:0:0:0:
414,181,67114,1,8,0:0:0:0:
427,173,67194,1,0,0:0:0:0:
448,192,67356,1,0,0:0:0:0:
448,192,67436,1,0,0:0:0:0:
448,160,67517,1,8,0:0:0:0:
448,192,67678,1,8,0:0:0:0:
445,179,67839,1,0,0:0:0:0:
448,160,67920,1,8,0:0:0:0:
384,160,68001,1,0,0:0:0:0:
445,178,68081,1,0,0:0:0:0:
432,190,68162,1,8,0:0:0:0:
488,182,68323,1,8,0:0:0:0:
466,220,68485,1,0,0:0:0:0:
466,193,68646,1,8,0:0:0:0:
466,193,68727,1,8,0:0:0:0:
452,191,68807,1,0,0:0:0:0:
468,167,68968,1,0,0:0:0:0:
480,224,69049,1,0,0:0:0:0:
384,192,69130,1,8,0:0:0:0:
416,192,69210,1,0,0:0:0:0:
457,186,69291,1,8,0:0:0:0:
447,186,69452,1,0,0:0:0:0:
416,192,69533,1,0,0:0:0:0:
467,183,69614,1,8,0:0:0:0:
498,174,69775,1,0,0:0:0:0:
498,174,69856,1,0,0:0:0:0:
494,168,69936,1,8,0:0:0:0:
494,168,69990,1,8,0:0:0:0:
494,168,70044,1,8,0:0:0:0:
446,196,70097,1,0,0:0:0:0:
439,188,70259,1,0,0:0:0:0:
460,208,70420,1,8,0:0:0:0:
421,182,70501,1,0,0:0:0:0:
403,182,70581,1,8,0:0:0:0:
403,182,70662,1,8,0:0:0:0:
431,182,70743,1,0,0:0:0:0:
416,192,70904,1,8,0:0:0:0:
424,170,71065,1,0,0:0:0:0:
384,160,71227,1,8,0:0:0:0:
410,182,71307,1,8,0:0:0:0:
384,160,71388,1,0,0:0:0:0:
469,181,71549,1,8,0:0:0:0:
428,179,71710,1,0,0:0:0:0:
408,223,71872,1,0,0:0:0:0:
451,212,71952,1,0,0:0:0:0:
410,203,72033,1,8,0:0:0:0:
425,182,72114,1,0,0:0:0:0:
334,178,72194,1,8,0:0:0:0:
390,205,72275,1,8,0:0:0:0:
402,171,72356,1,0,0:0:0:0:
451,170,72517,1,0,0:0:0:0:
462,212,72597,1,0,0:0:0:0:
438,174,72678,1,8,0:0:0:0:
441,234,72839,1,8,0:0:0:0:
419,176,73001,1,0,0:0:0:0:
419,176,73162,1,0,0:0:0:0:
419,176,73323,1,0,0:0:0:0:
424,197,73485,1,0,0:0:0:0:
465,214,73646,1,12,0:0:0:0:
465,214,73968,1,12,0:0:0:0:
435,181,74291,1,8,0:0:0:0:
451,227,74372,1,0,0:0:0:0:
435,181,74452,1,0,0:0:0:0:
435,181,74533,1,0,0:0:0:0:
383,179,74614,1,8,0:0:0:0:
455,191,74694,1,0,0:0:0:0:
474,177,74775,1,8,0:0:0:0:
474,177,74856,1,8,0:0:0:0:
371,201,74936,1,4,0:0:0:0:
463,194,75097,1,8,0:0:0:0:
472,190,75259,1,0,0:0:0:0:
424,169,75339,1,0,0:0:0:0:
466,175,75420,1,8,0:0:0:0:
436,207,75581,1,0,0:0:0:0:
413,170,75743,1,8,0:0:0:0:
413,170,75823,1,8,0:0:0:0:
424,169,75985,1,0,0:0:0:0:
400,201,76065,1,8,0:0:0:0:
466,194,76227,1,0,0:0:0:0:
418,205,76307,1,8,0:0:0:0:
452,182,76388,1,0,0:0:0:0:
452,182,76468,1,0,0:0:0:0:
443,185,76549,1,8,0:0:0:0:
414,181,76710,1,8,0:0:0:0:
416,175,76791,1,0,0:0:0:0:
414,181,76872,1,8,0:0:0:0:
425,180,77033,1,8,0:0:0:0:
484,193,77114,1,8,0:0:0:0:
437,180,77275,1,8,0:0:0:0:
448,186,77356,1,0,0:0:0:0:
469,189,77517,1,8,0:0:0:0:
469,189,77678,1,8,0:0:0:0:
480,174,77759,1,0,0:0:0:0:
470,209,77839,1,8,0:0:0:0:
462,177,78001,1,0,0:0:0:0:
462,177,78081,1,0,0:0:0:0:
426,199,78162,1,8,0:0:0:0:
479,191,78323,1,0,0:0:0:0:
496,195,78404,1,8,0:0:0:0:
490,198,78565,1,8,0:0:0:0:
476,201,78646,1,0,0:0:0:0:
496,193,78807,1,0,0:0:0:0:
496,193,78888,1,0,0:0:0:0:
481,186,78968,1,8,0:0:0:0:
481,262,79049,1,0,0:0:0:0:
447,207,79130,1,8,0:0:0:0:
480,192,79291,1,0,0:0:0:0:
480,192,79372,1,0,0:0:0:0:
466,213,79452,1,8,0:0:0:0:
448,160,79614,1,8,0:0:0:0:
480,192,79694,1,0,0:0:0:0:
352,192,79856,1,0,0:0:0:0:
480,192,79936,1,0,0:0:0:0:
448,192,80097,1,0,0:0:0:0:
448,192,80259,1,8,0:0:0:0:
448,192,80339,1,0,0:0:0:0:
448,192,80420,1,8,0:0:0:0:
416,192,80501,1,0,0:0:0:0:
416,192,80581,1,0,0:0:0:0:
416,192,80743,1,8,0:0:0:0:
416,192,80904,1,0,0:0:0:0:
416,192,80985,1,8,0:0:0:0:
416,192,81146,1,8,0:0:0:0:
416,192,81227,1,8,0:0:0:0:
448,192,81388,1,8,0:0:0:0:
448,160,81468,1,0,0:0:0:0:
480,160,81549,1,0,0:0:0:0:
448,160,81630,1,8,0:0:0:0:
416,192,81710,1,8,0:0:0:0:
448,160,81872,1,8,0:0:0:0:
448,192,81952,1,0,0:0:0:0:
448,160,82033,1,8,0:0:0:0:
480,160,82194,1,8,0:0:0:0:
384,192,82275,1,0,0:0:0:0:
448,192,82436,1,0,0:0:0:0:
448,160,82517,1,8,0:0:0:0:
448,224,82597,1,0,0:0:0:0:
416,192,82678,1,8,0:0:0:0:
448,192,82839,1,0,0:0:0:0:
480,224,82920,1,8,0:0:0:0:
416,192,83001,1,8,0:0:0:0:
448,192,83162,1,8,0:0:0:0:
448,224,83323,1,0,0:0:0:0:
448,224,83485,1,0,0:0:0:0:
448,224,83646,1,0,0:0:0:0:
384,192,83807,1,0,0:0:0:0:
480,192,83968,1,12,0:0:0:0:
448,192,84291,1,4,0:0:0:0:
448,192,84614,1,12,0:0:0:0:
448,192,84936,1,12,0:0:0:0:
416,224,85259,1,4,0:0:0:0:
448,224,85420,1,0,0:0:0:0:
448,224,85501,1,0,0:0:0:0:
448,192,85581,1,8,0:0:0:0:
448,160,85743,1,0,0:0:0:0:
480,160,85904,1,8,0:0:0:0:
429,203,85985,1,0,0:0:0:0:
448,192,86065,1,0,0:0:0:0:
440,185,86146,1,8,0:0:0:0:
446,176,86307,1,8,0:0:0:0:
469,173,86388,1,0,0:0:0:0:
453,194,86549,1,8,0:0:0:0:
419,178,86630,1,8,0:0:0:0:
486,183,86710,1,0,0:0:0:0:
485,182,86791,1,0,0:0:0:0:
427,175,86872,1,8,0:0:0:0:
470,178,87033,1,8,0:0:0:0:
475,170,87114,1,0,0:0:0:0:
470,178,87194,1,8,0:0:0:0:
469,171,87356,1,0,0:0:0:0:
419,161,87436,1,8,0:0:0:0:
453,168,87517,1,8,0:0:0:0:
460,205,87678,1,0,0:0:0:0:
365,207,87839,1,4,0:0:0:0:
467,195,88001,1,8,0:0:0:0:
467,194,88081,1,8,0:0:0:0:
475,183,88162,1,0,0:0:0:0:
411,183,88323,1,8,0:0:0:0:
447,249,88485,1,0,0:0:0:0:
462,183,88646,1,8,0:0:0:0:
462,183,88727,1,8,0:0:0:0:
445,208,88807,1,0,0:0:0:0:
462,182,88888,1,8,0:0:0:0:
462,182,88968,1,8,0:0:0:0:
441,201,89130,1,0,0:0:0:0:
462,207,89210,1,0,0:0:0:0:
452,183,89291,1,8,0:0:0:0:
441,181,89372,1,0,0:0:0:0:
452,183,89452,1,8,0:0:0:0:
446,203,89614,1,0,0:0:0:0:
446,203,89694,1,0,0:0:0:0:
465,177,89775,1,8,0:0:0:0:
467,171,89936,1,0,0:0:0:0:
444,177,90017,1,8,0:0:0:0:
444,178,90178,1,8,0:0:0:0:
448,160,90259,1,0,0:0:0:0:
416,224,90420,1,12,0:0:0:0:
448,224,90581,1,0,0:0:0:0:
448,224,90743,1,0,0:0:0:0:
448,224,90904,1,0,0:0:0:0:
448,224,91065,1,0,0:0:0:0:
416,160,91227,1,0,0:0:0:0:
416,160,91388,1,0,0:0:0:0:
416,192,91549,1,0,0:0:0:0:
385,167,91710,1,8,0:0:0:0:
416,192,91872,1,0,0:0:0:0:
416,192,92033,1,0,0:0:0:0:
416,192,92194,1,0,0:0:0:0:
416,192,92356,1,0,0:0:0:0:
416,192,92517,1,0,0:0:0:0:
416,192,92678,1,0,0:0:0:0:
416,192,92839,1,0,0:0:0:0:
480,192,93001,1,8,0:0:0:0:
480,160,93081,1,0,0:0:0:0:
480,160,93162,1,0,0:0:0:0:
480,160,93243,1,0,0:0:0:0:
480,192,93323,1,8,0:0:0:0:
448,192,93404,1,0,0:0:0:0:
448,192,93485,1,0,0:0:0:0:
448,192,93565,1,0,0:0:0:0:
448,192,93646,1,8,0:0:0:0:
448,192,93700,1,8,0:0:0:0:
448,192,93753,1,8,0:0:0:0:
448,160,93807,1,0,0:0:0:0:
448,160,93861,1,0,0:0:0:0:
448,160,93915,1,0,0:0:0:0:
416,192,93968,1,8,0:0:0:0:
479,176,94049,1,0,0:0:0:0:
474,178,94130,1,8,0:0:0:0:
473,178,94210,1,8,0:0:0:0:
256,192,94291,12,0,95097,0:0:0:0:
416,177,95259,5,8,0:0:0:0:
407,161,95581,1,4,0:0:0:0:
389,216,95903,1,0,0:0:0:0:
395,161,96226,1,0,0:0:0:0:
395,161,96387,1,0,0:0:0:0:
454,212,96710,1,8,0:0:0:0:
434,224,97032,1,8,0:0:0:0:
457,234,97355,1,8,0:0:0:0:
473,246,97516,1,0,0:0:0:0:
486,264,97839,1,0,0:0:0:0:
416,215,98161,1,0,0:0:0:0:
416,215,98322,1,0,0:0:0:0:
401,198,98645,1,8,0:0:0:0:
430,221,98968,1,8,0:0:0:0:
404,189,99290,1,8,0:0:0:0:
420,193,99451,1,4,0:0:0:0:
412,174,99774,1,0,0:0:0:0:
375,178,100097,1,0,0:0:0:0:
375,178,100258,1,0,0:0:0:0:
453,180,100581,1,8,0:0:0:0:
407,194,100903,1,8,0:0:0:0:
349,188,101226,1,8,0:0:0:0:
468,187,101387,1,0,0:0:0:0:
424,240,101710,1,0,0:0:0:0:
363,194,102032,1,0,0:0:0:0:
363,194,102193,1,0,0:0:0:0:
449,183,102516,1,8,0:0:0:0:
383,191,102785,1,8,0:0:0:0:
383,191,102892,1,8,0:0:0:0:
383,191,103000,1,8,0:0:0:0:
383,191,103107,1,8,0:0:0:0:
383,191,103215,1,8,0:0:0:0:
379,176,103322,1,4,0:0:0:0:
350,161,103484,1,0,0:0:0:0:
361,176,103645,1,8,0:0:0:0:
350,161,103806,1,0,0:0:0:0:
397,187,103968,1,8,0:0:0:0:
397,187,104129,1,8,0:0:0:0:
400,170,104290,1,0,0:0:0:0:
369,175,104451,1,8,0:0:0:0:
409,172,104613,1,0,0:0:0:0:
378,177,104774,1,8,0:0:0:0:
416,181,104935,1,0,0:0:0:0:
396,170,105097,1,8,0:0:0:0:
400,170,105177,1,8,0:0:0:0:
407,176,105258,1,4,0:0:0:0:
417,187,105419,1,0,0:0:0:0:
373,208,105580,1,8,0:0:0:0:
412,184,105742,1,0,0:0:0:0:
356,183,105903,1,8,0:0:0:0:
356,183,106064,1,8,0:0:0:0:
420,169,106226,1,0,0:0:0:0:
364,186,106387,1,8,0:0:0:0:
419,170,106548,1,0,0:0:0:0:
402,182,106710,1,8,0:0:0:0:
395,182,106871,1,0,0:0:0:0:
419,194,107032,1,8,0:0:0:0:
419,194,107086,1,8,0:0:0:0:
419,194,107140,1,8,0:0:0:0:
417,184,107193,1,0,0:0:0:0:
426,137,107355,1,0,0:0:0:0:
426,137,107516,1,0,0:0:0:0:
426,137,107677,1,0,0:0:0:0:
426,137,107839,1,0,0:0:0:0:
426,137,108000,1,0,0:0:0:0:
336,172,108161,1,12,0:0:0:0:
443,204,108322,1,0,0:0:0:0:
443,204,108484,1,0,0:0:0:0:
443,204,108645,1,0,0:0:0:0:
443,204,108806,1,0,0:0:0:0:
301,197,108968,1,0,0:0:0:0:
301,197,109048,1,0,0:0:0:0:
434,171,109129,1,8,0:0:0:0:
295,181,109290,1,0,0:0:0:0:
296,181,109344,1,0,0:0:0:0:
296,180,109398,1,0,0:0:0:0:
344,194,109451,1,8,0:0:0:0:
428,178,109613,1,0,0:0:0:0:
426,178,109693,1,0,0:0:0:0:
444,166,109774,1,8,0:0:0:0:
423,175,109935,1,8,0:0:0:0:
423,175,109989,1,8,0:0:0:0:
423,175,110043,1,8,0:0:0:0:
436,180,110097,1,0,0:0:0:0:
466,186,110177,1,0,0:0:0:0:
408,175,110258,1,8,0:0:0:0:
286,197,110419,1,0,0:0:0:0:
286,197,110500,1,0,0:0:0:0:
413,165,110580,1,8,0:0:0:0:
415,165,110634,1,0,0:0:0:0:
411,163,110688,1,0,0:0:0:0:
435,165,110742,1,8,0:0:0:0:
459,151,110822,1,0,0:0:0:0:
459,164,110903,1,8,0:0:0:0:
459,164,110984,1,8,0:0:0:0:
359,160,111064,1,4,0:0:0:0:
384,231,116225,5,8,0:0:0:0:
256,192,117515,12,0,121063,0:0:0:0:
416,215,121393,5,8,0:0:0:0:
432,197,121714,1,8,0:0:0:0:
432,197,122036,1,8,0:0:0:0:
451,258,122358,1,8,0:0:0:0:
432,197,122680,1,8,0:0:0:0:
432,197,123002,1,8,0:0:0:0:
430,245,123324,1,8,0:0:0:0:
432,197,123646,1,8,0:0:0:0:
432,197,123968,1,8,0:0:0:0:
432,197,124129,1,8,0:0:0:0:
432,197,124289,1,8,0:0:0:0:
432,197,124611,1,8,0:0:0:0:
432,197,124933,1,8,0:0:0:0:
432,197,125255,1,8,0:0:0:0:
432,197,125577,1,8,0:0:0:0:
432,197,125738,1,8,0:0:0:0:
432,197,125899,1,8,0:0:0:0:
432,197,126060,1,8,0:0:0:0:
432,197,126221,1,8,0:0:0:0:
432,197,126543,1,8,0:0:0:0:
432,197,126865,1,8,0:0:0:0:
432,197,127186,1,8,0:0:0:0:
432,197,127508,1,8,0:0:0:0:
442,194,127830,1,8,0:0:0:0:
442,194,127991,1,8,0:0:0:0:
442,194,128152,1,8,0:0:0:0:
442,194,128474,1,8,0:0:0:0:
442,194,128796,1,8,0:0:0:0:
424,204,129118,1,8,0:0:0:0:
424,205,129440,1,8,0:0:0:0:
424,205,129762,1,8,0:0:0:0:
424,204,130083,1,8,0:0:0:0:
424,205,130405,1,8,0:0:0:0:
424,205,130727,1,8,0:0:0:0:
424,204,131049,1,8,0:0:0:0:
424,205,131371,1,8,0:0:0:0:
424,205,131693,1,8,0:0:0:0:
424,204,131854,1,8,0:0:0:0:
424,204,132015,1,8,0:0:0:0:
441,224,132337,1,8,0:0:0:0:
441,224,132659,1,8,0:0:0:0:
441,224,132980,1,8,0:0:0:0:
441,224,133302,1,8,0:0:0:0:
441,224,133463,1,8,0:0:0:0:
441,224,133624,1,8,0:0:0:0:
441,224,133785,1,8,0:0:0:0:
441,224,133946,1,8,0:0:0:0:
422,211,134268,1,8,0:0:0:0:
422,211,134590,1,8,0:0:0:0:
422,211,134912,1,8,0:0:0:0:
435,198,135395,1,8,0:0:0:0:
435,198,135556,1,8,0:0:0:0:
435,198,135717,1,8,0:0:0:0:
328,263,135877,2,0,L|406:211,1,78.7500030040742
256,192,136527,12,0,137817,0:0:0:0:
356,214,138156,5,4,0:0:0:0:
412,197,138478,1,0,0:0:0:0:
464,185,138801,1,8,0:0:0:0:
466,207,139123,1,0,0:0:0:0:
465,207,139446,1,0,0:0:0:0:
420,172,139768,1,8,0:0:0:0:
411,168,140091,1,0,0:0:0:0:
420,180,140414,1,0,0:0:0:0:
380,192,140736,1,0,0:0:0:0:
475,180,140897,1,0,0:0:0:0:
431,174,141059,1,8,0:0:0:0:
483,172,141220,1,0,0:0:0:0:
430,174,141381,1,8,0:0:0:0:
470,174,141543,1,0,0:0:0:0:
443,172,141704,1,8,0:0:0:0:
396,159,141865,1,0,0:0:0:0:
396,159,142026,1,0,0:0:0:0:
396,159,142188,1,0,0:0:0:0:
419,203,142349,1,0,0:0:0:0:
448,224,142672,1,8,0:0:0:0:
384,160,142833,1,0,0:0:0:0:
448,200,142994,1,8,0:0:0:0:
462,172,143317,1,0,0:0:0:0:
406,172,143639,1,8,0:0:0:0:
406,172,143962,1,8,0:0:0:0:
470,221,144285,1,8,0:0:0:0:
477,179,144526,1,8,0:0:0:0:
448,192,144607,1,0,0:0:0:0:
448,192,144768,1,0,0:0:0:0:
416,192,144930,1,8,0:0:0:0:
477,179,145010,1,0,0:0:0:0:
477,179,145091,1,0,0:0:0:0:
477,179,145172,1,0,0:0:0:0:
384,192,145252,1,8,0:0:0:0:
448,160,145414,1,0,0:0:0:0:
480,160,145575,1,0,0:0:0:0:
480,160,145656,1,0,0:0:0:0:
480,160,145736,1,0,0:0:0:0:
448,256,145817,1,0,0:0:0:0:
407,171,145897,1,12,0:0:0:0:
416,160,146059,1,0,0:0:0:0:
416,192,146220,1,8,0:0:0:0:
448,160,146381,1,0,0:0:0:0:
416,192,146543,1,8,0:0:0:0:
416,192,146704,1,8,0:0:0:0:
448,160,146865,1,8,0:0:0:0:
416,192,147026,1,0,0:0:0:0:
352,192,147188,1,8,0:0:0:0:
384,192,147349,1,0,0:0:0:0:
448,192,147510,1,8,0:0:0:0:
480,160,147672,1,8,0:0:0:0:
448,160,147833,1,4,0:0:0:0:
448,160,147994,1,0,0:0:0:0:
416,160,148156,1,8,0:0:0:0:
448,160,148317,1,0,0:0:0:0:
448,160,148478,1,8,0:0:0:0:
448,160,148639,1,8,0:0:0:0:
448,160,148801,1,8,0:0:0:0:
416,192,148962,1,0,0:0:0:0:
448,160,149123,1,8,0:0:0:0:
384,192,149285,1,0,0:0:0:0:
352,192,149365,1,0,0:0:0:0:
448,192,149446,1,8,0:0:0:0:
416,192,149607,1,8,0:0:0:0:
448,192,149768,1,0,0:0:0:0:
448,192,149849,1,0,0:0:0:0:
448,192,149930,1,0,0:0:0:0:
448,192,150010,1,0,0:0:0:0:
416,160,150091,1,8,0:0:0:0:
448,192,150172,1,0,0:0:0:0:
448,192,150252,1,0,0:0:0:0:
448,192,150333,1,0,0:0:0:0:
448,192,150414,1,8,0:0:0:0:
448,192,150494,1,0,0:0:0:0:
448,192,150575,1,8,0:0:0:0:
448,192,150656,1,0,0:0:0:0:
448,192,150736,1,8,0:0:0:0:
416,192,150817,1,0,0:0:0:0:
416,192,150897,1,0,0:0:0:0:
416,192,150978,1,0,0:0:0:0:
384,160,151059,1,8,0:0:0:0:
448,192,151139,1,0,0:0:0:0:
448,192,151220,1,0,0:0:0:0:
448,192,151301,1,0,0:0:0:0:
416,160,151381,1,8,0:0:0:0:
448,192,151462,1,0,0:0:0:0:
448,192,151543,1,8,0:0:0:0:
416,192,151623,1,0,0:0:0:0:
448,192,151704,1,8,0:0:0:0:
448,192,151758,1,8,0:0:0:0:
448,192,151811,1,8,0:0:0:0:
448,160,151865,1,0,0:0:0:0:
448,160,151919,1,0,0:0:0:0:
448,160,151973,1,0,0:0:0:0:
448,160,152026,1,8,0:0:0:0:
416,192,152107,1,0,0:0:0:0:
416,192,152188,1,8,0:0:0:0:
416,192,152268,1,8,0:0:0:0:
384,192,152349,1,0,0:0:0:0:
448,192,152510,1,0,0:0:0:0:
449,198,152564,1,0,0:0:0:0:
449,198,152618,1,0,0:0:0:0:
448,192,152672,1,8,0:0:0:0:
256,192,152752,12,0,153478,0:0:0:0:
323,187,153642,5,4,0:0:0:0:
480,160,153803,1,8,0:0:0:0:
480,160,153857,1,8,0:0:0:0:
480,160,153910,1,8,0:0:0:0:
480,192,153964,1,0,0:0:0:0:
480,224,154125,1,0,0:0:0:0:
448,192,154206,1,0,0:0:0:0:
416,192,154287,1,8,0:0:0:0:
401,211,154448,1,0,0:0:0:0:
384,160,154609,1,0,0:0:0:0:
352,224,154771,1,0,0:0:0:0:
352,224,154851,1,0,0:0:0:0:
352,192,154932,1,8,0:0:0:0:
416,192,155093,1,0,0:0:0:0:
416,192,155174,1,0,0:0:0:0:
416,192,155254,1,8,0:0:0:0:
448,192,155335,1,0,0:0:0:0:
416,192,155416,1,8,0:0:0:0:
416,192,155496,1,8,0:0:0:0:
448,192,155577,1,0,0:0:0:0:
416,160,155738,1,0,0:0:0:0:
419,173,155819,1,0,0:0:0:0:
448,160,155900,1,8,0:0:0:0:
384,192,156061,1,0,0:0:0:0:
384,192,156222,1,8,0:0:0:0:
380,174,156303,1,8,0:0:0:0:
448,160,156383,1,0,0:0:0:0:
459,174,156464,1,0,0:0:0:0:
416,160,156545,1,8,0:0:0:0:
352,192,156706,1,0,0:0:0:0:
384,192,156787,1,8,0:0:0:0:
352,192,156867,1,0,0:0:0:0:
416,160,157029,1,8,0:0:0:0:
448,192,157190,1,0,0:0:0:0:
448,160,157512,1,0,0:0:0:0:
448,160,157674,1,0,0:0:0:0:
448,192,157835,1,8,0:0:0:0:
384,192,157996,1,0,0:0:0:0:
384,192,158077,1,0,0:0:0:0:
384,192,158158,1,8,0:0:0:0:
448,192,158319,1,0,0:0:0:0:
416,224,158480,1,8,0:0:0:0:
416,192,158642,1,8,0:0:0:0:
416,192,158722,1,8,0:0:0:0:
448,160,158803,1,0,0:0:0:0:
416,192,158964,1,0,0:0:0:0:
416,160,159125,1,8,0:0:0:0:
384,192,159206,1,0,0:0:0:0:
384,192,159287,1,0,0:0:0:0:
416,160,159367,1,8,0:0:0:0:
416,160,159448,1,8,0:0:0:0:
352,192,159609,1,0,0:0:0:0:
352,192,159690,1,0,0:0:0:0:
352,192,159771,1,0,0:0:0:0:
448,160,159932,1,8,0:0:0:0:
448,160,160093,1,8,0:0:0:0:
416,160,160254,1,0,0:0:0:0:
448,160,160416,1,8,0:0:0:0:
384,192,160577,1,0,0:0:0:0:
384,192,160658,1,0,0:0:0:0:
416,192,160738,1,8,0:0:0:0:
416,192,160900,1,8,0:0:0:0:
416,160,160980,1,0,0:0:0:0:
416,192,161061,1,8,0:0:0:0:
448,160,161383,1,0,0:0:0:0:
448,192,161464,1,0,0:0:0:0:
416,192,161545,1,8,0:0:0:0:
416,192,161598,1,8,0:0:0:0:
416,192,161652,1,8,0:0:0:0:
480,192,161706,1,0,0:0:0:0:
448,224,161867,1,0,0:0:0:0:
480,192,162029,1,8,0:0:0:0:
480,192,162190,1,8,0:0:0:0:
448,192,162351,1,0,0:0:0:0:
480,160,162512,1,8,0:0:0:0:
480,160,162593,1,8,0:0:0:0:
448,224,162674,1,0,0:0:0:0:
459,193,162835,1,0,0:0:0:0:
367,192,162916,1,0,0:0:0:0:
416,192,162996,1,8,0:0:0:0:
416,192,163077,1,8,0:0:0:0:
416,192,163158,1,0,0:0:0:0:
416,192,163238,1,8,0:0:0:0:
416,192,163319,1,0,0:0:0:0:
384,224,163480,1,0,0:0:0:0:
384,192,163642,1,8,0:0:0:0:
448,192,163722,1,0,0:0:0:0:
448,192,163803,1,0,0:0:0:0:
448,192,163883,1,0,0:0:0:0:
384,192,163964,1,8,0:0:0:0:
480,192,164125,1,0,0:0:0:0:
416,192,164287,1,8,0:0:0:0:
448,192,164448,1,0,0:0:0:0:
448,192,164529,1,0,0:0:0:0:
416,192,164609,1,8,0:0:0:0:
416,192,164771,1,8,0:0:0:0:
416,192,164851,1,0,0:0:0:0:
416,192,164932,1,8,0:0:0:0:
448,192,165093,1,0,0:0:0:0:
416,192,165254,1,8,0:0:0:0:
384,192,165416,1,0,0:0:0:0:
416,192,165496,1,8,0:0:0:0:
416,192,165658,1,8,0:0:0:0:
448,192,165738,1,0,0:0:0:0:
448,192,165819,1,0,0:0:0:0:
448,192,165900,1,8,0:0:0:0:
448,192,166061,1,8,0:0:0:0:
384,192,166222,1,0,0:0:0:0:
448,160,166303,1,8,0:0:0:0:
416,160,166383,1,0,0:0:0:0:
416,160,166464,1,0,0:0:0:0:
384,192,166545,1,8,0:0:0:0:
416,160,166706,1,0,0:0:0:0:
384,160,166867,1,8,0:0:0:0:
480,192,167190,1,8,0:0:0:0:
480,192,167351,1,0,0:0:0:0:
480,192,167432,1,0,0:0:0:0:
480,192,167512,1,0,0:0:0:0:
480,192,167674,1,8,0:0:0:0:
432,203,167728,1,8,0:0:0:0:
432,203,167781,1,8,0:0:0:0:
455,191,167835,1,0,0:0:0:0:
429,212,167916,1,0,0:0:0:0:
448,192,167996,1,8,0:0:0:0:
480,192,168077,1,8,0:0:0:0:
480,192,168158,1,0,0:0:0:0:
448,192,168319,1,0,0:0:0:0:
448,192,168480,1,12,0:0:0:0:
416,192,168642,1,0,0:0:0:0:
448,192,168803,1,12,0:0:0:0:
416,160,168964,1,8,0:0:0:0:
384,192,169125,1,4,0:0:0:0:
480,192,169287,1,8,0:0:0:0:
480,192,169340,1,8,0:0:0:0:
480,192,169394,1,8,0:0:0:0:
416,192,169448,1,0,0:0:0:0:
480,160,169609,1,0,0:0:0:0:
480,192,169771,1,8,0:0:0:0:
480,192,169851,1,0,0:0:0:0:
480,192,169932,1,8,0:0:0:0:
480,192,170012,1,8,0:0:0:0:
448,160,170093,1,0,0:0:0:0:
448,160,170254,1,0,0:0:0:0:
448,160,170335,1,0,0:0:0:0:
448,160,170416,1,8,0:0:0:0:
448,256,170577,1,0,0:0:0:0:
480,160,170658,1,8,0:0:0:0:
448,192,170738,1,0,0:0:0:0:
448,192,170819,1,0,0:0:0:0:
448,160,170900,1,8,0:0:0:0:
448,160,170980,1,8,0:0:0:0:
416,192,171061,1,0,0:0:0:0:
480,192,171222,1,0,0:0:0:0:
416,224,171383,1,8,0:0:0:0:
480,160,171545,1,0,0:0:0:0:
480,160,171625,1,0,0:0:0:0:
480,192,171706,1,8,0:0:0:0:
416,192,171867,1,0,0:0:0:0:
480,192,172029,1,8,0:0:0:0:
448,160,172109,1,8,0:0:0:0:
448,160,172190,1,0,0:0:0:0:
448,160,172271,1,0,0:0:0:0:
480,160,172351,1,8,0:0:0:0:
416,192,172512,1,0,0:0:0:0:
480,192,172674,1,8,0:0:0:0:
416,192,172728,1,8,0:0:0:0:
416,192,172781,1,8,0:0:0:0:
448,192,172835,1,0,0:0:0:0:
416,160,172996,1,8,0:0:0:0:
480,160,173158,1,0,0:0:0:0:
480,192,173319,1,8,0:0:0:0:
480,192,173400,1,8,0:0:0:0:
480,160,173480,1,0,0:0:0:0:
480,160,173561,1,0,0:0:0:0:
448,192,173641,1,8,0:0:0:0:
480,160,173803,1,0,0:0:0:0:
448,192,173964,1,8,0:0:0:0:
448,192,174125,1,8,0:0:0:0:
448,192,174206,1,8,0:0:0:0:
448,160,174287,1,0,0:0:0:0:
448,160,174448,1,0,0:0:0:0:
494,198,174609,1,0,0:0:0:0:
463,174,174690,1,8,0:0:0:0:
460,181,174771,1,0,0:0:0:0:
509,176,174851,1,0,0:0:0:0:
477,172,174932,1,12,0:0:0:0:
477,172,175174,1,12,0:0:0:0:
477,172,175416,1,12,0:0:0:0:
480,224,175658,1,0,0:0:0:0:
450,182,175738,1,8,0:0:0:0:
404,180,175819,1,8,0:0:0:0:
419,170,175900,1,0,0:0:0:0:
474,188,175980,1,8,0:0:0:0:
411,183,176061,1,0,0:0:0:0:
460,260,176222,1,8,0:0:0:0:
381,190,176383,1,0,0:0:0:0:
404,222,176464,1,0,0:0:0:0:
441,178,176545,1,8,0:0:0:0:
441,178,176625,1,8,0:0:0:0:
434,175,176706,1,0,0:0:0:0:
439,190,176867,1,4,0:0:0:0:
425,193,177029,1,8,0:0:0:0:
425,193,177082,1,8,0:0:0:0:
425,193,177136,1,8,0:0:0:0:
462,186,177190,1,0,0:0:0:0:
471,229,177351,1,0,0:0:0:0:
416,192,177512,1,8,0:0:0:0:
416,192,177593,1,0,0:0:0:0:
416,192,177674,1,8,0:0:0:0:
448,192,177835,1,0,0:0:0:0:
462,186,177996,1,0,0:0:0:0:
448,192,178077,1,0,0:0:0:0:
448,192,178158,1,8,0:0:0:0:
480,192,178319,1,8,0:0:0:0:
512,160,178400,1,0,0:0:0:0:
448,160,178480,1,0,0:0:0:0:
416,160,178561,1,8,0:0:0:0:
480,160,178641,1,8,0:0:0:0:
416,160,178722,1,0,0:0:0:0:
416,192,178803,1,8,0:0:0:0:
512,192,178964,1,0,0:0:0:0:
512,192,179045,1,0,0:0:0:0:
416,160,179125,1,8,0:0:0:0:
448,160,179287,1,0,0:0:0:0:
480,160,179448,1,8,0:0:0:0:
480,160,179609,1,8,0:0:0:0:
480,160,179771,1,8,0:0:0:0:
480,192,179851,1,0,0:0:0:0:
480,160,179932,1,0,0:0:0:0:
480,160,180012,1,8,0:0:0:0:
448,160,180093,1,8,0:0:0:0:
448,160,180254,1,0,0:0:0:0:
448,160,180416,1,8,0:0:0:0:
448,160,180469,1,8,0:0:0:0:
448,160,180523,1,8,0:0:0:0:
448,160,180577,1,0,0:0:0:0:
480,160,180738,1,12,0:0:0:0:
480,192,180900,1,0,0:0:0:0:
448,160,180980,1,8,0:0:0:0:
448,160,181141,1,8,0:0:0:0:
480,160,181222,1,0,0:0:0:0:
480,160,181303,1,0,0:0:0:0:
512,192,181383,1,8,0:0:0:0:
480,192,181464,1,0,0:0:0:0:
512,192,181545,1,8,0:0:0:0:
448,192,181706,1,4,0:0:0:0:
480,192,181867,1,0,0:0:0:0:
480,160,182029,1,8,0:0:0:0:
480,192,182109,1,0,0:0:0:0:
480,192,182190,1,8,0:0:0:0:
480,192,182271,1,8,0:0:0:0:
416,192,182351,1,0,0:0:0:0:
416,192,182512,1,0,0:0:0:0:
416,192,182674,1,8,0:0:0:0:
480,160,182835,1,0,0:0:0:0:
448,224,182996,1,0,0:0:0:0:
448,192,183158,1,0,0:0:0:0:
448,192,183238,1,0,0:0:0:0:
480,192,183319,1,8,0:0:0:0:
480,192,183400,1,0,0:0:0:0:
480,192,183480,1,8,0:0:0:0:
480,192,183561,1,8,0:0:0:0:
384,160,183641,1,0,0:0:0:0:
480,192,183803,1,8,0:0:0:0:
480,192,183857,1,8,0:0:0:0:
480,192,183910,1,8,0:0:0:0:
416,192,183964,1,0,0:0:0:0:
480,160,184125,1,8,0:0:0:0:
448,192,184179,1,0,0:0:0:0:
448,192,184233,1,0,0:0:0:0:
448,192,184287,1,8,0:0:0:0:
480,160,184448,1,8,0:0:0:0:
480,160,184502,1,8,0:0:0:0:
480,160,184555,1,8,0:0:0:0:
448,192,184609,1,0,0:0:0:0:
448,192,184690,1,0,0:0:0:0:
448,160,184771,1,8,0:0:0:0:
448,160,184851,1,8,0:0:0:0:
416,160,184932,1,0,0:0:0:0:
448,192,185093,1,0,0:0:0:0:
480,160,185254,1,8,0:0:0:0:
448,192,185416,1,0,0:0:0:0:
448,192,185496,1,0,0:0:0:0:
480,192,185577,1,8,0:0:0:0:
480,160,185738,1,0,0:0:0:0:
448,160,185900,1,8,0:0:0:0:
480,192,185980,1,0,0:0:0:0:
480,192,186061,1,0,0:0:0:0:
480,192,186141,1,0,0:0:0:0:
448,160,186222,1,8,0:0:0:0:
448,192,186383,1,0,0:0:0:0:
480,192,186545,1,8,0:0:0:0:
448,192,186706,1,0,0:0:0:0:
448,192,186787,1,0,0:0:0:0:
416,192,186867,1,8,0:0:0:0:
416,160,187029,1,0,0:0:0:0:
416,160,187190,1,0,0:0:0:0:
384,192,187271,1,8,0:0:0:0:
448,160,187351,1,0,0:0:0:0:
448,160,187432,1,0,0:0:0:0:
352,192,187512,1,8,0:0:0:0:
416,160,187593,1,8,0:0:0:0:
448,160,187674,1,0,0:0:0:0:
416,160,187835,1,8,0:0:0:0:
448,160,187996,1,0,0:0:0:0:
448,160,188077,1,0,0:0:0:0:
512,192,188158,1,8,0:0:0:0:
512,192,188211,1,8,0:0:0:0:
512,192,188265,1,8,0:0:0:0:
448,192,188319,1,0,0:0:0:0:
416,192,188480,1,4,0:0:0:0:
448,192,188641,1,0,0:0:0:0:
480,192,188722,1,8,0:0:0:0:
448,192,188803,1,0,0:0:0:0:
448,160,188964,1,8,0:0:0:0:
480,160,189125,1,0,0:0:0:0:
480,160,189206,1,0,0:0:0:0:
416,192,189287,1,8,0:0:0:0:
480,160,189367,1,0,0:0:0:0:
384,192,189448,1,8,0:0:0:0:
480,224,189609,1,0,0:0:0:0:
416,192,189690,1,0,0:0:0:0:
448,192,189771,1,8,0:0:0:0:
416,192,189932,1,0,0:0:0:0:
480,224,190093,1,0,0:0:0:0:
480,192,190174,1,0,0:0:0:0:
448,192,190254,1,8,0:0:0:0:
448,192,190335,1,8,0:0:0:0:
480,192,190416,1,4,0:0:0:0:
480,192,190577,1,8,0:0:0:0:
480,192,190658,1,8,0:0:0:0:
416,192,190738,1,0,0:0:0:0:
448,192,190900,1,8,0:0:0:0:
480,192,191061,1,0,0:0:0:0:
480,192,191222,1,0,0:0:0:0:
480,192,191303,1,0,0:0:0:0:
448,160,191383,1,8,0:0:0:0:
480,192,191545,1,0,0:0:0:0:
384,192,191706,1,12,0:0:0:0:
448,160,191867,1,8,0:0:0:0:
384,192,192029,1,4,0:0:0:0:
448,192,192271,1,8,0:0:0:0:
448,192,192351,1,4,0:0:0:0:
416,192,192512,1,8,0:0:0:0:
416,192,192566,1,8,0:0:0:0:
416,192,192620,1,8,0:0:0:0:
448,192,192674,1,0,0:0:0:0:
448,192,192835,1,0,0:0:0:0:
384,192,192996,1,8,0:0:0:0:
416,192,193158,1,0,0:0:0:0:
416,192,193238,1,0,0:0:0:0:
448,192,193319,1,8,0:0:0:0:
448,192,193480,1,8,0:0:0:0:
416,192,193561,1,0,0:0:0:0:
448,192,193641,1,8,0:0:0:0:
480,160,193803,1,0,0:0:0:0:
448,192,193964,1,8,0:0:0:0:
448,192,194125,1,8,0:0:0:0:
448,160,194287,1,4,0:0:0:0:
480,160,194448,1,0,0:0:0:0:
480,160,194529,1,0,0:0:0:0:
416,192,194609,1,8,0:0:0:0:
416,192,194771,1,0,0:0:0:0:
448,160,194932,1,8,0:0:0:0:
480,192,195012,1,0,0:0:0:0:
416,192,195093,1,8,0:0:0:0:
448,192,195174,1,0,0:0:0:0:
416,192,195254,1,8,0:0:0:0:
448,160,195416,1,0,0:0:0:0:
480,160,195577,1,8,0:0:0:0:
416,160,195658,1,8,0:0:0:0:
480,160,195738,1,0,0:0:0:0:
448,160,195900,1,8,0:0:0:0:
512,160,195953,1,8,0:0:0:0:
512,160,196007,1,8,0:0:0:0:
480,160,196061,1,0,0:0:0:0:
448,192,196222,1,8,0:0:0:0:
448,224,196303,1,8,0:0:0:0:
448,160,196383,1,0,0:0:0:0:
448,160,196464,1,0,0:0:0:0:
416,192,196545,1,0,0:0:0:0:
416,192,196625,1,0,0:0:0:0:
448,224,196706,1,8,0:0:0:0:
448,192,196787,1,0,0:0:0:0:
448,192,196867,1,0,0:0:0:0:
416,192,196948,1,0,0:0:0:0:
480,192,197029,1,8,0:0:0:0:
448,192,197109,1,0,0:0:0:0:
448,160,197190,1,8,0:0:0:0:
448,160,197271,1,0,0:0:0:0:
480,192,197351,1,0,0:0:0:0:
480,192,197432,1,0,0:0:0:0:
448,160,197512,1,8,0:0:0:0:
416,192,197593,1,8,0:0:0:0:
448,160,197674,1,0,0:0:0:0:
448,192,197754,1,0,0:0:0:0:
448,160,197835,1,8,0:0:0:0:
448,160,197916,1,0,0:0:0:0:
448,160,197996,1,0,0:0:0:0:
448,160,198077,1,0,0:0:0:0:
480,192,198158,1,8,0:0:0:0:
480,160,198238,1,0,0:0:0:0:
432,173,198319,1,8,0:0:0:0:
448,192,198400,1,0,0:0:0:0:
382,190,198480,1,8,0:0:0:0:
429,226,198561,1,0,0:0:0:0:
410,209,198641,1,0,0:0:0:0:
416,192,198722,1,0,0:0:0:0:
445,175,198803,1,8,0:0:0:0:
434,177,198883,1,0,0:0:0:0:
448,192,198964,1,8,0:0:0:0:
416,192,199045,1,8,0:0:0:0:
288,160,199125,1,0,0:0:0:0:
416,224,199206,1,0,0:0:0:0:
416,224,199367,1,0,0:0:0:0:
416,160,199448,1,8,0:0:0:0:
384,160,199529,1,8,0:0:0:0:
384,160,199609,1,0,0:0:0:0:
384,192,199690,1,0,0:0:0:0:
480,160,199771,1,8,0:0:0:0:
352,192,200093,5,4,0:0:0:0:
448,160,200254,1,8,0:0:0:0:
448,160,200308,1,8,0:0:0:0:
448,160,200362,1,8,0:0:0:0:
480,160,200416,1,0,0:0:0:0:
480,160,200577,1,0,0:0:0:0:
448,160,200738,1,8,0:0:0:0:
448,128,201061,1,0,0:0:0:0:
448,128,201383,1,0,0:0:0:0:
480,160,201706,1,8,0:0:0:0:
480,224,202029,1,0,0:0:0:0:
448,192,202512,1,0,0:0:0:0:
448,160,202674,1,8,0:0:0:0:
480,224,202996,1,8,0:0:0:0:
480,192,203158,1,0,0:0:0:0:
480,192,203319,1,0,0:0:0:0:
480,192,203480,1,0,0:0:0:0:
448,192,203641,1,8,0:0:0:0:
448,256,203803,1,0,0:0:0:0:
416,192,203964,1,8,0:0:0:0:
480,192,204018,1,8,0:0:0:0:
480,192,204072,1,8,0:0:0:0:
480,192,204125,1,8,0:0:0:0:
480,192,204179,1,8,0:0:0:0:
480,192,204233,1,8,0:0:0:0:
480,192,204287,1,0,0:0:0:0:
448,192,204448,1,0,0:0:0:0:
448,192,204609,1,8,0:0:0:0:
480,160,204932,1,0,0:0:0:0:
480,160,205254,1,0,0:0:0:0:
460,187,205577,1,8,0:0:0:0:
480,160,205900,1,0,0:0:0:0:
506,171,205953,1,8,0:0:0:0:
512,160,206007,1,8,0:0:0:0:
512,160,206061,1,8,0:0:0:0:
512,160,206115,1,8,0:0:0:0:
512,160,206168,1,8,0:0:0:0:
480,160,206222,1,0,0:0:0:0:
470,186,206383,1,0,0:0:0:0:
456,171,206545,1,8,0:0:0:0:
454,164,206867,1,0,0:0:0:0:
454,164,207190,1,0,0:0:0:0:
413,162,207512,1,8,0:0:0:0:
449,174,207674,1,0,0:0:0:0:
413,162,207835,1,12,0:0:0:0:
499,183,207996,1,8,0:0:0:0:
499,183,208050,1,8,0:0:0:0:
499,183,208104,1,8,0:0:0:0:
488,178,208158,1,0,0:0:0:0:
497,171,208319,1,0,0:0:0:0:
469,176,208480,1,8,0:0:0:0:
453,187,208803,1,0,0:0:0:0:
451,189,209125,1,0,0:0:0:0:
480,174,209448,1,8,0:0:0:0:
424,177,209771,1,0,0:0:0:0:
489,182,210254,1,0,0:0:0:0:
463,174,210416,1,8,0:0:0:0:
484,218,210577,1,8,0:0:0:0:
484,218,210658,1,8,0:0:0:0:
408,180,210738,1,0,0:0:0:0:
489,182,211061,1,0,0:0:0:0:
462,172,211383,1,8,0:0:0:0:
447,185,211545,1,8,0:0:0:0:
482,177,211706,1,4,0:0:0:0:
412,187,211867,1,0,0:0:0:0:
436,155,212029,1,8,0:0:0:0:
463,163,212190,1,0,0:0:0:0:
463,170,212271,1,0,0:0:0:0:
436,155,212351,1,8,0:0:0:0:
455,178,212512,1,0,0:0:0:0:
446,154,212674,1,12,0:0:0:0:
431,160,212835,1,0,0:0:0:0:
463,163,212996,1,8,0:0:0:0:
423,166,213158,1,8,0:0:0:0:
423,166,213238,1,8,0:0:0:0:
440,159,213319,1,0,0:0:0:0:
426,160,213480,1,0,0:0:0:0:
443,160,213641,1,8,0:0:0:0:
485,167,213722,1,0,0:0:0:0:
413,169,213803,1,0,0:0:0:0:
441,175,213883,1,0,0:0:0:0:
457,166,213964,1,8,0:0:0:0:
485,167,214045,1,0,0:0:0:0:
422,163,214125,1,8,0:0:0:0:
443,174,214206,1,0,0:0:0:0:
430,174,214287,1,8,0:0:0:0:
430,174,214367,1,8,0:0:0:0:
432,197,214448,1,0,0:0:0:0:
417,175,214609,1,4,0:0:0:0:
296,154,215093,1,0,0:0:0:0:
450,186,215577,1,12,0:0:0:0:
448,234,217512,1,0,0:0:0:0:
448,234,217674,1,0,0:0:0:0:
457,184,217835,1,8,0:0:0:0:
443,185,217996,1,0,0:0:0:0:
426,175,218158,1,8,0:0:0:0:
426,175,218319,1,8,0:0:0:0:
426,175,218480,1,8,0:0:0:0:
428,175,218641,1,0,0:0:0:0:
422,173,218803,1,8,0:0:0:0:
437,175,218964,1,0,0:0:0:0:
426,175,219125,1,8,0:0:0:0:
426,175,219287,1,8,0:0:0:0:
470,164,219448,1,0,0:0:0:0:
440,206,219771,1,0,0:0:0:0:
440,206,219932,1,0,0:0:0:0:
443,179,220093,1,8,0:0:0:0:
443,179,220416,1,8,0:0:0:0:
449,180,220738,1,8,0:0:0:0:
427,178,220900,1,0,0:0:0:0:
449,180,221061,1,8,0:0:0:0:
448,191,221383,1,0,0:0:0:0:
448,191,221545,1,0,0:0:0:0:
466,185,221706,1,8,0:0:0:0:
426,178,221867,1,0,0:0:0:0:
435,175,222029,1,8,0:0:0:0:
435,175,222190,1,8,0:0:0:0:
436,175,222351,1,8,0:0:0:0:
426,178,222512,1,0,0:0:0:0:
417,171,222674,1,8,0:0:0:0:
450,195,222835,1,0,0:0:0:0:
412,182,222996,1,8,0:0:0:0:
403,153,223158,1,0,0:0:0:0:
403,154,223211,1,0,0:0:0:0:
403,154,223265,1,0,0:0:0:0:
377,196,223319,1,8,0:0:0:0:
256,192,223399,12,0,227189,0:0:0:0:
256,192,229771,12,0,232190,0:0:0:0:
381,222,232353,5,0,0:0:0:0:
280,207,232514,1,0,0:0:0:0:
474,179,232675,1,8,0:0:0:0:
435,177,232836,1,0,0:0:0:0:
428,182,232998,1,8,0:0:0:0:
427,182,233159,1,8,0:0:0:0:
412,160,233320,1,0,0:0:0:0:
412,160,233482,1,8,0:0:0:0:
405,162,233643,1,4,0:0:0:0:
456,251,234933,1,0,0:0:0:0:
411,208,235578,1,8,0:0:0:0:
462,184,236223,1,8,0:0:0:0:
483,160,236707,1,0,0:0:0:0:
488,183,237191,1,8,0:0:0:0:
462,176,237514,1,0,0:0:0:0:
434,179,238159,1,8,0:0:0:0:
457,220,238804,1,8,0:0:0:0:
458,211,240094,1,8,0:0:0:0:
435,171,240417,1,0,0:0:0:0:
468,173,240740,1,8,0:0:0:0:
468,173,241062,1,8,0:0:0:0:
472,258,241385,1,8,0:0:0:0:
475,179,242675,1,0,0:0:0:0:
462,169,242998,1,8,0:0:0:0:
462,169,243320,1,8,0:0:0:0:
465,204,243643,1,0,0:0:0:0:
427,172,243965,1,0,0:0:0:0:
449,193,245256,1,0,0:0:0:0:
470,182,245901,1,8,0:0:0:0:
470,182,246546,1,8,0:0:0:0:
404,174,247030,1,0,0:0:0:0:
462,167,247514,1,8,0:0:0:0:
468,220,247836,1,8,0:0:0:0:
487,171,248159,1,0,0:0:0:0:
482,177,248482,1,8,0:0:0:0:
482,177,248804,1,8,0:0:0:0:
456,169,249127,1,0,0:0:0:0:
444,223,250740,1,0,0:0:0:0:
457,168,251062,1,8,0:0:0:0:
457,168,251385,1,8,0:0:0:0:
256,192,251707,12,0,254127,0:0:0:0:
324,196,254288,5,4,0:0:0:0:
413,171,254449,1,0,0:0:0:0:
440,184,254611,1,8,0:0:0:0:
407,163,254852,1,8,0:0:0:0:
397,166,254933,1,0,0:0:0:0:
480,160,255014,1,8,0:0:0:0:
441,193,255094,1,0,0:0:0:0:
448,192,255256,1,8,0:0:0:0:
416,160,255336,1,0,0:0:0:0:
448,192,255417,1,8,0:0:0:0:
379,182,255498,1,8,0:0:0:0:
453,181,255578,1,0,0:0:0:0:
461,159,255659,1,8,0:0:0:0:
453,299,255901,1,8,0:0:0:0:
448,160,256062,1,0,0:0:0:0:
448,192,256143,1,8,0:0:0:0:
448,256,256223,1,8,0:0:0:0:
480,160,256385,1,8,0:0:0:0:
480,160,256465,1,0,0:0:0:0:
480,192,256546,1,8,0:0:0:0:
384,192,256627,1,0,0:0:0:0:
448,192,256707,1,8,0:0:0:0:
448,192,256788,1,8,0:0:0:0:
448,160,256869,1,0,0:0:0:0:
480,192,257030,1,0,0:0:0:0:
448,192,257191,1,8,0:0:0:0:
416,192,257352,1,0,0:0:0:0:
416,192,257433,1,0,0:0:0:0:
416,160,257594,1,8,0:0:0:0:
448,192,257675,1,0,0:0:0:0:
448,192,257836,1,8,0:0:0:0:
448,160,257917,1,0,0:0:0:0:
448,160,257998,1,0,0:0:0:0:
448,160,258078,1,8,0:0:0:0:
480,160,258159,1,0,0:0:0:0:
416,192,258240,1,8,0:0:0:0:
480,192,258482,1,8,0:0:0:0:
448,160,258643,1,0,0:0:0:0:
448,160,258723,1,8,0:0:0:0:
480,192,258965,1,8,0:0:0:0:
448,160,259127,1,8,0:0:0:0:
480,160,259288,1,0,0:0:0:0:
416,160,259449,1,8,0:0:0:0:
448,160,259530,1,8,0:0:0:0:
448,160,259611,1,0,0:0:0:0:
448,160,259691,1,8,0:0:0:0:
448,160,259772,1,8,0:0:0:0:
480,192,259852,1,8,0:0:0:0:
448,160,259933,1,0,0:0:0:0:
416,160,260094,1,8,0:0:0:0:
448,192,260256,1,0,0:0:0:0:
448,192,260336,1,0,0:0:0:0:
448,160,260417,1,8,0:0:0:0:
428,183,260578,1,0,0:0:0:0:
454,176,260740,1,8,0:0:0:0:
454,176,260820,1,8,0:0:0:0:
480,192,260901,1,0,0:0:0:0:
424,188,261062,1,8,0:0:0:0:
448,192,261223,1,0,0:0:0:0:
434,176,261304,1,8,0:0:0:0:
454,176,261385,1,0,0:0:0:0:
448,192,261546,1,0,0:0:0:0:
416,160,261627,1,8,0:0:0:0:
416,224,261707,1,0,0:0:0:0:
416,192,261788,1,0,0:0:0:0:
448,192,261869,1,8,0:0:0:0:
352,160,262030,1,8,0:0:0:0:
448,160,262191,1,0,0:0:0:0:
448,160,262272,1,8,0:0:0:0:
448,160,262433,1,0,0:0:0:0:
448,160,262514,1,0,0:0:0:0:
480,160,262756,1,0,0:0:0:0:
480,160,262836,1,8,0:0:0:0:
480,160,262998,1,8,0:0:0:0:
352,128,263159,1,8,0:0:0:0:
448,224,263240,1,0,0:0:0:0:
480,192,263320,1,8,0:0:0:0:
448,192,263482,1,0,0:0:0:0:
448,192,263562,1,8,0:0:0:0:
384,160,263723,1,8,0:0:0:0:
448,224,263804,1,8,0:0:0:0:
416,192,263885,1,0,0:0:0:0:
480,160,263965,1,8,0:0:0:0:
480,160,264127,1,0,0:0:0:0:
480,160,264207,1,8,0:0:0:0:
448,160,264288,1,0,0:0:0:0:
448,160,264369,1,0,0:0:0:0:
448,160,264449,1,8,0:0:0:0:
416,160,264611,1,4,0:0:0:0:
448,192,265901,1,0,0:0:0:0:
448,192,266062,1,0,0:0:0:0:
489,230,266223,1,8,0:0:0:0:
448,192,266385,1,0,0:0:0:0:
448,192,266546,1,0,0:0:0:0:
457,201,266707,1,8,0:0:0:0:
448,160,266869,1,0,0:0:0:0:
480,192,267030,1,0,0:0:0:0:
480,192,267111,1,0,0:0:0:0:
448,160,267191,1,8,0:0:0:0:
480,192,267353,1,0,0:0:0:0:
480,192,267514,1,0,0:0:0:0:
416,192,267675,1,8,0:0:0:0:
416,192,267836,1,0,0:0:0:0:
512,192,267998,1,0,0:0:0:0:
448,160,268159,1,8,0:0:0:0:
384,192,268320,1,0,0:0:0:0:
480,160,268482,1,4,0:0:0:0:
448,192,268643,1,0,0:0:0:0:
448,160,268804,1,12,0:0:0:0:
448,160,268965,1,0,0:0:0:0:
448,160,269127,1,12,0:0:0:0:
448,192,269288,1,0,0:0:0:0:
448,192,269449,1,8,0:0:0:0:
448,192,269530,1,8,0:0:0:0:
448,192,269611,1,8,0:0:0:0:
448,192,269691,1,8,0:0:0:0:
415,192,269772,1,0,0:0:0:0:
448,192,269933,1,0,0:0:0:0:
448,192,270094,1,0,0:0:0:0:
448,192,270256,1,0,0:0:0:0:
448,192,270417,1,0,0:0:0:0:
448,192,270578,1,0,0:0:0:0:
448,192,270740,1,0,0:0:0:0:
448,192,270901,1,0,0:0:0:0:
396,154,271062,1,12,0:0:0:0:
480,192,271223,1,0,0:0:0:0:
480,192,271385,1,0,0:0:0:0:
480,192,271546,1,0,0:0:0:0:
480,192,271707,1,0,0:0:0:0:
480,192,271869,1,0,0:0:0:0:
480,192,272030,1,0,0:0:0:0:
480,192,272191,1,0,0:0:0:0:
480,192,272352,1,8,0:0:0:0:
448,192,272433,1,0,0:0:0:0:
448,192,272514,5,0,0:0:0:0:
448,192,272594,1,0,0:0:0:0:
448,192,272675,1,0,0:0:0:0:
448,192,272756,1,0,0:0:0:0:
448,192,272836,1,0,0:0:0:0:
448,192,272917,1,0,0:0:0:0:
480,128,272998,1,8,0:0:0:0:
480,192,273078,1,0,0:0:0:0:
512,192,273159,1,0,0:0:0:0:
512,192,273240,1,0,0:0:0:0:
416,192,273320,1,0,0:0:0:0:
416,192,273401,1,0,0:0:0:0:
416,192,273482,1,0,0:0:0:0:
416,192,273562,1,0,0:0:0:0:
512,160,273643,1,8,0:0:0:0:
384,192,273697,1,8,0:0:0:0:
480,192,273750,1,8,0:0:0:0:
480,192,273804,1,8,0:0:0:0:
480,192,273858,1,8,0:0:0:0:
448,192,273912,1,8,0:0:0:0:
448,192,273965,1,0,0:0:0:0:
448,160,274046,1,0,0:0:0:0:
416,192,274127,1,8,0:0:0:0:
480,160,274207,1,0,0:0:0:0:
480,160,274288,1,8,0:0:0:0:
480,160,274328,1,8,0:0:0:0:
480,160,274369,1,8,0:0:0:0:
480,192,274409,1,0,0:0:0:0:
480,160,274530,1,8,0:0:0:0:
480,160,274570,1,8,0:0:0:0:
480,160,274611,1,8,0:0:0:0:
480,160,274651,1,0,0:0:0:0:
448,160,274772,1,8,0:0:0:0:
448,160,274812,1,8,0:0:0:0:
448,160,274852,1,8,0:0:0:0:
256,192,274933,12,0,275417,0:0:0:0:
448,160,275578,5,0,0:0:0:0:
448,160,275659,1,0,0:0:0:0:
448,192,275740,1,8,0:0:0:0:
448,192,275820,1,0,0:0:0:0:
448,192,275901,1,8,0:0:0:0:
448,192,275982,1,8,0:0:0:0:
424,236,276062,1,8,0:0:0:0:
355,165,276224,1,4,0:0:0:0:
448,160,276385,1,8,0:0:0:0:
448,160,276439,1,8,0:0:0:0:
448,160,276492,1,8,0:0:0:0:
416,192,276546,1,0,0:0:0:0:
388,172,276707,1,8,0:0:0:0:
396,166,276869,1,0,0:0:0:0:
448,160,276949,1,0,0:0:0:0:
416,160,277030,1,8,0:0:0:0:
448,160,277191,1,8,0:0:0:0:
480,160,277272,1,0,0:0:0:0:
448,160,277353,1,8,0:0:0:0:
448,160,277433,1,8,0:0:0:0:
448,192,277514,1,0,0:0:0:0:
448,160,277594,1,8,0:0:0:0:
416,192,277756,1,0,0:0:0:0:
448,192,277836,1,8,0:0:0:0:
448,160,277998,1,0,0:0:0:0:
448,160,278078,1,8,0:0:0:0:
448,160,278159,1,0,0:0:0:0:
448,160,278240,1,0,0:0:0:0:
448,192,278320,1,8,0:0:0:0:
448,160,278401,1,0,0:0:0:0:
448,192,278482,1,8,0:0:0:0:
480,192,278643,1,0,0:0:0:0:
448,256,278804,1,8,0:0:0:0:
446,212,278965,1,0,0:0:0:0:
450,210,279046,1,8,0:0:0:0:
448,256,279127,1,0,0:0:0:0:
448,192,279288,1,8,0:0:0:0:
448,160,279449,1,0,0:0:0:0:
448,192,279530,1,8,0:0:0:0:
416,192,279691,1,8,0:0:0:0:
480,192,279772,1,0,0:0:0:0:
480,192,279853,1,0,0:0:0:0:
448,192,279933,1,8,0:0:0:0:
480,192,280014,1,8,0:0:0:0:
512,160,280094,1,0,0:0:0:0:
448,192,280175,1,8,0:0:0:0:
448,192,280336,1,0,0:0:0:0:
448,192,280417,1,8,0:0:0:0:
448,192,280578,1,0,0:0:0:0:
448,192,280659,1,8,0:0:0:0:
480,192,280740,1,8,0:0:0:0:
480,192,280901,1,8,0:0:0:0:
480,160,280982,1,0,0:0:0:0:
448,192,281062,1,8,0:0:0:0:
448,192,281143,1,8,0:0:0:0:
416,160,281224,1,0,0:0:0:0:
416,224,281304,1,0,0:0:0:0:
448,192,281385,1,8,0:0:0:0:
448,192,281465,1,8,0:0:0:0:
494,198,281546,1,0,0:0:0:0:
448,192,281627,1,8,0:0:0:0:
432,151,281707,1,8,0:0:0:0:
393,170,281869,1,8,0:0:0:0:
418,195,282030,1,0,0:0:0:0:
465,238,282191,1,0,0:0:0:0:
412,210,282272,1,0,0:0:0:0:
405,173,282675,1,8,0:0:0:0:
465,238,282836,1,0,0:0:0:0:
412,210,282917,1,0,0:0:0:0:
414,191,282998,1,8,0:0:0:0:
418,181,283159,1,0,0:0:0:0:
430,183,283320,1,8,0:0:0:0:
440,170,283401,1,0,0:0:0:0:
440,170,283482,1,0,0:0:0:0:
408,175,283562,1,8,0:0:0:0:
482,176,283724,1,0,0:0:0:0:
440,177,283804,1,8,0:0:0:0:
441,181,283885,1,0,0:0:0:0:
440,177,283965,1,8,0:0:0:0:
454,171,284127,1,0,0:0:0:0:
460,187,284207,1,8,0:0:0:0:
384,192,284369,1,8,0:0:0:0:
431,174,284449,1,0,0:0:0:0:
429,177,284611,1,0,0:0:0:0:
439,187,285256,1,8,0:0:0:0:
469,198,285336,1,0,0:0:0:0:
469,198,285417,1,0,0:0:0:0:
445,183,285498,1,8,0:0:0:0:
499,178,285659,1,0,0:0:0:0:
470,178,285740,1,8,0:0:0:0:
451,178,285820,1,0,0:0:0:0:
456,175,285901,1,8,0:0:0:0:
460,171,285982,1,0,0:0:0:0:
460,171,286062,1,0,0:0:0:0:
453,183,286143,1,8,0:0:0:0:
453,183,286304,1,8,0:0:0:0:
433,177,286385,1,0,0:0:0:0:
432,220,286546,1,12,0:0:0:0:
414,207,286707,1,0,0:0:0:0:
451,174,286788,1,8,0:0:0:0:
451,172,286869,1,8,0:0:0:0:
421,174,287030,1,0,0:0:0:0:
416,176,287191,1,0,0:0:0:0:
444,180,287272,1,8,0:0:0:0:
451,174,287353,1,0,0:0:0:0:
451,174,287433,1,0,0:0:0:0:
439,175,287514,1,8,0:0:0:0:
430,213,287675,1,8,0:0:0:0:
449,280,287836,1,0,0:0:0:0:
397,192,287998,1,0,0:0:0:0:
454,176,288078,1,8,0:0:0:0:
451,174,288159,1,0,0:0:0:0:
451,174,288240,1,0,0:0:0:0:
421,164,288320,1,8,0:0:0:0:
419,164,288482,1,8,0:0:0:0:
428,168,288643,1,0,0:0:0:0:
415,177,288724,1,8,0:0:0:0:
408,170,288804,1,0,0:0:0:0:
432,170,288885,1,8,0:0:0:0:
421,169,288965,1,8,0:0:0:0:
512,160,289127,1,8,0:0:0:0:
423,161,289288,1,0,0:0:0:0:
448,288,289369,1,8,0:0:0:0:
467,163,289530,1,0,0:0:0:0:
417,162,289611,1,8,0:0:0:0:
491,183,289691,1,0,0:0:0:0:
434,165,289772,1,8,0:0:0:0:
434,165,289853,1,8,0:0:0:0:
428,161,289933,1,0,0:0:0:0:
405,155,290014,1,8,0:0:0:0:
314,149,290175,1,0,0:0:0:0:
437,172,290256,1,8,0:0:0:0:
402,166,290336,1,0,0:0:0:0:
444,171,290417,1,8,0:0:0:0:
446,158,290578,1,0,0:0:0:0:
448,157,290740,1,12,0:0:0:0:
474,203,290901,1,0,0:0:0:0:
449,163,291062,1,12,0:0:0:0:
432,184,291224,1,8,0:0:0:0:
431,174,291385,1,4,0:0:0:0:
471,171,291707,1,8,0:0:0:0:
471,171,291788,1,8,0:0:0:0:
471,171,291869,1,8,0:0:0:0:
471,171,291949,1,8,0:0:0:0:
467,177,292030,1,0,0:0:0:0:
460,168,292111,1,0,0:0:0:0:
460,168,292191,1,0,0:0:0:0:
460,168,292272,1,0,0:0:0:0:
418,165,292353,1,8,0:0:0:0:
418,165,292433,1,8,0:0:0:0:
416,192,292514,1,0,0:0:0:0:
448,192,292594,1,8,0:0:0:0:
448,160,292675,1,0,0:0:0:0:
448,160,292756,1,0,0:0:0:0:
480,192,292836,1,8,0:0:0:0:
502,180,292917,1,0,0:0:0:0:
432,169,292998,1,8,0:0:0:0:
436,205,293078,1,8,0:0:0:0:
432,169,293159,1,8,0:0:0:0:
440,197,293240,1,0,0:0:0:0:
424,174,293320,1,8,0:0:0:0:
464,160,293401,1,0,0:0:0:0:
432,176,293482,1,0,0:0:0:0:
432,176,293562,1,0,0:0:0:0:
437,194,293643,1,8,0:0:0:0:
451,182,293724,1,8,0:0:0:0:
430,177,293804,1,0,0:0:0:0:
449,180,293885,1,8,0:0:0:0:
420,176,293965,1,0,0:0:0:0:
424,174,294046,1,0,0:0:0:0:
424,181,294127,1,8,0:0:0:0:
431,181,294288,1,0,0:0:0:0:
431,181,294449,1,0,0:0:0:0:
431,182,294611,1,0,0:0:0:0:
431,182,294772,1,0,0:0:0:0:
435,188,294933,1,8,0:0:0:0:
435,188,295094,1,8,0:0:0:0:
435,188,295256,1,8,0:0:0:0:
435,188,295417,1,8,0:0:0:0:
440,181,295578,1,0,0:0:0:0:
440,181,295659,1,0,0:0:0:0:
440,181,295740,1,0,0:0:0:0:
440,181,295820,1,0,0:0:0:0:
447,193,295901,1,8,0:0:0:0:
447,194,295955,1,8,0:0:0:0:
447,194,296008,1,8,0:0:0:0:
445,174,296062,1,0,0:0:0:0:
458,172,296143,1,0,0:0:0:0:
474,189,296224,1,8,0:0:0:0:
474,189,296465,1,8,0:0:0:0:
474,189,296707,1,8,0:0:0:0:
450,182,296869,1,4,0:0:0:0:
430,186,297030,1,8,0:0:0:0:
430,187,297084,1,8,0:0:0:0:
430,186,297137,1,8,0:0:0:0:
450,182,297191,1,0,0:0:0:0:
413,190,297514,1,0,0:0:0:0:
420,182,297756,1,0,0:0:0:0:
401,173,297836,1,8,0:0:0:0:
440,220,297998,1,0,0:0:0:0:
411,177,298159,1,4,0:0:0:0:
428,177,298320,1,0,0:0:0:0:
423,194,298401,1,8,0:0:0:0:
409,182,298482,1,8,0:0:0:0:
385,212,298643,1,0,0:0:0:0:
396,183,298724,1,8,0:0:0:0:
480,172,298885,1,0,0:0:0:0:
448,192,298965,1,8,0:0:0:0:
416,192,299046,1,0,0:0:0:0:
442,192,299127,1,8,0:0:0:0:
443,192,299207,1,8,0:0:0:0:
483,172,299288,1,0,0:0:0:0:
434,196,299369,1,0,0:0:0:0:
471,170,299449,1,8,0:0:0:0:
434,250,299611,1,0,0:0:0:0:
434,250,299691,1,0,0:0:0:0:
448,192,299772,1,8,0:0:0:0:
434,250,299933,1,0,0:0:0:0:
434,250,300014,1,0,0:0:0:0:
512,160,300175,1,8,0:0:0:0:
448,192,300256,1,0,0:0:0:0:
448,192,300336,1,0,0:0:0:0:
448,192,300417,1,8,0:0:0:0:
448,192,300498,1,0,0:0:0:0:
480,192,300578,1,8,0:0:0:0:
480,192,300659,1,8,0:0:0:0:
480,192,300740,1,0,0:0:0:0:
480,192,300820,1,8,0:0:0:0:
442,195,300982,1,0,0:0:0:0:
429,171,301062,1,8,0:0:0:0:
448,160,301224,1,0,0:0:0:0:
448,192,301304,1,8,0:0:0:0:
448,160,301385,1,0,0:0:0:0:
416,160,301465,1,0,0:0:0:0:
448,192,301546,1,8,0:0:0:0:
416,160,301627,1,0,0:0:0:0:
448,160,301707,1,8,0:0:0:0:
448,160,301788,1,8,0:0:0:0:
429,171,301869,1,0,0:0:0:0:
448,192,301949,1,0,0:0:0:0:
416,192,302030,1,8,0:0:0:0:
448,192,302111,1,8,0:0:0:0:
448,192,302191,1,8,0:0:0:0:
448,192,302272,1,8,0:0:0:0:
448,192,302353,1,0,0:0:0:0:
448,192,302514,1,0,0:0:0:0:
429,171,302675,1,8,0:0:0:0:
448,160,302836,1,0,0:0:0:0:
448,192,302917,1,8,0:0:0:0:
448,192,302998,1,8,0:0:0:0:
429,171,303159,1,8,0:0:0:0:
416,192,303240,1,0,0:0:0:0:
448,160,303320,1,8,0:0:0:0:
512,160,303401,1,8,0:0:0:0:
512,160,303482,1,8,0:0:0:0:
512,160,303562,1,8,0:0:0:0:
480,160,303643,1,0,0:0:0:0:
480,160,303724,1,0,0:0:0:0:
480,160,303804,1,0,0:0:0:0:
480,160,303885,1,0,0:0:0:0:
480,160,303965,1,8,0:0:0:0:
512,192,304046,1,8,0:0:0:0:
480,192,304127,1,0,0:0:0:0:
480,160,304207,1,8,0:0:0:0:
480,160,304288,1,0,0:0:0:0:
480,160,304369,1,0,0:0:0:0:
480,160,304449,1,8,0:0:0:0:
480,160,304530,1,0,0:0:0:0:
480,160,304611,1,8,0:0:0:0:
456,150,304691,1,8,0:0:0:0:
480,160,304772,1,0,0:0:0:0:
448,160,304853,1,8,0:0:0:0:
477,260,305014,1,8,0:0:0:0:
477,166,305094,1,0,0:0:0:0:
480,192,305256,1,0,0:0:0:0:
480,160,305336,1,8,0:0:0:0:
480,160,305417,1,0,0:0:0:0:
480,160,305498,1,0,0:0:0:0:
448,160,305578,1,8,0:0:0:0:
480,160,305740,1,8,0:0:0:0:
448,160,305901,1,0,0:0:0:0:
448,160,306062,1,0,0:0:0:0:
448,160,306143,1,8,0:0:0:0:
448,160,306304,1,8,0:0:0:0:
448,160,306385,1,0,0:0:0:0:
448,160,306465,1,0,0:0:0:0:
448,160,306546,1,8,0:0:0:0:
448,160,306707,1,8,0:0:0:0:
416,192,306788,1,0,0:0:0:0:
448,160,306949,1,0,0:0:0:0:
448,160,307030,1,0,0:0:0:0:
480,192,307191,1,12,0:0:0:0:
416,224,308482,1,0,0:0:0:0:
448,160,309772,1,4,0:0:0:0:
448,224,310417,1,4,0:0:0:0:
448,160,311062,1,4,0:0:0:0:
448,160,311385,1,4,0:0:0:0:
480,160,311707,1,4,0:0:0:0:
480,160,312030,1,4,0:0:0:0:
416,160,312353,1,8,0:0:0:0:
480,160,312514,1,0,0:0:0:0:
416,160,312594,1,8,0:0:0:0:
458,164,312756,1,0,0:0:0:0:
447,160,312836,1,8,0:0:0:0:
423,171,312917,1,0,0:0:0:0:
423,171,312998,1,0,0:0:0:0:
448,192,313078,1,8,0:0:0:0:
480,160,313240,1,0,0:0:0:0:
448,160,313320,1,8,0:0:0:0:
448,160,313401,1,0,0:0:0:0:
448,160,313482,1,8,0:0:0:0:
407,167,313643,1,8,0:0:0:0:
373,191,313723,1,0,0:0:0:0:
449,175,313804,1,0,0:0:0:0:
479,177,313885,1,8,0:0:0:0:
468,167,314046,1,0,0:0:0:0:
453,166,314127,1,8,0:0:0:0:
453,166,314207,1,8,0:0:0:0:
410,174,314288,1,0,0:0:0:0:
420,175,314369,1,8,0:0:0:0:
459,164,314530,1,0,0:0:0:0:
477,157,314611,1,8,0:0:0:0:
483,216,314772,1,0,0:0:0:0:
436,171,314933,1,8,0:0:0:0:
442,175,315014,1,8,0:0:0:0:
442,175,315094,1,8,0:0:0:0:
464,180,315175,1,8,0:0:0:0:
464,169,315256,1,0,0:0:0:0:
464,170,315336,1,0,0:0:0:0:
464,174,315417,1,8,0:0:0:0:
477,172,315498,1,0,0:0:0:0:
405,199,315578,1,8,0:0:0:0:
405,199,315632,1,8,0:0:0:0:
405,199,315686,1,8,0:0:0:0:
428,182,315740,1,0,0:0:0:0:
369,184,315820,1,0,0:0:0:0:
434,178,315901,1,8,0:0:0:0:
469,149,315982,1,0,0:0:0:0:
428,182,316062,1,8,0:0:0:0:
300,181,316143,1,8,0:0:0:0:
436,178,316223,1,4,0:0:0:0:
256,192,316304,12,0,317353,0:0:0:0:
414,186,317514,5,8,0:0:0:0:
433,164,317675,1,0,0:0:0:0:
433,164,317836,1,0,0:0:0:0:
425,175,317998,1,8,0:0:0:0:
433,164,318159,1,0,0:0:0:0:
433,164,318320,1,0,0:0:0:0:
442,169,318482,1,8,0:0:0:0:
421,167,318643,1,0,0:0:0:0:
436,165,318804,1,0,0:0:0:0:
391,186,318965,1,8,0:0:0:0:
454,172,319127,1,0,0:0:0:0:
452,171,319288,1,0,0:0:0:0:
414,172,319449,1,8,0:0:0:0:
470,163,319611,1,0,0:0:0:0:
447,164,319772,1,8,0:0:0:0:
367,180,319933,1,8,0:0:0:0:
367,180,320014,1,8,0:0:0:0:
442,165,320094,1,8,0:0:0:0:
462,167,320256,1,0,0:0:0:0:
461,167,320417,1,0,0:0:0:0:
423,176,320578,1,8,0:0:0:0:
401,157,320740,1,0,0:0:0:0:
401,157,320901,1,0,0:0:0:0:
447,166,321062,1,8,0:0:0:0:
472,171,321223,1,0,0:0:0:0:
472,171,321304,1,0,0:0:0:0:
472,171,321385,1,0,0:0:0:0:
500,172,321546,1,8,0:0:0:0:
469,178,321707,1,0,0:0:0:0:
469,178,321869,1,0,0:0:0:0:
489,171,322030,1,8,0:0:0:0:
437,157,322191,1,0,0:0:0:0:
457,169,322353,1,8,0:0:0:0:
481,167,322433,1,0,0:0:0:0:
445,184,322514,1,8,0:0:0:0:
429,176,322594,1,0,0:0:0:0:
427,177,322675,1,8,0:0:0:0:
464,200,322756,1,0,0:0:0:0:
464,200,322836,1,0,0:0:0:0:
464,200,322917,1,0,0:0:0:0:
430,162,322998,1,8,0:0:0:0:
442,192,323078,1,0,0:0:0:0:
423,171,323159,1,8,0:0:0:0:
442,192,323240,1,0,0:0:0:0:
420,174,323320,1,0,0:0:0:0:
420,174,323401,1,0,0:0:0:0:
465,234,323482,1,0,0:0:0:0:
416,177,323562,1,0,0:0:0:0:
411,180,323643,1,8,0:0:0:0:
453,174,323723,1,8,0:0:0:0:
432,171,323804,1,0,0:0:0:0:
432,171,323885,1,0,0:0:0:0:
459,165,323965,1,8,0:0:0:0:
345,195,324046,1,0,0:0:0:0:
462,182,324127,1,0,0:0:0:0:
498,184,324207,1,0,0:0:0:0:
453,174,324288,1,8,0:0:0:0:
485,182,324369,1,0,0:0:0:0:
470,190,324449,1,8,0:0:0:0:
470,190,324530,1,8,0:0:0:0:
492,164,324611,1,0,0:0:0:0:
492,164,324691,1,0,0:0:0:0:
479,165,324772,1,8,0:0:0:0:
438,183,324853,1,0,0:0:0:0:
498,184,324933,1,8,0:0:0:0:
443,211,325014,1,8,0:0:0:0:
403,171,325094,1,0,0:0:0:0:
403,171,325175,1,0,0:0:0:0:
456,159,325256,1,8,0:0:0:0:
452,159,325310,1,8,0:0:0:0:
452,159,325363,1,8,0:0:0:0:
452,178,325417,1,0,0:0:0:0:
452,178,325471,1,0,0:0:0:0:
452,178,325525,1,0,0:0:0:0:
481,175,325578,1,8,0:0:0:0:
388,146,325659,1,8,0:0:0:0:
432,180,325740,1,0,0:0:0:0:
441,174,325820,1,0,0:0:0:0:
468,171,325901,1,8,0:0:0:0:
468,171,325955,1,8,0:0:0:0:
468,171,326008,1,8,0:0:0:0:
452,176,326062,1,0,0:0:0:0:
460,192,326143,1,0,0:0:0:0:
448,185,326223,1,8,0:0:0:0:
448,185,326277,1,8,0:0:0:0:
448,185,326331,1,8,0:0:0:0:
444,174,326385,1,0,0:0:0:0:
456,177,326465,1,0,0:0:0:0:
416,205,326546,1,8,0:0:0:0:
446,180,326627,1,0,0:0:0:0:
416,205,326707,1,8,0:0:0:0:
459,181,326788,1,8,0:0:0:0:
427,187,326869,1,0,0:0:0:0:
427,187,326949,1,0,0:0:0:0:
439,167,327030,1,8,0:0:0:0:
447,170,327111,1,0,0:0:0:0:
381,177,327191,1,8,0:0:0:0:
444,182,327272,1,8,0:0:0:0:
436,172,327353,1,8,0:0:0:0:
436,172,327433,1,8,0:0:0:0:
412,191,327514,1,0,0:0:0:0:
397,157,327568,1,0,0:0:0:0:
397,157,327621,1,0,0:0:0:0:
397,157,327675,1,0,0:0:0:0:
397,157,327729,1,0,0:0:0:0:
344,145,327783,1,0,0:0:0:0:
432,185,327836,1,8,0:0:0:0:
445,218,329772,1,0,0:0:0:0:
420,187,330417,1,8,0:0:0:0:
499,211,332353,1,8,0:0:0:0:
476,201,332998,1,8,0:0:0:0:
455,162,334611,1,0,0:0:0:0:
294,213,336707,5,0,0:0:0:0:
294,213,336748,1,0,0:0:0:0:
395,193,336788,1,8,0:0:0:0:
256,192,336869,12,0,342353,0:0:0:0:
