osu file format v14

[General]
AudioFilename: audio.mp3
AudioLeadIn: 0
PreviewTime: 204893
Countdown: 0
SampleSet: Soft
StackLeniency: 0.3
Mode: 2
LetterboxInBreaks: 0
WidescreenStoryboard: 0

[Editor]
DistanceSpacing: 0.7
BeatDivisor: 4
GridSize: 4
TimelineZoom: 5.399997

[Metadata]
Title:salvation
TitleUnicode:salvation
Artist:Yooh
ArtistUnicode:Yooh
Creator:alienflybot
Version:crucifixion
Source:
Tags:Voltage Ignition 2 AFB
BeatmapID:1758740
BeatmapSetID:840189

[Difficulty]
HPDrainRate:6
CircleSize:4.5
OverallDifficulty:9.6
ApproachRate:9.6
SliderMultiplier:3.28
SliderTickRate:1

[Events]
//Background and Video events
0,0,"divine_step_AnatoFinnstark.png",0,0
//Break Periods
2,198869,203044
//Storyboard Layer 0 (Background)
//Storyboard Layer 1 (Fail)
//Storyboard Layer 2 (Pass)
//Storyboard Layer 3 (Foreground)
//Storyboard Sound Samples

[TimingPoints]
1171,312.5,4,2,1,40,1,0
1171,-166.666666666667,4,2,1,40,0,0
1327,-166.666666666667,4,2,1,30,0,0
1483,-166.666666666667,4,2,1,22,0,0
1639,-166.666666666667,4,2,1,16,0,0
1796,-166.666666666667,4,2,1,12,0,0
1952,-166.666666666667,4,2,1,10,0,0
2421,-166.666666666667,4,2,1,40,0,0
12421,-128.205128205128,4,2,1,47,0,0
12577,-128.205128205128,4,2,1,40,0,0
13046,-166.666666666667,4,2,1,40,0,0
15233,-128.205128205128,4,2,1,40,0,0
15546,-166.666666666667,4,2,1,40,0,0
17733,-128.205128205128,4,2,1,40,0,0
18358,-166.666666666667,4,2,1,40,0,0
19921,-128.205128205128,4,2,1,40,0,0
20546,-166.666666666667,4,2,1,40,0,0
22421,-166.666666666667,4,2,2,52,0,0
22577,-166.666666666667,4,2,2,40,0,0
22733,-166.666666666667,4,2,2,60,0,0
23046,-166.666666666667,4,2,2,40,0,0
23358,-166.666666666667,4,2,2,60,0,0
23671,-166.666666666667,4,2,2,40,0,0
23983,-166.666666666667,4,2,2,60,0,0
24296,-166.666666666667,4,2,2,40,0,0
24608,-166.666666666667,4,2,2,60,0,0
24921,-166.666666666667,4,2,2,52,0,0
25233,-128.205128205128,4,2,2,60,0,0
25546,-166.666666666667,4,2,2,40,0,0
25858,-166.666666666667,4,2,2,60,0,0
26171,-166.666666666667,4,2,2,40,0,0
26483,-166.666666666667,4,2,2,60,0,0
26796,-166.666666666667,4,2,2,40,0,0
27108,-166.666666666667,4,2,2,60,0,0
27421,-166.666666666667,4,2,2,55,0,0
27577,-166.666666666667,4,2,2,40,0,0
27733,-166.666666666667,4,2,2,60,0,0
28671,-166.666666666667,4,2,2,55,0,0
28827,-166.666666666667,4,2,2,60,0,0
29921,-166.666666666667,4,2,2,55,0,0
29999,-166.666666666667,4,2,2,37,0,0
30077,-166.666666666667,4,2,2,30,0,0
30233,-166.666666666667,4,2,2,50,0,0
30311,-166.666666666667,4,2,2,42,0,0
30389,-166.666666666667,4,2,2,35,0,0
30546,-166.666666666667,4,2,2,45,0,0
30702,-166.666666666667,4,2,2,55,0,0
30858,-166.666666666667,4,2,2,45,0,0
31171,-166.666666666667,4,2,2,50,0,0
31327,-166.666666666667,4,2,2,40,0,0
31483,-166.666666666667,4,2,2,50,0,0
31952,-166.666666666667,4,2,2,40,0,0
32147,-166.666666666667,4,2,2,32,0,0
32186,-166.666666666667,4,2,2,26,0,0
32225,-166.666666666667,4,2,2,22,0,0
32264,-166.666666666667,4,2,2,20,0,0
32303,-166.666666666667,4,2,2,22,0,0
32342,-166.666666666667,4,2,2,26,0,0
32421,-166.666666666667,4,2,3,70,0,0
32577,-166.666666666667,4,2,3,60,0,0
49921,-166.666666666667,4,2,2,80,0,0
50077,-166.666666666667,4,2,3,60,0,0
51171,-166.666666666667,4,2,2,80,0,0
51327,-166.666666666667,4,2,3,60,0,0
51796,-166.666666666667,4,2,20,80,0,0
51952,-166.666666666667,4,2,3,60,0,0
53046,-166.666666666667,4,2,3,70,0,0
53202,-166.666666666667,4,2,3,60,0,0
53280,-166.666666666667,4,2,3,70,0,0
53358,-166.666666666667,4,2,3,60,0,0
53514,-166.666666666667,4,2,3,70,0,0
53592,-166.666666666667,4,2,3,60,0,0
54296,-166.666666666667,4,2,3,70,0,0
54452,-166.666666666667,4,2,3,60,0,0
54530,-166.666666666667,4,2,3,70,0,0
54608,-166.666666666667,4,2,3,60,0,0
54764,-166.666666666667,4,2,3,70,0,0
54842,-166.666666666667,4,2,3,60,0,0
55546,-166.666666666667,4,2,3,70,0,0
55702,-166.666666666667,4,2,3,60,0,0
55780,-166.666666666667,4,2,3,70,0,0
55858,-166.666666666667,4,2,3,60,0,0
56014,-166.666666666667,4,2,3,70,0,0
56092,-166.666666666667,4,2,3,60,0,0
56796,-166.666666666667,4,2,3,70,0,0
56952,-166.666666666667,4,2,3,60,0,0
57030,-166.666666666667,4,2,3,70,0,0
57108,-166.666666666667,4,2,3,60,0,0
57264,-166.666666666667,4,2,3,70,0,0
57342,-166.666666666667,4,2,3,60,0,0
58046,-166.666666666667,4,2,3,70,0,0
58124,-166.666666666667,4,2,3,60,0,0
59296,-166.666666666667,4,2,3,70,0,0
59452,-166.666666666667,4,2,3,60,0,0
59530,-166.666666666667,4,2,3,70,0,0
59608,-166.666666666667,4,2,3,60,0,0
59764,-166.666666666667,4,2,3,70,0,0
59842,-166.666666666667,4,2,3,60,0,0
60546,-166.666666666667,4,2,3,70,0,0
60702,-166.666666666667,4,2,3,60,0,0
60780,-166.666666666667,4,2,3,70,0,0
60858,-166.666666666667,4,2,3,60,0,0
61014,-166.666666666667,4,2,3,70,0,0
61092,-166.666666666667,4,2,3,60,0,0
61796,-166.666666666667,4,2,3,70,0,0
61952,-166.666666666667,4,2,3,60,0,0
63046,-166.666666666667,4,2,3,70,0,0
63202,-166.666666666667,4,2,3,60,0,0
63280,-166.666666666667,4,2,3,70,0,0
63358,-166.666666666667,4,2,3,60,0,0
63514,-166.666666666667,4,2,3,70,0,0
63592,-166.666666666667,4,2,3,60,0,0
64296,-166.666666666667,4,2,3,70,0,0
64452,-166.666666666667,4,2,3,60,0,0
64530,-166.666666666667,4,2,3,70,0,0
64608,-166.666666666667,4,2,3,60,0,0
64764,-166.666666666667,4,2,3,70,0,0
64842,-166.666666666667,4,2,3,60,0,0
65546,-166.666666666667,4,2,3,70,0,0
65702,-166.666666666667,4,2,3,60,0,0
65780,-166.666666666667,4,2,3,70,0,0
65858,-166.666666666667,4,2,3,60,0,0
66014,-166.666666666667,4,2,3,70,0,0
66092,-166.666666666667,4,2,3,60,0,0
66796,-166.666666666667,4,2,3,70,0,0
66952,-166.666666666667,4,2,3,60,0,0
67030,-166.666666666667,4,2,3,70,0,0
67108,-166.666666666667,4,2,3,60,0,0
67264,-166.666666666667,4,2,3,70,0,0
67342,-166.666666666667,4,2,3,60,0,0
68046,-166.666666666667,4,2,3,70,0,0
68202,-166.666666666667,4,2,3,60,0,0
68280,-166.666666666667,4,2,3,70,0,0
68358,-166.666666666667,4,2,3,60,0,0
68514,-166.666666666667,4,2,3,70,0,0
68592,-166.666666666667,4,2,3,60,0,0
69296,-166.666666666667,4,2,3,70,0,0
69374,-166.666666666667,4,2,3,60,0,0
70546,-166.666666666667,4,2,3,70,0,0
70624,-166.666666666667,4,2,3,60,0,0
70780,-166.666666666667,4,2,3,70,0,0
70858,-166.666666666667,4,2,3,60,0,0
71014,-166.666666666667,4,2,3,70,0,0
71092,-166.666666666667,4,2,3,60,0,0
71171,-163.934426229508,4,2,3,60,0,0
71639,-66.2251655629139,4,2,3,60,0,0
71874,-107.52688172043,4,2,3,60,0,0
72108,-66.2251655629139,4,2,3,60,0,0
72420,312.5,3,2,4,60,1,0
72420,-166.666666666667,3,2,4,60,0,0
79086,-166.666666666667,3,2,4,50,0,0
79190,-166.666666666667,3,2,4,42,0,0
79295,-166.666666666667,3,2,4,36,0,0
79399,-166.666666666667,3,2,4,32,0,0
79503,-166.666666666667,3,2,4,30,0,0
79607,-166.666666666667,3,2,4,32,0,0
79711,-166.666666666667,3,2,4,36,0,0
79815,-166.666666666667,3,2,4,42,0,0
79920,-166.666666666667,3,2,4,60,0,0
83670,-166.666666666667,3,2,30,50,0,0
83748,-166.666666666667,3,2,4,44,0,0
83826,-166.666666666667,3,2,4,40,0,0
83904,-166.666666666667,3,2,4,38,0,0
83982,-166.666666666667,3,2,4,50,0,0
84060,-166.666666666667,3,2,4,44,0,0
84138,-166.666666666667,3,2,4,40,0,0
84216,-166.666666666667,3,2,4,38,0,0
84295,-166.666666666667,3,2,4,50,0,0
84373,-166.666666666667,3,2,4,44,0,0
84451,-166.666666666667,3,2,4,50,0,0
84529,-166.666666666667,3,2,4,44,0,0
84607,-166.666666666667,3,2,30,50,0,0
84685,-166.666666666667,3,2,4,44,0,0
84763,-166.666666666667,3,2,4,50,0,0
84841,-166.666666666667,3,2,4,44,0,0
84920,-166.666666666667,3,2,4,40,0,0
84998,-166.666666666667,3,2,4,38,0,0
85076,-166.666666666667,3,2,4,50,0,0
85154,-166.666666666667,3,2,4,44,0,0
85232,-166.666666666667,3,2,4,40,0,0
85310,-166.666666666667,3,2,4,38,0,0
85388,-166.666666666667,3,2,4,50,0,0
85466,-166.666666666667,3,2,4,44,0,0
85545,-84.0336134453781,3,2,3,60,0,0
85857,-128.205128205128,3,2,3,60,0,0
86482,-84.0336134453781,3,2,3,80,0,0
86795,-128.205128205128,3,2,3,60,0,0
87107,-84.7457627118644,3,2,3,60,0,0
87420,312.5,5,3,50,50,1,0
89607,-166.666666666667,5,3,50,20,0,0
90076,-166.666666666667,5,3,50,26,0,0
90779,-166.666666666667,5,3,50,34,0,0
91404,-166.666666666667,5,3,50,44,0,0
92029,-166.666666666667,5,3,50,56,0,0
92732,-166.666666666667,5,3,50,80,0,0
92888,-166.666666666667,5,3,50,68,0,0
93045,-166.666666666667,5,3,50,52,0,0
93201,-166.666666666667,5,3,50,32,0,0
93357,-166.666666666667,5,3,50,8,0,0
93669,312.5,3,2,1,40,1,0
93669,-166.666666666667,3,2,1,40,0,0
107887,-166.666666666667,3,2,1,20,0,0
108044,-166.666666666667,3,2,1,22,0,0
108200,-166.666666666667,3,2,1,26,0,0
108356,-166.666666666667,3,2,1,32,0,0
108669,-166.666666666667,3,2,30,40,0,0
108825,-166.666666666667,3,2,1,60,0,0
122887,-166.666666666667,3,2,1,40,0,0
123044,-166.666666666667,3,2,1,42,0,0
123200,-166.666666666667,3,2,1,46,0,0
123356,-166.666666666667,3,2,1,52,0,0
123669,-166.666666666667,3,2,3,60,0,0
125075,-166.666666666667,3,2,30,60,0,0
125544,-166.666666666667,3,2,3,60,0,0
126481,-166.666666666667,3,2,30,60,0,0
127419,-166.666666666667,3,2,3,60,0,0
128356,-166.666666666667,3,2,30,60,0,0
129294,-166.666666666667,3,2,3,60,0,0
130231,-166.666666666667,3,2,30,60,0,0
130856,-166.666666666667,3,2,3,60,0,0
132575,-166.666666666667,3,2,30,60,0,0
133044,-166.666666666667,3,2,3,60,0,0
133981,-166.666666666667,3,2,30,60,0,0
134919,-166.666666666667,3,2,30,62,0,0
134997,-166.666666666667,3,2,2,62,0,0
135856,-166.666666666667,3,2,30,66,0,0
135934,-166.666666666667,3,2,2,66,0,0
136794,-166.666666666667,3,2,30,52,0,0
136872,-166.666666666667,3,2,2,52,0,0
137731,-84.0336134453781,3,2,3,60,0,0
138044,-128.205128205128,3,2,3,60,0,0
138356,-84.0336134453781,3,2,3,60,0,0
138669,-166.666666666667,3,2,3,80,0,1
143356,-166.666666666667,3,2,3,50,0,1
143512,-166.666666666667,3,2,3,80,0,1
143669,-166.666666666667,3,2,3,50,0,1
143825,-166.666666666667,3,2,3,80,0,1
143981,-166.666666666667,3,2,3,60,0,1
144059,-166.666666666667,3,2,3,80,0,1
144294,-166.666666666667,3,2,3,50,0,1
144450,-166.666666666667,3,2,3,80,0,1
144606,-166.666666666667,3,2,3,50,0,1
144762,-166.666666666667,3,2,3,80,0,1
144919,-166.666666666667,3,2,3,50,0,1
144997,-166.666666666667,3,2,3,80,0,1
145075,-166.666666666667,3,2,3,50,0,1
145153,-166.666666666667,3,2,3,80,0,1
145231,-166.666666666667,3,2,3,50,0,1
145309,-166.666666666667,3,2,3,80,0,1
145544,-166.666666666667,3,2,3,50,0,1
145622,-166.666666666667,3,2,3,80,0,1
145856,-166.666666666667,3,2,3,60,0,1
146012,-166.666666666667,3,2,3,80,0,1
146169,-166.666666666667,3,2,3,60,0,1
146325,-166.666666666667,3,2,3,80,0,1
148981,-166.666666666667,3,2,3,50,0,1
149059,-166.666666666667,3,2,3,80,0,1
149294,-166.666666666667,3,2,3,50,0,1
149450,-166.666666666667,3,2,3,80,0,1
149606,-166.666666666667,3,1,3,50,0,1
149762,-166.666666666667,3,2,3,80,0,1
149919,-166.666666666667,3,2,3,60,0,1
150075,-166.666666666667,3,2,3,80,0,1
152731,-166.666666666667,3,1,3,60,0,1
152809,-166.666666666667,3,2,3,80,0,1
153044,-166.666666666667,3,1,3,60,0,1
153122,-166.666666666667,3,2,3,80,0,1
153356,-128.205128205128,3,1,3,70,0,1
153512,-128.205128205128,3,2,3,80,0,1
153669,-166.666666666667,3,2,3,80,0,1
155231,-166.666666666667,3,1,3,50,0,1
155387,-166.666666666667,3,2,3,80,0,1
156481,-166.666666666667,3,2,3,50,0,1
156637,-166.666666666667,3,2,3,80,0,1
156794,-166.666666666667,3,2,3,50,0,1
156950,-166.666666666667,3,2,3,80,0,1
157106,-166.666666666667,3,1,3,50,0,1
157262,-166.666666666667,3,2,3,80,0,1
157887,-166.666666666667,3,2,3,50,0,1
157926,-166.666666666667,3,2,3,80,0,1
158356,-166.666666666667,3,2,3,50,0,1
158434,-166.666666666667,3,2,3,80,0,1
158669,-166.666666666667,3,2,3,50,0,1
158747,-166.666666666667,3,2,3,80,0,1
158981,-166.666666666667,3,2,3,50,0,1
159137,-166.666666666667,3,2,3,80,0,1
159762,-166.666666666667,3,2,3,50,0,1
159801,-166.666666666667,3,2,3,80,0,1
160231,-166.666666666667,3,2,3,50,0,1
160387,-166.666666666667,3,2,3,80,0,1
160544,-166.666666666667,3,2,3,50,0,1
160622,-166.666666666667,3,2,3,80,0,1
160856,-166.666666666667,3,2,3,50,0,1
160934,-166.666666666667,3,2,3,80,0,1
162731,-166.666666666667,3,1,3,50,0,1
162887,-166.666666666667,3,2,3,80,0,1
163669,-166.666666666667,3,1,3,50,0,1
163747,-166.666666666667,3,2,3,80,0,1
163825,-166.666666666667,3,2,3,50,0,1
163903,-166.666666666667,3,2,3,80,0,1
163981,-166.666666666667,3,2,3,50,0,1
164059,-166.666666666667,3,2,3,80,0,1
164294,-166.666666666667,3,2,3,50,0,1
164450,-166.666666666667,3,2,3,80,0,1
164606,-166.666666666667,3,1,3,50,0,1
164684,-166.666666666667,3,2,3,80,0,1
165387,-166.666666666667,3,2,3,60,0,1
165465,-166.666666666667,3,2,3,80,0,1
166169,-166.666666666667,3,2,3,60,0,1
166247,-166.666666666667,3,2,3,80,0,1
166481,-166.666666666667,3,2,3,60,0,1
166637,-166.666666666667,3,2,3,80,0,1
167731,-84.0336134453781,3,1,3,50,0,0
168044,-128.205128205128,3,1,3,50,0,0
168356,-84.0336134453781,3,1,3,50,0,0
168669,-166.666666666667,3,2,3,60,0,1
168825,-166.666666666667,3,2,2,60,0,0
176169,-166.666666666667,3,2,3,60,0,0
176325,-166.666666666667,3,2,2,60,0,0
178044,-166.666666666667,3,2,3,60,0,0
178200,-166.666666666667,3,2,2,60,0,0
179919,-166.666666666667,3,2,3,60,0,0
180075,-166.666666666667,3,2,2,60,0,0
180856,-166.666666666667,3,2,3,60,0,0
181012,-166.666666666667,3,2,2,60,0,0
181794,-166.666666666667,3,2,3,60,0,0
181950,-166.666666666667,3,2,2,60,0,0
183669,-166.666666666667,3,2,2,40,0,0
183825,-166.666666666667,3,2,1,20,0,0
191169,-166.666666666667,3,2,3,30,0,0
191325,-166.666666666667,3,2,2,40,0,0
193044,-166.666666666667,3,2,3,30,0,0
193200,-166.666666666667,3,2,2,40,0,0
194919,-166.666666666667,3,2,3,40,0,0
194997,-166.666666666667,3,2,2,50,0,0
195856,-166.666666666667,3,2,3,40,0,0
195934,-166.666666666667,3,2,2,50,0,0
196794,-84.0336134453781,3,2,3,60,0,0
197106,-128.205128205128,3,2,3,70,0,0
197731,-74.0740740740741,3,2,3,60,0,0
198044,-128.205128205128,3,2,3,60,0,0
198356,-74.0740740740741,3,2,3,60,0,0
198669,312.5,4,2,50,40,1,0
203669,-100,4,2,1,20,0,0
203825,-100,4,2,1,23,0,0
203981,-100,4,2,1,28,0,0
204137,-100,4,2,1,35,0,0
204294,-100,4,2,1,44,0,0
204606,-100,4,2,1,55,0,0
204919,-166.666666666667,4,2,3,80,0,1
206247,-166.666666666667,4,2,3,50,0,1
206403,-166.666666666667,4,2,3,80,0,1
206481,-166.666666666667,4,2,3,50,0,1
206637,-166.666666666667,4,2,3,80,0,1
206715,-84.0336134453781,4,2,3,60,0,1
207028,-166.666666666667,4,2,3,80,0,1
208747,-166.666666666667,4,2,3,50,0,1
208903,-166.666666666667,4,2,3,80,0,1
208981,-166.666666666667,4,2,3,50,0,1
209137,-166.666666666667,4,2,3,80,0,1
209215,-84.0336134453781,4,2,3,60,0,1
209528,-166.666666666667,4,2,3,80,0,1
211169,-166.666666666667,4,2,3,50,0,1
211247,-166.666666666667,4,2,3,80,0,1
211481,-166.666666666667,4,1,3,50,0,1
211559,-166.666666666667,4,2,3,80,0,1
211794,-158.730158730159,4,2,3,60,0,1
211872,-158.730158730159,4,2,3,80,0,1
212028,-158.730158730159,4,2,3,60,0,1
212106,-158.730158730159,4,2,3,80,0,1
212262,-166.666666666667,4,2,3,60,0,1
212419,-166.666666666667,4,2,3,50,0,1
212497,-166.666666666667,4,2,3,80,0,1
212653,-166.666666666667,4,2,3,50,0,1
212731,-166.666666666667,4,2,3,80,0,1
212887,-166.666666666667,4,2,3,50,0,1
212965,-166.666666666667,4,2,3,80,0,1
213122,-166.666666666667,4,2,3,50,0,1
213278,-166.666666666667,4,2,3,80,0,1
213356,-166.666666666667,4,2,3,50,0,1
213434,-166.666666666667,4,2,3,80,0,1
213512,-166.666666666667,4,2,3,50,0,1
213590,-166.666666666667,4,2,3,80,0,1
213669,-128.205128205128,4,2,3,60,0,1
213825,-128.205128205128,4,2,3,80,0,1
213903,-128.205128205128,4,2,3,60,0,1
214059,-128.205128205128,4,2,3,80,0,1
214137,-166.666666666667,4,2,3,60,0,1
214215,-166.666666666667,4,2,3,80,0,1
214294,-128.205128205128,4,2,3,60,0,1
214450,-128.205128205128,4,2,3,80,0,1
214528,-128.205128205128,4,2,3,60,0,1
214684,-128.205128205128,4,2,3,80,0,1
214762,-166.666666666667,4,2,3,60,0,1
214840,-166.666666666667,4,2,3,80,0,1
215856,-166.666666666667,4,2,3,50,0,1
215934,-166.666666666667,4,2,3,80,0,1
216012,-166.666666666667,4,2,3,50,0,1
216090,-166.666666666667,4,2,3,80,0,1
216169,-166.666666666667,4,2,3,50,0,1
216247,-166.666666666667,4,2,3,80,0,1
216403,-166.666666666667,4,2,3,50,0,1
216481,-166.666666666667,4,2,3,80,0,1
216637,-166.666666666667,4,2,3,50,0,1
216715,-166.666666666667,4,2,3,80,0,1
216794,-166.666666666667,4,2,3,50,0,1
216872,-166.666666666667,4,2,3,80,0,1
217028,-166.666666666667,4,2,3,50,0,1
217106,-166.666666666667,4,2,3,80,0,1
217262,-166.666666666667,4,2,3,50,0,1
217340,-166.666666666667,4,2,3,80,0,1
217419,-166.666666666667,4,2,3,50,0,1
217497,-166.666666666667,4,2,3,80,0,1
217653,-166.666666666667,4,2,3,50,0,1
217731,-166.666666666667,4,2,3,80,0,1
217887,-166.666666666667,4,2,3,50,0,1
217965,-166.666666666667,4,2,3,80,0,1
218044,-166.666666666667,4,2,3,50,0,1
218122,-166.666666666667,4,2,3,80,0,1
218278,-166.666666666667,4,2,3,50,0,1
218356,-166.666666666667,4,2,3,80,0,1
218512,-166.666666666667,4,2,3,50,0,1
218590,-166.666666666667,4,2,3,80,0,1
218669,-166.666666666667,4,2,3,50,0,1
218825,-166.666666666667,4,2,3,80,0,1
218981,-166.666666666667,4,2,3,50,0,1
219137,-166.666666666667,4,2,3,80,0,1
219294,-166.666666666667,4,2,3,50,0,1
219450,-166.666666666667,4,2,3,80,0,1
219606,-166.666666666667,4,2,3,50,0,1
219762,-166.666666666667,4,2,3,80,0,1
219919,-166.666666666667,4,2,3,60,0,1
219997,-166.666666666667,4,2,3,80,0,1
221169,-166.666666666667,4,2,3,60,0,1
221247,-166.666666666667,4,2,3,80,0,1
221794,-166.666666666667,4,2,3,50,0,1
221872,-166.666666666667,4,2,3,80,0,1
222028,-166.666666666667,4,2,3,50,0,1
222106,-166.666666666667,4,2,3,80,0,1
222262,-166.666666666667,4,2,3,50,0,1
222340,-166.666666666667,4,2,3,80,0,1
222419,-166.666666666667,4,2,3,70,0,1
222497,-166.666666666667,4,2,3,80,0,1
222653,-166.666666666667,4,2,3,50,0,1
222731,-166.666666666667,4,2,3,80,0,1
222887,-166.666666666667,4,2,3,50,0,1
222965,-166.666666666667,4,2,3,80,0,1
223044,-166.666666666667,4,2,3,50,0,1
223200,-166.666666666667,4,2,3,80,0,1
223278,-166.666666666667,4,2,3,50,0,1
223356,-166.666666666667,4,2,3,80,0,1
223512,-166.666666666667,4,2,3,50,0,1
223590,-166.666666666667,4,2,3,80,0,1
223669,-166.666666666667,4,2,3,70,0,1
223747,-166.666666666667,4,2,3,80,0,1
223903,-166.666666666667,4,2,3,60,0,1
223981,-166.666666666667,4,2,3,80,0,1
224137,-166.666666666667,4,2,3,60,0,1
224215,-166.666666666667,4,2,3,80,0,1
224294,-166.666666666667,4,2,3,70,0,1
224372,-166.666666666667,4,2,3,80,0,1
226247,-166.666666666667,4,2,3,50,0,1
226403,-166.666666666667,4,2,3,80,0,1
226481,-166.666666666667,4,2,3,50,0,1
226637,-166.666666666667,4,2,3,80,0,1
226715,-84.0336134453781,4,2,3,60,0,1
226950,-84.0336134453781,4,2,3,80,0,1
227028,-166.666666666667,4,2,3,80,0,1
228747,-166.666666666667,4,2,3,50,0,1
228903,-166.666666666667,4,2,3,80,0,1
228981,-166.666666666667,4,2,3,50,0,1
229137,-166.666666666667,4,2,3,80,0,1
229215,-84.0336134453781,4,2,3,60,0,1
229450,-84.0336134453781,4,2,3,80,0,1
229528,-166.666666666667,4,2,3,80,0,1
231169,-166.666666666667,4,2,3,50,0,1
231247,-166.666666666667,4,2,3,80,0,1
231481,-166.666666666667,4,2,3,50,0,1
231559,-166.666666666667,4,2,3,80,0,1
231794,-166.666666666667,4,2,3,60,0,1
231872,-166.666666666667,4,2,3,80,0,1
232028,-166.666666666667,4,2,3,60,0,1
232106,-166.666666666667,4,2,3,80,0,1
232262,-166.666666666667,4,2,3,60,0,1
232419,-166.666666666667,4,2,3,50,0,1
232497,-166.666666666667,4,2,3,80,0,1
232653,-166.666666666667,4,2,3,50,0,1
232731,-166.666666666667,4,2,3,80,0,1
232887,-166.666666666667,4,2,3,50,0,1
232965,-166.666666666667,4,2,3,80,0,1
233122,-166.666666666667,4,2,3,50,0,1
233278,-166.666666666667,4,2,3,80,0,1
233669,-166.666666666667,4,2,3,60,0,1
233825,-166.666666666667,4,2,3,80,0,1
233903,-128.205128205128,4,2,3,60,0,1
234059,-128.205128205128,4,2,3,80,0,1
234137,-166.666666666667,4,2,3,60,0,1
234215,-166.666666666667,4,2,3,80,0,1
234294,-128.205128205128,4,2,3,60,0,1
234450,-128.205128205128,4,2,3,80,0,1
234528,-166.666666666667,4,2,3,60,0,1
234684,-166.666666666667,4,2,3,80,0,1
234762,-166.666666666667,4,2,3,60,0,1
234840,-166.666666666667,4,2,3,80,0,1
235856,-166.666666666667,4,2,3,50,0,1
235934,-166.666666666667,4,2,3,80,0,1
236012,-166.666666666667,4,2,3,50,0,1
236090,-166.666666666667,4,2,3,80,0,1
236169,-166.666666666667,4,2,3,50,0,1
236247,-166.666666666667,4,2,3,80,0,1
236403,-166.666666666667,4,2,3,50,0,1
236481,-166.666666666667,4,2,3,80,0,1
236637,-166.666666666667,4,2,3,50,0,1
236715,-166.666666666667,4,2,3,80,0,1
236794,-166.666666666667,4,2,3,50,0,1
236872,-166.666666666667,4,2,3,80,0,1
237028,-166.666666666667,4,2,3,50,0,1
237106,-166.666666666667,4,2,3,80,0,1
237262,-166.666666666667,4,2,3,50,0,1
237340,-166.666666666667,4,2,3,80,0,1
237419,-166.666666666667,4,2,3,50,0,1
237497,-166.666666666667,4,2,3,80,0,1
237653,-166.666666666667,4,2,3,50,0,1
237731,-166.666666666667,4,2,3,80,0,1
237887,-166.666666666667,4,2,3,50,0,1
237965,-166.666666666667,4,2,3,80,0,1
238044,-166.666666666667,4,2,3,50,0,1
238122,-166.666666666667,4,2,3,80,0,1
238278,-166.666666666667,4,2,3,50,0,1
238356,-166.666666666667,4,2,3,80,0,1
238512,-166.666666666667,4,2,3,50,0,1
238590,-166.666666666667,4,2,3,80,0,1
238669,-166.666666666667,4,2,3,50,0,1
238825,-166.666666666667,4,2,3,80,0,1
238981,-166.666666666667,4,2,3,50,0,1
239137,-166.666666666667,4,2,3,80,0,1
239294,-166.666666666667,4,2,3,50,0,1
239450,-166.666666666667,4,2,3,80,0,1
239606,-166.666666666667,4,2,3,50,0,1
239762,-166.666666666667,4,2,3,80,0,1
239919,-166.666666666667,4,2,3,60,0,1
239997,-166.666666666667,4,2,3,80,0,1
241169,-166.666666666667,4,2,3,60,0,1
241247,-166.666666666667,4,2,3,80,0,1
241794,-166.666666666667,4,2,3,50,0,1
241872,-166.666666666667,4,2,3,80,0,1
242028,-166.666666666667,4,2,3,50,0,1
242106,-166.666666666667,4,2,3,80,0,1
242262,-166.666666666667,4,2,3,50,0,1
242340,-166.666666666667,4,2,3,80,0,1
242419,-166.666666666667,4,2,3,70,0,1
242497,-166.666666666667,4,2,3,80,0,1
243044,-166.666666666667,4,2,3,70,0,1
243122,-166.666666666667,4,2,3,80,0,1
243669,-84.0336134453781,4,2,3,80,0,0
243981,-128.205128205128,4,2,3,80,0,0
244294,-84.0336134453781,4,2,3,80,0,0
244606,-74.0740740740741,4,2,3,80,0,0
244919,-166.666666666667,4,2,3,80,0,1
246247,-166.666666666667,4,2,3,50,0,1
246403,-166.666666666667,4,2,3,80,0,1
246481,-166.666666666667,4,2,3,50,0,1
246637,-166.666666666667,4,2,3,80,0,1
246715,-84.0336134453781,4,2,3,50,0,1
246950,-84.0336134453781,4,2,3,80,0,1
247028,-166.666666666667,4,2,3,80,0,1
248747,-166.666666666667,4,2,3,50,0,1
248903,-166.666666666667,4,2,3,80,0,1
248981,-166.666666666667,4,2,3,50,0,1
249137,-166.666666666667,4,2,3,80,0,1
249215,-84.0336134453781,4,2,3,50,0,1
249450,-84.0336134453781,4,2,3,80,0,1
249528,-166.666666666667,4,2,3,80,0,1
251169,-166.666666666667,4,2,3,50,0,1
251247,-166.666666666667,4,2,3,80,0,1
251481,-166.666666666667,4,2,3,50,0,1
251559,-166.666666666667,4,2,3,80,0,1
251794,-158.730158730159,4,2,3,60,0,1
251872,-158.730158730159,4,2,3,80,0,1
252028,-158.730158730159,4,2,3,60,0,1
252106,-158.730158730159,4,2,3,80,0,1
252262,-166.666666666667,4,2,3,60,0,1
252340,-166.666666666667,4,2,3,80,0,1
252419,-166.666666666667,4,2,3,50,0,1
252497,-166.666666666667,4,2,3,80,0,1
252653,-166.666666666667,4,2,3,50,0,1
252731,-166.666666666667,4,2,3,80,0,1
252887,-166.666666666667,4,2,3,50,0,1
252965,-166.666666666667,4,2,3,80,0,1
253122,-166.666666666667,4,2,3,50,0,1
253278,-166.666666666667,4,2,3,80,0,1
253356,-166.666666666667,4,2,3,50,0,1
253434,-166.666666666667,4,2,3,80,0,1
253512,-166.666666666667,4,2,3,50,0,1
253590,-166.666666666667,4,2,3,80,0,1
253669,-128.205128205128,4,2,3,60,0,1
253825,-128.205128205128,4,2,3,80,0,1
253903,-128.205128205128,4,2,3,60,0,1
254059,-128.205128205128,4,2,3,80,0,1
254137,-166.666666666667,4,2,3,60,0,1
254215,-166.666666666667,4,2,3,80,0,1
254294,-166.666666666667,4,2,3,60,0,1
254450,-166.666666666667,4,2,3,80,0,1
254528,-166.666666666667,4,2,3,60,0,1
254684,-166.666666666667,4,2,3,80,0,1
254762,-166.666666666667,4,2,3,60,0,1
254840,-166.666666666667,4,2,3,80,0,1
255856,-166.666666666667,4,2,3,50,0,1
255934,-166.666666666667,4,2,3,80,0,1
256012,-166.666666666667,4,2,3,50,0,1
256090,-166.666666666667,4,2,3,80,0,1
256169,-166.666666666667,4,2,3,50,0,1
256247,-166.666666666667,4,2,3,80,0,1
256403,-166.666666666667,4,2,3,50,0,1
256481,-166.666666666667,4,2,3,80,0,1
256637,-166.666666666667,4,2,3,50,0,1
256715,-166.666666666667,4,2,3,80,0,1
256794,-166.666666666667,4,2,3,50,0,1
256872,-166.666666666667,4,2,3,80,0,1
257028,-166.666666666667,4,2,3,50,0,1
257106,-166.666666666667,4,2,3,80,0,1
257262,-166.666666666667,4,2,3,50,0,1
257340,-166.666666666667,4,2,3,80,0,1
257419,-166.666666666667,4,2,3,50,0,1
257497,-166.666666666667,4,2,3,80,0,1
257653,-166.666666666667,4,2,3,50,0,1
257731,-166.666666666667,4,2,3,80,0,1
257887,-166.666666666667,4,2,3,50,0,1
257965,-166.666666666667,4,2,3,80,0,1
258044,-166.666666666667,4,2,3,50,0,1
258122,-166.666666666667,4,2,3,80,0,1
258278,-166.666666666667,4,2,3,50,0,1
258356,-166.666666666667,4,2,3,80,0,1
258512,-166.666666666667,4,2,3,50,0,1
258590,-166.666666666667,4,2,3,80,0,1
258669,-166.666666666667,4,2,3,50,0,1
258825,-166.666666666667,4,2,3,80,0,1
258981,-166.666666666667,4,2,3,50,0,1
259137,-166.666666666667,4,2,3,80,0,1
259294,-166.666666666667,4,2,3,50,0,1
259450,-166.666666666667,4,2,3,80,0,1
259606,-166.666666666667,4,2,3,50,0,1
259762,-166.666666666667,4,2,3,80,0,1
259919,-166.666666666667,4,2,3,60,0,1
259997,-166.666666666667,4,2,3,80,0,1
261169,-166.666666666667,4,2,3,60,0,1
261247,-166.666666666667,4,2,3,80,0,1
261794,-166.666666666667,4,2,3,50,0,1
261872,-166.666666666667,4,2,3,80,0,1
262028,-166.666666666667,4,2,3,50,0,1
262106,-166.666666666667,4,2,3,80,0,1
262262,-166.666666666667,4,2,3,50,0,1
262340,-166.666666666667,4,2,3,80,0,1
262419,-166.666666666667,4,2,3,70,0,1
262497,-166.666666666667,4,2,3,80,0,1
263044,-158.730158730159,4,2,3,70,0,1
263122,-158.730158730159,4,2,3,80,0,1
263356,-166.666666666667,4,2,3,80,0,1
263669,-84.0336134453781,4,2,3,80,0,0
263981,-128.205128205128,4,2,3,80,0,0
264294,-85.4700854700855,4,2,3,80,0,0
264606,-64.1025641025641,4,2,3,80,0,0
264919,-166.666666666667,4,2,88,60,0,1
265075,-166.666666666667,4,2,3,80,0,1
266247,-166.666666666667,4,2,3,50,0,1
266403,-166.666666666667,4,2,3,80,0,1
266481,-166.666666666667,4,2,3,50,0,1
266637,-166.666666666667,4,2,3,80,0,1
266715,-84.0336134453781,4,2,3,50,0,1
266950,-84.0336134453781,4,2,3,80,0,1
267028,-166.666666666667,4,2,3,80,0,1
267419,-166.666666666667,4,2,88,60,0,1
267575,-166.666666666667,4,2,3,80,0,1
268747,-128.205128205128,4,2,3,50,0,1
268903,-128.205128205128,4,2,3,80,0,1
268981,-128.205128205128,4,2,3,50,0,1
269137,-128.205128205128,4,2,3,80,0,1
269215,-84.0336134453781,4,2,3,50,0,1
269450,-84.0336134453781,4,2,3,80,0,1
269528,-166.666666666667,4,2,3,80,0,1
269606,-158.730158730159,4,2,3,80,0,1
269919,-166.666666666667,4,2,88,60,0,1
269997,-166.666666666667,4,2,3,80,0,1
271169,-166.666666666667,4,2,3,50,0,1
271247,-166.666666666667,4,2,3,80,0,1
271481,-166.666666666667,4,2,3,50,0,1
271559,-166.666666666667,4,2,3,80,0,1
271794,-158.730158730159,4,2,88,60,0,1
271872,-158.730158730159,4,2,3,80,0,1
272028,-158.730158730159,4,2,3,60,0,1
272106,-158.730158730159,4,2,3,80,0,1
272262,-166.666666666667,4,2,3,60,0,1
272340,-166.666666666667,4,2,3,80,0,1
272419,-166.666666666667,4,2,88,60,0,1
272497,-166.666666666667,4,2,3,80,0,1
272653,-166.666666666667,4,2,3,50,0,1
272731,-166.666666666667,4,2,3,80,0,1
272887,-166.666666666667,4,2,3,50,0,1
272965,-166.666666666667,4,2,3,80,0,1
273122,-166.666666666667,4,2,3,50,0,1
273278,-166.666666666667,4,2,3,80,0,1
273356,-166.666666666667,4,2,3,50,0,1
273434,-166.666666666667,4,2,3,80,0,1
273512,-166.666666666667,4,2,3,50,0,1
273590,-166.666666666667,4,2,3,80,0,1
273669,-166.666666666667,4,2,3,60,0,1
273825,-166.666666666667,4,2,3,80,0,1
273903,-166.666666666667,4,2,3,60,0,1
274059,-166.666666666667,4,2,3,80,0,1
274137,-166.666666666667,4,2,3,60,0,1
274215,-166.666666666667,4,2,3,80,0,1
274294,-166.666666666667,4,2,3,60,0,1
274450,-166.666666666667,4,2,3,80,0,1
274528,-166.666666666667,4,2,3,60,0,1
274684,-166.666666666667,4,2,3,80,0,1
274762,-166.666666666667,4,2,3,60,0,1
274840,-166.666666666667,4,2,3,80,0,1
274919,-166.666666666667,4,2,88,60,0,1
275075,-166.666666666667,4,2,3,80,0,1
275856,-166.666666666667,4,2,3,50,0,1
275934,-166.666666666667,4,2,3,80,0,1
276012,-166.666666666667,4,2,3,50,0,1
276090,-166.666666666667,4,2,3,80,0,1
276169,-166.666666666667,4,2,3,50,0,1
276247,-166.666666666667,4,2,3,80,0,1
276403,-166.666666666667,4,2,3,50,0,1
276481,-166.666666666667,4,2,3,80,0,1
276637,-166.666666666667,4,2,3,50,0,1
276715,-166.666666666667,4,2,3,80,0,1
276794,-166.666666666667,4,2,3,50,0,1
276872,-166.666666666667,4,2,3,80,0,1
277028,-166.666666666667,4,2,3,50,0,1
277106,-166.666666666667,4,2,3,80,0,1
277262,-166.666666666667,4,2,3,50,0,1
277340,-166.666666666667,4,2,3,80,0,1
277419,-166.666666666667,4,2,88,60,0,1
277497,-166.666666666667,4,2,3,80,0,1
277653,-166.666666666667,4,2,3,50,0,1
277731,-166.666666666667,4,2,3,80,0,1
277887,-166.666666666667,4,2,3,50,0,1
277965,-166.666666666667,4,2,3,80,0,1
278044,-166.666666666667,4,2,3,50,0,1
278122,-166.666666666667,4,2,3,80,0,1
278278,-166.666666666667,4,2,3,50,0,1
278356,-166.666666666667,4,2,3,80,0,1
278512,-166.666666666667,4,2,3,50,0,1
278590,-166.666666666667,4,2,3,80,0,1
278669,-166.666666666667,4,2,3,60,0,1
278825,-166.666666666667,4,2,3,80,0,1
278981,-166.666666666667,4,2,3,60,0,1
279137,-166.666666666667,4,2,3,80,0,1
279294,-166.666666666667,4,2,88,60,0,1
279450,-166.666666666667,4,2,3,80,0,1
279606,-166.666666666667,4,2,3,60,0,1
279762,-166.666666666667,4,2,3,80,0,1
279919,-166.666666666667,4,2,3,60,0,1
279997,-166.666666666667,4,2,3,80,0,1
281169,-166.666666666667,4,2,3,60,0,1
281247,-166.666666666667,4,2,3,80,0,1
281794,-166.666666666667,4,2,3,50,0,1
281872,-166.666666666667,4,2,3,80,0,1
282028,-166.666666666667,4,2,3,50,0,1
282106,-166.666666666667,4,2,3,80,0,1
282262,-166.666666666667,4,2,3,50,0,1
282340,-166.666666666667,4,2,3,80,0,1
282419,-166.666666666667,4,2,3,70,0,1
282497,-166.666666666667,4,2,3,80,0,1
282653,-166.666666666667,4,2,3,50,0,1
282731,-166.666666666667,4,2,3,80,0,1
282887,-166.666666666667,4,2,3,50,0,1
282965,-166.666666666667,4,2,3,80,0,1
283044,-166.666666666667,4,2,3,50,0,1
283122,-166.666666666667,4,2,3,80,0,1
283278,-166.666666666667,4,2,3,50,0,1
283356,-166.666666666667,4,2,3,80,0,1
283512,-166.666666666667,4,2,3,50,0,1
283590,-166.666666666667,4,2,3,80,0,1
283669,-166.666666666667,4,2,3,70,0,1
283747,-166.666666666667,4,2,3,80,0,1
283903,-166.666666666667,4,2,3,60,0,1
283981,-166.666666666667,4,2,3,80,0,1
284137,-166.666666666667,4,2,3,60,0,1
284215,-166.666666666667,4,2,3,80,0,1
284294,-166.666666666667,4,2,3,70,0,1
284372,-166.666666666667,4,2,3,80,0,1
284919,-166.666666666667,4,2,88,60,0,1
285075,-166.666666666667,4,2,3,80,0,1
286247,-166.666666666667,4,2,3,50,0,1
286403,-166.666666666667,4,2,3,80,0,1
286481,-166.666666666667,4,2,3,50,0,1
286637,-166.666666666667,4,2,3,80,0,1
286715,-84.0336134453781,4,2,3,50,0,1
286950,-84.0336134453781,4,2,3,80,0,1
287028,-166.666666666667,4,2,3,80,0,1
287419,-166.666666666667,4,2,88,60,0,1
287575,-166.666666666667,4,2,3,80,0,1
288044,-158.730158730159,4,2,3,80,0,1
288356,-166.666666666667,4,2,3,80,0,1
288747,-128.205128205128,4,2,3,50,0,1
288903,-128.205128205128,4,2,3,80,0,1
288981,-128.205128205128,4,2,3,50,0,1
289137,-128.205128205128,4,2,3,80,0,1
289215,-84.0336134453781,4,2,3,50,0,1
289450,-84.0336134453781,4,2,3,80,0,1
289528,-166.666666666667,4,2,3,80,0,1
289919,-166.666666666667,4,2,88,60,0,1
289997,-166.666666666667,4,2,3,80,0,1
291169,-166.666666666667,4,2,3,50,0,1
291247,-166.666666666667,4,2,3,80,0,1
291481,-166.666666666667,4,2,3,50,0,1
291559,-166.666666666667,4,2,3,80,0,1
291794,-158.730158730159,4,2,88,60,0,1
291872,-158.730158730159,4,2,3,80,0,1
292028,-166.666666666667,4,2,3,60,0,1
292106,-166.666666666667,4,2,3,80,0,1
292262,-158.730158730159,4,2,3,60,0,1
292340,-158.730158730159,4,2,3,80,0,1
292419,-166.666666666667,4,2,88,60,0,1
292497,-166.666666666667,4,2,3,80,0,1
292653,-166.666666666667,4,2,3,50,0,1
292731,-166.666666666667,4,2,3,80,0,1
292887,-166.666666666667,4,2,3,50,0,1
292965,-166.666666666667,4,2,3,80,0,1
293122,-166.666666666667,4,2,3,50,0,1
293278,-166.666666666667,4,2,3,80,0,1
293356,-166.666666666667,4,2,3,50,0,1
293434,-166.666666666667,4,2,3,80,0,1
293512,-166.666666666667,4,2,3,50,0,1
293590,-166.666666666667,4,2,3,80,0,1
293669,-166.666666666667,4,2,3,60,0,1
293825,-166.666666666667,4,2,3,80,0,1
293903,-166.666666666667,4,2,3,60,0,1
294059,-166.666666666667,4,2,3,80,0,1
294137,-166.666666666667,4,2,3,60,0,1
294215,-166.666666666667,4,2,3,80,0,1
294294,-166.666666666667,4,2,3,60,0,1
294450,-166.666666666667,4,2,3,80,0,1
294528,-166.666666666667,4,2,3,60,0,1
294684,-166.666666666667,4,2,3,80,0,1
294762,-166.666666666667,4,2,3,60,0,1
294840,-166.666666666667,4,2,3,80,0,1
294919,-166.666666666667,4,2,88,60,0,1
295075,-166.666666666667,4,2,3,80,0,1
295856,-166.666666666667,4,2,3,50,0,1
295934,-166.666666666667,4,2,3,80,0,1
296012,-166.666666666667,4,2,3,50,0,1
296090,-166.666666666667,4,2,3,80,0,1
296169,-166.666666666667,4,2,3,50,0,1
296247,-166.666666666667,4,2,3,80,0,1
296403,-166.666666666667,4,2,3,50,0,1
296481,-166.666666666667,4,2,3,80,0,1
296637,-166.666666666667,4,2,3,50,0,1
296715,-166.666666666667,4,2,3,80,0,1
296794,-166.666666666667,4,2,3,50,0,1
296872,-166.666666666667,4,2,3,80,0,1
297028,-166.666666666667,4,2,3,50,0,1
297106,-166.666666666667,4,2,3,80,0,1
297262,-166.666666666667,4,2,3,50,0,1
297340,-166.666666666667,4,2,3,80,0,1
297419,-166.666666666667,4,2,88,60,0,1
297497,-166.666666666667,4,2,3,80,0,1
297653,-166.666666666667,4,2,3,50,0,1
297731,-166.666666666667,4,2,3,80,0,1
297887,-166.666666666667,4,2,3,50,0,1
297965,-166.666666666667,4,2,3,80,0,1
298044,-166.666666666667,4,2,3,50,0,1
298122,-166.666666666667,4,2,3,80,0,1
298278,-166.666666666667,4,2,3,50,0,1
298356,-166.666666666667,4,2,3,80,0,1
298512,-166.666666666667,4,2,3,50,0,1
298590,-166.666666666667,4,2,3,80,0,1
298669,-166.666666666667,4,2,3,60,0,1
298825,-166.666666666667,4,2,3,80,0,1
298981,-166.666666666667,4,2,3,60,0,1
299137,-166.666666666667,4,2,3,80,0,1
299294,-166.666666666667,4,2,88,60,0,1
299450,-166.666666666667,4,2,3,80,0,1
299606,-166.666666666667,4,2,3,60,0,1
299762,-166.666666666667,4,2,3,80,0,1
299919,-166.666666666667,4,2,3,70,0,1
299997,-166.666666666667,4,2,3,80,0,1
300544,-166.666666666667,4,2,3,50,0,1
300622,-166.666666666667,4,2,3,80,0,1
300778,-166.666666666667,4,2,3,50,0,1
300856,-166.666666666667,4,2,3,80,0,1
301012,-166.666666666667,4,2,3,50,0,1
301090,-166.666666666667,4,2,3,80,0,1
301169,-166.666666666667,4,2,3,70,0,1
301247,-166.666666666667,4,2,3,80,0,1
301794,-166.666666666667,4,2,3,50,0,1
301872,-166.666666666667,4,2,3,80,0,1
302028,-166.666666666667,4,2,3,50,0,1
302106,-166.666666666667,4,2,3,80,0,1
302262,-166.666666666667,4,2,3,50,0,1
302340,-166.666666666667,4,2,3,80,0,1
302419,-158.730158730159,4,2,3,80,0,1
302731,-166.666666666667,4,2,3,80,0,1
303044,-158.730158730159,4,2,3,80,0,1
303669,-66.2251655629139,4,2,3,80,0,1
303903,-66.2251655629139,4,2,3,70,0,1
304059,-66.2251655629139,4,2,3,80,0,1
304137,-166.666666666667,4,2,3,70,0,1
304215,-166.666666666667,4,2,3,80,0,1
304294,-66.2251655629139,4,2,3,80,0,1
304528,-66.2251655629139,4,2,3,70,0,1
304684,-66.2251655629139,4,2,3,80,0,1
304762,-166.666666666667,4,2,3,70,0,0
304840,-166.666666666667,4,2,3,80,0,0
304919,-200,4,2,3,60,0,1
305231,-200,4,2,1,50,0,0
305544,-200,4,2,1,42,0,0
305856,-200,4,2,1,36,0,0
306169,-200,4,2,1,32,0,0
306794,-200,4,2,1,50,0,0
307106,-200,4,2,1,42,0,0
307262,-200,4,2,1,50,0,0
307731,-200,4,2,1,38,0,0
307887,-200,4,2,1,30,0,0
308044,-200,4,2,1,38,0,0
308356,-200,4,2,1,40,0,0
308669,-200,4,2,1,50,0,0
308981,-200,4,2,1,38,0,0
309137,-200,4,2,1,30,0,0
309294,-200,4,2,1,38,0,0
309606,-200,4,2,1,40,0,0
309919,-200,4,2,1,50,0,0
310231,-200,4,2,3,38,0,0
310544,-200,4,2,3,28,0,0
310856,-200,4,2,3,20,0,0
311169,-200,4,2,3,14,0,0
312419,-200,4,2,1,50,0,0
312731,-200,4,2,3,42,0,0
313044,-200,4,2,3,36,0,0
313356,-200,4,2,3,32,0,0
313669,-200,4,2,3,30,0,0
313981,-200,4,2,3,32,0,0
314294,-200,4,2,3,36,0,0
314606,-200,4,2,3,42,0,0
314762,-200,4,2,3,50,0,0
314919,-166.666666666667,4,3,50,70,0,1
315075,-166.666666666667,4,3,50,80,0,0

[Colours]
Combo1 : 177,43,96
Combo2 : 199,97,195
Combo3 : 241,166,160
Combo4 : 242,242,246

[HitObjects]
256,192,858,12,0,2108,0:0:0:0:
208,356,2421,6,0,B|192:312|192:312|207:262,1,98.3999969970704,6|0,0:0|0:0,0:0:0:0:
288,256,2655,1,0,0:0:0:0:
368,248,2733,2,0,B|384:204|384:204|369:154,1,98.3999969970704,2|0,0:0|0:0,0:0:0:0:
208,108,3046,2,0,L|109:108,1,98.3999969970704,2|2,0:0|0:0,0:0:0:0:
272,60,3358,2,0,L|287:13,2,49.1999984985352,2|0|2,0:0|0:0|0:0,0:0:0:0:
16,60,3671,5,2,0:0:0:0:
144,60,3827,1,0,0:0:0:0:
16,96,3983,2,0,L|1:193,1,98.3999969970704,2|0,0:0|0:0,0:0:0:0:
164,240,4296,2,0,L|178:337,1,98.3999969970704,2|0,0:0|0:0,0:0:0:0:
28,372,4608,1,2,0:0:0:0:
180,372,4764,1,0,0:0:0:0:
436,372,4921,6,0,B|452:328|452:328|437:278,1,98.3999969970704,2|0,0:0|0:0,0:0:0:0:
276,232,5233,2,0,L|374:232,1,98.3999969970704,2|0,0:0|0:0,0:0:0:0:
212,184,5546,2,0,B|196:140|196:140|211:90,1,98.3999969970704,2|2,0:0|0:0,0:0:0:0:
372,44,5858,1,2,0:0:0:0:
420,44,5936,1,0,0:0:0:0:
468,44,6014,1,2,0:0:0:0:
212,44,6171,5,2,0:0:0:0:
340,80,6327,1,0,0:0:0:0:
212,80,6483,2,0,L|197:177,1,98.3999969970704,2|0,0:0|0:0,0:0:0:0:
340,180,6796,1,2,0:0:0:0:
484,216,6952,1,0,0:0:0:0:
340,216,7108,1,2,0:0:0:0:
124,252,7264,1,0,0:0:0:0:
108,296,7316,1,0,0:0:0:0:
124,340,7368,1,0,0:0:0:0:
256,376,7421,6,0,B|272:332|272:332|257:282,1,98.3999969970704,2|0,0:0|0:0,0:0:0:0:
96,236,7733,2,0,B|80:192|80:192|95:142,1,98.3999969970704,2|0,0:0|0:0,0:0:0:0:
256,96,8046,2,0,L|354:96,1,98.3999969970704,2|2,0:0|0:0,0:0:0:0:
192,48,8358,2,0,L|177:1,2,49.1999984985352,2|0|2,0:0|0:0|0:0,0:0:0:0:
448,48,8671,5,2,0:0:0:0:
320,48,8827,1,0,0:0:0:0:
448,84,8983,2,0,L|463:181,1,98.3999969970704,2|0,0:0|0:0,0:0:0:0:
300,228,9296,2,0,L|285:325,1,98.3999969970704,2|0,0:0|0:0,0:0:0:0:
120,372,9608,2,0,L|21:372,1,98.3999969970704,2|0,0:0|0:0,0:0:0:0:
240,372,9921,6,0,B|256:328|256:328|241:278,1,98.3999969970704,2|0,0:0|0:0,0:0:0:0:
152,280,10155,2,0,L|145:231,1,49.1999984985352
360,232,10389,1,2,0:0:0:0:
232,196,10546,2,0,B|216:152|216:152|231:102,1,98.3999969970704
448,100,10858,2,0,L|463:53,2,49.1999984985352,2|0|0,0:0|0:0|0:0,0:0:0:0:
192,16,11171,5,2,0:0:0:0:
320,16,11327,1,0,0:0:0:0:
192,52,11483,1,2,0:0:0:0:
320,52,11639,1,0,0:0:0:0:
64,52,11796,2,0,B|48:96|48:96|63:146,1,98.3999969970704,2|0,0:0|0:0,0:0:0:0:
144,152,12030,1,0,0:0:0:0:
224,160,12108,1,2,0:0:0:0:
64,208,12264,1,0,0:0:0:0:
320,208,12421,6,0,L|447:208,1,127.92000429419,6|0,0:0|0:0,0:0:0:0:
368,264,12655,1,0,0:0:0:0:
288,372,12733,2,0,L|160:372,1,127.92000429419,2|0,0:0|0:0,0:0:0:0:
324,320,13046,2,0,B|340:276|340:276|325:226,1,98.3999969970704,2|2,0:0|0:0,0:0:0:0:
160,176,13358,2,0,L|145:129,2,49.1999984985352,2|0|2,0:0|0:0|0:0,0:0:0:0:
400,124,13671,5,2,0:0:0:0:
256,124,13827,1,0,0:0:0:0:
112,124,13983,2,0,L|97:221,1,98.3999969970704,2|0,0:0|0:0,0:0:0:0:
240,220,14296,1,2,0:0:0:0:
384,220,14452,1,0,0:0:0:0:
240,256,14608,2,0,B|224:300|224:300|239:350,1,98.3999969970704,2|0,0:0|0:0,0:0:0:0:
496,348,14921,6,0,B|512:304|512:304|497:254,1,98.3999969970704,2|0,0:0|0:0,0:0:0:0:
420,200,15155,1,0,0:0:0:0:
344,144,15233,2,0,L|472:144,1,127.92000429419,2|0,0:0|0:0,0:0:0:0:
308,92,15546,1,2,0:0:0:0:
180,92,15702,1,2,0:0:0:0:
308,56,15858,1,2,0:0:0:0:
372,56,15936,1,0,0:0:0:0:
436,56,16014,1,2,0:0:0:0:
180,56,16171,5,2,0:0:0:0:
308,56,16327,1,0,0:0:0:0:
180,92,16483,2,0,B|164:136|164:136|179:186,1,98.3999969970704,2|0,0:0|0:0,0:0:0:0:
340,232,16796,2,0,L|241:232,1,98.3999969970704,2|0,0:0|0:0,0:0:0:0:
80,276,17108,2,0,L|178:276,1,98.3999969970704,2|0,0:0|0:0,0:0:0:0:
396,276,17421,6,0,B|412:320|412:320|397:370,1,98.3999969970704,2|0,0:0|0:0,0:0:0:0:
332,376,17655,1,0,0:0:0:0:
396,384,17733,2,0,L|268:384,1,127.92000429419,2|0,0:0|0:0,0:0:0:0:
104,328,18046,2,0,L|232:328,1,127.92000429419,2|2,0:0|0:0,0:0:0:0:
396,276,18358,2,0,L|381:229,1,49.1999984985352,2|0,0:0|0:0,0:0:0:0:
328,228,18514,1,2,0:0:0:0:
96,124,18671,5,2,0:0:0:0:
240,124,18827,1,0,0:0:0:0:
384,124,18983,2,0,L|399:27,1,98.3999969970704,2|0,0:0|0:0,0:0:0:0:
256,28,19296,1,2,0:0:0:0:
400,124,19452,1,0,0:0:0:0:
256,124,19608,2,0,L|241:27,1,98.3999969970704,2|0,0:0|0:0,0:0:0:0:
460,220,19921,6,0,L|332:220,1,127.92000429419,2|0,0:0|0:0,0:0:0:0:
268,276,20155,1,0,0:0:0:0:
332,384,20233,2,0,L|460:384,1,127.92000429419,2|0,0:0|0:0,0:0:0:0:
296,332,20546,2,0,L|281:235,1,98.3999969970704,2|2,0:0|0:0,0:0:0:0:
444,184,20858,1,2,0:0:0:0:
452,136,20936,1,0,0:0:0:0:
460,88,21014,1,2,0:0:0:0:
152,88,21171,5,2,0:0:0:0:
280,88,21327,1,0,0:0:0:0:
152,88,21483,1,2,0:0:0:0:
92,136,21639,1,0,0:0:0:0:
68,212,21796,1,2,0:0:0:0:
92,288,21952,1,0,0:0:0:0:
152,336,22108,1,2,0:0:0:0:
248,336,22264,1,0,0:0:0:0:
460,336,22421,6,0,L|445:239,1,98.3999969970704,14|0,0:0|0:0,0:0:0:0:
364,232,22655,1,0,0:0:0:0:
284,224,22733,2,0,L|269:127,1,98.3999969970704,10|0,0:0|0:0,0:0:0:0:
432,80,23046,2,0,L|333:80,1,98.3999969970704,10|2,0:0|0:0,0:0:0:0:
496,32,23358,2,0,L|511:79,2,49.1999984985352,10|0|2,0:0|0:0|0:0,0:0:0:0:
240,32,23671,5,10,0:0:0:0:
368,32,23827,1,0,0:0:0:0:
496,32,23983,1,10,0:0:0:0:
240,68,24139,2,0,L|225:115,2,49.1999984985352,0|0|10,0:0|0:0|0:0,0:0:0:0:
368,68,24452,1,0,0:0:0:0:
112,104,24608,2,0,L|13:104,1,98.3999969970704,10|0,0:0|0:0,0:0:0:0:
292,140,24921,6,0,B|308:184|308:184|293:234,1,98.3999969970704,14|0,0:0|0:0,0:0:0:0:
228,240,25155,1,0,0:0:0:0:
292,248,25233,2,0,L|420:248,1,127.92000429419,10|0,0:0|0:0,0:0:0:0:
256,296,25546,1,10,0:0:0:0:
128,296,25702,1,2,0:0:0:0:
256,332,25858,1,10,0:0:0:0:
192,332,25936,1,0,0:0:0:0:
128,332,26014,1,2,0:0:0:0:
384,332,26171,5,10,0:0:0:0:
256,332,26327,1,0,0:0:0:0:
384,296,26483,1,10,0:0:0:0:
128,296,26639,2,0,L|113:249,2,49.1999984985352,0|0|10,0:0|0:0|0:0,0:0:0:0:
256,296,26952,1,0,0:0:0:0:
384,260,27108,1,10,0:0:0:0:
128,260,27264,1,0,0:0:0:0:
448,192,27421,6,0,B|464:148|464:148|449:98,1,98.3999969970704,14|8,0:0|0:0,0:0:0:0:
320,64,27733,1,10,0:0:0:0:
448,64,27889,1,8,0:0:0:0:
128,192,28046,1,10,0:0:0:0:
256,192,28202,1,10,0:0:0:0:
128,156,28358,1,10,0:0:0:0:
384,156,28514,1,10,0:0:0:0:
64,284,28671,6,0,B|48:240|48:240|63:190,1,98.3999969970704,14|8,0:0|0:0,0:0:0:0:
192,156,28983,1,10,0:0:0:0:
64,156,29139,1,8,0:0:0:0:
472,284,29296,1,10,0:0:0:0:
328,284,29452,1,8,0:0:0:0:
184,284,29608,1,10,0:0:0:0:
40,284,29764,1,8,0:0:0:0:
320,284,29921,5,14,0:0:0:0:
360,248,29999,1,8,0:0:0:0:
372,196,30077,1,8,0:0:0:0:
344,148,30155,1,8,0:0:0:0:
256,148,30233,1,10,0:0:0:0:
216,112,30311,1,8,0:0:0:0:
204,60,30389,1,8,0:0:0:0:
232,12,30467,1,8,0:0:0:0:
320,12,30546,6,0,L|335:59,1,49.1999984985352,10|8,0:0|0:0,0:0:0:0:
144,60,30702,2,0,L|129:107,1,49.1999984985352,10|8,0:0|0:0,0:0:0:0:
380,108,30858,2,0,L|395:155,1,49.1999984985352,10|8,0:0|0:0,0:0:0:0:
204,156,31014,2,0,L|189:203,1,49.1999984985352,10|8,0:0|0:0,0:0:0:0:
276,204,31171,5,10,0:0:0:0:
20,240,31327,1,0,0:0:0:0:
276,276,31483,1,10,0:0:0:0:
80,344,31796,2,0,L|65:247,1,98.3999969970704,10|0,0:0|0:0,0:0:0:0:
192,244,32108,1,4,0:3:0:0:
216,232,32147,1,0,0:0:0:0:
236,212,32186,1,0,0:0:0:0:
248,188,32225,1,0,0:0:0:0:
252,160,32264,1,0,0:0:0:0:
244,136,32303,1,0,0:0:0:0:
228,112,32342,1,0,0:0:0:0:
88,112,32421,6,0,B|72:156|72:156|87:206,1,98.3999969970704,6|0,0:0|0:0,0:0:0:0:
168,212,32655,1,0,0:0:0:0:
248,220,32733,1,8,0:0:0:0:
148,268,32889,1,0,0:0:0:0:
312,320,33046,2,0,L|410:320,1,98.3999969970704,2|0,0:0|0:0,0:0:0:0:
488,320,33280,2,0,L|491:270,1,49.1999984985352,0|8,0:0|0:0,0:0:0:0:
392,224,33514,1,0,0:0:0:0:
164,172,33671,6,0,B|148:128|148:128|163:78,1,98.3999969970704,2|0,0:0|0:0,0:0:0:0:
228,32,33905,1,0,0:0:0:0:
164,32,33983,1,8,0:0:0:0:
64,80,34139,1,0,0:0:0:0:
228,132,34296,2,0,L|326:132,1,98.3999969970704,2|0,0:0|0:0,0:0:0:0:
260,180,34530,1,0,0:0:0:0:
324,180,34608,1,8,0:0:0:0:
424,228,34764,1,0,0:0:0:0:
196,280,34921,6,0,B|148:280|148:280|131:232,1,98.3999969970704,2|0,0:0|0:0,0:0:0:0:
212,224,35155,1,0,0:0:0:0:
292,216,35233,2,0,B|340:216|340:216|357:168,1,98.3999969970704,8|0,0:0|0:0,0:0:0:0:
192,116,35546,2,0,B|176:72|176:72|191:22,1,98.3999969970704,2|0,0:0|0:0,0:0:0:0:
256,68,35780,1,0,0:0:0:0:
192,68,35858,2,0,L|93:68,1,98.3999969970704,8|0,0:0|0:0,0:0:0:0:
320,116,36171,6,0,L|419:116,1,98.3999969970704,2|0,0:0|0:0,0:0:0:0:
432,164,36405,1,0,0:0:0:0:
352,172,36483,2,0,L|253:172,1,98.3999969970704,8|0,0:0|0:0,0:0:0:0:
420,224,36796,2,0,L|435:271,2,49.1999984985352,2|0|0,0:0|0:0|0:0,0:0:0:0:
252,272,37108,2,0,L|153:272,1,98.3999969970704,8|0,0:0|0:0,0:0:0:0:
400,324,37421,6,0,B|416:280|416:280|401:230,1,98.3999969970704,2|0,0:0|0:0,0:0:0:0:
336,184,37655,1,0,0:0:0:0:
400,184,37733,1,8,0:0:0:0:
500,136,37889,1,0,0:0:0:0:
336,84,38046,2,0,L|238:84,1,98.3999969970704,2|0,0:0|0:0,0:0:0:0:
160,84,38280,2,0,L|157:34,1,49.1999984985352,0|8,0:0|0:0,0:0:0:0:
256,32,38514,1,0,0:0:0:0:
28,84,38671,6,0,L|43:181,1,98.3999969970704,2|0,0:0|0:0,0:0:0:0:
124,188,38905,1,0,0:0:0:0:
204,196,38983,1,8,0:0:0:0:
304,244,39139,1,0,0:0:0:0:
140,296,39296,1,2,0:0:0:0:
40,348,39452,2,0,L|25:301,2,49.1999984985352,0|0|8,0:0|0:0|0:0,0:0:0:0:
204,348,39764,1,0,0:0:0:0:
432,296,39921,6,0,B|415:248|415:248|367:248,1,98.3999969970704,2|0,0:0|0:0,0:0:0:0:
288,240,40155,1,0,0:0:0:0:
208,232,40233,2,0,B|225:184|225:184|273:184,1,98.3999969970704,8|0,0:0|0:0,0:0:0:0:
436,132,40546,2,0,B|452:88|452:88|437:38,1,98.3999969970704,2|0,0:0|0:0,0:0:0:0:
372,84,40780,1,0,0:0:0:0:
436,84,40858,2,0,L|337:84,1,98.3999969970704,8|0,0:0|0:0,0:0:0:0:
112,132,41171,6,0,L|13:132,1,98.3999969970704,2|0,0:0|0:0,0:0:0:0:
24,180,41405,1,0,0:0:0:0:
104,188,41483,2,0,L|203:188,1,98.3999969970704,8|0,0:0|0:0,0:0:0:0:
368,240,41796,2,0,L|383:287,2,49.1999984985352,2|0|0,0:0|0:0|0:0,0:0:0:0:
200,288,42108,2,0,L|150:288,1,49.1999984985352,8|0,0:0|0:0,0:0:0:0:
312,288,42264,2,0,L|361:288,1,49.1999984985352,8|0,0:0|0:0,0:0:0:0:
144,240,42421,6,0,B|128:196|128:196|143:146,1,98.3999969970704,2|0,0:0|0:0,0:0:0:0:
232,148,42655,2,0,L|239:99,1,49.1999984985352,0|8,0:0|0:0,0:0:0:0:
140,52,42889,1,0,0:0:0:0:
304,1,43046,2,0,L|402:0,1,98.3999969970704
316,52,43280,2,0,L|309:101,1,49.1999984985352,0|8,0:0|0:0,0:0:0:0:
408,148,43514,1,0,0:0:0:0:
160,200,43671,6,0,B|177:248|177:248|225:248,1,98.3999969970704,2|0,0:0|0:0,0:0:0:0:
288,296,43905,1,0,0:0:0:0:
224,296,43983,1,8,0:0:0:0:
124,344,44139,1,0,0:0:0:0:
288,344,44296,2,0,B|336:344|336:344|353:296,1,98.3999969970704,2|0,0:0|0:0,0:0:0:0:
344,248,44530,1,0,0:0:0:0:
264,240,44608,1,8,0:0:0:0:
364,192,44764,1,0,0:0:0:0:
116,192,44921,6,0,L|17:192,1,98.3999969970704,2|0,0:0|0:0,0:0:0:0:
104,141,45155,2,0,L|111:92,1,49.1999984985352,0|8,0:0|0:0,0:0:0:0:
12,44,45389,1,0,0:0:0:0:
176,44,45546,2,0,L|191:141,1,98.3999969970704,2|0,0:0|0:0,0:0:0:0:
100,140,45780,2,0,L|93:189,1,49.1999984985352,0|8,0:0|0:0,0:0:0:0:
192,236,46014,1,0,0:0:0:0:
412,288,46171,6,0,B|428:244|428:244|413:194,1,98.3999969970704,2|0,0:0|0:0,0:0:0:0:
348,148,46405,1,0,0:0:0:0:
412,148,46483,1,8,0:0:0:0:
280,148,46639,1,0,0:0:0:0:
148,148,46796,2,0,B|132:104|132:104|147:54,1,98.3999969970704,2|0,0:0|0:0,0:0:0:0:
212,8,47030,1,0,0:0:0:0:
148,8,47108,1,8,0:0:0:0:
280,8,47264,1,0,0:0:0:0:
16,8,47421,6,0,L|31:105,1,98.3999969970704,2|0,0:0|0:0,0:0:0:0:
112,112,47655,1,0,0:0:0:0:
192,120,47733,2,0,L|207:217,1,98.3999969970704,8|0,0:0|0:0,0:0:0:0:
44,216,48046,2,0,L|59:313,1,98.3999969970704,2|0,0:0|0:0,0:0:0:0:
140,320,48280,1,0,0:0:0:0:
220,328,48358,1,8,0:0:0:0:
120,376,48514,1,0,0:0:0:0:
284,376,48671,6,0,L|299:279,1,98.3999969970704,2|0,0:0|0:0,0:0:0:0:
220,272,48905,1,0,0:0:0:0:
140,264,48983,2,0,L|155:167,1,98.3999969970704,8|0,0:0|0:0,0:0:0:0:
320,168,49296,2,0,L|335:71,1,98.3999969970704,2|0,0:0|0:0,0:0:0:0:
256,64,49530,1,0,0:0:0:0:
176,56,49608,1,8,0:0:0:0:
276,8,49764,1,0,0:0:0:0:
496,8,49921,6,0,B|512:52|512:52|497:102,1,98.3999969970704,2|0,0:0|0:0,0:0:0:0:
432,144,50155,1,0,0:0:0:0:
496,144,50233,2,0,L|397:144,1,98.3999969970704,8|0,0:0|0:0,0:0:0:0:
232,196,50546,2,0,L|217:243,2,49.1999984985352,2|0|0,0:0|0:0|0:0,0:0:0:0:
396,196,50858,2,0,L|411:293,1,98.3999969970704,8|0,0:0|0:0,0:0:0:0:
148,292,51171,6,0,L|49:292,1,98.3999969970704,2|0,0:0|0:0,0:0:0:0:
44,244,51405,1,0,0:0:0:0:
132,236,51483,2,0,L|230:236,1,98.3999969970704,8|0,0:0|0:0,0:0:0:0:
184,184,51717,1,0,0:0:0:0:
272,184,51796,2,0,B|288:140|288:140|273:90,1,98.3999969970704,6|0,0:0|0:0,0:0:0:0:
64,88,52108,1,8,0:0:0:0:
360,136,52264,1,8,0:0:0:0:
408,136,52342,1,0,0:0:0:0:
272,184,52421,6,0,L|173:184,1,98.3999969970704,6|0,0:0|0:0,0:0:0:0:
168,232,52655,1,0,0:0:0:0:
256,240,52733,1,8,0:0:0:0:
304,240,52811,2,0,B|320:284|320:284|305:334,1,98.3999969970704
112,336,53046,6,0,L|97:239,1,98.3999969970704,2|0,0:0|0:0,0:0:0:0:
184,236,53280,1,2,0:0:0:0:
192,188,53358,1,8,0:0:0:0:
200,140,53436,1,0,0:0:0:0:
288,136,53514,1,2,0:0:0:0:
280,88,53592,1,0,0:0:0:0:
88,88,53671,6,0,B|72:132|72:132|87:182,1,98.3999969970704,2|0,0:0|0:0,0:0:0:0:
152,228,53905,1,0,0:0:0:0:
240,236,53983,1,8,0:0:0:0:
192,236,54061,2,0,B|176:280|176:280|191:330,1,98.3999969970704
384,332,54296,6,0,L|399:235,1,98.3999969970704,2|0,0:0|0:0,0:0:0:0:
312,232,54530,1,2,0:0:0:0:
304,184,54608,1,8,0:0:0:0:
296,136,54686,1,0,0:0:0:0:
384,132,54764,1,2,0:0:0:0:
392,84,54842,1,0,0:0:0:0:
204,80,54921,6,0,L|105:80,1,98.3999969970704,2|0,0:0|0:0,0:0:0:0:
112,128,55155,1,0,0:0:0:0:
200,136,55233,1,8,0:0:0:0:
208,184,55311,2,0,L|109:184,1,98.3999969970704
304,184,55546,6,0,B|320:228|320:228|305:278,1,98.3999969970704,2|0,0:0|0:0,0:0:0:0:
208,324,55780,1,2,0:0:0:0:
256,324,55858,1,8,0:0:0:0:
304,324,55936,1,0,0:0:0:0:
208,280,56014,2,0,L|193:233,1,49.1999984985352,2|0,0:0|0:0,0:0:0:0:
380,228,56171,6,0,L|479:228,1,98.3999969970704,2|0,0:0|0:0,0:0:0:0:
472,180,56405,1,0,0:0:0:0:
384,172,56483,1,8,0:0:0:0:
344,136,56561,1,0,0:0:0:0:
332,84,56639,1,0,0:0:0:0:
360,36,56717,1,0,0:0:0:0:
152,36,56796,6,0,L|53:36,1,98.3999969970704,2|0,0:0|0:0,0:0:0:0:
152,80,57030,1,2,0:0:0:0:
200,80,57108,1,8,0:0:0:0:
248,80,57186,1,0,0:0:0:0:
344,124,57264,2,0,L|347:174,1,49.1999984985352,2|0,0:0|0:0,0:0:0:0:
196,172,57421,6,0,L|181:219,2,49.1999984985352,2|0|0,0:0|0:0|0:0,0:0:0:0:
360,220,57733,1,8,0:0:0:0:
296,264,57811,2,0,B|280:308|280:308|295:358,1,98.3999969970704
488,360,58046,5,2,0:0:0:0:
484,308,58124,1,0,0:0:0:0:
452,264,58202,1,0,0:0:0:0:
400,244,58280,1,0,0:0:0:0:
312,244,58358,1,8,0:0:0:0:
260,224,58436,1,0,0:0:0:0:
228,180,58514,1,0,0:0:0:0:
224,128,58592,1,0,0:0:0:0:
416,128,58671,6,0,L|431:81,2,49.1999984985352,2|0|0,0:0|0:0|0:0,0:0:0:0:
252,80,58983,1,8,0:0:0:0:
316,36,59061,2,0,L|217:36,1,98.3999969970704
24,36,59296,6,0,B|8:80|8:80|23:130,1,98.3999969970704,2|0,0:0|0:0,0:0:0:0:
112,128,59530,2,0,L|127:81,2,49.1999984985352,2|8|0,0:0|0:0|0:0,0:0:0:0:
24,36,59764,2,0,L|9:83,1,49.1999984985352,2|0,0:0|0:0,0:0:0:0:
220,80,59921,5,2,0:0:0:0:
268,80,59999,1,0,0:0:0:0:
316,80,60077,1,0,0:0:0:0:
152,128,60233,1,8,0:0:0:0:
216,172,60311,2,0,L|117:172,1,98.3999969970704
312,172,60546,6,0,L|327:269,1,98.3999969970704,2|0,0:0|0:0,0:0:0:0:
240,272,60780,1,2,0:0:0:0:
232,320,60858,1,8,0:0:0:0:
224,368,60936,1,0,0:0:0:0:
136,368,61014,1,2,0:0:0:0:
144,320,61092,1,0,0:0:0:0:
356,368,61171,5,2,0:0:0:0:
404,368,61249,1,0,0:0:0:0:
452,368,61327,1,0,0:0:0:0:
288,320,61483,1,8,0:0:0:0:
352,276,61561,2,0,B|368:232|368:232|353:182,1,98.3999969970704
160,180,61796,6,0,B|144:136|144:136|159:86,1,98.3999969970704,2|0,0:0|0:0,0:0:0:0:
224,40,62030,1,0,0:0:0:0:
400,40,62108,2,0,L|350:40,1,49.1999984985352,8|0,0:0|0:0,0:0:0:0:
160,40,62264,2,0,L|110:40,1,49.1999984985352,8|0,0:0|0:0,0:0:0:0:
300,88,62421,6,0,L|398:88,1,98.3999969970704,6|0,0:0|0:0,0:0:0:0:
488,88,62655,2,0,L|503:135,1,49.1999984985352,0|8,0:0|0:0,0:0:0:0:
412,136,62811,2,0,B|396:180|396:180|411:230,1,98.3999969970704
216,232,63046,6,0,L|201:329,1,98.3999969970704,2|0,0:0|0:0,0:0:0:0:
288,328,63280,2,0,L|303:281,2,49.1999984985352,2|8|0,0:0|0:0|0:0,0:0:0:0:
200,280,63514,1,2,0:0:0:0:
152,280,63592,1,0,0:0:0:0:
16,328,63671,6,0,B|0:284|0:284|15:234,1,98.3999969970704,2|0,0:0|0:0,0:0:0:0:
104,236,63905,2,0,L|153:236,1,49.1999984985352,0|8,0:0|0:0,0:0:0:0:
64,236,64061,2,0,B|48:192|48:192|63:142,1,98.3999969970704
256,144,64296,6,0,L|355:144,1,98.3999969970704,2|0,0:0|0:0,0:0:0:0:
264,96,64530,1,2,0:0:0:0:
312,96,64608,1,8,0:0:0:0:
360,96,64686,1,0,0:0:0:0:
452,96,64764,2,0,L|455:46,1,49.1999984985352,2|0,0:0|0:0,0:0:0:0:
260,44,64921,6,0,L|162:44,1,98.3999969970704,6|0,0:0|0:0,0:0:0:0:
72,44,65155,2,0,L|69:94,1,49.1999984985352,0|8,0:0|0:0,0:0:0:0:
160,140,65311,2,0,L|62:140,1,98.3999969970704
256,140,65546,6,0,B|272:184|272:184|257:234,1,98.3999969970704,2|0,0:0|0:0,0:0:0:0:
160,280,65780,1,2,0:0:0:0:
208,280,65858,1,8,0:0:0:0:
256,280,65936,1,0,0:0:0:0:
352,328,66014,1,2,0:0:0:0:
304,328,66092,1,0,0:0:0:0:
168,328,66171,6,0,B|120:328|120:328|103:280,1,98.3999969970704,2|0,0:0|0:0,0:0:0:0:
192,280,66405,2,0,L|177:233,1,49.1999984985352,0|8,0:0|0:0,0:0:0:0:
88,232,66561,2,0,B|72:188|72:188|87:138,1,98.3999969970704,2|0,0:0|0:0,0:0:0:0:
280,140,66796,6,0,L|378:140,1,98.3999969970704,2|0,0:0|0:0,0:0:0:0:
476,92,67030,2,0,L|491:45,2,49.1999984985352,2|8|0,0:0|0:0|0:0,0:0:0:0:
388,44,67264,1,2,0:0:0:0:
340,44,67342,1,0,0:0:0:0:
144,44,67421,6,0,L|45:44,1,98.3999969970704,6|0,0:0|0:0,0:0:0:0:
208,92,67733,1,8,0:0:0:0:
144,136,67811,2,0,B|128:180|128:180|143:230,1,98.3999969970704
336,228,68046,6,0,B|352:272|352:272|337:322,1,98.3999969970704,2|0,0:0|0:0,0:0:0:0:
256,328,68280,1,2,0:0:0:0:
176,324,68358,2,0,L|161:277,1,49.1999984985352,8|0,0:0|0:0,0:0:0:0:
256,228,68514,2,0,L|241:181,1,49.1999984985352,2|0,0:0|0:0,0:0:0:0:
436,132,68671,6,0,B|484:132|484:132|501:84,1,98.3999969970704,6|0,0:0|0:0,0:0:0:0:
340,84,68983,1,8,0:0:0:0:
404,40,69061,2,0,L|305:40,1,98.3999969970704
112,40,69296,5,2,0:0:0:0:
72,76,69374,1,0,0:0:0:0:
60,128,69452,1,0,0:0:0:0:
88,176,69530,1,0,0:0:0:0:
176,176,69608,2,0,L|191:129,1,49.1999984985352,8|0,0:0|0:0,0:0:0:0:
32,76,69764,2,0,L|17:29,1,49.1999984985352,10|0,0:0|0:0,0:0:0:0:
204,28,69921,5,6,0:0:0:0:
244,64,69999,1,2,0:0:0:0:
256,116,70077,1,2,0:0:0:0:
228,164,70155,1,2,0:0:0:0:
140,164,70233,1,10,0:0:0:0:
228,164,70311,2,0,L|243:211,2,49.1999984985352,2|2|2,0:0|0:0|0:0,0:0:0:0:
40,164,70546,5,6,0:0:0:0:
52,216,70624,1,2,0:0:0:0:
96,248,70702,1,2,0:0:0:0:
184,248,70780,1,2,0:0:0:0:
228,280,70858,1,10,0:0:0:0:
240,332,70936,1,2,0:0:0:0:
152,332,71014,2,0,L|102:332,1,49.1999984985352,2|2,0:0|0:0,0:0:0:0:
380,332,71171,6,0,L|480:332,1,100.039995878479,14|0,0:0|0:0,0:0:0:0:
480,280,71405,2,0,L|380:280,1,100.039995878479,8|0,0:0|0:0,0:0:0:0:
380,228,71639,2,0,L|132:228,1,247.639997165985,10|0,0:0|0:0,0:0:0:0:
132,176,71874,2,0,L|284:176,1,152.520004770905,8|0,0:0|0:0,0:0:0:0:
284,124,72108,2,0,L|36:124,1,247.639997165985,10|8,0:0|0:0,0:0:0:0:
48,84,72303,1,0,0:0:0:0:
76,52,72342,1,0,0:0:0:0:
116,40,72381,1,0,0:0:0:0:
256,72,72420,6,0,B|272:116|272:116|257:166,1,98.3999969970704,12|0,0:0|0:0,0:0:0:0:
96,164,72732,2,0,B|80:208|80:208|95:258,1,98.3999969970704,8|0,0:0|0:0,0:0:0:0:
256,260,73045,1,8,0:0:0:0:
16,260,73201,1,8,0:0:0:0:
256,260,73513,5,8,0:0:0:0:
392,260,73670,1,0,0:0:0:0:
256,212,73826,1,8,0:0:0:0:
392,212,73982,1,0,0:0:0:0:
256,164,74138,1,8,0:0:0:0:
496,164,74295,6,0,L|481:67,1,98.3999969970704,8|0,0:0|0:0,0:0:0:0:
312,68,74607,2,0,L|297:165,1,98.3999969970704,8|0,0:0|0:0,0:0:0:0:
128,164,74920,1,8,0:0:0:0:
368,164,75076,1,8,0:0:0:0:
128,164,75388,6,0,L|143:261,1,98.3999969970704,8|0,0:0|0:0,0:0:0:0:
312,260,75701,2,0,L|327:357,1,98.3999969970704,8|0,0:0|0:0,0:0:0:0:
104,356,76013,1,8,0:0:0:0:
36,356,76091,1,0,0:0:0:0:
176,308,76170,6,0,L|275:308,1,98.3999969970704,8|0,0:0|0:0,0:0:0:0:
452,264,76482,2,0,L|353:264,1,98.3999969970704,8|0,0:0|0:0,0:0:0:0:
176,220,76795,1,0,0:0:0:0:
416,220,76951,1,8,0:0:0:0:
176,220,77263,5,8,0:0:0:0:
40,220,77420,1,0,0:0:0:0:
176,172,77576,1,8,0:0:0:0:
40,172,77732,1,0,0:0:0:0:
176,124,77888,1,8,0:0:0:0:
416,124,78045,6,0,B|432:80|432:80|417:30,1,98.3999969970704,8|0,0:0|0:0,0:0:0:0:
256,32,78357,2,0,B|240:76|240:76|255:126,1,98.3999969970704,8|0,0:0|0:0,0:0:0:0:
416,124,78670,1,8,0:0:0:0:
176,124,78826,1,8,0:0:0:0:
384,124,79086,6,0,L|405:185,1,65.5999979980469,4|4,0:1|0:1,0:0:0:0:
228,188,79295,1,12,0:1:0:0:
224,252,79399,1,4,0:1:0:0:
312,316,79503,1,4,0:1:0:0:
136,316,79607,1,12,0:1:0:0:
132,252,79711,1,4,0:1:0:0:
220,188,79815,1,4,0:1:0:0:
436,188,79920,6,0,L|451:91,1,98.3999969970704,8|0,0:0|0:0,0:0:0:0:
288,92,80232,2,0,L|273:189,1,98.3999969970704,8|0,0:0|0:0,0:0:0:0:
436,188,80545,1,8,0:0:0:0:
208,188,80701,2,0,L|193:235,2,49.1999984985352,8|0|0,0:0|0:0|0:0,0:0:0:0:
372,188,81013,6,0,L|387:285,1,98.3999969970704,8|0,0:0|0:0,0:0:0:0:
224,284,81326,2,0,L|239:381,1,98.3999969970704,8|0,0:0|0:0,0:0:0:0:
480,380,81638,1,12,0:1:0:0:
236,188,81795,6,0,L|137:188,1,98.3999969970704,8|0,0:0|0:0,0:0:0:0:
300,88,82107,2,0,L|201:88,1,98.3999969970704,8|0,0:0|0:0,0:0:0:0:
40,88,82420,1,8,0:0:0:0:
268,88,82576,1,8,0:0:0:0:
276,136,82654,1,0,0:0:0:0:
284,184,82732,1,0,0:0:0:0:
120,184,82888,6,0,L|105:281,1,98.3999969970704,8|0,0:0|0:0,0:0:0:0:
268,280,83201,1,8,0:0:0:0:
496,280,83357,1,4,0:1:0:0:
492,228,83435,1,0,0:0:0:0:
460,184,83513,1,8,0:0:0:0:
408,164,83591,1,0,0:0:0:0:
216,164,83670,5,6,0:0:0:0:
176,128,83748,1,0,0:0:0:0:
164,76,83826,1,0,0:0:0:0:
192,28,83904,1,0,0:0:0:0:
280,28,83982,1,2,0:0:0:0:
320,64,84060,1,0,0:0:0:0:
332,116,84138,1,0,0:0:0:0:
304,164,84216,1,0,0:0:0:0:
216,164,84295,6,0,L|201:211,1,49.1999984985352,2|0,0:0|0:0,0:0:0:0:
288,212,84451,2,0,L|303:259,1,49.1999984985352,2|0,0:0|0:0,0:0:0:0:
112,260,84607,2,0,L|97:307,1,49.1999984985352,4|0,0:0|0:0,0:0:0:0:
288,308,84763,5,2,0:0:0:0:
328,272,84842,1,0,0:0:0:0:
340,220,84920,1,0,0:0:0:0:
312,172,84998,1,0,0:0:0:0:
224,172,85076,2,0,L|174:172,3,49.1999984985352,2|0|0|0,0:0|0:0|0:0|0:0,0:0:0:0:
88,172,85388,2,0,L|85:122,1,49.1999984985352,2|0,0:0|0:0,0:0:0:0:
172,124,85545,6,0,L|464:124,1,292.739994193085,14|0,0:0|0:0,0:0:0:0:
464,72,85857,2,0,L|272:72,1,191.880006441284,8|0,0:0|0:0,0:0:0:0:
272,20,86170,2,0,L|80:20,1,191.880006441284,8|0,0:0|0:0,0:0:0:0:
80,72,86482,6,0,L|372:72,1,292.739994193085,14|0,0:0|0:0,0:0:0:0:
372,124,86795,2,0,L|180:124,1,191.880006441284,8|0,0:0|0:0,0:0:0:0:
180,176,87107,2,0,B|35:176|35:176|180:176,1,290.279989812561,8|0,0:0|0:0,0:0:0:0:
476,176,87420,1,8,0:0:0:0:
256,192,89607,12,0,93357,0:0:0:0:
240,360,93669,5,2,0:0:0:0:
180,312,93824,1,0,0:0:0:0:
156,236,93981,1,2,0:0:0:0:
180,160,94137,1,0,0:0:0:0:
340,160,94294,2,0,L|354:257,1,98.3999969970704,2|0,0:0|0:0,0:0:0:0:
192,256,94606,5,2,0:0:0:0:
168,180,94763,1,0,0:0:0:0:
192,104,94920,1,2,0:0:0:0:
252,56,95075,1,0,0:0:0:0:
412,56,95231,2,0,L|510:56,1,98.3999969970704,2|0,0:0|0:0,0:0:0:0:
348,56,95544,5,2,0:0:0:0:
272,80,95700,1,0,0:0:0:0:
220,140,95856,1,2,0:0:0:0:
204,216,96012,1,0,0:0:0:0:
364,268,96169,1,2,0:0:0:0:
204,316,96325,1,2,0:0:0:0:
300,364,96481,6,0,L|314:267,1,98.3999969970704,2|0,0:0|0:0,0:0:0:0:
216,268,96794,2,0,L|219:169,1,98.3999969970704,2|0,0:0|0:0,0:0:0:0:
120,168,97106,2,0,L|117:69,1,98.3999969970704,2|0,0:0|0:0,0:0:0:0:
280,68,97419,6,0,L|378:68,1,98.3999969970704,2|0,0:0|0:0,0:0:0:0:
216,120,97731,2,0,L|117:120,2,98.3999969970704,2|2|2,0:0|0:0|0:0,0:0:0:0:
380,172,98200,1,2,0:0:0:0:
216,68,98356,6,0,L|202:165,1,98.3999969970704,2|0,0:0|0:0,0:0:0:0:
300,164,98669,2,0,L|297:263,1,98.3999969970704,2|0,0:0|0:0,0:0:0:0:
456,264,98981,2,0,L|459:363,1,98.3999969970704,2|0,0:0|0:0,0:0:0:0:
296,364,99294,5,2,0:0:0:0:
236,316,99449,1,0,0:0:0:0:
212,240,99606,1,2,0:0:0:0:
236,164,99762,1,0,0:0:0:0:
396,164,99919,1,2,0:0:0:0:
236,316,100075,1,2,0:0:0:0:
296,268,100231,5,2,0:0:0:0:
320,192,100387,1,0,0:0:0:0:
296,116,100544,1,2,0:0:0:0:
236,68,100700,1,0,0:0:0:0:
76,68,100856,2,0,L|62:165,1,98.3999969970704,2|0,0:0|0:0,0:0:0:0:
220,164,101169,5,2,0:0:0:0:
316,164,101325,1,0,0:0:0:0:
220,216,101481,1,2,0:0:0:0:
316,216,101637,1,0,0:0:0:0:
476,216,101794,2,0,L|490:313,1,98.3999969970704,2|0,0:0|0:0,0:0:0:0:
332,312,102106,6,0,L|233:312,1,98.3999969970704,2|0,0:0|0:0,0:0:0:0:
328,216,102419,2,0,L|342:119,1,98.3999969970704,2|0,0:0|0:0,0:0:0:0:
184,120,102731,2,0,L|85:120,1,98.3999969970704,2|0,0:0|0:0,0:0:0:0:
248,120,103044,5,2,0:0:0:0:
324,144,103200,1,0,0:0:0:0:
376,204,103356,1,2,0:0:0:0:
392,280,103512,1,0,0:0:0:0:
232,332,103669,1,2,0:0:0:0:
392,384,103825,1,2,0:0:0:0:
296,384,103981,6,0,L|293:285,1,98.3999969970704,2|0,0:0|0:0,0:0:0:0:
196,284,104294,2,0,L|193:185,1,98.3999969970704,2|0,0:0|0:0,0:0:0:0:
288,184,104606,2,0,L|291:85,1,98.3999969970704,2|0,0:0|0:0,0:0:0:0:
128,84,104919,6,0,L|30:84,1,98.3999969970704,2|0,0:0|0:0,0:0:0:0:
192,136,105231,2,0,L|291:136,2,98.3999969970704,2|2|2,0:0|0:0|0:0,0:0:0:0:
28,188,105700,1,2,0:0:0:0:
192,84,105857,5,2,0:0:0:0:
288,84,106013,1,0,0:0:0:0:
192,32,106169,1,2,0:0:0:0:
288,32,106325,1,0,0:0:0:0:
448,32,106481,2,0,L|462:129,1,98.3999969970704,2|0,0:0|0:0,0:0:0:0:
300,128,106794,6,0,L|201:128,2,98.3999969970704,2|0|0,0:0|0:0|0:0,0:0:0:0:
460,180,107262,1,2,0:0:0:0:
300,228,107419,1,2,0:0:0:0:
396,276,107575,1,2,0:0:0:0:
148,328,107731,2,0,L|136:297,1,32.7999989990235,2|2,0:0|0:0,0:0:0:0:
256,192,107887,12,0,108512,0:0:0:0:
248,356,108669,6,0,L|346:356,1,98.3999969970704,6|0,0:0|0:0,0:0:0:0:
508,308,108981,2,0,L|409:308,1,98.3999969970704,2|0,0:0|0:0,0:0:0:0:
316,260,109294,2,0,B|300:216|300:216|315:166,1,98.3999969970704,2|0,0:0|0:0,0:0:0:0:
476,164,109606,6,0,B|492:120|492:120|477:70,1,98.3999969970704,2|0,0:0|0:0,0:0:0:0:
316,24,109919,1,2,0:0:0:0:
220,24,110075,1,0,0:0:0:0:
316,76,110231,1,2,0:0:0:0:
220,76,110387,1,0,0:0:0:0:
60,76,110544,6,0,L|74:173,1,98.3999969970704,2|0,0:0|0:0,0:0:0:0:
236,216,110856,2,0,L|250:313,1,98.3999969970704,2|0,0:0|0:0,0:0:0:0:
100,348,111169,1,2,0:0:0:0:
252,348,111325,1,2,0:0:0:0:
100,312,111481,5,2,0:0:0:0:
40,264,111637,1,0,0:0:0:0:
16,188,111794,1,2,0:0:0:0:
40,112,111950,1,0,0:0:0:0:
100,64,112106,2,0,L|198:64,1,98.3999969970704,2|0,0:0|0:0,0:0:0:0:
360,112,112419,6,0,L|458:112,1,98.3999969970704,2|0,0:0|0:0,0:0:0:0:
296,160,112731,2,0,L|197:160,2,98.3999969970704,2|2|2,0:0|0:0|0:0,0:0:0:0:
456,208,113200,1,2,0:0:0:0:
360,208,113356,6,0,L|357:307,1,98.3999969970704,2|0,0:0|0:0,0:0:0:0:
452,160,113669,2,0,L|455:61,1,98.3999969970704,2|0,0:0|0:0,0:0:0:0:
356,12,113981,1,2,0:0:0:0:
196,12,114137,1,2,0:0:0:0:
356,12,114294,5,2,0:0:0:0:
416,60,114450,1,0,0:0:0:0:
440,136,114607,1,2,0:0:0:0:
416,212,114763,1,0,0:0:0:0:
356,260,114919,1,2,0:0:0:0:
508,260,115075,1,2,0:0:0:0:
356,296,115231,6,0,L|353:197,1,98.3999969970704,2|0,0:0|0:0,0:0:0:0:
192,152,115544,2,0,L|290:152,1,98.3999969970704,2|0,0:0|0:0,0:0:0:0:
452,104,115856,2,0,L|353:104,1,98.3999969970704,2|0,0:0|0:0,0:0:0:0:
96,56,116169,6,0,L|110:153,1,98.3999969970704,2|0,0:0|0:0,0:0:0:0:
272,200,116481,2,0,L|286:297,1,98.3999969970704,2|0,0:0|0:0,0:0:0:0:
196,344,116794,2,0,L|97:344,1,98.3999969970704,2|0,0:0|0:0,0:0:0:0:
260,296,117106,6,0,B|276:252|276:252|261:202,1,98.3999969970704,2|0,0:0|0:0,0:0:0:0:
96,152,117419,1,2,0:0:0:0:
192,152,117575,1,0,0:0:0:0:
96,100,117731,1,2,0:0:0:0:
192,100,117887,1,0,0:0:0:0:
352,100,118044,6,0,L|366:3,1,98.3999969970704,2|0,0:0|0:0,0:0:0:0:
208,48,118356,2,0,L|194:145,1,98.3999969970704,2|0,0:0|0:0,0:0:0:0:
336,148,118669,1,2,0:0:0:0:
480,148,118825,1,2,0:0:0:0:
336,148,118982,6,0,L|322:245,1,98.3999969970704,2|0,0:0|0:0,0:0:0:0:
480,288,119294,2,0,L|494:191,1,98.3999969970704,2|0,0:0|0:0,0:0:0:0:
336,148,119606,2,0,L|237:148,1,98.3999969970704,2|0,0:0|0:0,0:0:0:0:
80,104,119919,6,0,L|66:7,1,98.3999969970704,2|0,0:0|0:0,0:0:0:0:
228,8,120231,2,0,L|327:8,2,98.3999969970704,2|2|2,0:0|0:0|0:0,0:0:0:0:
68,56,120700,1,2,0:0:0:0:
164,56,120856,6,0,L|167:155,1,98.3999969970704,2|0,0:0|0:0,0:0:0:0:
72,160,121169,2,0,L|75:259,1,98.3999969970704,2|0,0:0|0:0,0:0:0:0:
232,304,121481,2,0,L|330:304,1,98.3999969970704,2|0,0:0|0:0,0:0:0:0:
172,304,121794,6,0,B|156:260|156:260|171:210,1,98.3999969970704,2|0,0:0|0:0,0:0:0:0:
268,208,122106,1,0,0:0:0:0:
108,156,122262,1,2,0:0:0:0:
268,108,122419,2,0,L|366:108,1,98.3999969970704,2|2,0:0|0:0,0:0:0:0:
116,56,122731,1,2,0:0:0:0:
256,192,122887,12,0,123512,0:0:0:0:
396,356,123669,6,0,L|494:356,1,98.3999969970704,6|0,0:0|0:0,0:0:0:0:
336,304,123981,2,0,L|238:304,1,98.3999969970704,2|0,0:0|0:0,0:0:0:0:
476,304,124294,2,0,B|492:260|492:260|477:210,1,98.3999969970704,8|0,0:0|0:0,0:0:0:0:
328,156,124606,6,0,B|312:112|312:112|327:62,1,98.3999969970704,2|0,0:0|0:0,0:0:0:0:
484,8,124919,2,0,L|386:8,1,98.3999969970704,2|2,0:0|0:0,0:0:0:0:
148,8,125231,2,0,L|50:8,1,98.3999969970704,10|2,0:0|0:0,0:0:0:0:
208,60,125544,6,0,L|306:60,2,98.3999969970704,2|0|0,0:0|0:0|0:0,0:0:0:0:
48,112,126012,1,2,0:0:0:0:
288,164,126169,2,0,L|303:261,1,98.3999969970704,8|0,0:0|0:0,0:0:0:0:
152,316,126481,5,2,0:0:0:0:
92,268,126637,1,0,0:0:0:0:
68,192,126794,1,2,0:0:0:0:
92,116,126950,1,0,0:0:0:0:
332,60,127106,2,0,L|430:60,1,98.3999969970704,10|0,0:0|0:0,0:0:0:0:
280,116,127419,6,0,L|181:116,2,98.3999969970704,2|0|0,0:0|0:0|0:0,0:0:0:0:
440,168,127887,1,2,0:0:0:0:
200,220,128044,1,8,0:0:0:0:
328,272,128200,1,0,0:0:0:0:
200,324,128356,6,0,L|185:227,1,98.3999969970704,2|0,0:0|0:0,0:0:0:0:
280,176,128669,2,0,L|295:79,1,98.3999969970704,2|0,0:0|0:0,0:0:0:0:
56,24,128981,1,10,0:0:0:0:
184,76,129138,1,0,0:0:0:0:
56,128,129294,6,0,L|41:225,1,98.3999969970704,2|0,0:0|0:0,0:0:0:0:
136,276,129606,1,0,0:0:0:0:
296,328,129762,1,2,0:0:0:0:
56,380,129919,2,0,B|40:336|40:336|55:286,1,98.3999969970704,8|0,0:0|0:0,0:0:0:0:
216,232,130231,6,0,L|314:232,1,98.3999969970704,2|0,0:0|0:0,0:0:0:0:
168,124,130544,2,0,L|266:124,1,98.3999969970704,2|0,0:0|0:0,0:0:0:0:
16,24,130856,1,12,0:1:0:0:
144,24,131012,1,0,0:0:0:0:
368,24,131169,6,0,B|384:68|384:68|369:118,1,98.3999969970704,2|0,0:0|0:0,0:0:0:0:
212,168,131481,2,0,B|196:212|196:212|211:262,1,98.3999969970704,2|0,0:0|0:0,0:0:0:0:
448,308,131794,2,0,L|350:308,1,98.3999969970704,8|0,0:0|0:0,0:0:0:0:
192,356,132106,6,0,L|94:356,2,98.3999969970704,2|0|2,0:0|0:0|0:0,0:0:0:0:
416,356,132575,1,2,0:0:0:0:
408,308,132653,1,0,0:0:0:0:
400,260,132731,1,2,0:0:0:0:
256,208,132887,1,2,0:0:0:0:
496,156,133044,5,6,0:0:0:0:
368,156,133200,1,0,0:0:0:0:
496,120,133356,1,2,0:0:0:0:
368,120,133512,1,0,0:0:0:0:
144,168,133669,2,0,L|129:71,1,98.3999969970704,8|0,0:0|0:0,0:0:0:0:
272,68,133981,5,2,0:0:0:0:
416,32,134137,1,0,0:0:0:0:
272,32,134293,1,2,0:0:0:0:
48,32,134450,1,0,0:0:0:0:
96,32,134528,1,0,0:0:0:0:
144,32,134606,1,2,0:0:0:0:
0,84,134762,1,0,0:0:0:0:
292,32,134919,5,6,0:0:0:0:
312,84,134997,1,0,0:0:0:0:
292,136,135075,1,8,0:0:0:0:
248,168,135153,1,0,0:0:0:0:
336,168,135231,1,10,0:0:0:0:
376,204,135309,1,0,0:0:0:0:
388,256,135387,1,8,0:0:0:0:
360,304,135465,1,0,0:0:0:0:
272,304,135544,2,0,L|257:257,1,49.1999984985352,10|0,0:0|0:0,0:0:0:0:
448,256,135700,2,0,L|463:209,1,49.1999984985352,8|0,0:0|0:0,0:0:0:0:
272,208,135856,5,6,0:0:0:0:
232,172,135934,1,0,0:0:0:0:
220,120,136012,1,8,0:0:0:0:
248,72,136090,1,0,0:0:0:0:
336,72,136169,2,0,L|351:119,1,49.1999984985352,10|0,0:0|0:0,0:0:0:0:
260,120,136325,2,0,L|245:167,1,49.1999984985352,8|0,0:0|0:0,0:0:0:0:
436,168,136481,1,10,0:0:0:0:
476,204,136559,1,0,0:0:0:0:
488,256,136637,1,8,0:0:0:0:
460,304,136715,1,0,0:0:0:0:
268,304,136794,6,0,L|253:257,1,49.1999984985352,6|8,0:0|0:0,0:0:0:0:
344,256,136950,2,0,L|359:209,1,49.1999984985352,8|8,0:0|0:0,0:0:0:0:
164,208,137106,2,0,L|149:161,1,49.1999984985352,10|8,0:0|0:0,0:0:0:0:
240,160,137262,2,0,L|255:113,1,49.1999984985352,8|8,0:0|0:0,0:0:0:0:
60,112,137419,1,10,0:0:0:0:
188,76,137575,1,8,0:0:0:0:
152,76,137614,1,8,0:0:0:0:
116,76,137653,1,8,0:0:0:0:
80,76,137692,1,8,0:0:0:0:
44,40,137731,6,0,L|336:40,1,292.739994193085,8|0,0:0|0:0,0:0:0:0:
336,112,138044,2,0,L|144:112,1,191.880006441284,8|0,0:0|0:0,0:0:0:0:
144,184,138356,2,0,L|436:184,1,292.739994193085,8|0,0:0|0:0,0:0:0:0:
256,256,138669,6,0,B|240:300|240:300|255:350,1,98.3999969970704,6|0,0:0|0:0,0:0:0:0:
416,348,138981,1,2,0:0:0:0:
256,300,139137,2,0,L|206:300,1,49.1999984985352
352,256,139294,2,0,L|450:256,1,98.3999969970704,8|0,0:0|0:0,0:0:0:0:
216,204,139606,6,0,L|118:204,1,98.3999969970704,2|0,0:0|0:0,0:0:0:0:
280,256,139919,1,2,0:0:0:0:
320,220,139997,1,0,0:0:0:0:
332,168,140075,1,0,0:0:0:0:
304,120,140153,1,0,0:0:0:0:
160,120,140231,2,0,L|145:23,1,98.3999969970704,8|0,0:0|0:0,0:0:0:0:
396,24,140544,6,0,L|494:24,1,98.3999969970704,2|0,0:0|0:0,0:0:0:0:
336,24,140856,1,2,0:0:0:0:
496,72,141012,2,0,L|511:119,1,49.1999984985352
368,160,141169,2,0,L|318:160,2,49.1999984985352,8|0|0,0:0|0:0|0:0,0:0:0:0:
148,208,141481,5,2,0:0:0:0:
140,256,141559,1,0,0:0:0:0:
132,304,141637,1,0,0:0:0:0:
292,352,141794,2,0,L|307:255,1,98.3999969970704,2|0,0:0|0:0,0:0:0:0:
164,208,142107,1,8,0:0:0:0:
20,160,142262,2,0,L|5:113,1,49.1999984985352
208,68,142419,6,0,L|306:68,1,98.3999969970704,8|0,0:0|0:0,0:0:0:0:
72,24,142731,1,2,0:0:0:0:
200,24,142888,1,0,0:0:0:0:
72,68,143044,2,0,L|57:115,2,49.1999984985352,2|0|0,0:0|0:0|0:0,0:0:0:0:
308,112,143356,6,0,L|323:209,1,98.3999969970704,2|0,0:1|0:0,0:0:0:0:
160,208,143669,2,0,L|145:305,1,98.3999969970704,2|0,0:1|0:0,0:0:0:0:
380,348,143981,1,2,0:1:0:0:
428,348,144059,1,0,0:0:0:0:
476,348,144137,1,0,0:0:0:0:
240,348,144294,6,0,L|225:251,1,98.3999969970704,2|0,0:1|0:0,0:0:0:0:
384,252,144606,2,0,L|399:155,1,98.3999969970704,2|0,0:1|0:0,0:0:0:0:
236,108,144919,2,0,L|286:108,1,49.1999984985352,2|0,0:1|0:0,0:0:0:0:
448,60,145075,2,0,L|497:60,1,49.1999984985352,2|0,0:1|0:0,0:0:0:0:
280,12,145231,5,2,0:1:0:0:
232,24,145309,1,0,0:0:0:0:
204,52,145387,1,0,0:0:0:0:
348,108,145544,1,2,0:1:0:0:
308,144,145622,1,0,0:0:0:0:
296,196,145700,1,0,0:0:0:0:
324,244,145778,1,0,0:0:0:0:
468,244,145856,2,0,L|483:341,1,98.3999969970704,2|0,0:1|0:0,0:0:0:0:
232,340,146169,6,0,L|134:340,1,98.3999969970704,6|0,0:0|0:0,0:0:0:0:
292,292,146481,1,2,0:0:0:0:
132,244,146637,2,0,L|117:197,1,49.1999984985352
264,152,146794,2,0,L|166:152,1,98.3999969970704,8|0,0:0|0:0,0:0:0:0:
400,100,147106,6,0,L|415:3,1,98.3999969970704,2|0,0:0|0:0,0:0:0:0:
252,4,147419,1,2,0:0:0:0:
212,40,147497,1,0,0:0:0:0:
200,92,147575,1,0,0:0:0:0:
228,140,147653,1,0,0:0:0:0:
372,140,147731,2,0,L|470:140,1,98.3999969970704,8|0,0:0|0:0,0:0:0:0:
188,188,148044,6,0,L|90:188,1,98.3999969970704,2|0,0:0|0:0,0:0:0:0:
248,284,148356,2,0,L|150:284,1,98.3999969970704,2|0,0:0|0:0,0:0:0:0:
208,236,148590,1,0,0:0:0:0:
376,188,148669,1,8,0:0:0:0:
320,188,148747,1,0,0:0:0:0:
264,188,148825,1,0,0:0:0:0:
476,332,148981,5,2,0:1:0:0:
484,284,149059,1,0,0:0:0:0:
492,236,149137,1,0,0:0:0:0:
332,236,149294,2,0,L|335:137,1,98.3999969970704,2|0,0:1|0:0,0:0:0:0:
176,136,149606,2,0,L|161:39,1,98.3999969970704,10|0,0:0|0:0,0:0:0:0:
216,36,149840,1,0,0:0:0:0:
432,36,149919,5,6,0:0:0:0:
304,36,150075,1,0,0:0:0:0:
432,80,150231,1,2,0:0:0:0:
376,80,150309,1,0,0:0:0:0:
320,80,150387,1,0,0:0:0:0:
448,124,150544,2,0,B|464:168|464:168|449:218,1,98.3999969970704,8|0,0:0|0:0,0:0:0:0:
220,260,150857,5,6,0:0:0:0:
348,260,151013,1,0,0:0:0:0:
220,216,151169,1,2,0:0:0:0:
180,180,151247,1,0,0:0:0:0:
168,128,151325,1,0,0:0:0:0:
196,80,151403,1,0,0:0:0:0:
284,80,151481,2,0,L|299:177,1,98.3999969970704,8|0,0:0|0:0,0:0:0:0:
64,260,151794,5,6,0:0:0:0:
68,312,151872,1,0,0:0:0:0:
100,356,151950,1,0,0:0:0:0:
152,376,152028,1,0,0:0:0:0:
240,376,152106,2,0,L|255:329,1,49.1999984985352,8|0,0:0|0:0,0:0:0:0:
80,328,152262,6,0,L|65:281,1,49.1999984985352,2|0,0:0|0:0,0:0:0:0:
152,280,152419,1,0,0:0:0:0:
204,260,152497,1,0,0:0:0:0:
236,216,152575,1,0,0:0:0:0:
240,164,152653,1,0,0:0:0:0:
68,164,152731,6,0,L|53:117,1,49.1999984985352,10|0,0:0|0:0,0:0:0:0:
136,116,152887,2,0,L|151:69,1,49.1999984985352
396,20,153044,2,0,L|346:20,1,49.1999984985352,10|0,0:0|0:0,0:0:0:0:
164,20,153200,2,0,L|114:20,1,49.1999984985352
360,68,153356,2,0,L|487:68,1,127.92000429419,10|0,0:0|0:0,0:0:0:0:
276,112,153669,6,0,L|177:112,1,98.3999969970704,6|0,0:0|0:0,0:0:0:0:
336,160,153981,1,2,0:0:0:0:
176,208,154137,2,0,L|225:208,1,49.1999984985352
372,212,154294,2,0,L|387:309,1,98.3999969970704,8|0,0:0|0:0,0:0:0:0:
152,308,154606,6,0,L|137:211,1,98.3999969970704,2|0,0:0|0:0,0:0:0:0:
300,160,154919,1,2,0:0:0:0:
340,124,154997,1,0,0:0:0:0:
352,72,155075,1,0,0:0:0:0:
324,24,155153,1,0,0:0:0:0:
180,24,155231,2,0,L|81:24,1,98.3999969970704,10|0,0:0|0:0,0:0:0:0:
332,24,155544,6,0,L|347:121,1,98.3999969970704,2|0,0:0|0:0,0:0:0:0:
188,168,155856,2,0,L|203:265,1,98.3999969970704,2|0,0:0|0:0,0:0:0:0:
360,264,156169,2,0,L|409:264,1,49.1999984985352,8|0,0:0|0:0,0:0:0:0:
248,312,156325,2,0,L|198:312,1,49.1999984985352
412,312,156481,6,0,L|397:215,1,98.3999969970704,2|0,0:1|0:0,0:0:0:0:
252,212,156794,2,0,L|267:115,1,98.3999969970704,2|0,0:1|0:0,0:0:0:0:
424,64,157106,1,10,0:0:0:0:
268,16,157262,2,0,L|317:16,1,49.1999984985352
496,64,157419,5,8,0:0:0:0:
368,108,157575,1,0,0:0:0:0:
496,108,157731,1,2,0:0:0:0:
260,108,157887,1,2,0:1:0:0:
256,132,157926,1,0,0:0:0:0:
252,156,157965,1,0,0:0:0:0:
248,180,158004,1,0,0:0:0:0:
244,204,158044,1,2,0:0:0:0:
372,204,158200,2,0,L|387:251,1,49.1999984985352
168,296,158356,6,0,L|118:296,2,49.1999984985352,2|0|0,0:1|0:0|0:1,0:0:0:0:
312,240,158669,1,2,0:1:0:0:
352,204,158747,1,0,0:0:0:0:
364,152,158825,1,0,0:0:0:0:
336,104,158903,1,0,0:0:0:0:
192,60,158981,1,2,0:1:0:0:
320,60,159137,1,0,0:0:0:0:
16,64,159294,5,8,0:0:0:0:
144,108,159450,1,0,0:0:0:0:
272,152,159606,1,2,0:0:0:0:
36,152,159762,1,2,0:1:0:0:
24,176,159801,1,0,0:0:0:0:
20,204,159840,1,0,0:0:0:0:
28,228,159879,1,0,0:0:0:0:
40,252,159919,1,2,0:0:0:0:
168,296,160075,2,0,L|118:296,1,49.1999984985352
288,340,160231,6,0,L|386:340,1,98.3999969970704,2|0,0:1|0:0,0:0:0:0:
224,296,160544,1,2,0:1:0:0:
184,260,160621,1,0,0:0:0:0:
172,208,160699,1,0,0:0:0:0:
200,160,160777,1,0,0:0:0:0:
288,160,160856,2,0,L|303:113,1,49.1999984985352,2|0,0:1|0:0,0:0:0:0:
216,112,161012,2,0,L|201:65,1,49.1999984985352
404,20,161169,6,0,L|502:20,1,98.3999969970704,6|0,0:0|0:0,0:0:0:0:
340,64,161481,2,0,L|325:111,2,49.1999984985352,2|0|0,0:0|0:0|0:0,0:0:0:0:
428,64,161715,1,0,0:0:0:0:
284,64,161794,2,0,L|269:161,1,98.3999969970704,8|0,0:1|0:0,0:0:0:0:
496,212,162106,5,2,0:0:0:0:
488,260,162184,1,0,0:0:0:0:
480,308,162262,1,0,0:0:0:0:
320,356,162419,1,2,0:0:0:0:
364,324,162497,1,0,0:0:0:0:
376,272,162575,1,0,0:0:0:0:
288,228,162652,1,0,0:0:0:0:
432,228,162731,2,0,B|448:184|448:184|433:134,1,98.3999969970704,10|0,0:0|0:0,0:0:0:0:
192,136,163044,6,0,L|94:136,1,98.3999969970704,6|0,0:0|0:0,0:0:0:0:
256,92,163356,1,2,0:0:0:0:
244,40,163434,1,0,0:0:0:0:
200,8,163512,1,0,0:0:0:0:
112,8,163590,1,0,0:0:0:0:
200,8,163669,2,0,L|215:55,1,49.1999984985352,10|0,0:0|0:0,0:0:0:0:
52,104,163825,2,0,L|37:151,1,49.1999984985352,2|0,0:1|0:0,0:0:0:0:
248,200,163981,5,2,0:1:0:0:
296,200,164059,1,0,0:0:0:0:
344,200,164137,1,0,0:0:0:0:
200,200,164294,1,2,0:1:0:0:
56,244,164450,1,0,0:0:0:0:
112,244,164528,1,0,0:0:0:0:
272,292,164606,1,10,0:0:0:0:
328,292,164684,1,0,0:0:0:0:
272,292,164762,1,0,0:0:0:0:
28,340,164919,5,6,0:0:0:0:
32,288,164997,1,0,0:0:0:0:
64,244,165075,1,0,0:0:0:0:
116,224,165153,1,0,0:0:0:0:
204,224,165231,2,0,L|219:177,1,49.1999984985352,2|0,0:0|0:0,0:0:0:0:
64,176,165387,5,2,0:1:0:0:
44,124,165466,1,0,0:0:0:0:
64,72,165544,1,2,0:0:0:0:
108,40,165622,1,0,0:0:0:0:
20,40,165700,2,0,L|5:87,1,49.1999984985352
200,88,165856,6,0,L|215:135,1,49.1999984985352,6|0,0:0|0:0,0:0:0:0:
128,132,166012,2,0,L|113:179,1,49.1999984985352,2|0,0:0|0:0,0:0:0:0:
308,180,166169,2,0,L|323:227,1,49.1999984985352,2|0,0:1|0:0,0:0:0:0:
236,224,166325,2,0,L|221:271,1,49.1999984985352,2|0,0:0|0:0,0:0:0:0:
416,272,166481,1,2,0:1:0:0:
288,308,166637,1,2,0:0:0:0:
344,308,166715,1,0,0:0:0:0:
496,308,166794,6,0,L|481:261,1,49.1999984985352,6|2,0:0|0:0,0:0:0:0:
328,260,166950,2,0,L|313:213,1,49.1999984985352,2|2,0:0|0:0,0:0:0:0:
160,212,167106,2,0,L|145:165,1,49.1999984985352,2|2,0:0|0:0,0:0:0:0:
392,116,167262,2,0,L|441:116,2,49.1999984985352,2|2|2,0:0|0:0|0:0,0:0:0:0:
264,80,167575,1,2,0:0:0:0:
300,80,167614,1,2,0:0:0:0:
336,80,167653,1,2,0:0:0:0:
372,80,167692,1,2,0:0:0:0:
408,44,167731,6,0,L|116:44,1,292.739994193085,10|0,0:0|0:0,0:0:0:0:
116,116,168044,2,0,L|308:116,1,191.880006441284,10|0,0:0|0:0,0:0:0:0:
308,188,168356,2,0,L|16:188,1,292.739994193085,10|0,0:0|0:0,0:0:0:0:
224,332,168669,6,0,B|240:288|240:288|225:238,1,98.3999969970704,4|0,0:0|0:0,0:0:0:0:
124,188,168981,1,8,0:0:0:0:
284,236,169137,2,0,B|300:192|300:192|285:142,1,98.3999969970704,2|8,0:0|0:0,0:0:0:0:
184,92,169449,1,0,0:0:0:0:
404,140,169606,6,0,L|502:140,2,98.3999969970704,10|0|8,0:0|0:0|0:0,0:0:0:0:
244,44,170075,2,0,L|145:44,2,98.3999969970704,2|8|0,0:0|0:0|0:0,0:0:0:0:
464,92,170544,6,0,L|479:189,1,98.3999969970704,10|0,0:0|0:0,0:0:0:0:
376,240,170856,1,8,0:0:0:0:
216,288,171012,1,2,0:0:0:0:
308,288,171169,1,8,0:0:0:0:
400,288,171325,1,0,0:0:0:0:
180,336,171481,6,0,L|165:239,1,98.3999969970704,10|0,0:0|0:0,0:0:0:0:
268,188,171793,1,8,0:0:0:0:
428,140,171949,1,2,0:0:0:0:
336,140,172106,1,8,0:0:0:0:
428,92,172262,1,8,0:0:0:0:
372,92,172340,1,0,0:0:0:0:
236,332,172419,6,0,B|220:288|220:288|235:238,1,98.3999969970704,10|0,0:0|0:0,0:0:0:0:
336,188,172731,1,8,0:0:0:0:
176,140,172887,2,0,L|77:140,2,98.3999969970704,2|8|0,0:0|0:0|0:0,0:0:0:0:
396,92,173356,6,0,L|494:92,2,98.3999969970704,10|0|8,0:0|0:0|0:0,0:0:0:0:
236,140,173825,2,0,L|221:237,1,98.3999969970704,2|8,0:0|0:0,0:0:0:0:
324,288,174137,1,0,0:0:0:0:
104,336,174294,5,10,0:0:0:0:
8,288,174450,1,0,0:0:0:0:
104,288,174606,1,8,0:0:0:0:
324,336,174762,1,2,0:0:0:0:
332,288,174840,1,0,0:0:0:0:
340,240,174918,1,8,0:0:0:0:
236,188,175075,1,0,0:0:0:0:
132,136,175231,6,0,L|117:39,1,98.3999969970704,10|0,0:0|0:0,0:0:0:0:
336,188,175544,1,10,0:0:0:0:
200,188,175700,1,2,0:0:0:0:
336,236,175856,1,8,0:0:0:0:
472,236,176012,1,2,0:0:0:0:
200,284,176169,6,0,L|101:284,1,98.3999969970704,4|0,0:0|0:0,0:0:0:0:
204,232,176481,1,8,0:0:0:0:
44,184,176637,2,0,L|29:87,1,98.3999969970704,2|8,0:0|0:0,0:0:0:0:
132,36,176950,1,0,0:0:0:0:
348,84,177106,5,10,0:0:0:0:
256,84,177262,1,0,0:0:0:0:
164,84,177419,1,8,0:0:0:0:
324,36,177575,1,2,0:0:0:0:
416,36,177730,1,8,0:0:0:0:
508,36,177887,1,0,0:0:0:0:
220,132,178044,6,0,B|204:176|204:176|219:226,1,98.3999969970704,4|0,0:0|0:0,0:0:0:0:
320,276,178356,1,8,0:0:0:0:
480,324,178512,2,0,B|496:280|496:280|481:230,1,98.3999969970704,2|8,0:0|0:0,0:0:0:0:
380,180,178824,1,0,0:0:0:0:
164,132,178981,5,10,0:0:0:0:
256,132,179137,1,0,0:0:0:0:
348,132,179294,1,8,0:0:0:0:
188,84,179450,1,2,0:0:0:0:
96,84,179605,1,8,0:0:0:0:
188,84,179762,1,8,0:0:0:0:
244,84,179840,1,0,0:0:0:0:
396,44,179919,6,0,L|411:141,1,98.3999969970704,4|0,0:0|0:0,0:0:0:0:
256,192,180231,1,8,0:0:0:0:
412,240,180387,2,0,L|510:240,2,98.3999969970704,2|8|0,0:0|0:0|0:0,0:0:0:0:
112,324,180856,6,0,B|96:280|96:280|111:230,1,98.3999969970704,4|0,0:0|0:0,0:0:0:0:
256,192,181168,1,8,0:0:0:0:
400,152,181325,2,0,B|416:108|416:108|401:58,1,98.3999969970704,2|8,0:0|0:0,0:0:0:0:
256,16,181637,1,8,0:0:0:0:
36,336,181794,6,0,L|21:239,1,98.3999969970704,4|8,0:0|0:0,0:0:0:0:
180,240,182106,2,0,L|177:141,1,98.3999969970704,10|8,0:0|0:0,0:0:0:0:
336,144,182419,2,0,L|339:45,1,98.3999969970704,10|8,0:0|0:0,0:0:0:0:
124,44,182731,5,10,0:0:0:0:
180,44,182809,1,8,0:0:0:0:
236,44,182887,1,8,0:0:0:0:
20,148,183044,1,2,0:0:0:0:
236,252,183200,1,8,0:0:0:0:
180,252,183278,1,8,0:0:0:0:
124,252,183356,1,10,0:0:0:0:
340,356,183512,1,8,0:0:0:0:
368,348,183551,1,8,0:0:0:0:
392,336,183590,1,8,0:0:0:0:
408,316,183629,1,8,0:0:0:0:
424,292,183669,5,10,0:0:0:0:
340,244,183825,1,0,0:0:0:0:
336,196,183981,1,0,0:0:0:0:
332,148,184137,1,0,0:0:0:0:
416,100,184294,1,2,0:0:0:0:
420,52,184450,1,0,0:0:0:0:
336,4,184606,5,2,0:0:0:0:
332,52,184762,1,0,0:0:0:0:
328,100,184919,1,0,0:0:0:0:
324,148,185075,1,0,0:0:0:0:
240,100,185231,1,2,0:0:0:0:
244,52,185387,1,0,0:0:0:0:
328,100,185544,5,2,0:0:0:0:
332,148,185699,1,0,0:0:0:0:
336,196,185856,1,0,0:0:0:0:
340,244,186012,1,0,0:0:0:0:
256,292,186169,1,2,0:0:0:0:
252,244,186325,1,0,0:0:0:0:
336,196,186481,5,2,0:0:0:0:
340,148,186637,1,0,0:0:0:0:
256,100,186794,1,2,0:0:0:0:
252,52,186950,1,0,0:0:0:0:
168,4,187106,1,2,0:0:0:0:
252,52,187262,1,2,0:0:0:0:
168,100,187419,5,2,0:0:0:0:
164,148,187574,1,0,0:0:0:0:
160,196,187731,1,0,0:0:0:0:
156,244,187887,1,0,0:0:0:0:
240,292,188044,1,2,0:0:0:0:
244,244,188200,1,0,0:0:0:0:
328,196,188356,5,2,0:0:0:0:
332,244,188511,1,0,0:0:0:0:
336,292,188668,1,0,0:0:0:0:
340,340,188824,1,0,0:0:0:0:
256,292,188981,1,2,0:0:0:0:
252,244,189137,1,0,0:0:0:0:
336,196,189294,5,2,0:0:0:0:
340,148,189449,1,0,0:0:0:0:
344,100,189606,1,0,0:0:0:0:
348,52,189762,1,0,0:0:0:0:
432,4,189919,1,2,0:0:0:0:
436,52,190075,1,0,0:0:0:0:
352,100,190231,5,2,0:0:0:0:
348,148,190387,1,0,0:0:0:0:
432,196,190544,1,2,0:0:0:0:
436,244,190700,1,0,0:0:0:0:
352,292,190856,1,2,0:0:0:0:
436,340,191012,1,2,0:0:0:0:
200,340,191169,6,0,L|185:243,1,98.3999969970704,4|8,0:0|0:0,0:0:0:0:
344,240,191481,2,0,L|359:143,1,98.3999969970704,10|8,0:0|0:0,0:0:0:0:
200,140,191794,2,0,L|101:140,1,98.3999969970704,10|8,0:0|0:0,0:0:0:0:
260,44,192106,2,0,L|358:44,1,98.3999969970704,10|8,0:0|0:0,0:0:0:0:
200,44,192419,5,8,0:0:0:0:
156,76,192497,1,0,0:0:0:0:
140,128,192575,1,8,0:0:0:0:
160,176,192653,1,0,0:0:0:0:
204,204,192731,2,0,L|253:204,2,49.1999984985352,8|0|8,0:0|0:0|0:0,0:0:0:0:
440,204,193044,6,0,L|455:301,1,98.3999969970704,4|8,0:0|0:0,0:0:0:0:
296,304,193356,2,0,L|281:207,1,98.3999969970704,10|8,0:0|0:0,0:0:0:0:
440,204,193669,2,0,L|341:204,1,98.3999969970704,10|8,0:0|0:0,0:0:0:0:
184,108,193981,2,0,L|85:108,1,98.3999969970704,10|8,0:0|0:0,0:0:0:0:
244,204,194294,6,0,L|293:204,2,49.1999984985352,8|0|8,0:0|0:0|0:0,0:0:0:0:
192,192,194528,1,0,0:0:0:0:
148,160,194606,1,8,0:0:0:0:
120,112,194684,1,8,0:0:0:0:
116,60,194762,1,8,0:0:0:0:
396,60,194919,5,12,0:0:0:0:
436,96,194997,1,8,0:0:0:0:
448,148,195075,1,8,0:0:0:0:
420,196,195153,1,8,0:0:0:0:
332,196,195231,1,10,0:0:0:0:
304,244,195309,1,8,0:0:0:0:
316,296,195387,1,8,0:0:0:0:
356,332,195465,1,8,0:0:0:0:
268,332,195544,2,0,L|253:285,1,49.1999984985352,10|8,0:0|0:0,0:0:0:0:
340,284,195700,2,0,L|355:237,1,49.1999984985352,10|8,0:0|0:0,0:0:0:0:
164,236,195856,6,0,L|114:236,3,49.1999984985352,4|8|8|8,0:0|0:0|0:0|0:0,0:0:0:0:
24,236,196169,1,10,0:0:0:0:
28,184,196247,1,8,0:0:0:0:
60,140,196325,1,8,0:0:0:0:
112,120,196403,1,8,0:0:0:0:
200,120,196481,2,0,L|215:73,1,49.1999984985352,10|8,0:0|0:0,0:0:0:0:
128,72,196637,2,0,L|113:25,1,49.1999984985352,10|8,0:0|0:0,0:0:0:0:
200,24,196794,6,0,L|492:24,1,292.739994193085,14|0,0:0|0:0,0:0:0:0:
492,76,197106,2,0,L|300:76,1,191.880006441284,8|0,0:0|0:0,0:0:0:0:
300,128,197419,2,0,L|492:128,1,191.880006441284,8|0,0:0|0:0,0:0:0:0:
492,180,197731,6,0,L|159:180,1,332.100001266861,14|0,0:0|0:0,0:0:0:0:
160,232,198044,2,0,L|352:232,1,191.880006441284,8|0,0:0|0:0,0:0:0:0:
352,284,198356,2,0,L|19:284,1,332.100001266861,8|0,0:0|0:0,0:0:0:0:
200,336,198669,1,2,0:0:0:0:
152,316,203669,5,2,0:0:0:0:
92,268,203824,1,0,0:0:0:0:
68,192,203981,1,2,0:0:0:0:
92,116,204137,1,0,0:0:0:0:
152,68,204294,1,2,0:0:0:0:
16,116,204450,1,2,0:0:0:0:
160,164,204606,1,2,0:0:0:0:
8,212,204762,1,2,0:0:0:0:
240,264,204919,6,0,L|338:264,1,98.3999969970704,6|0,0:0|0:0,0:0:0:0:
180,212,205231,2,0,L|81:212,1,98.3999969970704,8|0,0:0|0:0,0:0:0:0:
340,160,205544,2,0,L|355:113,2,49.1999984985352,2|0|0,0:0|0:0|0:0,0:0:0:0:
180,212,205856,1,8,0:0:0:0:
140,176,205934,1,0,0:0:0:0:
128,124,206013,1,0,0:0:0:0:
156,76,206091,1,0,0:0:0:0:
244,76,206169,5,2,0:0:0:0:
68,24,206247,2,0,B|52:68|52:68|67:118,1,98.3999969970704,2|0,0:1|0:0,0:0:0:0:
152,116,206481,2,0,B|168:160|168:160|153:210,1,98.3999969970704,10|0,0:1|0:0,0:0:0:0:
68,212,206715,6,0,L|360:212,1,292.739994193085,2|0,0:1|0:0,0:0:0:0:
300,264,207028,1,0,0:0:0:0:
440,264,207106,2,0,L|455:311,1,49.1999984985352,8|0,0:0|0:0,0:0:0:0:
372,312,207262,2,0,L|357:359,1,49.1999984985352
496,356,207419,6,0,B|512:312|512:312|497:262,1,98.3999969970704,2|0,0:0|0:0,0:0:0:0:
340,208,207731,2,0,L|438:208,1,98.3999969970704,8|0,0:0|0:0,0:0:0:0:
180,156,208044,1,2,0:0:0:0:
124,156,208122,1,0,0:0:0:0:
68,156,208200,1,0,0:0:0:0:
228,208,208355,1,8,0:0:0:0:
268,172,208433,1,0,0:0:0:0:
280,120,208512,1,0,0:0:0:0:
252,72,208590,1,0,0:0:0:0:
164,72,208669,5,2,0:0:0:0:
340,20,208747,2,0,L|325:117,1,98.3999969970704,2|0,0:1|0:0,0:0:0:0:
408,120,208981,2,0,L|393:217,1,98.3999969970704,10|0,0:1|0:0,0:0:0:0:
476,216,209215,6,0,L|184:216,1,292.739994193085,2|0,0:1|0:0,0:0:0:0:
244,268,209528,1,0,0:0:0:0:
384,320,209606,1,8,0:0:0:0:
356,268,209684,1,0,0:0:0:0:
304,240,209762,1,0,0:0:0:0:
244,240,209840,1,0,0:0:0:0:
424,188,209919,5,2,0:0:0:0:
476,160,209997,1,0,0:0:0:0:
504,108,210075,1,0,0:0:0:0:
344,56,210231,2,0,L|245:56,1,98.3999969970704,8|0,0:0|0:0,0:0:0:0:
228,104,210465,1,0,0:0:0:0:
368,152,210544,6,0,L|383:199,2,49.1999984985352,2|0|0,0:0|0:0|0:0,0:0:0:0:
280,152,210778,1,0,0:0:0:0:
420,200,210856,2,0,B|403:248|403:248|355:248,1,98.3999969970704,8|0,0:0|0:0,0:0:0:0:
296,248,211090,1,0,0:0:0:0:
132,344,211169,6,0,L|117:297,2,49.1999984985352,2|0|0,0:1|0:0|0:0,0:0:0:0:
220,344,211403,1,0,0:0:0:0:
132,344,211481,1,10,0:1:0:0:
92,308,211558,1,0,0:0:0:0:
80,256,211637,1,0,0:0:0:0:
108,208,211715,1,0,0:0:0:0:
272,160,211794,6,0,L|324:160,2,51.659998423462,2|0|0,0:1|0:0|0:0,0:0:0:0:
80,112,212028,2,0,L|28:112,2,51.659998423462,2|8|0,0:1|0:0|0:0,0:0:0:0:
244,64,212262,2,0,L|248:14,1,49.1999984985352,2|0,0:1|0:0,0:0:0:0:
32,64,212419,6,0,L|20:16,2,49.1999984985352,2|0|0,0:1|0:0|0:0,0:0:0:0:
120,64,212653,2,0,L|116:14,2,49.1999984985352,2|8|0,0:1|0:0|0:0,0:0:0:0:
208,64,212887,2,0,L|220:16,2,49.1999984985352,2|0|2,0:1|0:0|0:0,0:0:0:0:
44,112,213122,6,0,L|142:112,1,98.3999969970704,2|0,0:1|0:0,0:0:0:0:
228,112,213356,2,0,L|243:159,1,49.1999984985352,10|0,0:1|0:0,0:0:0:0:
80,160,213512,2,0,L|65:207,1,49.1999984985352,2|0,0:1|0:0,0:0:0:0:
256,208,213669,6,0,L|384:208,1,127.92000429419,2|0,0:1|0:0,0:0:0:0:
320,160,213903,2,0,L|448:160,1,127.92000429419,2|0,0:1|0:0,0:0:0:0:
384,112,214137,1,2,0:1:0:0:
448,112,214215,1,0,0:0:0:0:
248,112,214294,6,0,L|120:112,1,127.92000429419,2|0,0:1|0:0,0:0:0:0:
264,64,214528,2,0,L|392:64,1,127.92000429419,2|0,0:1|0:0,0:0:0:0:
128,64,214762,2,0,L|113:17,1,49.1999984985352,2|0,0:1|0:0,0:0:0:0:
280,16,214919,6,0,B|296:60|296:60|281:110,1,98.3999969970704,6|0,0:0|0:0,0:0:0:0:
192,156,215153,1,0,0:0:0:0:
220,208,215231,1,8,0:0:0:0:
272,236,215309,1,0,0:0:0:0:
360,280,215387,2,0,L|356:329,1,49.1999984985352
192,376,215544,5,2,0:0:0:0:
256,328,215622,2,0,B|272:284|272:284|257:234,1,98.3999969970704
168,192,215856,2,0,L|118:192,1,49.1999984985352,10|0,0:1|0:0,0:0:0:0:
256,140,216012,2,0,L|305:140,1,49.1999984985352,2|0,0:1|0:0,0:0:0:0:
140,88,216169,5,2,0:1:0:0:
88,116,216247,1,0,0:0:0:0:
60,168,216325,1,0,0:0:0:0:
196,168,216403,1,2,0:1:0:0:
248,196,216481,1,8,0:0:0:0:
276,248,216559,1,0,0:0:0:0:
140,248,216637,2,0,L|125:295,1,49.1999984985352,2|0,0:1|0:0,0:0:0:0:
320,344,216794,6,0,L|369:344,2,49.1999984985352,2|0|0,0:1|0:0|0:0,0:0:0:0:
184,296,217028,1,2,0:1:0:0:
212,244,217106,1,8,0:0:0:0:
264,216,217184,1,0,0:0:0:0:
128,168,217262,2,0,L|113:121,1,49.1999984985352,2|0,0:1|0:0,0:0:0:0:
324,72,217419,5,2,0:1:0:0:
376,100,217497,1,0,0:0:0:0:
404,152,217575,1,0,0:0:0:0:
268,152,217653,2,0,L|218:152,2,49.1999984985352,2|8|0,0:1|0:0|0:0,0:0:0:0:
404,200,217887,2,0,L|453:200,1,49.1999984985352,2|0,0:1|0:0,0:0:0:0:
240,200,218044,5,2,0:1:0:0:
188,228,218122,1,0,0:0:0:0:
160,280,218200,1,0,0:0:0:0:
296,280,218278,1,2,0:1:0:0:
348,308,218356,1,8,0:0:0:0:
376,360,218434,1,0,0:0:0:0:
240,360,218512,2,0,L|225:313,1,49.1999984985352,2|0,0:1|0:0,0:0:0:0:
392,312,218669,6,0,B|440:312|440:312|457:264,1,98.3999969970704,2|0,0:1|0:0,0:0:0:0:
376,256,218903,1,0,0:0:0:0:
240,256,218981,2,0,B|192:256|192:256|175:208,1,98.3999969970704,10|0,0:1|0:0,0:0:0:0:
256,200,219215,1,0,0:0:0:0:
120,200,219294,6,0,B|137:152|137:152|185:152,1,98.3999969970704,2|0,0:1|0:0,0:0:0:0:
264,144,219528,1,0,0:0:0:0:
108,144,219606,2,0,B|92:100|92:100|107:50,1,98.3999969970704,10|0,0:1|0:0,0:0:0:0:
184,44,219840,1,0,0:0:0:0:
348,44,219919,5,6,0:0:0:0:
388,80,219996,1,0,0:0:0:0:
400,132,220075,1,0,0:0:0:0:
372,180,220153,1,0,0:0:0:0:
284,180,220231,2,0,L|269:227,1,49.1999984985352,8|0,0:0|0:0,0:0:0:0:
356,228,220387,2,0,L|371:275,1,49.1999984985352
280,276,220544,5,2,0:0:0:0:
228,256,220622,1,0,0:0:0:0:
196,212,220700,1,0,0:0:0:0:
192,160,220778,1,0,0:0:0:0:
280,112,220856,2,0,L|230:112,1,49.1999984985352,8|0,0:0|0:0,0:0:0:0:
92,64,221012,2,0,L|142:64,1,49.1999984985352,8|0,0:0|0:0,0:0:0:0:
364,64,221169,5,6,0:0:0:0:
360,116,221247,1,0,0:0:0:0:
328,160,221325,1,0,0:0:0:0:
276,180,221403,1,0,0:0:0:0:
188,180,221481,1,8,0:0:0:0:
136,200,221559,1,0,0:0:0:0:
104,244,221637,1,0,0:0:0:0:
100,296,221715,1,0,0:0:0:0:
188,296,221794,6,0,L|203:343,2,49.1999984985352,2|0|0,0:1|0:0|0:0,0:0:0:0:
32,296,222028,2,0,L|17:249,2,49.1999984985352,2|8|0,0:1|0:0|0:0,0:0:0:0:
188,296,222262,2,0,L|237:296,1,49.1999984985352,2|0,0:1|0:0,0:0:0:0:
392,296,222419,5,6,0:0:0:0:
364,244,222497,1,0,0:0:0:0:
312,216,222575,1,0,0:0:0:0:
172,216,222653,1,2,0:1:0:0:
200,164,222731,1,8,0:0:0:0:
252,136,222809,1,0,0:0:0:0:
392,136,222887,2,0,L|407:89,1,49.1999984985352,2|0,0:1|0:0,0:0:0:0:
240,88,223044,5,2,0:1:0:0:
188,60,223122,1,0,0:0:0:0:
160,8,223200,1,0,0:0:0:0:
300,8,223278,1,2,0:1:0:0:
272,60,223356,1,8,0:0:0:0:
220,88,223434,1,0,0:0:0:0:
80,88,223512,2,0,L|30:88,1,49.1999984985352,2|0,0:1|0:0,0:0:0:0:
220,136,223669,6,0,L|269:136,2,49.1999984985352,6|0|0,0:0|0:0|0:0,0:0:0:0:
80,136,223903,1,2,0:1:0:0:
108,188,223981,1,8,0:0:0:0:
160,216,224059,1,0,0:0:0:0:
20,216,224137,2,0,L|5:263,1,49.1999984985352,2|0,0:1|0:0,0:0:0:0:
172,312,224294,5,2,0:1:0:0:
336,360,224372,2,0,L|351:263,1,98.3999969970704
264,260,224606,2,0,L|249:213,1,49.1999984985352,10|2,0:0|0:0,0:0:0:0:
412,212,224762,2,0,L|427:165,1,49.1999984985352,10|2,0:0|0:0,0:0:0:0:
216,164,224919,6,0,L|117:164,1,98.3999969970704,6|0,0:0|0:0,0:0:0:0:
276,112,225231,2,0,B|292:68|292:68|277:18,1,98.3999969970704,8|0,0:0|0:0,0:0:0:0:
16,20,225544,1,2,0:0:0:0:
8,68,225622,1,0,0:0:0:0:
0,116,225700,1,0,0:0:0:0:
160,168,225856,1,8,0:0:0:0:
212,168,225934,1,0,0:0:0:0:
160,168,226012,1,0,0:0:0:0:
212,168,226090,1,0,0:0:0:0:
296,168,226169,5,2,0:0:0:0:
120,220,226247,2,0,B|104:264|104:264|119:314,1,98.3999969970704,2|0,0:1|0:0,0:0:0:0:
204,364,226481,2,0,L|105:364,1,98.3999969970704,2|0,0:1|0:0,0:0:0:0:
192,312,226715,6,0,L|484:312,1,292.739994193085,2|0,0:1|0:0,0:0:0:0:
424,260,227028,1,0,0:0:0:0:
284,260,227106,2,0,L|269:213,1,49.1999984985352,8|0,0:0|0:0,0:0:0:0:
352,212,227262,2,0,L|337:165,1,49.1999984985352
196,164,227419,6,0,L|98:164,1,98.3999969970704,2|0,0:0|0:0,0:0:0:0:
256,108,227731,2,0,L|354:108,1,98.3999969970704,8|0,0:0|0:0,0:0:0:0:
96,56,228044,2,0,L|81:9,2,49.1999984985352,2|0|0,0:0|0:0|0:0,0:0:0:0:
256,108,228356,1,8,0:0:0:0:
252,160,228434,1,0,0:0:0:0:
220,204,228512,1,0,0:0:0:0:
168,224,228590,1,0,0:0:0:0:
80,224,228669,5,2,0:0:0:0:
256,276,228747,2,0,L|271:179,1,98.3999969970704,2|0,0:1|0:0,0:0:0:0:
188,176,228981,2,0,L|203:79,1,98.3999969970704,10|0,0:1|0:0,0:0:0:0:
120,80,229215,6,0,L|412:80,1,292.739994193085,2|0,0:1|0:0,0:0:0:0:
352,28,229528,1,0,0:0:0:0:
212,28,229606,1,8,0:0:0:0:
240,80,229684,1,0,0:0:0:0:
292,108,229762,1,0,0:0:0:0:
352,108,229840,1,0,0:0:0:0:
172,160,229919,6,0,L|122:160,2,49.1999984985352,2|0|0,0:0|0:0|0:0,0:0:0:0:
332,212,230231,2,0,B|348:256|348:256|333:306,1,98.3999969970704,8|0,0:0|0:0,0:0:0:0:
276,308,230465,1,0,0:0:0:0:
136,260,230544,6,0,L|121:213,2,49.1999984985352,2|0|0,0:0|0:0|0:0,0:0:0:0:
224,260,230778,1,0,0:0:0:0:
84,212,230856,2,0,B|36:212|36:212|19:164,1,98.3999969970704,8|0,0:0|0:0,0:0:0:0:
76,160,231090,1,0,0:0:0:0:
236,112,231169,6,0,L|251:65,2,49.1999984985352,2|0|0,0:1|0:0|0:0,0:0:0:0:
148,112,231403,1,0,0:0:0:0:
236,112,231481,1,10,0:1:0:0:
288,132,231559,1,0,0:0:0:0:
320,176,231637,1,0,0:0:0:0:
324,228,231715,1,0,0:0:0:0:
160,276,231794,6,0,L|110:276,2,49.1999984985352,2|0|0,0:1|0:0|0:0,0:0:0:0:
352,324,232028,1,2,0:1:0:0:
324,272,232106,1,8,0:0:0:0:
272,244,232184,1,0,0:0:0:0:
464,196,232262,2,0,L|468:146,1,49.1999984985352,2|0,0:1|0:0,0:0:0:0:
220,228,232419,6,0,L|205:181,2,49.1999984985352,2|0|0,0:1|0:0|0:0,0:0:0:0:
308,180,232653,2,0,L|323:133,2,49.1999984985352,2|8|0,0:1|0:0|0:0,0:0:0:0:
220,132,232887,2,0,L|205:85,2,49.1999984985352,2|0|2,0:1|0:0|0:0,0:0:0:0:
384,84,233122,6,0,L|482:84,1,98.3999969970704,2|0,0:1|0:0,0:0:0:0:
424,36,233356,1,8,0:0:0:0:
480,36,233434,1,0,0:0:0:0:
300,36,233512,1,2,0:1:0:0:
244,36,233590,1,0,0:0:0:0:
440,132,233669,6,0,B|456:176|456:176|441:226,1,98.3999969970704,2|0,0:1|0:0,0:0:0:0:
376,272,233903,2,0,L|504:272,1,127.92000429419,2|0,0:1|0:0,0:0:0:0:
476,324,234137,1,2,0:1:0:0:
424,352,234215,1,0,0:0:0:0:
224,352,234294,6,0,L|96:352,1,127.92000429419,2|0,0:1|0:0,0:0:0:0:
232,284,234528,1,2,0:1:0:0:
284,256,234606,1,8,0:0:0:0:
312,204,234684,1,0,0:0:0:0:
76,156,234762,2,0,L|61:109,1,49.1999984985352,10|0,0:1|0:0,0:0:0:0:
264,60,234919,6,0,L|362:60,1,98.3999969970704,6|0,0:0|0:0,0:0:0:0:
272,104,235153,2,0,L|222:104,2,49.1999984985352,0|8|0,0:0|0:0|0:0,0:0:0:0:
362,148,235387,2,0,L|366:197,1,49.1999984985352
200,244,235544,5,2,0:0:0:0:
264,292,235622,2,0,L|165:292,1,98.3999969970704
256,244,235856,2,0,L|271:197,1,49.1999984985352,10|0,0:1|0:0,0:0:0:0:
132,144,236012,2,0,L|147:97,1,49.1999984985352,2|0,0:1|0:0,0:0:0:0:
284,44,236169,5,2,0:1:0:0:
336,72,236247,1,0,0:0:0:0:
364,124,236325,1,0,0:0:0:0:
228,124,236403,1,2,0:1:0:0:
176,152,236481,1,8,0:0:0:0:
148,204,236559,1,0,0:0:0:0:
284,204,236637,2,0,L|333:204,1,49.1999984985352,2|0,0:1|0:0,0:0:0:0:
120,252,236794,6,0,L|71:252,2,49.1999984985352,2|0|0,0:1|0:0|0:0,0:0:0:0:
256,300,237028,1,2,0:1:0:0:
228,352,237106,1,8,0:0:0:0:
176,380,237184,1,0,0:0:0:0:
312,380,237262,2,0,L|361:380,1,49.1999984985352,2|0,0:1|0:0,0:0:0:0:
496,380,237419,5,2,0:1:0:0:
468,328,237497,1,0,0:0:0:0:
416,300,237575,1,0,0:0:0:0:
280,300,237653,1,2,0:1:0:0:
228,272,237731,1,8,0:0:0:0:
200,220,237809,1,0,0:0:0:0:
336,220,237887,2,0,L|351:173,1,49.1999984985352,2|0,0:1|0:0,0:0:0:0:
136,124,238044,6,0,L|87:124,2,49.1999984985352,2|0|0,0:1|0:0|0:0,0:0:0:0:
272,124,238278,1,2,0:1:0:0:
244,72,238356,1,8,0:0:0:0:
192,44,238434,1,0,0:0:0:0:
56,44,238512,2,0,L|41:91,1,49.1999984985352,2|0,0:1|0:0,0:0:0:0:
208,92,238669,6,0,L|306:92,1,98.3999969970704,2|0,0:1|0:0,0:0:0:0:
324,140,238902,1,0,0:0:0:0:
184,188,238981,2,0,L|85:188,1,98.3999969970704,10|0,0:1|0:0,0:0:0:0:
68,236,239214,1,0,0:0:0:0:
316,236,239294,6,0,B|299:284|299:284|251:284,1,98.3999969970704,2|0,0:1|0:0,0:0:0:0:
172,292,239528,1,0,0:0:0:0:
420,292,239606,2,0,B|436:248|436:248|421:198,1,98.3999969970704,10|0,0:1|0:0,0:0:0:0:
344,192,239840,1,0,0:0:0:0:
200,236,239919,5,6,0:0:0:0:
160,200,239996,1,0,0:0:0:0:
148,148,240075,1,0,0:0:0:0:
176,100,240153,1,0,0:0:0:0:
264,100,240231,2,0,L|279:53,1,49.1999984985352,8|0,0:0|0:0,0:0:0:0:
368,52,240387,2,0,L|383:5,1,49.1999984985352
292,4,240544,5,2,0:0:0:0:
264,52,240622,1,0,0:0:0:0:
276,104,240701,1,0,0:0:0:0:
316,140,240778,1,0,0:0:0:0:
404,188,240856,2,0,L|354:188,1,49.1999984985352,8|0,0:0|0:0,0:0:0:0:
216,236,241012,2,0,L|166:236,1,49.1999984985352,8|0,0:0|0:0,0:0:0:0:
388,284,241169,5,6,0:0:0:0:
428,248,241246,1,0,0:0:0:0:
440,196,241325,1,0,0:0:0:0:
412,148,241403,1,0,0:0:0:0:
324,148,241481,1,8,0:0:0:0:
284,112,241558,1,0,0:0:0:0:
272,60,241637,1,0,0:0:0:0:
300,12,241715,1,0,0:0:0:0:
388,12,241794,6,0,L|403:59,2,49.1999984985352,2|0|0,0:1|0:0|0:0,0:0:0:0:
232,60,242028,1,2,0:1:0:0:
180,60,242106,1,8,0:0:0:0:
128,60,242184,1,0,0:0:0:0:
284,112,242262,2,0,L|333:112,1,49.1999984985352,2|0,0:1|0:0,0:0:0:0:
148,112,242419,6,0,L|133:159,1,49.1999984985352,6|0,0:0|0:0,0:0:0:0:
220,156,242575,2,0,L|235:203,1,49.1999984985352,2|0,0:0|0:0,0:0:0:0:
80,200,242731,2,0,L|30:200,1,49.1999984985352,10|0,0:0|0:0,0:0:0:0:
184,248,242887,2,0,L|233:248,1,49.1999984985352,2|0,0:0|0:0,0:0:0:0:
32,296,243044,6,0,L|17:249,1,49.1999984985352,6|0,0:0|0:0,0:0:0:0:
104,252,243200,2,0,L|119:205,1,49.1999984985352,2|0,0:0|0:0,0:0:0:0:
272,156,243356,1,10,0:0:0:0:
216,156,243434,1,2,0:0:0:0:
60,108,243512,1,10,0:0:0:0:
4,108,243590,1,2,0:0:0:0:
60,60,243669,6,0,L|352:60,1,292.739994193085,14|0,0:0|0:0,0:0:0:0:
352,132,243981,2,0,L|160:132,1,191.880006441284,8|0,0:0|0:0,0:0:0:0:
160,204,244294,2,0,L|452:204,1,292.739994193085,10|0,0:0|0:0,0:0:0:0:
452,276,244606,2,0,L|119:276,1,332.100001266861,10|0,0:0|0:0,0:0:0:0:
300,348,244919,6,0,B|316:304|316:304|301:254,1,98.3999969970704,6|0,0:0|0:0,0:0:0:0:
144,200,245231,2,0,B|128:156|128:156|143:106,1,98.3999969970704,8|0,0:0|0:0,0:0:0:0:
400,56,245544,1,2,0:0:0:0:
456,56,245622,1,0,0:0:0:0:
512,56,245700,1,0,0:0:0:0:
352,108,245855,1,8,0:0:0:0:
312,144,245933,1,0,0:0:0:0:
300,196,246012,1,0,0:0:0:0:
328,244,246090,1,0,0:0:0:0:
416,244,246169,5,2,0:0:0:0:
240,296,246247,2,0,L|225:199,1,98.3999969970704,2|0,0:1|0:0,0:0:0:0:
308,200,246481,2,0,L|293:103,1,98.3999969970704,2|0,0:1|0:0,0:0:0:0:
376,104,246715,6,0,L|83:104,1,292.739994193085,2|0,0:1|0:0,0:0:0:0:
144,52,247028,1,0,0:0:0:0:
284,0,247106,1,8,0:0:0:0:
232,0,247184,1,0,0:0:0:0:
180,0,247262,1,0,0:0:0:0:
128,0,247340,1,0,0:0:0:0:
268,52,247419,6,0,L|366:52,1,98.3999969970704,2|0,0:0|0:0,0:0:0:0:
208,104,247731,2,0,L|109:104,1,98.3999969970704,8|0,0:0|0:0,0:0:0:0:
368,156,248044,2,0,L|383:203,2,49.1999984985352,2|0|0,0:0|0:0|0:0,0:0:0:0:
208,208,248356,1,8,0:0:0:0:
212,260,248434,1,0,0:0:0:0:
244,304,248513,1,0,0:0:0:0:
296,324,248591,1,0,0:0:0:0:
384,324,248669,5,2,0:0:0:0:
208,324,248747,2,0,L|193:227,1,98.3999969970704,2|0,0:1|0:0,0:0:0:0:
276,176,248981,2,0,L|177:176,1,98.3999969970704,2|0,0:1|0:0,0:0:0:0:
96,124,249215,6,0,L|388:124,1,292.739994193085,2|0,0:1|0:0,0:0:0:0:
400,72,249528,1,0,0:0:0:0:
260,20,249606,2,0,L|210:20,1,49.1999984985352,8|0,0:0|0:0,0:0:0:0:
292,72,249762,2,0,L|341:72,1,49.1999984985352
200,124,249919,6,0,L|150:124,2,49.1999984985352,2|0|0,0:0|0:0|0:0,0:0:0:0:
360,176,250231,2,0,B|376:220|376:220|361:270,1,98.3999969970704,8|0,0:0|0:0,0:0:0:0:
308,272,250465,1,0,0:0:0:0:
168,320,250544,6,0,L|153:273,2,49.1999984985352,2|0|0,0:0|0:0|0:0,0:0:0:0:
256,320,250778,1,0,0:0:0:0:
116,368,250856,2,0,B|100:324|100:324|115:274,1,98.3999969970704,8|0,0:0|0:0,0:0:0:0:
168,272,251090,1,0,0:0:0:0:
328,224,251169,5,2,0:1:0:0:
300,172,251247,1,0,0:0:0:0:
248,144,251325,1,0,0:0:0:0:
160,144,251403,1,0,0:0:0:0:
248,144,251481,1,10,0:1:0:0:
288,108,251558,1,0,0:0:0:0:
300,56,251637,1,0,0:0:0:0:
272,8,251715,1,0,0:0:0:0:
108,56,251794,6,0,L|56:56,2,51.659998423462,2|0|0,0:1|0:0|0:0,0:0:0:0:
300,104,252028,2,0,L|352:104,2,51.659998423462,2|8|0,0:1|0:0|0:0,0:0:0:0:
136,152,252262,2,0,L|132:202,1,49.1999984985352,2|0,0:1|0:0,0:0:0:0:
348,152,252419,6,0,L|352:202,2,49.1999984985352,2|0|0,0:1|0:0|0:0,0:0:0:0:
260,200,252653,2,0,L|256:250,2,49.1999984985352,2|8|0,0:1|0:0|0:0,0:0:0:0:
336,248,252887,1,2,0:1:0:0:
412,296,252965,2,0,L|416:346,1,49.1999984985352
240,380,253122,6,0,L|141:380,1,98.3999969970704,2|0,0:1|0:0,0:0:0:0:
56,380,253356,2,0,L|41:333,1,49.1999984985352,10|0,0:1|0:0,0:0:0:0:
204,332,253512,2,0,L|189:285,1,49.1999984985352,2|0,0:1|0:0,0:0:0:0:
352,284,253669,6,0,L|480:284,1,127.92000429419,2|0,0:1|0:0,0:0:0:0:
416,236,253903,2,0,L|288:236,1,127.92000429419,2|0,0:1|0:0,0:0:0:0:
352,188,254137,1,2,0:1:0:0:
288,188,254215,1,0,0:0:0:0:
88,188,254294,6,0,L|73:91,1,98.3999969970704,2|0,0:1|0:0,0:0:0:0:
216,42,254528,2,0,L|231:139,1,98.3999969970704,2|0,0:1|0:0,0:0:0:0:
52,236,254762,2,0,L|2:236,1,49.1999984985352,2|0,0:1|0:0,0:0:0:0:
168,236,254919,6,0,L|266:236,1,98.3999969970704,6|0,0:0|0:0,0:0:0:0:
176,280,255153,2,0,L|126:280,2,49.1999984985352,0|8|0,0:0|0:0|0:0,0:0:0:0:
268,324,255387,2,0,L|317:324,1,49.1999984985352
480,368,255544,5,2,0:0:0:0:
416,320,255622,2,0,B|400:276|400:276|415:226,1,98.3999969970704
480,184,255856,1,10,0:1:0:0:
416,184,255934,1,0,0:0:0:0:
277,132,256012,2,0,L|227:132,1,49.1999984985352,2|0,0:1|0:0,0:0:0:0:
365,80,256169,6,0,L|414:80,2,49.1999984985352,2|0|0,0:1|0:0|0:0,0:0:0:0:
229,80,256403,1,2,0:1:0:0:
177,108,256481,1,8,0:0:0:0:
149,160,256559,1,0,0:0:0:0:
285,160,256637,2,0,L|334:160,1,49.1999984985352,2|0,0:1|0:0,0:0:0:0:
141,208,256794,6,0,L|92:208,2,49.1999984985352,2|0|0,0:1|0:0|0:0,0:0:0:0:
277,208,257028,1,2,0:1:0:0:
249,260,257106,1,8,0:0:0:0:
197,288,257184,1,0,0:0:0:0:
61,288,257262,2,0,L|11:288,1,49.1999984985352,2|0,0:1|0:0,0:0:0:0:
224,336,257419,5,2,0:1:0:0:
276,308,257497,1,0,0:0:0:0:
304,256,257575,1,0,0:0:0:0:
168,256,257653,1,2,0:1:0:0:
116,228,257731,1,0,0:0:0:0:
88,176,257809,1,0,0:0:0:0:
224,128,257887,2,0,L|273:128,1,49.1999984985352,2|0,0:1|0:0,0:0:0:0:
408,80,258044,5,2,0:1:0:0:
380,28,258122,1,0,0:0:0:0:
328,0,258200,1,0,0:0:0:0:
192,0,258278,1,2,0:1:0:0:
140,28,258356,1,8,0:0:0:0:
112,80,258434,1,0,0:0:0:0:
248,80,258512,2,0,L|263:127,1,49.1999984985352,2|0,0:1|0:0,0:0:0:0:
96,80,258669,6,0,B|48:80|48:80|31:128,1,98.3999969970704,2|0,0:1|0:0,0:0:0:0:
112,136,258903,1,0,0:0:0:0:
248,136,258981,2,0,B|296:136|296:136|313:184,1,98.3999969970704,10|0,0:1|0:0,0:0:0:0:
232,192,259215,1,0,0:0:0:0:
368,192,259294,6,0,B|351:240|351:240|303:240,1,98.3999969970704,2|0,0:1|0:0,0:0:0:0:
224,248,259528,1,0,0:0:0:0:
380,248,259606,2,0,B|396:292|396:292|381:342,1,98.3999969970704,10|0,0:1|0:0,0:0:0:0:
304,348,259840,1,0,0:0:0:0:
140,348,259919,5,6,0:0:0:0:
120,296,259997,1,0,0:0:0:0:
140,244,260075,1,0,0:0:0:0:
184,212,260153,1,0,0:0:0:0:
96,212,260231,2,0,L|81:165,1,49.1999984985352,8|0,0:0|0:0,0:0:0:0:
168,164,260387,2,0,L|183:117,1,49.1999984985352
96,116,260544,5,2,0:0:0:0:
100,64,260622,1,0,0:0:0:0:
132,20,260700,1,0,0:0:0:0:
184,0,260778,1,0,0:0:0:0:
272,0,260856,2,0,L|287:47,1,49.1999984985352,8|0,0:0|0:0,0:0:0:0:
148,48,261012,2,0,L|133:95,1,49.1999984985352,8|0,0:0|0:0,0:0:0:0:
356,96,261169,5,6,0:0:0:0:
396,132,261246,1,0,0:0:0:0:
408,184,261325,1,0,0:0:0:0:
380,232,261403,1,0,0:0:0:0:
292,232,261481,1,8,0:0:0:0:
264,280,261558,1,0,0:0:0:0:
276,332,261637,1,0,0:0:0:0:
316,368,261715,1,0,0:0:0:0:
228,368,261794,6,0,L|178:368,2,49.1999984985352,2|0|0,0:1|0:0|0:0,0:0:0:0:
384,320,262028,2,0,L|433:320,2,49.1999984985352,2|8|0,0:1|0:0|0:0,0:0:0:0:
228,272,262262,2,0,L|178:272,1,49.1999984985352,2|0,0:1|0:0,0:0:0:0:
384,320,262419,6,0,L|369:273,1,49.1999984985352,6|0,0:0|0:0,0:0:0:0:
284,276,262575,2,0,L|299:229,1,49.1999984985352,2|0,0:0|0:0,0:0:0:0:
452,232,262731,2,0,L|502:232,1,49.1999984985352,10|0,0:0|0:0,0:0:0:0:
348,184,262887,2,0,L|298:184,1,49.1999984985352,2|0,0:0|0:0,0:0:0:0:
144,232,263044,6,0,L|92:232,3,51.659998423462,6|0|2|0,0:0|0:0|0:0|0:0,0:0:0:0:
272,184,263356,2,0,L|287:137,1,49.1999984985352,10|2,0:0|0:0,0:0:0:0:
132,88,263512,2,0,L|117:41,1,49.1999984985352,10|2,0:0|0:0,0:0:0:0:
204,40,263669,6,0,L|496:40,1,292.739994193085,14|0,0:0|0:0,0:0:0:0:
496,112,263981,2,0,L|304:112,1,191.880006441284,8|0,0:0|0:0,0:0:0:0:
304,184,264294,2,0,L|16:184,1,287.820001097946,10|0,0:0|0:0,0:0:0:0:
16,256,264606,2,0,L|399:256,1,383.760012882569,10|0,0:0|0:0,0:0:0:0:
216,328,264919,6,0,B|200:284|200:284|215:234,1,98.3999969970704,6|0,0:0|0:0,0:0:0:0:
372,180,265231,2,0,L|273:180,1,98.3999969970704,8|0,0:0|0:0,0:0:0:0:
16,128,265544,1,2,0:0:0:0:
8,80,265622,1,0,0:0:0:0:
0,32,265700,1,0,0:0:0:0:
160,84,265856,1,8,0:0:0:0:
212,104,265934,1,0,0:0:0:0:
244,148,266012,1,0,0:0:0:0:
248,200,266090,1,0,0:0:0:0:
160,200,266169,5,2,0:0:0:0:
336,252,266247,2,0,B|352:208|352:208|337:158,1,98.3999969970704,2|0,0:1|0:0,0:0:0:0:
252,160,266481,2,0,B|236:116|236:116|251:66,1,98.3999969970704,10|0,0:1|0:0,0:0:0:0:
336,64,266715,6,0,L|44:64,1,292.739994193085,2|0,0:1|0:0,0:0:0:0:
28,112,267028,1,0,0:0:0:0:
168,112,267106,2,0,L|183:159,1,49.1999984985352,8|0,0:0|0:0,0:0:0:0:
100,160,267262,2,0,L|85:207,1,49.1999984985352
224,204,267419,6,0,L|322:204,1,98.3999969970704,6|0,0:0|0:0,0:0:0:0:
164,256,267731,2,0,L|65:256,1,98.3999969970704,8|0,0:0|0:0,0:0:0:0:
324,308,268044,2,0,L|339:261,2,49.1999984985352,2|0|0,0:0|0:0|0:0,0:0:0:0:
164,360,268356,1,8,0:0:0:0:
112,360,268434,1,0,0:0:0:0:
164,360,268512,1,0,0:0:0:0:
112,360,268590,1,0,0:0:0:0:
28,360,268669,5,2,0:0:0:0:
204,308,268747,2,0,L|332:308,1,127.92000429419,2|0,0:1|0:0,0:0:0:0:
396,260,268981,2,0,L|268:260,1,127.92000429419,2|0,0:1|0:0,0:0:0:0:
204,212,269215,6,0,L|496:212,1,292.739994193085,2|0,0:1|0:0,0:0:0:0:
512,164,269528,1,0,0:0:0:0:
372,164,269606,2,0,L|320:164,3,51.659998423462,8|0|0|0,0:0|0:0|0:0|0:0,0:0:0:0:
180,164,269919,5,6,0:0:0:0:
128,136,269997,1,0,0:0:0:0:
100,84,270075,1,0,0:0:0:0:
260,32,270231,2,0,L|359:32,1,98.3999969970704,8|0,0:0|0:0,0:0:0:0:
304,84,270465,1,0,0:0:0:0:
164,132,270544,6,0,L|149:179,2,49.1999984985352,2|0|0,0:0|0:0|0:0,0:0:0:0:
252,132,270778,1,0,0:0:0:0:
112,180,270856,2,0,L|13:180,1,98.3999969970704,8|0,0:0|0:0,0:0:0:0:
68,232,271090,1,0,0:0:0:0:
228,280,271169,6,0,L|243:233,2,49.1999984985352,2|0|0,0:1|0:0|0:0,0:0:0:0:
140,280,271403,1,0,0:0:0:0:
228,280,271481,1,10,0:1:0:0:
256,232,271559,1,0,0:0:0:0:
244,180,271638,1,0,0:0:0:0:
204,144,271715,1,0,0:0:0:0:
368,96,271794,6,0,L|419:96,2,51.659998423462,6|0|0,0:1|0:0|0:0,0:0:0:0:
176,48,272028,2,0,L|124:48,2,51.659998423462,2|8|0,0:1|0:0|0:0,0:0:0:0:
340,0,272262,2,0,L|344:50,1,49.1999984985352,2|0,0:1|0:0,0:0:0:0:
128,0,272419,5,6,0:1:0:0:
140,52,272497,1,0,0:0:0:0:
184,84,272575,1,0,0:0:0:0:
272,84,272653,1,2,0:1:0:0:
316,116,272731,1,8,0:0:0:0:
328,168,272809,1,0,0:0:0:0:
240,168,272887,2,0,L|228:120,2,49.1999984985352,2|0|2,0:1|0:0|0:0,0:0:0:0:
404,216,273122,6,0,L|306:216,1,98.3999969970704,2|0,0:1|0:0,0:0:0:0:
364,264,273356,1,10,0:1:0:0:
308,264,273434,1,0,0:0:0:0:
128,264,273512,1,2,0:1:0:0:
72,264,273590,1,0,0:0:0:0:
256,312,273669,6,0,L|271:215,1,98.3999969970704,2|0,0:1|0:0,0:0:0:0:
188,212,273903,2,0,L|173:115,1,98.3999969970704,2|0,0:1|0:0,0:0:0:0:
200,64,274137,1,2,0:1:0:0:
252,36,274215,1,0,0:0:0:0:
452,36,274294,6,0,L|353:36,1,98.3999969970704,2|0,0:1|0:0,0:0:0:0:
208,84,274528,2,0,L|306:84,1,98.3999969970704,2|0,0:1|0:0,0:0:0:0:
452,132,274762,2,0,L|467:179,1,49.1999984985352,2|0,0:1|0:0,0:0:0:0:
264,228,274919,6,0,L|166:228,1,98.3999969970704,4|0,0:0|0:0,0:0:0:0:
72,272,275153,2,0,L|56:225,2,49.1999984985352,0|8|0,0:1|0:0|0:0,0:0:0:0:
168,316,275387,2,0,L|119:316,1,49.1999984985352
280,364,275544,5,2,0:0:0:0:
344,316,275622,2,0,L|246:316,1,98.3999969970704
160,268,275856,2,0,L|145:221,1,49.1999984985352,10|0,0:1|0:0,0:0:0:0:
284,168,276012,2,0,L|299:121,1,49.1999984985352,2|0,0:1|0:0,0:0:0:0:
132,68,276169,5,2,0:1:0:0:
80,96,276247,1,0,0:0:0:0:
52,148,276325,1,0,0:0:0:0:
188,148,276403,2,0,L|237:148,2,49.1999984985352,2|8|0,0:1|0:0|0:0,0:0:0:0:
52,148,276637,2,0,L|48:198,1,49.1999984985352,2|0,0:1|0:0,0:0:0:0:
244,248,276794,5,2,0:1:0:0:
296,276,276872,1,0,0:0:0:0:
324,328,276950,1,0,0:0:0:0:
188,328,277028,1,2,0:1:0:0:
216,276,277106,1,8,0:0:0:0:
268,248,277184,1,0,0:0:0:0:
404,248,277262,2,0,L|408:198,1,49.1999984985352,2|0,0:1|0:0,0:0:0:0:
212,148,277419,6,0,L|162:148,2,49.1999984985352,6|0|0,0:1|0:0|0:0,0:0:0:0:
348,96,277653,2,0,L|397:96,2,49.1999984985352,2|8|0,0:1|0:0|0:0,0:0:0:0:
212,48,277887,2,0,L|163:48,1,49.1999984985352,2|0,0:1|0:0,0:0:0:0:
360,48,278044,5,2,0:1:0:0:
332,100,278122,1,0,0:0:0:0:
280,128,278200,1,0,0:0:0:0:
144,128,278278,1,2,0:1:0:0:
92,156,278356,1,8,0:0:0:0:
64,208,278434,1,0,0:0:0:0:
200,208,278512,2,0,L|249:208,1,49.1999984985352,2|0,0:1|0:0,0:0:0:0:
384,208,278669,6,0,B|400:252|400:252|385:302,1,98.3999969970704,2|0,0:1|0:0,0:0:0:0:
308,308,278903,1,0,0:0:0:0:
444,308,278981,2,0,B|460:264|460:264|445:214,1,98.3999969970704,10|0,0:1|0:0,0:0:0:0:
368,208,279215,1,0,0:0:0:0:
232,208,279294,6,0,B|216:164|216:164|231:114,1,98.3999969970704,6|0,0:1|0:0,0:0:0:0:
308,108,279528,1,0,0:0:0:0:
172,108,279606,2,0,B|189:60|189:60|237:60,1,98.3999969970704,10|0,0:1|0:0,0:0:0:0:
316,52,279840,1,0,0:0:0:0:
152,4,279919,5,6,0:0:0:0:
112,40,279996,1,0,0:0:0:0:
100,92,280075,1,0,0:0:0:0:
128,140,280153,1,0,0:0:0:0:
216,140,280231,2,0,L|231:187,1,49.1999984985352,8|0,0:0|0:0,0:0:0:0:
320,188,280387,2,0,L|335:235,1,49.1999984985352
244,236,280544,5,2,0:0:0:0:
192,256,280622,1,0,0:0:0:0:
160,300,280700,1,0,0:0:0:0:
156,352,280778,1,0,0:0:0:0:
244,352,280856,2,0,L|294:352,1,49.1999984985352,8|0,0:0|0:0,0:0:0:0:
152,304,281012,2,0,L|102:304,1,49.1999984985352,8|0,0:0|0:0,0:0:0:0:
340,352,281169,5,6,0:0:0:0:
380,316,281246,1,0,0:0:0:0:
392,264,281325,1,0,0:0:0:0:
364,216,281403,1,0,0:0:0:0:
276,216,281481,2,0,L|261:169,1,49.1999984985352,8|0,0:0|0:0,0:0:0:0:
348,168,281637,2,0,L|333:121,1,49.1999984985352
416,120,281794,6,0,L|465:120,2,49.1999984985352,2|0|0,0:1|0:0|0:0,0:0:0:0:
260,72,282028,1,2,0:1:0:0:
208,72,282106,1,8,0:0:0:0:
156,72,282184,1,0,0:0:0:0:
312,24,282262,2,0,L|361:24,1,49.1999984985352,2|0,0:1|0:0,0:0:0:0:
204,24,282419,5,6,0:0:0:0:
152,52,282497,1,0,0:0:0:0:
124,104,282575,1,0,0:0:0:0:
264,104,282653,1,2,0:1:0:0:
316,132,282731,1,8,0:0:0:0:
344,184,282809,1,0,0:0:0:0:
204,184,282887,2,0,L|154:184,1,49.1999984985352,2|0,0:1|0:0,0:0:0:0:
16,184,283044,5,2,0:1:0:0:
44,236,283122,1,0,0:0:0:0:
96,264,283200,1,0,0:0:0:0:
236,264,283278,1,2,0:1:0:0:
208,316,283356,1,8,0:0:0:0:
156,344,283434,1,0,0:0:0:0:
296,344,283512,2,0,L|345:344,1,49.1999984985352,2|0,0:1|0:0,0:0:0:0:
484,344,283669,6,0,L|499:297,2,49.1999984985352,6|0|0,0:0|0:0|0:0,0:0:0:0:
320,296,283903,1,2,0:1:0:0:
268,268,283981,1,8,0:0:0:0:
240,216,284059,1,0,0:0:0:0:
404,216,284137,2,0,L|354:216,1,49.1999984985352,2|0,0:1|0:0,0:0:0:0:
188,168,284294,5,2,0:1:0:0:
24,120,284372,2,0,L|122:120,1,98.3999969970704
176,72,284606,1,10,0:0:0:0:
120,72,284684,1,2,0:0:0:0:
300,72,284762,1,10,0:0:0:0:
356,72,284840,1,2,0:0:0:0:
144,24,284919,6,0,L|45:24,1,98.3999969970704,6|0,0:0|0:0,0:0:0:0:
204,120,285231,2,0,L|303:120,1,98.3999969970704,8|0,0:0|0:0,0:0:0:0:
44,172,285544,2,0,L|29:219,2,49.1999984985352,2|0|0,0:0|0:0|0:0,0:0:0:0:
204,224,285855,1,8,0:0:0:0:
244,260,285933,1,0,0:0:0:0:
256,312,286012,1,0,0:0:0:0:
228,360,286090,1,0,0:0:0:0:
140,360,286169,5,2,0:0:0:0:
316,364,286247,2,0,B|332:320|332:320|317:270,1,98.3999969970704,2|0,0:1|0:0,0:0:0:0:
232,216,286481,2,0,L|331:216,1,98.3999969970704,2|0,0:1|0:0,0:0:0:0:
416,160,286715,6,0,L|123:160,1,292.739994193085,2|0,0:1|0:0,0:0:0:0:
184,108,287028,1,0,0:0:0:0:
324,108,287106,2,0,L|339:61,1,49.1999984985352,8|0,0:0|0:0,0:0:0:0:
256,60,287262,2,0,L|271:13,1,49.1999984985352
412,12,287419,6,0,L|313:12,1,98.3999969970704,6|0,0:0|0:0,0:0:0:0:
472,108,287731,2,0,L|374:108,1,98.3999969970704,8|0,0:0|0:0,0:0:0:0:
100,160,288044,2,0,L|48:160,2,51.659998423462,2|0|0,0:0|0:0|0:0,0:0:0:0:
260,212,288356,1,8,0:0:0:0:
312,232,288434,1,0,0:0:0:0:
344,280,288512,1,0,0:0:0:0:
348,328,288590,1,0,0:0:0:0:
260,328,288669,5,2,0:0:0:0:
76,376,288747,2,0,L|203:376,1,127.92000429419,2|0,0:1|0:0,0:0:0:0:
140,328,288981,2,0,L|268:328,1,127.92000429419,2|0,0:1|0:0,0:0:0:0:
204,280,289215,6,0,L|496:280,1,292.739994193085,2|0,0:1|0:0,0:0:0:0:
436,228,289528,1,0,0:0:0:0:
296,228,289606,2,0,L|311:181,1,49.1999984985352,8|0,0:0|0:0,0:0:0:0:
368,132,289762,1,0,0:0:0:0:
312,132,289840,1,0,0:0:0:0:
120,132,289919,5,6,0:0:0:0:
148,80,289997,1,0,0:0:0:0:
200,52,290075,1,0,0:0:0:0:
360,104,290231,2,0,L|261:104,1,98.3999969970704,8|0,0:0|0:0,0:0:0:0:
276,152,290465,1,0,0:0:0:0:
416,200,290544,6,0,L|431:247,2,49.1999984985352,2|0|0,0:0|0:0|0:0,0:0:0:0:
328,200,290778,1,0,0:0:0:0:
468,248,290856,2,0,B|451:296|451:296|403:296,1,98.3999969970704,8|0,0:0|0:0,0:0:0:0:
344,296,291090,1,0,0:0:0:0:
184,344,291169,5,2,0:1:0:0:
212,292,291247,1,0,0:0:0:0:
264,264,291325,1,0,0:0:0:0:
352,264,291403,1,0,0:0:0:0:
264,264,291481,1,10,0:1:0:0:
224,228,291558,1,0,0:0:0:0:
212,176,291637,1,0,0:0:0:0:
240,128,291715,1,0,0:0:0:0:
404,80,291794,6,0,L|456:80,2,51.659998423462,6|0|0,0:1|0:0|0:0,0:0:0:0:
212,128,292028,1,2,0:1:0:0:
240,76,292106,1,8,0:0:0:0:
292,48,292184,1,0,0:0:0:0:
100,96,292262,2,0,L|48:96,1,51.659998423462,2|0,0:1|0:0,0:0:0:0:
264,144,292419,6,0,L|276:96,2,49.1999984985352,6|0|0,0:1|0:0|0:0,0:0:0:0:
176,192,292653,2,0,L|180:142,2,49.1999984985352,2|8|0,0:1|0:0|0:0,0:0:0:0:
88,240,292887,2,0,L|76:192,2,49.1999984985352,2|0|2,0:1|0:0|0:0,0:0:0:0:
252,240,293122,6,0,L|350:240,1,98.3999969970704,2|0,0:1|0:0,0:0:0:0:
408,288,293356,1,8,0:0:0:0:
352,288,293434,1,0,0:0:0:0:
172,288,293512,1,2,0:1:0:0:
228,288,293590,1,0,0:0:0:0:
424,336,293669,6,0,L|439:239,1,98.3999969970704,2|0,0:1|0:0,0:0:0:0:
356,236,293903,2,0,L|341:139,1,98.3999969970704,2|0,0:1|0:0,0:0:0:0:
400,88,294137,1,2,0:1:0:0:
344,88,294215,1,0,0:0:0:0:
144,88,294294,6,0,L|243:88,1,98.3999969970704,2|0,0:1|0:0,0:0:0:0:
388,136,294528,1,2,0:1:0:0:
360,188,294606,1,8,0:0:0:0:
308,216,294684,1,0,0:0:0:0:
144,264,294762,2,0,L|193:264,1,49.1999984985352,2|0,0:1|0:0,0:0:0:0:
396,232,294919,6,0,B|412:276|412:276|397:326,1,98.3999969970704,4|0,0:0|0:0,0:0:0:0:
308,372,295153,1,0,0:0:0:0:
256,344,295231,1,8,0:0:0:0:
228,292,295309,1,0,0:0:0:0:
316,248,295387,2,0,L|312:199,1,49.1999984985352
144,152,295544,5,2,0:0:0:0:
208,104,295622,2,0,L|109:104,1,98.3999969970704
20,104,295856,2,0,L|35:57,1,49.1999984985352,10|0,0:1|0:0,0:0:0:0:
192,56,296012,2,0,L|207:9,1,49.1999984985352,2|0,0:1|0:0,0:0:0:0:
68,8,296169,5,2,0:1:0:0:
96,60,296247,1,0,0:0:0:0:
148,88,296325,1,0,0:0:0:0:
284,88,296403,1,2,0:1:0:0:
256,140,296481,1,8,0:0:0:0:
204,168,296559,1,0,0:0:0:0:
340,168,296637,2,0,L|344:217,1,49.1999984985352,2|0,0:1|0:0,0:0:0:0:
148,264,296794,6,0,L|99:264,2,49.1999984985352,2|0|0,0:1|0:0|0:0,0:0:0:0:
284,312,297028,2,0,L|334:312,2,49.1999984985352,2|8|0,0:1|0:0|0:0,0:0:0:0:
148,360,297262,2,0,L|197:360,1,49.1999984985352,2|0,0:1|0:0,0:0:0:0:
416,360,297419,5,6,0:1:0:0:
388,308,297497,1,0,0:0:0:0:
336,280,297575,1,0,0:0:0:0:
200,280,297653,1,2,0:1:0:0:
228,228,297731,1,8,0:0:0:0:
280,200,297809,1,0,0:0:0:0:
416,200,297887,2,0,L|465:200,1,49.1999984985352,2|0,0:1|0:0,0:0:0:0:
268,152,298044,5,2,0:1:0:0:
216,124,298122,1,0,0:0:0:0:
188,72,298200,1,0,0:0:0:0:
324,72,298278,1,2,0:1:0:0:
296,124,298356,1,8,0:0:0:0:
244,152,298434,1,0,0:0:0:0:
48,200,298512,2,0,L|43:249,1,49.1999984985352,2|0,0:1|0:0,0:0:0:0:
208,248,298669,6,0,L|306:248,1,98.3999969970704,2|0,0:1|0:0,0:0:0:0:
324,296,298903,1,0,0:0:0:0:
184,344,298981,2,0,B|136:344|136:344|119:296,1,98.3999969970704,10|0,0:1|0:0,0:0:0:0:
200,288,299215,1,0,0:0:0:0:
60,240,299294,6,0,B|77:192|77:192|125:192,1,98.3999969970704,6|0,0:1|0:0,0:0:0:0:
204,184,299528,1,0,0:0:0:0:
344,136,299606,2,0,B|327:88|327:88|279:88,1,98.3999969970704,10|0,0:1|0:0,0:0:0:0:
200,80,299840,1,0,0:0:0:0:
388,80,299919,5,6,0:0:0:0:
428,116,299996,1,0,0:0:0:0:
440,168,300075,1,0,0:0:0:0:
412,216,300153,1,0,0:0:0:0:
324,216,300231,2,0,L|309:263,1,49.1999984985352,8|0,0:0|0:0,0:0:0:0:
396,264,300387,2,0,L|411:311,1,49.1999984985352
220,312,300544,6,0,L|170:312,2,49.1999984985352,2|0|0,0:1|0:0|0:0,0:0:0:0:
356,312,300778,1,2,0:1:0:0:
328,260,300856,1,8,0:0:0:0:
276,232,300934,1,0,0:0:0:0:
412,232,301012,2,0,L|417:183,1,49.1999984985352,2|0,0:1|0:0,0:0:0:0:
228,184,301169,5,6,0:0:0:0:
176,164,301247,1,0,0:0:0:0:
144,120,301325,1,0,0:0:0:0:
140,68,301403,1,0,0:0:0:0:
228,68,301481,2,0,L|178:68,1,49.1999984985352,8|0,0:0|0:0,0:0:0:0:
92,20,301637,2,0,L|141:20,1,49.1999984985352
332,20,301794,5,2,0:1:0:0:
304,72,301872,1,0,0:0:0:0:
252,100,301950,1,0,0:0:0:0:
388,100,302028,1,2,0:1:0:0:
360,152,302106,1,8,0:0:0:0:
308,180,302184,1,0,0:0:0:0:
444,180,302262,2,0,L|449:229,1,49.1999984985352,2|0,0:1|0:0,0:0:0:0:
256,280,302419,6,0,L|204:280,3,51.659998423462,6|0|0|0,0:0|0:0|0:0|0:0,0:0:0:0:
48,376,302731,2,0,L|33:329,1,49.1999984985352,10|0,0:0|0:0,0:0:0:0:
120,332,302887,2,0,L|135:285,1,49.1999984985352,2|0,0:0|0:0,0:0:0:0:
320,236,303044,6,0,L|372:236,1,51.659998423462,6|0,0:0|0:0,0:0:0:0:
320,188,303200,2,0,L|268:188,1,51.659998423462,2|0,0:0|0:0,0:0:0:0:
452,136,303356,1,10,0:0:0:0:
460,112,303395,1,0,0:0:0:0:
468,88,303434,1,2,0:0:0:0:
276,88,303512,1,10,0:0:0:0:
268,64,303551,1,0,0:0:0:0:
260,40,303590,1,2,0:0:0:0:
344,40,303669,6,0,L|96:40,1,247.639997165985,14|0,0:0|0:0,0:0:0:0:
96,88,303903,2,0,L|344:88,1,247.639997165985,8|0,0:0|0:0,0:0:0:0:
312,140,304137,1,8,0:0:0:0:
256,168,304215,1,0,0:0:0:0:
8,216,304294,6,0,L|256:216,1,247.639997165985,14|0,0:0|0:0,0:0:0:0:
256,264,304528,2,0,L|8:264,1,247.639997165985,8|0,0:0|0:0,0:0:0:0:
40,324,304762,1,8,0:0:0:0:
96,352,304840,1,0,0:0:0:0:
360,352,304919,6,0,P|256:27|150:351,1,902,4|0,0:0|0:0,0:0:0:0:
303,352,306794,6,0,P|356:246|297:144,1,246,6|0,0:0|0:0,0:0:0:0:
144,144,307419,6,0,P|168:51|302:26,2,246,6|2|2,0:0|0:0|0:0,0:0:0:0:
368,144,308669,2,0,P|344:51|210:26,2,246,6|2|2,0:0|0:0|0:0,0:0:0:0:
0,144,309919,1,6,0:0:0:0:
256,192,310075,12,0,312262,0:0:0:0:
392,144,312419,5,4,0:0:0:0:
256,192,312575,12,0,314762,0:0:0:0:
120,144,314919,5,12,0:0:0:0:
