osu file format v14

[General]
AudioFilename: audio.mp3
AudioLeadIn: 0
PreviewTime: 93793
Countdown: 0
SampleSet: Soft
StackLeniency: 0.7
Mode: 0
LetterboxInBreaks: 0
WidescreenStoryboard: 1

[Editor]
Bookmarks: 71553,286918
DistanceSpacing: 1
BeatDivisor: 4
GridSize: 32
TimelineZoom: 1.9

[Metadata]
Title:salvation
TitleUnicode:salvation
Artist:Yooh
ArtistUnicode:Yooh
Creator:Guchiry
Version:Desire
Source:
Tags:mappers' guild mg mpg j-core jcore brain exe brainexe -Syncro instrumental electronic fa featured artist voltage ignition 2 afb
BeatmapID:3358820
BeatmapSetID:1645504

[Difficulty]
HPDrainRate:5
CircleSize:5.3
OverallDifficulty:9.1
ApproachRate:9.3
SliderMultiplier:2
SliderTickRate:1

[Events]
//Background and Video events
0,0,"shrek in a cage i guess.jpg",0,0
//Break Periods
//Storyboard Layer 0 (Background)
//Storyboard Layer 1 (Fail)
//Storyboard Layer 2 (Pass)
//Storyboard Layer 3 (Foreground)
//Storyboard Layer 4 (Overlay)
//Storyboard Sound Samples

[TimingPoints]
980,312.5,4,2,8,30,1,0
980,-100,4,2,8,30,0,0
2543,312.5,4,2,8,50,1,0
22427,-100,4,2,8,50,0,0
22543,-100,4,2,8,60,0,0
29927,-100,4,2,8,60,0,0
30043,-100,4,2,8,50,0,0
30355,-100,4,2,8,60,0,0
30552,-100,4,2,8,60,0,0
30668,-100,4,2,8,70,0,0
31177,-100,4,2,8,70,0,0
31605,-76.9230769230769,4,2,8,70,0,0
32230,-285.714285714284,4,2,8,70,0,0
32427,-285.714285714284,4,2,8,70,0,0
32543,-83.3333333333333,4,2,8,70,0,0
69927,-83.3333333333333,4,2,8,70,0,0
70043,-83.3333333333333,4,2,8,50,0,0
70355,-83.3333333333333,4,2,8,60,0,0
70552,-83.3333333333333,4,2,8,60,0,0
70668,-83.3333333333333,4,2,8,70,0,0
71177,-83.3333333333333,4,2,8,70,0,0
71293,-66.6666666666667,4,2,8,70,0,0
71527,-52.6315789473684,4,2,8,70,0,0
72427,-52.6315789473684,4,2,8,70,0,0
72543,312.5,3,2,8,70,1,0
72543,-66.6666666666667,3,2,8,70,0,0
78989,-66.6666666666667,3,2,8,70,0,0
79927,-66.6666666666667,3,2,8,70,0,0
87427,-66.6666666666667,3,2,8,70,0,0
87505,-66.6666666666667,3,2,8,70,0,0
87543,-1000,3,2,8,70,0,0
87621,-1000,3,2,8,5,0,0
88168,-1000,3,2,8,10,0,0
88793,-1000,3,2,8,20,0,0
89418,-1000,3,2,8,30,0,0
89614,-1000,3,2,8,30,0,0
90043,-1000,3,2,8,40,0,0
90161,-1000,3,2,8,40,0,0
90668,-1000,3,2,8,50,0,0
90708,-1000,3,2,8,50,0,0
91293,-1000,3,2,8,60,0,0
91411,-1000,3,2,8,60,0,0
91918,-1000,3,2,8,70,0,0
92036,-1000,3,2,8,70,0,0
92543,-1000,3,2,8,80,0,0
92661,-1000,3,2,8,80,0,0
93286,-1000,3,2,8,80,0,0
93480,-1000,3,2,8,5,0,0
93677,-1000,3,2,8,5,0,0
93793,312.5,3,2,8,40,1,0
93793,-250,3,2,8,20,0,0
101293,-250,3,2,8,30,0,0
107855,-500,3,2,8,50,0,0
108520,-500,3,2,8,50,0,0
108677,-500,3,2,8,50,0,0
108793,-133.333333333333,3,2,8,60,0,0
122855,-285.714285714284,3,2,8,60,0,0
123677,-285.714285714284,3,2,8,60,0,0
123793,-100,3,2,8,60,0,0
125355,-285.714285714284,3,2,8,60,0,0
125668,-100,3,2,8,60,0,0
127230,-285.714285714286,3,2,8,60,0,0
127543,-100,3,2,8,60,0,0
129105,-285.714285714286,3,2,8,60,0,0
129418,-100,3,2,8,60,0,0
130980,-285.714285714286,3,2,8,60,0,0
131918,-100,3,2,8,60,0,0
136723,-100,3,2,8,60,0,0
137505,-100,3,2,8,60,0,0
137739,-100,3,2,8,60,0,0
137855,-76.9230769230769,3,2,8,70,0,0
138168,-62.5,3,2,8,70,0,0
138677,-62.5,3,2,8,70,0,0
138793,-66.6666666666667,3,2,8,70,0,0
139730,-66.6666666666667,3,2,8,70,0,0
140668,-66.6666666666667,3,2,8,70,0,0
141605,-100,3,2,8,70,0,0
142543,-66.6666666666667,3,2,8,70,0,0
147230,-66.6666666666667,3,2,8,70,0,0
148168,-66.6666666666667,3,2,8,70,0,0
149105,-100,3,2,8,70,0,0
150043,-66.6666666666667,3,2,8,70,0,0
153793,-50,3,2,8,70,0,0
156605,-66.6666666666667,3,2,8,70,0,0
161293,-50,3,2,8,70,0,0
166723,-66.6666666666667,3,2,8,70,0,0
167505,-66.6666666666667,3,2,8,70,0,0
167739,-66.6666666666667,3,2,8,70,0,0
167855,-62.5,3,2,8,70,0,0
168677,-62.5,3,2,8,70,0,0
168755,-62.5,3,2,8,70,0,0
168793,-66.6666666666667,3,2,8,60,0,0
183793,-250,3,2,8,40,0,0
191293,-100,3,2,8,60,0,0
194848,-100,3,2,8,60,0,0
195864,-100,3,2,8,60,0,0
196802,-100,3,2,8,60,0,0
197855,-76.9230769230769,3,2,8,60,0,0
198677,-76.9230769230769,3,2,8,60,0,0
202543,-76.9230769230769,3,2,8,10,0,0
203052,-76.9230769230769,3,2,8,60,0,0
203793,312.5,4,2,8,40,1,0
204105,-100,4,2,8,50,0,0
204302,-100,4,2,8,50,0,0
204418,-100,4,2,8,60,0,0
204927,-100,4,2,8,60,0,0
205043,-66.6666666666667,4,2,8,70,0,0
217543,-55.5555555555556,4,2,8,70,0,0
218168,-50,4,2,8,70,0,0
218793,-66.6666666666667,4,2,8,70,0,0
233793,-50,4,2,8,70,0,0
235043,-66.6666666666667,4,2,8,70,0,0
284027,-50,4,2,8,70,0,0
285043,-133.333333333333,4,2,8,70,0,0
285355,-133.333333333333,4,2,8,10,0,0
285668,-133.333333333333,4,2,8,10,0,0
285980,-133.333333333333,4,2,8,10,0,0
286293,-133.333333333333,4,2,8,10,0,0
286605,-133.333333333333,4,2,8,10,0,0
286918,-285.714285714284,4,2,8,70,0,0
302543,-285.714285714284,4,2,8,10,0,0

[Colours]
Combo1 : 203,166,52
Combo2 : 128,128,128

[HitObjects]
256,192,980,12,0,2230,0:0:0:0:
2,99,2543,6,0,B|51:99|67:152|67:153|87:190|141:193,1,150,2|0,0:3|0:0,0:0:0:0:
83,257,2855,2,0,P|137:192|173:198,1,100,2|0,0:0|0:0,0:0:0:0:
246,239,3168,1,2,0:0:0:0:
140,112,3324,1,2,0:0:0:0:
159,269,3480,1,2,0:0:0:0:
269,229,3636,1,2,0:0:0:0:
316,349,3793,6,0,B|330:321|371:311|371:311|386:275|357:202,1,150,2|0,0:0|0:0,0:0:0:0:
329,164,4105,2,0,P|267:161|225:150,1,100,2|0,0:0|0:0,0:0:0:0:
450,185,4418,2,0,P|468:272|475:285,1,100,2|0,0:0|0:0,0:0:0:0:
269,229,4730,2,0,P|250:275|246:325,1,100,2|0,0:0|0:0,0:0:0:0:
1,259,5043,6,0,B|45:255|62:216|62:216|76:174|122:171,1,150,2|0,0:0|0:0,0:0:0:0:
148,263,5355,2,0,P|136:174|139:120,1,100,2|0,0:0|0:0,0:0:0:0:
67,38,5668,1,2,0:0:0:0:
195,92,5824,1,2,0:0:0:0:
92,111,5980,1,2,0:0:0:0:
202,24,6136,1,2,0:0:0:0:
271,135,6293,6,0,P|260:195|252:304,1,150,2|0,0:0|0:0,0:0:0:0:
330,327,6605,2,0,P|330:260|342:211,1,100,2|0,0:0|0:0,0:0:0:0:
173,246,6918,2,0,P|173:313|161:362,1,100,2|0,0:0|0:0,0:0:0:0:
345,142,7230,2,0,P|400:140|450:131,1,100,2|2,0:0|0:3,0:0:0:0:
512,67,7464,1,2,0:3:0:0:
512,67,7543,6,0,B|482:77|467:128|467:128|496:154|498:202,1,150,2|0,0:3|0:0,0:0:0:0:
484,263,7855,2,0,P|412:280|349:296,1,100,2|0,0:0|0:0,0:0:0:0:
345,142,8168,1,2,0:0:0:0:
251,275,8324,1,2,0:0:0:0:
386,286,8480,1,2,0:0:0:0:
262,169,8636,1,2,0:0:0:0:
213,352,8793,6,0,P|301:345|320:321,1,100,2|0,0:0|0:0,0:0:0:0:
169,225,9105,2,0,P|178:153|171:110,1,100,2|0,0:0|0:0,0:0:0:0:
391,187,9418,2,0,P|382:259|389:302,1,100,2|0,0:0|0:0,0:0:0:0:
134,307,9730,2,0,P|75:305|3:321,1,100,2|0,0:0|0:0,0:0:0:0:
0,15,10043,6,0,B|48:12|68:39|68:39|92:72|144:67,1,150,2|0,0:3|0:0,0:0:0:0:
206,32,10355,1,2,0:0:0:0:
206,158,10511,6,0,B|195:210|175:238|175:238|212:265|214:314,1,150,2|0,0:3|0:0,0:0:0:0:
134,307,10824,1,2,0:0:0:0:
266,231,10980,6,0,P|305:229|391:212,1,100,2|2,0:3|0:0,0:0:0:0:
475,109,11293,2,0,P|458:191|456:261,1,150,2|0,0:0|0:0,0:0:0:0:
372,317,11605,2,0,P|362:269|367:207,1,100,2|0,0:0|0:0,0:0:0:0:
407,51,11918,2,0,P|370:83|314:110,1,100,2|0,0:3|0:0,0:0:0:0:
164,216,12230,2,0,P|259:228|297:239,1,100,2|0,0:0|0:0,0:0:0:0:
45,347,12543,6,0,B|24:305|15:287|15:287|47:244|52:195,1,150,2|0,0:3|0:0,0:0:0:0:
14,137,12855,2,0,P|53:180|120:165,1,100,2|0,0:0|0:0,0:0:0:0:
229,149,13168,1,2,0:0:0:0:
124,280,13324,1,2,0:0:0:0:
151,133,13480,1,2,0:0:0:0:
213,296,13636,1,2,0:0:0:0:
300,186,13793,6,0,P|298:115|305:23,1,150,2|0,0:0|0:0,0:0:0:0:
235,3,14105,2,0,P|176:32|141:22,1,100,2|0,0:0|0:0,0:0:0:0:
336,95,14418,2,0,P|384:89|425:116,1,100,2|0,0:0|0:0,0:0:0:0:
200,144,14730,2,0,P|202:201|199:278,1,100,2|0,0:0|0:0,0:0:0:0:
352,368,15043,6,0,B|406:350|453:344|453:344|436:319|428:261,1,150,2|0,0:3|0:0,0:0:0:0:
465,221,15355,2,0,P|442:279|384:278,1,100,2|0,0:0|0:0,0:0:0:0:
266,338,15668,1,2,0:0:0:0:
316,236,15824,1,2,0:0:0:0:
352,368,15980,1,2,0:0:0:0:
229,259,16136,1,2,0:0:0:0:
118,346,16293,2,0,P|28:364|-3:371,1,100,2|0,0:0|0:0,0:0:0:0:
165,205,16605,6,0,P|231:177|281:192,1,100,2|0,0:0|0:0,0:0:0:0:
465,221,16918,2,0,P|415:221|373:196,1,100,2|0,0:0|0:0,0:0:0:0:
318,0,17230,2,0,P|322:77|329:139,1,100,2|0,0:0|0:0,0:0:0:0:
104,275,17543,6,0,B|88:239|62:216|62:216|93:184|100:147,1,150,2|0,0:3|0:0,0:0:0:0:
43,87,17855,2,0,P|89:130|135:125,1,100,2|0,0:0|0:0,0:0:0:0:
211,35,18168,1,2,0:0:0:0:
194,174,18324,1,2,0:0:0:0:
116,50,18480,1,2,0:0:0:0:
272,107,18636,1,2,0:0:0:0:
236,248,18793,2,0,B|233:303|222:343|222:343|240:360|289:358,1,150,2|0,0:0|0:0,0:0:0:0:
308,284,19105,6,0,P|372:277|417:270,1,100,2|0,0:0|0:0,0:0:0:0:
194,174,19418,2,0,P|130:181|85:188,1,100,2|0,0:0|0:0,0:0:0:0:
427,179,19730,2,0,P|434:115|441:70,1,100,2|0,0:0|0:0,0:0:0:0:
491,340,20043,6,0,B|448:323|415:349|415:349|384:375|324:348,1,150,2|0,0:3|0:0,0:0:0:0:
308,284,20355,2,0,P|264:330|214:323,1,100,2|0,0:0|0:0,0:0:0:0:
75,364,20668,1,2,0:0:0:0:
160,251,20824,1,2,0:0:0:0:
178,384,20980,1,2,0:0:0:0:
62,273,21136,1,2,0:0:0:0:
248,195,21293,2,0,P|313:197|361:193,1,100,2|0,0:0|0:0,0:0:0:0:
62,273,21605,6,0,P|56:201|70:170,1,100,2|0,0:0|0:0,0:0:0:0:
251,98,21918,2,0,P|257:170|243:201,1,100,2|0,0:0|0:0,0:0:0:0:
25,81,22230,2,0,P|97:74|128:88,1,100,2|0,0:0|0:0,0:0:0:0:
192,279,22543,6,0,B|227:278|248:284|248:284|263:339|323:339,1,150,2|0,3:0|0:0,0:0:0:0:
318,266,22855,2,0,B|350:257|408:274|408:274|416:237|419:190,1,150,2|0,3:2|0:0,0:0:0:0:
348,191,23168,1,2,3:2:0:0:
392,345,23324,1,2,0:0:0:0:
489,260,23480,1,2,3:2:0:0:
318,266,23636,1,2,0:0:0:0:
482,174,23793,2,0,P|474:124|469:71,1,100,2|0,3:2|0:0,0:0:0:0:
314,106,24105,6,0,B|255:91|255:91|221:111|221:111|221:144|179:179,1,150,2|0,3:2|0:0,0:0:0:0:
148,106,24418,2,0,B|98:109|82:148|82:148|65:183|8:186,1,150,2|0,3:2|0:0,0:0:0:0:
75,251,24730,2,0,B|117:239|142:207|142:207|170:246|227:234,1,150,2|0,3:2|0:0,0:0:0:0:
279,332,25043,6,0,B|326:320|353:348|353:348|379:375|436:365,1,150,2|0,3:0|0:0,0:0:0:0:
505,351,25355,2,0,P|474:313|473:253,1,100,2|0,3:2|0:0,0:0:0:0:
314,242,25668,1,2,3:2:0:0:
450,167,25824,1,2,0:0:0:0:
315,166,25980,1,2,3:2:0:0:
396,287,26136,1,2,0:0:0:0:
230,268,26293,2,0,P|171:281|115:287,1,100,2|0,3:2|0:0,0:0:0:0:
19,108,26605,6,0,B|52:82|97:61|97:61|96:105|155:141,1,150,2|0,3:2|0:0,0:0:0:0:
177,67,26918,2,0,B|208:106|241:115|241:115|198:149|195:205,1,150,2|0,3:2|0:0,0:0:0:0:
121,193,27230,1,2,3:2:0:0:
278,187,27386,1,0,0:0:0:0:
155,362,27543,5,6,1:2:0:0:
56,273,27699,1,0,3:0:0:0:
134,370,27855,1,2,1:2:0:0:
121,193,28011,1,0,3:0:0:0:
236,268,28168,5,2,1:2:0:0:
51,363,28324,1,2,3:2:0:0:
232,374,28480,1,2,1:2:0:0:
121,193,28636,1,2,3:2:0:0:
340,321,28793,5,6,1:2:0:0:
419,174,28949,1,0,3:0:0:0:
346,342,29105,1,2,1:2:0:0:
325,143,29261,1,0,3:0:0:0:
465,290,29418,5,2,1:2:0:0:
249,275,29574,1,0,3:0:0:0:
419,174,29730,1,2,1:2:0:0:
408,384,29886,1,0,3:0:0:0:
165,293,30043,5,6,3:2:0:0:
157,280,30121,1,0,3:0:0:0:
157,265,30199,1,0,3:0:0:0:
163,251,30277,1,0,3:0:0:0:
171,238,30355,1,2,3:2:0:0:
173,223,30433,1,0,3:0:0:0:
170,208,30511,1,0,3:0:0:0:
159,197,30589,1,0,3:0:0:0:
133,198,30668,5,6,1:2:0:0:
109,189,30746,1,0,1:0:0:0:
97,166,30824,1,2,1:2:0:0:
102,141,30902,1,0,1:0:0:0:
127,116,30980,1,2,1:2:0:0:
161,118,31058,1,0,1:0:0:0:
191,135,31136,1,2,1:2:0:0:
225,134,31214,1,0,1:0:0:0:
256,117,31293,6,0,P|261:83|267:47,1,50,2|0,1:2|0:0,0:0:0:0:
113,12,31449,1,0,1:0:0:0:
249,229,31605,6,0,B|301:217|336:257|336:257|367:294|442:283,1,194.999991073609,2|0,1:2|0:0,0:0:0:0:
353,156,31918,2,0,P|341:294|340:357,1,194.999991073609,2|0,1:2|0:0,0:0:0:0:
204,352,32230,2,0,P|163:361|148:369,1,52.4999983978272
140,373,32543,6,0,B|119:348|92:342|92:342|118:305|114:272,1,119.999996337891,2|0,3:0|0:0,0:0:0:0:
181,255,32777,1,0,0:0:0:0:
181,255,32855,1,0,1:0:0:0:
34,282,33011,1,0,0:0:0:0:
176,175,33168,6,0,B|211:166|232:198|232:198|258:225|296:222,1,119.999996337891,2|0,3:2|0:0,0:0:0:0:
287,149,33402,1,0,0:0:0:0:
287,149,33480,1,0,1:0:0:0:
320,284,33636,1,0,0:0:0:0:
99,214,33793,5,2,3:2:0:0:
74,179,33871,1,2,0:0:0:0:
85,138,33949,1,2,0:0:0:0:
121,117,34027,1,2,0:0:0:0:
156,94,34105,1,2,1:2:0:0:
169,54,34183,1,2,0:0:0:0:
151,15,34261,1,2,0:0:0:0:
110,5,34339,1,2,0:0:0:0:
69,17,34418,6,0,P|59:72|51:101,1,59.9999981689454,2|0,3:2|0:0,0:0:0:0:
176,175,34574,1,0,0:0:0:0:
0,162,34730,5,0,1:0:0:0:
169,54,34886,1,0,0:0:0:0:
238,264,35043,6,0,B|255:232|295:203|295:203|276:155|276:145,1,119.999996337891,2|0,3:0|0:0,0:0:0:0:
283,89,35277,1,0,0:0:0:0:
283,89,35355,1,0,1:0:0:0:
176,175,35511,1,0,0:0:0:0:
358,166,35668,6,0,B|390:144|426:165|426:165|452:200|486:197,1,119.999996337891,2|0,3:2|0:0,0:0:0:0:
491,122,35902,1,0,0:0:0:0:
491,122,35980,1,0,1:0:0:0:
510,255,36136,1,0,0:0:0:0:
325,265,36293,5,2,3:2:0:0:
283,260,36371,1,2,0:0:0:0:
249,284,36449,1,2,0:0:0:0:
240,325,36527,1,2,0:0:0:0:
209,353,36605,1,2,1:2:0:0:
167,358,36683,1,2,0:0:0:0:
133,333,36761,1,2,0:0:0:0:
125,291,36839,1,2,0:0:0:0:
158,264,36918,6,0,P|215:276|241:279,1,59.9999981689454,2|0,3:2|0:0,0:0:0:0:
328,365,37074,1,0,0:0:0:0:
253,190,37230,5,0,1:0:0:0:
167,358,37386,1,0,0:0:0:0:
402,259,37543,6,0,B|378:224|376:196|376:196|405:172|399:114,1,119.999996337891,2|0,3:0|0:0,0:0:0:0:
323,131,37777,1,0,0:0:0:0:
323,131,37855,1,0,1:0:0:0:
460,200,38011,1,0,0:0:0:0:
253,190,38168,6,0,B|216:190|196:219|196:219|178:246|133:247,1,119.999996337891,2|0,3:2|0:0,0:0:0:0:
135,171,38402,1,0,0:0:0:0:
135,171,38480,1,0,1:0:0:0:
84,287,38636,1,0,0:0:0:0:
46,91,38793,5,2,3:2:0:0:
75,60,38871,1,2,0:0:0:0:
116,55,38949,1,2,0:0:0:0:
150,79,39027,1,2,0:0:0:0:
181,106,39105,1,2,1:2:0:0:
222,109,39183,1,2,0:0:0:0:
263,102,39261,1,2,0:0:0:0:
293,73,39339,1,2,0:0:0:0:
334,63,39418,6,0,P|398:70|436:73,1,59.9999981689454,2|0,3:2|0:0,0:0:0:0:
475,185,39574,1,0,0:0:0:0:
351,184,39730,5,0,1:0:0:0:
489,70,39886,1,0,0:0:0:0:
417,284,40043,6,0,B|381:296|348:299|348:299|345:323|317:355,1,119.999996337891,2|0,3:0|0:0,0:0:0:0:
275,291,40277,1,0,0:0:0:0:
275,291,40355,1,0,1:0:0:0:
399,365,40511,1,0,0:0:0:0:
351,184,40668,6,0,B|344:143|339:102|339:102|314:123|285:121,1,119.999996337891,2|0,3:2|0:0,0:0:0:0:
273,191,40902,1,0,0:0:0:0:
273,191,40980,1,0,1:0:0:0:
416,129,41136,1,0,0:0:0:0:
220,111,41293,6,0,P|168:123|121:131,1,59.9999981689454,2|0,3:2|0:0,0:0:0:0:
78,199,41449,1,2,0:0:0:0:
46,226,41527,1,2,0:0:0:0:
56,266,41605,1,2,1:2:0:0:
174,222,41761,1,0,0:0:0:0:
96,358,41918,6,0,P|41:347|-8:353,1,59.9999981689454,2|0,3:0|0:0,0:0:0:0:
181,312,42074,1,0,0:0:0:0:
78,199,42230,2,0,P|70:147|71:116,1,59.9999981689454,2|0,1:3|0:0,0:0:0:0:
174,222,42386,2,0,P|215:189|242:174,1,59.9999981689454
332,307,42543,6,0,B|375:305|389:337|389:337|409:372|456:367,1,119.999996337891,2|0,3:0|0:0,0:0:0:0:
451,293,42777,1,0,0:0:0:0:
451,293,42855,1,0,1:0:0:0:
326,381,43011,1,0,0:0:0:0:
356,232,43168,6,0,B|348:190|330:170|330:170|351:136|353:109,1,119.999996337891,2|0,3:2|0:0,0:0:0:0:
414,169,43402,1,0,0:0:0:0:
414,169,43480,1,0,1:0:0:0:
276,226,43636,1,0,0:0:0:0:
255,80,43793,5,2,3:2:0:0:
217,60,43871,1,2,0:0:0:0:
176,72,43949,1,2,0:0:0:0:
159,110,44027,1,2,0:0:0:0:
127,137,44105,1,2,1:2:0:0:
85,142,44183,1,2,0:0:0:0:
49,119,44261,1,2,0:0:0:0:
33,80,44339,1,2,0:0:0:0:
51,42,44418,6,0,P|108:50|140:47,1,59.9999981689454,2|0,3:2|0:0,0:0:0:0:
219,151,44574,1,0,0:0:0:0:
174,0,44730,5,0,1:0:0:0:
85,142,44886,1,0,0:0:0:0:
317,173,45043,6,0,B|306:217|293:242|293:242|238:234|206:260,1,119.999996337891,2|0,3:0|0:0,0:0:0:0:
171,247,45277,1,0,0:0:0:0:
171,247,45355,1,0,1:0:0:0:
267,320,45511,1,0,0:0:0:0:
219,151,45668,6,0,B|219:102|219:58|219:58|254:74|291:77,1,119.999996337891,2|0,3:2|0:0,0:0:0:0:
315,89,45902,1,0,0:0:0:0:
315,89,45980,1,0,1:0:0:0:
258,0,46136,1,0,0:0:0:0:
141,117,46293,5,2,3:2:0:0:
105,139,46371,1,2,0:0:0:0:
63,144,46449,1,2,0:0:0:0:
24,128,46527,1,2,0:0:0:0:
12,88,46605,1,2,1:2:0:0:
39,119,46683,1,2,0:0:0:0:
41,160,46761,1,2,0:0:0:0:
17,194,46839,1,2,0:0:0:0:
0,220,46918,6,0,P|47:217|85:233,1,59.9999981689454,2|0,3:2|0:0,0:0:0:0:
200,260,47074,1,0,0:0:0:0:
27,317,47230,5,0,1:0:0:0:
39,119,47386,1,0,0:0:0:0:
259,202,47543,6,0,B|304:211|314:234|314:234|329:263|377:272,1,119.999996337891,2|0,3:0|0:0,0:0:0:0:
381,190,47777,1,0,0:0:0:0:
381,190,47855,1,0,1:0:0:0:
259,287,48011,1,0,0:0:0:0:
279,125,48168,6,0,B|281:81|274:38|274:38|306:51|336:56,1,119.999996337891,2|0,3:2|0:0,0:0:0:0:
359,105,48402,1,0,0:0:0:0:
359,105,48480,1,0,1:0:0:0:
204,130,48636,1,0,0:0:0:0:
259,287,48793,5,2,3:2:0:0:
295,267,48871,1,2,0:2:0:0:
336,270,48949,1,2,0:2:0:0:
367,297,49027,1,2,0:2:0:0:
377,337,49105,1,2,1:2:0:0:
401,371,49183,1,2,0:2:0:0:
442,379,49261,1,2,0:2:0:0:
480,363,49339,1,2,0:2:0:0:
495,323,49418,6,0,P|489:286|487:248,1,59.9999981689454,2|0,3:2|0:0,0:0:0:0:
396,202,49574,1,0,0:0:0:0:
301,368,49730,5,0,1:0:0:0:
495,323,49886,1,0,0:0:0:0:
211,180,50043,6,0,B|164:187|132:234|132:234|110:272|43:276,1,179.999994506836,2|0,3:0|0:0,0:0:0:0:
55,190,50355,1,2,1:2:0:0:
74,152,50433,1,2,0:2:0:0:
113,137,50511,1,2,0:2:0:0:
140,105,50589,1,2,0:2:0:0:
136,62,50668,5,2,3:2:0:0:
115,98,50746,1,2,0:2:0:0:
141,130,50824,1,2,0:2:0:0:
182,137,50902,1,2,0:2:0:0:
218,116,50980,5,2,1:2:0:0:
259,108,51058,1,2,0:2:0:0:
299,119,51136,1,2,0:2:0:0:
322,153,51214,1,2,0:2:0:0:
340,191,51293,6,0,B|368:222|375:261|375:261|409:234|484:220,1,179.999994506836,2|0,3:0|0:0,0:0:0:0:
479,154,51605,1,0,1:0:0:0:
479,154,51683,1,0,0:0:0:0:
479,154,51761,1,0,0:0:0:0:
482,306,51918,6,0,P|441:317|401:346,1,59.9999981689454,2|0,3:0|0:0,0:0:0:0:
288,258,52074,1,0,0:0:0:0:
394,128,52230,6,0,P|396:98|398:68,1,59.9999981689454,0|0,1:0|0:0,0:0:0:0:
142,92,52386,1,0,3:0:0:0:
186,106,52464,1,0,3:0:0:0:
214,145,52543,6,0,B|225:178|228:210|228:210|196:254|209:294,1,119.999996337891,6|0,3:2|0:0,0:0:0:0:
288,258,52777,1,0,0:0:0:0:
288,258,52855,1,0,1:0:0:0:
147,196,53011,1,0,0:0:0:0:
261,357,53168,6,0,B|301:345|326:364|326:364|350:385|411:376,1,119.999996337891,2|2,3:2|0:0,0:0:0:0:
375,296,53402,1,2,0:0:0:0:
375,296,53480,2,0,P|369:239|365:210,1,59.9999981689454,0|0,1:0|0:0,0:0:0:0:
458,321,53636,2,0,P|464:378|468:407,1,59.9999981689454,2|0,0:0|0:0,0:0:0:0:
288,258,53793,6,0,P|235:260|153:270,1,119.999996337891,2|0,3:2|0:0,0:0:0:0:
120,329,54027,1,0,0:0:0:0:
120,329,54105,1,0,1:0:0:0:
50,232,54261,1,0,0:0:0:0:
0,316,54418,2,0,P|10:351|18:384,1,59.9999981689454,2|0,3:2|0:0,0:0:0:0:
141,245,54574,1,2,0:0:0:0:
144,239,54652,1,2,0:0:0:0:
146,232,54730,2,0,P|156:197|164:164,1,59.9999981689454,2|0,1:2|0:0,0:0:0:0:
272,327,54886,2,0,P|282:362|290:395,1,59.9999981689454,2|0,0:0|0:0,0:0:0:0:
418,200,55043,6,0,B|422:172|464:136|464:136|443:109|440:76,1,119.999996337891,2|0,3:0|0:0,0:0:0:0:
366,120,55277,1,0,0:0:0:0:
366,120,55355,1,0,1:0:0:0:
508,62,55511,1,0,0:0:0:0:
382,19,55668,2,0,P|349:19|301:15,1,59.9999981689454,2|0,3:2|0:0,0:0:0:0:
181,78,55824,1,2,0:0:0:0:
188,78,55902,1,2,0:0:0:0:
196,79,55980,2,0,P|229:79|277:83,1,59.9999981689454,2|0,1:2|0:0,0:0:0:0:
344,199,56136,2,0,P|311:199|263:195,1,59.9999981689454,2|0,0:0|0:0,0:0:0:0:
77,110,56293,6,0,B|80:151|57:186|57:186|83:211|93:255,1,119.999996337891,2|0,3:2|0:0,0:0:0:0:
14,254,56527,1,0,0:0:0:0:
14,254,56605,1,0,1:0:0:0:
142,182,56761,1,0,0:0:0:0:
87,376,56918,2,0,P|80:346|72:317,1,59.9999981689454,2|0,3:2|0:0,0:0:0:0:
168,313,57074,1,2,0:0:0:0:
172,308,57152,1,2,0:0:0:0:
176,303,57230,2,0,P|182:273|190:244,1,59.9999981689454,2|0,1:2|0:0,0:0:0:0:
14,254,57386,2,0,P|7:224|-1:195,1,59.9999981689454,2|0,0:0|0:0,0:0:0:0:
233,160,57543,6,0,B|271:174|278:198|278:198|290:237|350:253,1,119.999996337891,2|0,3:0|0:0,0:0:0:0:
352,167,57777,1,0,0:0:0:0:
352,167,57855,1,0,1:0:0:0:
270,296,58011,1,0,0:0:0:0:
407,218,58168,2,0,P|429:175|423:145,1,59.9999981689454,2|0,3:2|0:0,0:0:0:0:
349,24,58324,1,2,0:0:0:0:
338,31,58402,1,2,0:0:0:0:
329,40,58480,2,0,P|355:80|384:90,1,59.9999981689454,2|0,1:2|0:0,0:0:0:0:
504,68,58636,2,0,P|455:70|432:90,1,59.9999981689454,2|0,0:0|0:0,0:0:0:0:
269,131,58793,6,0,B|243:135|197:130|197:130|179:151|144:190,1,119.999996337891,2|0,3:2|0:0,0:0:0:0:
122,101,59027,1,0,0:0:0:0:
122,101,59105,1,0,1:0:0:0:
227,210,59261,1,0,0:0:0:0:
79,248,59418,2,0,P|91:197|87:172,1,59.9999981689454,2|0,3:2|0:0,0:0:0:0:
176,279,59574,1,2,0:0:0:0:
179,290,59652,1,2,0:0:0:0:
182,303,59730,2,0,P|194:354|190:379,1,59.9999981689454,2|0,1:2|0:0,0:0:0:0:
330,183,59886,2,0,P|342:132|338:107,1,59.9999981689454,2|0,0:0|0:0,0:0:0:0:
503,352,60043,6,0,B|467:349|431:320|431:320|390:357|352:377,1,119.999996337891,2|0,3:0|0:0,0:0:0:0:
327,356,60277,1,0,0:0:0:0:
327,356,60355,1,0,1:0:0:0:
500,272,60511,1,0,0:0:0:0:
314,251,60668,2,0,P|281:243|232:237,1,59.9999981689454,2|0,3:2|0:0,0:0:0:0:
433,197,60824,1,2,0:0:0:0:
442,193,60902,1,2,0:0:0:0:
454,191,60980,2,0,P|487:183|536:177,1,59.9999981689454,2|0,1:2|0:0,0:0:0:0:
275,139,61136,2,0,P|242:131|193:125,1,59.9999981689454,2|0,0:0|0:0,0:0:0:0:
54,242,61293,6,0,P|83:217|80:123,1,119.999996337891,2|0,3:2|0:0,0:0:0:0:
20,172,61527,1,0,0:0:0:0:
20,172,61605,1,0,1:0:0:0:
140,72,61761,1,0,0:0:0:0:
165,231,61918,2,0,P|173:295|179:317,1,59.9999981689454,2|0,3:0|0:0,0:0:0:0:
224,174,62074,1,0,0:0:0:0:
224,174,62152,1,0,0:0:0:0:
224,174,62230,2,0,P|279:203|299:207,1,59.9999981689454,2|0,1:3|0:0,0:0:0:0:
236,86,62386,2,0,P|288:52|302:37,1,59.9999981689454
274,313,62543,6,0,B|314:286|345:286|345:286|355:321|412:331,1,119.999996337891,6|0,3:0|0:0,0:0:0:0:
416,261,62777,1,0,0:0:0:0:
416,261,62855,1,0,1:0:0:0:
330,374,63011,1,0,0:0:0:0:
487,300,63168,2,0,P|488:243|465:211,1,59.9999981689454,2|0,3:2|0:0,0:0:0:0:
328,137,63324,1,2,0:0:0:0:
331,146,63402,1,2,0:0:0:0:
336,156,63480,2,0,P|384:185|424:181,1,59.9999981689454,2|0,1:2|0:0,0:0:0:0:
512,106,63636,2,0,P|462:133|446:169,1,59.9999981689454,2|0,0:0|0:0,0:0:0:0:
258,223,63793,6,0,B|223:227|202:253|202:253|180:282|136:275,1,119.999996337891,2|0,3:2|0:0,0:0:0:0:
146,216,64027,1,0,0:0:0:0:
146,216,64105,1,0,1:0:0:0:
85,314,64261,1,0,0:0:0:0:
49,206,64418,2,0,P|46:169|38:131,1,59.9999981689454,2|0,3:2|0:0,0:0:0:0:
134,42,64574,1,2,0:0:0:0:
131,51,64652,1,2,0:0:0:0:
129,65,64730,2,0,P|126:102|118:140,1,59.9999981689454,2|0,1:2|0:0,0:0:0:0:
154,276,64886,2,0,P|151:239|143:201,1,59.9999981689454,2|0,0:0|0:0,0:0:0:0:
228,68,65043,6,0,B|257:53|282:36|282:36|301:74|339:92,1,119.999996337891,2|0,3:0|0:0,0:0:0:0:
351,11,65277,1,0,0:0:0:0:
351,11,65355,1,0,1:0:0:0:
268,130,65511,1,0,0:0:0:0:
409,57,65668,2,0,P|420:117|429:143,1,59.9999981689454,2|0,3:2|0:0,0:0:0:0:
340,187,65824,1,2,0:0:0:0:
335,197,65902,1,2,0:0:0:0:
330,205,65980,2,0,P|319:265|310:291,1,59.9999981689454,2|0,1:2|0:0,0:0:0:0:
479,200,66136,2,0,P|490:260|499:286,1,59.9999981689454,2|0,0:0|0:0,0:0:0:0:
324,342,66293,6,0,B|296:328|263:347|263:347|229:379|172:352,1,119.999996337891,2|0,3:2|0:0,0:0:0:0:
212,288,66527,1,0,0:0:0:0:
212,288,66605,2,0,P|214:248|211:193,1,59.9999981689454,0|0,1:0|0:0,0:0:0:0:
127,346,66761,1,0,0:0:0:0:
117,337,66839,1,0,0:0:0:0:
116,325,66918,1,2,3:2:0:0:
59,239,67074,1,0,0:0:0:0:
103,130,67230,5,2,1:2:0:0:
136,155,67308,1,2,0:0:0:0:
177,163,67386,1,2,0:0:0:0:
217,153,67464,1,2,0:0:0:0:
247,122,67543,6,0,P|251:84|256:46,1,59.9999981689454,6|0,3:0|0:0,0:0:0:0:
317,155,67699,2,0,P|321:117|326:79,1,59.9999981689454,0|0,3:0|0:0,0:0:0:0:
103,130,67855,6,0,P|99:92|94:54,1,59.9999981689454,0|0,1:0|0:0,0:0:0:0:
33,163,68011,2,0,P|29:125|24:87,1,59.9999981689454,0|0,1:0|0:0,0:0:0:0:
231,290,68168,6,0,P|227:328|222:366,1,59.9999981689454,2|0,3:2|0:0,0:0:0:0:
161,257,68324,2,0,P|157:295|152:333,1,59.9999981689454,0|0,3:0|0:0,0:0:0:0:
468,253,68480,6,0,P|464:215|459:177,1,59.9999981689454,0|0,1:0|0:0,0:0:0:0:
398,286,68636,2,0,P|394:248|389:210,1,59.9999981689454,0|0,1:0|0:0,0:0:0:0:
212,147,68793,6,0,P|150:165|116:172,1,59.9999981689454,6|0,3:0|0:0,0:0:0:0:
288,120,68949,2,0,P|316:127|345:136,1,59.9999981689454,0|0,3:0|0:0,0:0:0:0:
160,86,69105,6,0,P|97:70|64:59,1,59.9999981689454,0|0,1:0|0:0,0:0:0:0:
275,212,69261,2,0,P|321:256|344:282,1,59.9999981689454,0|0,1:0|0:0,0:0:0:0:
233,61,69418,6,0,P|214:0|207:-35,1,59.9999981689454,2|0,3:0|0:0,0:0:0:0:
196,233,69574,2,0,P|177:295|170:329,1,59.9999981689454,0|0,3:0|0:0,0:0:0:0:
309,47,69730,6,0,P|353:0|379:-22,1,59.9999981689454,0|0,1:0|0:0,0:0:0:0:
130,178,69886,6,0,P|85:224|59:247,1,59.9999981689454,0|0,1:0|0:0,0:0:0:0:
256,363,70043,5,6,3:0:0:0:
285,333,70121,1,0,3:0:0:0:
326,328,70199,1,0,3:0:0:0:
364,345,70277,1,0,3:0:0:0:
399,366,70355,1,2,3:0:0:0:
440,369,70433,1,0,3:0:0:0:
475,347,70511,1,0,3:0:0:0:
482,305,70589,1,0,3:0:0:0:
433,279,70668,5,6,1:3:0:0:
405,232,70746,1,0,1:0:0:0:
415,179,70824,1,0,1:0:0:0:
460,150,70902,1,0,1:0:0:0:
490,105,70980,1,2,1:3:0:0:
494,51,71058,1,0,1:0:0:0:
449,20,71136,1,0,1:0:0:0:
397,36,71214,1,0,1:0:0:0:
383,99,71293,6,0,B|341:98|313:123|313:123|283:84|219:81,1,150.000005722046,2|0,3:0|0:0,0:0:0:0:
255,198,71527,2,0,B|280:226|300:246|300:246|303:197|316:106,1,189.999994926453,2|0,3:0|0:0,0:0:0:0:
251,85,71761,6,0,B|200:96|182:135|182:135|153:193|89:191,1,189.999994926453,2|0,3:0|0:0,0:0:0:0:
54,94,71996,2,0,B|91:77|137:55|137:55|184:171,1,189.999994926453,2|0,3:0|0:0,0:0:0:0:
101,259,72230,6,0,B|79:228|73:205|73:205|109:194|109:176,1,94.9999974632264,2|0,3:0|0:0,0:0:0:0:
217,282,72386,2,0,B|230:300|233:314|233:314|212:321|212:331,2,47.4999987316132,0|0|0,3:0|3:0|3:0,0:0:0:0:
14,373,72543,6,0,P|15:287|0:144,1,225.000008583069,6|0,3:2|0:0,0:0:0:0:
54,94,72855,2,0,B|114:93|141:148|141:148|171:208|258:200,1,225.000008583069,2|0,3:2|0:0,0:0:0:0:
101,259,73168,2,0,P|80:193|66:147,1,75.0000028610231,2|0,3:2|0:0,0:0:0:0:
228,35,73324,2,0,B|239:50|259:63|259:63|244:85|229:129,1,75.0000028610231,2|0,3:2|0:0,0:0:0:0:
162,330,73636,6,0,P|259:305|445:298,1,225.000008583069,2|0,3:2|0:0,0:0:0:0:
458,164,73949,2,0,P|361:189|175:196,1,225.000008583069,2|0,3:2|0:0,0:0:0:0:
164,112,74261,2,0,P|206:99|227:151,1,75.0000028610231,2|0,3:2|0:0,0:0:0:0:
423,315,74418,6,0,B|438:355|484:379|484:379|476:300|493:185,1,225.000008583069,2|0,3:2|0:0,0:0:0:0:
458,164,74730,2,0,B|394:172|370:231|370:231|356:273|269:294,1,225.000008583069,2|0,3:2|0:0,0:0:0:0:
323,384,75043,2,0,P|358:360|323:339,1,75.0000028610231,2|0,3:2|0:0,0:0:0:0:
187,186,75199,2,0,B|191:160|208:148|208:148|221:165|257:179,1,75.0000028610231,2|0,3:2|0:0,0:0:0:0:
237,371,75511,6,0,P|232:321|205:129,1,225.000008583069,2|0,3:2|0:0,0:0:0:0:
131,369,75824,2,0,P|126:319|99:127,1,225.000008583069,2|0,3:2|0:0,0:0:0:0:
12,65,76136,1,2,3:2:0:0:
12,65,76214,1,0,3:2:0:0:
12,65,76293,6,0,B|59:59|99:114|99:114|140:173|232:158,1,225.000008583069,2|0,3:2|0:0,0:0:0:0:
277,113,76605,2,0,B|327:160|343:209|343:209|283:239|265:299,1,225.000008583069,2|0,3:2|0:0,0:0:0:0:
209,235,76918,2,0,P|203:176|205:126,1,75.0000028610231,2|0,3:2|0:0,0:0:0:0:
206,34,77074,2,0,B|192:29|176:21|176:21|169:53|162:89,1,75.0000028610231,2|0,3:2|0:0,0:0:0:0:
209,235,77386,6,0,P|337:218|464:215,1,225.000008583069,2|0,3:2|0:0,0:0:0:0:
433,318,77699,2,0,P|320:322|209:338,1,225.000008583069,2|0,3:2|0:0,0:0:0:0:
108,325,78011,2,0,P|122:288|169:295,1,75.0000028610231,2|0,3:2|0:0,0:0:0:0:
432,214,78168,6,0,B|394:181|384:118|384:118|433:77|442:4,1,225.000008583069,2|0,3:2|0:0,0:0:0:0:
330,41,78480,2,0,B|274:36|233:12|233:12|224:72|153:145,1,225.000008583069,2|0,3:2|0:0,0:0:0:0:
246,151,78793,2,0,P|306:163|352:184,1,75.0000028610231,2|0,3:2|0:0,0:0:0:0:
512,257,78949,2,0,B|492:257|479:272|479:272|466:289|436:288,1,75.0000028610231,2|0,3:2|0:0,0:0:0:0:
277,264,79209,5,2,1:2:0:0:
267,288,79313,5,2,1:2:0:0:
246,312,79418,5,2,1:2:0:0:
210,306,79522,5,2,3:2:0:0:
186,268,79626,5,2,3:2:0:0:
126,239,79730,5,2,1:2:0:0:
61,274,79834,5,2,3:2:0:0:
60,357,79938,5,2,3:2:0:0:
136,336,80043,6,0,P|139:257|148:218,1,75.0000028610231,6|0,1:2|0:0,0:0:0:0:
52,201,80199,1,0,3:2:0:0:
162,155,80355,2,0,B|203:159|221:201|221:201|246:245|298:238,1,150.000005722046,2|0,1:2|3:2,0:0:0:0:
287,314,80589,1,0,0:0:0:0:
287,314,80668,2,0,P|237:315|191:324,1,75.0000028610231,2|0,1:2|0:0,0:0:0:0:
290,168,80824,2,0,P|410:163|469:153,1,150.000005722046,2|0,3:2|1:2,0:0:0:0:
423,369,81136,6,0,P|416:320|438:279,1,75.0000028610231,2|0,3:2|0:0,0:0:0:0:
512,247,81293,1,0,1:2:0:0:
287,314,81449,2,0,P|294:265|272:224,1,75.0000028610231,2|0,3:2|0:0,0:0:0:0:
170,251,81606,1,0,1:2:0:0:
378,214,81761,1,2,3:2:0:0:
379,180,81839,1,0,3:2:0:0:
382,147,81918,6,0,P|382:100|391:58,1,75.0000028610231,6|0,1:2|0:0,0:0:0:0:
487,82,82074,1,0,3:2:0:0:
346,6,82230,2,0,B|314:33|307:68|307:68|256:42|181:68,1,150.000005722046,2|0,1:2|3:2,0:0:0:0:
227,143,82464,1,0,0:0:0:0:
227,143,82543,2,0,P|278:145|324:153,1,75.0000028610231,2|0,1:2|0:0,0:0:0:0:
512,223,82699,2,0,P|424:233|344:253,1,150.000005722046,2|0,3:2|1:2,0:0:0:0:
175,202,83011,6,0,P|146:135|163:89,1,75.0000028610231,2|0,3:2|0:0,0:0:0:0:
78,275,83168,1,0,1:2:0:0:
239,286,83324,2,0,P|282:227|330:219,1,75.0000028610231,2|0,3:2|0:0,0:0:0:0:
26,142,83481,1,0,1:2:0:0:
2,113,83558,1,0,0:0:0:0:
15,77,83636,1,2,1:2:0:0:
48,59,83714,1,0,1:2:0:0:
82,74,83793,5,6,3:2:0:0:
94,101,83871,1,0,3:2:0:0:
118,117,83949,1,0,3:2:0:0:
147,118,84027,1,0,3:2:0:0:
175,107,84105,1,2,3:2:0:0:
201,92,84183,1,0,3:2:0:0:
230,95,84261,1,0,3:2:0:0:
250,116,84339,1,0,3:2:0:0:
253,146,84418,1,2,3:2:0:0:
237,171,84496,1,0,3:2:0:0:
207,176,84574,1,2,3:2:0:0:
179,163,84652,1,0,3:2:0:0:
168,119,84730,5,4,1:2:0:0:
208,138,84808,1,0,1:2:0:0:
223,180,84886,1,2,1:2:0:0:
218,224,84964,1,0,1:2:0:0:
184,254,85043,1,0,1:2:0:0:
149,282,85121,1,0,1:2:0:0:
142,326,85199,1,2,1:2:0:0:
160,366,85277,1,0,1:2:0:0:
204,372,85355,1,0,1:2:0:0:
239,344,85433,1,0,1:2:0:0:
283,336,85511,1,2,1:2:0:0:
327,344,85589,1,0,1:2:0:0:
357,377,85668,6,0,B|302:390|271:336|271:336|289:296|321:217,1,225.000008583069,2|0,1:2|0:0,0:0:0:0:
447,217,85980,2,0,B|430:271|368:270|368:270|342:235|290:168,1,225.000008583069,2|0,1:2|0:0,0:0:0:0:
349,44,86293,2,0,B|387:85|356:138|356:138|312:143|228:155,1,225.000008583069,2|0,1:2|0:0,0:0:0:0:
45,179,86605,6,0,B|21:248|64:298|71:277|108:329|91:401,1,225.000008583069,2|0,1:2|0:0,0:0:0:0:
169,152,86918,2,0,B|193:221|150:271|143:250|106:302|123:374,1,225.000008583069,2|0,1:2|0:0,0:0:0:0:
0,173,87230,2,0,B|-24:242|19:292|26:271|63:323|46:395,1,225.000008583069,2|0,1:2|0:0,0:0:0:0:
289,384,87543,6,0,P|274:315|251:7,1,380,6|0,3:2|0:0,0:0:0:0:
16,0,93793,6,0,P|31:40|36:45,1,40,2|0,0:3|0:0,0:0:0:0:
0,104,94105,2,0,P|42:111|48:109,1,40,2|0,0:0|0:0,0:0:0:0:
106,68,94418,1,2,0:0:0:0:
48,200,94730,6,0,P|84:209|100:219,1,40,2|0,0:3|0:0,0:0:0:0:
110,142,95043,2,0,P|146:133|162:123,1,40,2|0,0:0|0:0,0:0:0:0:
173,211,95355,1,2,0:0:0:0:
230,129,95668,6,0,P|223:91|222:75,1,40,2|0,0:3|0:0,0:0:0:0:
299,158,95980,2,0,P|292:196|291:212,1,40,2|0,0:0|0:0,0:0:0:0:
353,101,96293,1,2,0:0:0:0:
353,101,96449,1,2,0:0:0:0:
381,178,96605,2,0,P|431:164|475:159,1,80,2|2,0:3|0:0,0:0:0:0:
299,158,97230,1,2,0:0:0:0:
351,260,97543,6,0,P|361:315|371:352,1,80,2|2,0:3|0:0,0:0:0:0:
290,364,98011,1,2,0:0:0:0:
276,358,98168,1,2,0:0:0:0:
266,346,98324,1,2,0:0:0:0:
267,272,98480,2,0,P|272:232|276:220,1,40,2|0,0:3|0:0,0:0:0:0:
191,298,98793,2,0,P|185:258|181:246,1,40,2|0,0:0|0:0,0:0:0:0:
140,354,99105,2,0,P|115:322|106:314,1,40,2|0,0:0|0:0,0:0:0:0:
15,251,99418,5,2,0:3:0:0:
108,168,99730,1,2,0:0:0:0:
19,83,100043,1,2,0:0:0:0:
28,93,100199,1,2,0:0:0:0:
43,100,100355,2,0,P|79:95|93:91,1,40,2|0,0:3|0:0,0:0:0:0:
143,138,100668,2,0,P|156:104|160:90,1,40,2|0,0:0|0:0,0:0:0:0:
235,74,100980,2,0,P|212:45|202:35,1,40,2|0,0:0|0:0,0:0:0:0:
200,198,101293,6,0,P|255:180|269:182,1,60,2|0,0:3|0:0,0:0:0:0:
255,180,101605,2,0,P|284:201|300:199,1,40,2|0,0:0|0:0,0:0:0:0:
341,148,101918,2,0,P|333:119|333:96,1,40,2|0,0:0|0:0,0:0:0:0:
391,230,102230,6,0,P|386:279|386:303,1,60,2|0,0:3|0:0,0:0:0:0:
385,289,102543,2,0,P|353:318|342:317,1,40,2|0,0:0|0:0,0:0:0:0:
291,279,102855,2,0,P|250:276|238:276,1,40,2|0,0:0|0:0,0:0:0:0:
176,335,103168,6,0,P|156:360|120:360,1,60,2|0,0:3|0:0,0:0:0:0:
129,363,103480,2,0,P|112:353|87:349,1,40,2|0,0:0|0:0,0:0:0:0:
50,264,103793,1,2,0:0:0:0:
76,288,103949,1,2,0:0:0:0:
110,284,104105,6,0,P|108:244|109:218,1,60,2|0,0:3|0:0,0:0:0:0:
108,224,104418,2,0,P|137:210|162:216,1,40,2|0,0:0|0:0,0:0:0:0:
199,159,104730,2,0,P|233:187|243:187,1,40,2|0,0:0|0:0,0:0:0:0:
298,262,105043,6,0,P|343:258|376:257,1,60,2|0,0:3|0:0,0:0:0:0:
357,257,105355,1,2,0:0:0:0:
399,198,105511,1,2,0:0:0:0:
348,100,105668,1,2,0:0:0:0:
363,74,105824,1,2,0:0:0:0:
395,76,105980,6,0,P|379:125|379:145,1,60,2|0,0:3|0:0,0:0:0:0:
379,134,106293,2,0,P|407:152|424:151,1,40,2|0,0:0|0:0,0:0:0:0:
495,146,106605,2,0,P|485:182|484:199,1,40,2|0,0:0|0:0,0:0:0:0:
436,257,106918,6,0,P|384:256|347:270,1,80,2|2,0:3|0:0,0:0:0:0:
291,326,107386,1,2,0:0:0:0:
211,298,107543,1,2,0:0:0:0:
240,209,107699,1,2,0:0:0:0:
156,362,107855,2,0,P|128:329|131:266,1,110,2|0,0:3|0:0,0:0:0:0:
71,231,108793,6,0,P|99:200|155:196,1,75.0000028610231,6|0,0:3|0:0,0:0:0:0:
126,122,109105,2,0,P|166:130|198:177,1,75.0000028610231,2|0,0:0|0:0,0:0:0:0:
224,216,109418,2,0,B|255:227|279:210|279:210|300:196|339:206,1,112.500004291535,2|0,0:0|0:0,0:0:0:0:
373,268,109730,6,0,P|402:223|396:183,1,75.0000028610231,2|0,0:3|0:0,0:0:0:0:
477,186,110043,2,0,P|452:138|414:123,1,75.0000028610231,2|0,0:0|0:0,0:0:0:0:
318,93,110355,2,0,P|328:169|333:231,1,112.500004291535,2|0,0:0|0:0,0:0:0:0:
281,264,110668,6,0,P|239:254|224:211,1,75.0000028610231,2|0,0:3|0:0,0:0:0:0:
145,250,110980,2,0,P|132:208|162:174,1,75.0000028610231,2|0,0:0|0:0,0:0:0:0:
247,157,111293,1,2,0:0:0:0:
179,109,111449,1,2,0:0:0:0:
264,83,111605,2,0,P|334:81|370:81,1,75.0000028610231,2|0,0:3|0:0,0:0:0:0:
179,109,111918,2,0,P|109:111|73:111,1,75.0000028610231,2|0,0:0|0:0,0:0:0:0:
247,157,112230,2,0,P|317:155|353:155,1,75.0000028610231,2|0,0:0|0:0,0:0:0:0:
374,352,112543,6,0,P|400:293|461:281,1,112.500004291535,2|0,0:3|0:0,0:0:0:0:
442,278,112855,1,2,0:0:0:0:
456,363,113011,1,2,0:0:0:0:
353,278,113168,2,0,P|294:291|263:294,1,75.0000028610231,2|2,0:0|0:0,0:0:0:0:
205,358,113480,6,0,P|141:344|80:348,1,112.500004291535,2|0,0:3|0:0,0:0:0:0:
17,356,113793,2,0,P|28:309|65:286,1,75.0000028610231,2|0,0:0|0:0,0:0:0:0:
195,279,114105,2,0,P|152:266|111:241,1,75.0000028610231,2|0,0:0|0:0,0:0:0:0:
11,155,114418,6,0,P|12:106|6:62,1,75.0000028610231,2|0,0:3|0:0,0:0:0:0:
90,187,114730,2,0,P|91:138|85:94,1,75.0000028610231,2|0,0:0|0:0,0:0:0:0:
175,47,115043,1,2,0:0:0:0:
94,30,115199,1,2,0:0:0:0:
183,123,115355,2,0,P|237:97|251:67,1,75.0000028610231,2|0,0:3|0:0,0:0:0:0:
345,22,115668,2,0,P|339:88|340:110,1,75.0000028610231,2|0,0:0|0:0,0:0:0:0:
237,192,115980,2,0,P|243:258|242:280,1,75.0000028610231,2|0,0:0|0:0,0:0:0:0:
8,359,116293,6,0,P|41:333|101:326,1,75.0000028610231,2|0,0:3|0:0,0:0:0:0:
80,240,116605,2,0,P|119:255|155:304,1,75.0000028610231,2|0,0:0|0:0,0:0:0:0:
191,384,116918,2,0,P|255:364|332:356,1,112.500004291535,2|0,0:0|0:0,0:0:0:0:
369,374,117230,6,0,P|367:329|333:295,1,75.0000028610231,2|0,0:3|0:0,0:0:0:0:
395,238,117543,2,0,P|355:217|308:229,1,75.0000028610231,2|0,0:0|0:0,0:0:0:0:
208,290,117855,2,0,B|218:247|234:224|234:224|208:184|212:158,1,112.500004291535,2|0,0:0|0:0,0:0:0:0:
147,162,118168,6,0,P|167:130|227:119,1,75.0000028610231,2|0,0:3|0:0,0:0:0:0:
194,43,118480,2,0,P|231:44|271:90,1,75.0000028610231,2|0,0:0|0:0,0:0:0:0:
318,212,118793,1,2,0:0:0:0:
273,134,118949,1,2,0:0:0:0:
378,137,119105,2,0,P|365:191|363:231,1,75.0000028610231,2|0,0:3|0:0,0:0:0:0:
213,258,119418,2,0,P|260:283|293:281,1,75.0000028610231,2|0,0:0|0:0,0:0:0:0:
436,319,119730,2,0,P|399:323|368:344,1,75.0000028610231,2|0,0:0|0:0,0:0:0:0:
135,247,120043,6,0,B|139:211|164:197|164:197|192:184|192:128,1,112.500004291535,2|0,0:3|0:0,0:0:0:0:
190,154,120355,1,2,0:0:0:0:
105,134,120511,1,2,0:0:0:0:
189,72,120668,2,0,P|244:67|279:58,1,75.0000028610231,2|2,0:0|0:0,0:0:0:0:
42,172,120980,2,0,P|30:117|105:57,1,150.000005722046,2|2,0:3|0:0,0:0:0:0:
61,257,121605,1,2,0:0:0:0:
293,168,121918,6,0,B|278:212|248:233|248:233|273:259|298:307,1,150.000005722046,2|2,0:3|0:0,0:0:0:0:
408,318,122386,1,2,0:0:0:0:
408,318,122543,1,2,0:0:0:0:
430,200,122699,1,2,0:0:0:0:
285,158,122855,2,0,P|210:173|93:176,1,192.499994125366,2|0,0:3|0:0,0:0:0:0:
95,177,123793,6,0,B|144:212|147:257|147:257|101:309|135:385,1,200,6|2,3:2|0:2,0:0:0:0:
264,259,124261,2,0,B|289:251|309:271|309:271|328:294|363:283,1,100,0|2,3:2|0:0,0:0:0:0:
303,375,124574,1,2,0:0:0:0:
222,336,124730,2,0,P|143:349|107:352,1,100,2|0,3:2|0:0,0:0:0:0:
293,168,125043,2,0,P|372:155|408:152,1,100,2|0,3:2|0:0,0:0:0:0:
143,197,125355,6,0,P|136:155|128:133,1,52.4999983978272,2|0,0:2|0:0,0:0:0:0:
123,49,125668,6,0,B|162:65|224:66|224:66|213:116|217:194,1,200,2|2,3:2|0:2,0:0:0:0:
230,282,126136,2,0,B|205:266|199:238|199:238|179:262|144:259,1,100,0|2,3:2|0:2,0:0:0:0:
133,145,126449,1,2,0:0:0:0:
32,143,126605,2,0,P|46:74|51:27,1,100,2|0,3:2|0:0,0:0:0:0:
57,237,126918,2,0,P|43:306|38:353,1,100,2|0,3:2|0:0,0:0:0:0:
200,279,127230,6,0,P|210:245|219:220,1,52.4999983978272,2|0,0:2|0:0,0:0:0:0:
294,202,127543,6,0,B|348:204|381:251|381:251|419:294|473:284,1,200,2|2,3:2|0:2,0:0:0:0:
322,127,128011,2,0,B|293:124|258:111|258:111|242:146|215:168,1,100,2|2,3:2|0:2,0:0:0:0:
228,328,128324,1,2,0:0:0:0:
299,301,128480,2,0,P|293:232|294:183,1,100,2|0,3:2|0:0,0:0:0:0:
113,118,128793,2,0,P|119:187|118:236,1,100,2|0,3:2|0:0,0:0:0:0:
169,365,129105,6,0,P|208:352|232:347,1,52.4999983978272,2|0,0:2|0:0,0:0:0:0:
299,301,129418,6,0,B|338:314|384:361|384:361|434:343|439:279,1,200,2|2,3:2|0:2,0:0:0:0:
367,231,129886,2,0,B|365:207|344:176|344:176|378:149|386:102,1,100,0|2,3:2|0:2,0:0:0:0:
496,66,130199,1,2,0:0:0:0:
492,138,130355,2,0,P|487:200|485:240,1,100,2|0,3:2|0:0,0:0:0:0:
254,200,130668,2,0,P|259:138|261:98,1,100,2|0,3:2|0:0,0:0:0:0:
392,56,130980,1,2,1:2:0:0:
286,2,131136,1,0,1:2:0:0:
156,166,131293,5,6,3:2:0:0:
188,243,131449,1,0,0:0:0:0:
212,109,131605,1,2,3:2:0:0:
75,141,131761,1,0,0:0:0:0:
89,258,131918,2,0,P|143:248|202:241,1,100,2|0,1:2|0:0,0:0:0:0:
376,295,132230,5,2,3:2:0:0:
363,204,132386,1,0,0:0:0:0:
303,330,132543,1,2,3:2:0:0:
448,299,132699,1,0,0:0:0:0:
284,243,132855,2,0,P|280:185|271:131,1,100,2|0,1:2|0:0,0:0:0:0:
108,67,133168,5,6,3:2:0:0:
203,102,133324,1,0,0:0:0:0:
168,14,133480,1,2,3:2:0:0:
111,152,133636,1,0,0:0:0:0:
273,73,133793,5,2,1:2:0:0:
108,67,133949,1,2,0:0:0:0:
216,202,134105,2,0,P|283:189|333:182,1,100,2|0,3:2|0:0,0:0:0:0:
108,67,134418,2,0,P|41:80|-9:87,1,100,2|0,3:2|0:0,0:0:0:0:
76,256,134730,2,0,P|89:323|96:373,1,100,2|0,1:2|0:0,0:0:0:0:
265,347,135043,5,6,1:2:0:0:
389,286,135199,1,0,3:2:0:0:
488,361,135355,1,2,1:2:0:0:
288,266,135511,1,0,3:2:0:0:
401,142,135668,1,2,1:2:0:0:
501,269,135824,1,0,3:2:0:0:
196,200,135980,5,6,1:2:0:0:
332,92,136136,1,2,3:2:0:0:
152,65,136293,1,0,1:2:0:0:
348,224,136449,1,2,3:2:0:0:
259,12,136605,1,0,1:2:0:0:
97,183,136761,1,2,3:2:0:0:
332,92,136918,5,2,3:2:0:0:
361,86,136996,1,0,3:2:0:0:
387,100,137074,1,0,3:2:0:0:
397,127,137152,1,0,3:2:0:0:
407,154,137230,1,0,3:2:0:0:
427,175,137308,1,0,3:2:0:0:
454,186,137386,1,2,3:2:0:0:
483,190,137464,1,0,3:2:0:0:
507,172,137543,2,0,P|512:132|514:105,1,50,2|0,3:2|0:0,0:0:0:0:
325,163,137699,2,0,P|334:196|334:208,2,25,2|0|0,3:2|3:2|3:2,0:0:0:0:
261,93,137855,6,0,B|207:99|179:142|179:142|144:188|82:182,1,194.999991073609,2|0,1:3|0:0,0:0:0:0:
262,66,138168,2,0,B|194:74|158:128|158:128|114:186|36:179,1,240,2|0,1:3|0:0,0:0:0:0:
61,68,138480,2,0,B|129:75|164:129|164:129|208:187|287:180,1,240,2|0,1:3|0:0,0:0:0:0:
295,293,138793,6,0,B|328:250|379:239|379:239|427:292|477:258,1,150.000005722046,6|0,3:2|0:0,0:0:0:0:
213,336,139027,1,0,0:0:0:0:
213,336,139105,2,0,B|159:328|124:290|124:290|146:222|91:195,1,150.000005722046,2|0,3:2|0:0,0:0:0:0:
346,364,139418,2,0,P|398:365|449:373,1,75.0000028610231,2|0,3:2|0:0,0:0:0:0:
217,250,139574,1,0,0:0:0:0:
395,131,139730,6,0,B|394:190|380:218|380:218|420:258|432:307,1,150.000005722046,2|0,3:2|0:0,0:0:0:0:
296,105,139964,1,0,0:0:0:0:
296,105,140043,2,0,B|245:74|228:48|228:48|173:63|125:49,1,150.000005722046,2|0,3:2|0:0,0:0:0:0:
437,57,140355,2,0,P|513:44|555:33,1,75.0000028610231,2|0,3:2|0:0,0:0:0:0:
308,189,140511,1,0,0:0:0:0:
167,55,140668,6,0,B|125:54|101:84|101:84|65:126|12:109,1,150.000005722046,2|0,3:2|0:0,0:0:0:0:
267,2,140902,1,0,0:0:0:0:
267,2,140980,2,0,B|287:38|325:44|325:44|379:54|391:109,1,150.000005722046,2|0,3:2|0:0,0:0:0:0:
147,273,141293,2,0,P|155:199|154:167,1,75.0000028610231,2|0,3:2|0:0,0:0:0:0:
232,129,141449,1,2,0:0:0:0:
11,159,141605,6,0,P|30:236|41:287,1,100,2|0,3:2|0:0,0:0:0:0:
319,115,141918,2,0,P|300:38|289:-13,1,100,2|0,3:2|0:0,0:0:0:0:
127,349,142230,2,0,P|176:338|225:325,1,100,2|0,3:2|0:0,0:0:0:0:
505,297,142543,6,0,B|460:291|404:274|404:274|429:210|422:154,1,225.000008583069,2|0,3:2|0:0,0:0:0:0:
494,214,142855,1,2,3:2:0:0:
330,187,143011,1,2,0:0:0:0:
496,122,143168,1,2,3:2:0:0:
405,274,143324,1,2,0:0:0:0:
367,90,143480,2,0,P|291:113|207:126,1,150.000005722046,2|0,3:2|0:0,0:0:0:0:
216,370,143793,2,0,P|292:347|376:334,1,150.000005722046,2|0,3:2|0:0,0:0:0:0:
105,113,144105,2,0,P|135:182|155:255,1,150.000005722046,2|0,3:2|0:0,0:0:0:0:
487,149,144418,6,0,B|402:145|377:206|391:188|347:222|256:197,1,225.000008583069,2|0,3:2|0:0,0:0:0:0:
295,118,144730,2,0,B|346:153|367:213|367:212|409:248|438:235,1,150.000005722046,2|0,3:2|0:0,0:0:0:0:
427,83,145043,1,2,3:2:0:0:
497,254,145199,1,2,0:0:0:0:
497,254,145277,1,0,3:0:0:0:
497,254,145355,5,2,3:2:0:0:
276,201,145511,1,0,3:0:0:0:
407,342,145668,1,2,3:2:0:0:
487,149,145824,1,0,0:0:0:0:
288,313,145980,2,0,P|197:304|120:306,1,150.000005722046,2|0,3:2|0:0,0:0:0:0:
52,276,146214,1,0,3:0:0:0:
52,276,146293,6,0,B|32:216|65:168|65:168|100:167|137:155,1,150.000005722046,6|0,3:2|0:0,0:0:0:0:
81,367,146527,1,0,0:0:0:0:
81,367,146605,2,0,B|122:319|181:324|181:324|199:354|228:380,1,150.000005722046,2|0,3:2|0:0,0:0:0:0:
199,166,146918,2,0,P|279:178|328:176,1,75.0000028610231,2|0,3:2|0:0,0:0:0:0:
299,283,147074,1,0,0:0:0:0:
453,186,147230,6,0,B|462:146|425:119|425:119|393:89|403:27,1,150.000005722046,2|0,3:2|0:0,0:0:0:0:
440,304,147464,1,0,0:0:0:0:
440,304,147543,2,0,B|409:276|367:294|367:294|325:307|277:267,1,150.000005722046,2|0,3:2|0:0,0:0:0:0:
329,12,147855,2,0,P|317:87|311:129,1,75.0000028610231,2|0,3:2|0:0,0:0:0:0:
453,186,148011,1,0,0:0:0:0:
202,251,148168,6,0,B|166:259|146:252|146:252|126:289|126:289|90:290|34:300,1,150.000005722046,2|0,3:2|0:0,0:0:0:0:
164,166,148402,1,0,0:0:0:0:
164,166,148480,2,0,B|143:135|142:114|142:114|101:108|101:108|87:75|58:26,1,150.000005722046,2|0,3:2|0:0,0:0:0:0:
298,282,148793,2,0,P|295:365|296:398,1,75.0000028610231,2|0,3:2|0:0,0:0:0:0:
451,347,148949,1,2,0:0:0:0:
329,200,149105,6,0,P|317:126|316:72,1,100,2|0,3:2|0:0,0:0:0:0:
142,274,149418,2,0,P|154:348|153:400,1,100,2|0,3:2|0:0,0:0:0:0:
211,103,149730,2,0,P|137:114|83:116,1,100,2|0,3:2|0:0,0:0:0:0:
423,125,150043,6,0,P|476:140|513:155,1,75.0000028610231,6|0,3:2|0:0,0:0:0:0:
368,216,150199,1,0,0:0:0:0:
396,48,150355,5,2,3:2:0:0:
464,211,150511,1,2,0:0:0:0:
485,34,150668,1,2,3:2:0:0:
319,121,150824,1,2,0:0:0:0:
436,294,150980,6,0,P|442:325|453:371,1,75.0000028610231,6|0,3:2|0:0,0:0:0:0:
330,274,151136,1,0,0:0:0:0:
213,334,151293,6,0,B|151:314|105:357|105:357|71:387|-16:370,1,225.000008583069,2|0,3:2|0:0,0:0:0:0:
32,296,151605,2,0,B|84:317|115:357|114:357|166:389|183:384,1,150.000005722046,2|0,3:2|0:0,0:0:0:0:
250,208,151918,6,0,P|250:152|250:114,1,75.0000028610231,6|0,3:2|0:0,0:0:0:0:
330,274,152074,1,0,0:0:0:0:
188,253,152230,1,0,3:0:0:0:
188,253,152308,2,0,B|156:213|132:188|132:188|153:141|184:93,1,150.000005722046,0|0,0:0|3:0,0:0:0:0:
160,40,152543,1,2,3:2:0:0:
183,58,152621,1,2,0:0:0:0:
212,63,152699,1,2,0:0:0:0:
241,59,152777,1,2,0:0:0:0:
266,43,152855,5,6,3:2:0:0:
188,253,153011,1,0,0:0:0:0:
392,151,153168,1,2,3:2:0:0:
93,115,153324,1,0,0:0:0:0:
335,360,153480,2,0,P|448:324|503:321,1,150.000005722046,2|0,3:2|0:0,0:0:0:0:
8,376,153793,6,0,B|-7:327|27:289|27:289|66:247|33:180,1,200,6|0,3:2|0:0,0:0:0:0:
113,340,154027,1,0,0:0:0:0:
113,340,154105,2,0,B|147:302|198:313|198:313|253:326|294:264,1,200,2|0,3:2|0:0,0:0:0:0:
215,236,154339,1,0,0:0:0:0:
215,236,154418,2,0,P|202:174|184:96,1,100,2|0,3:2|0:0,0:0:0:0:
37,189,154574,1,0,0:0:0:0:
195,35,154730,6,0,B|262:19|309:48|309:48|313:106|365:123,1,200,2|0,3:2|0:0,0:0:0:0:
427,39,154964,1,0,0:0:0:0:
427,39,155043,2,0,B|474:89|472:144|472:144|424:176|435:230,1,200,2|0,3:2|0:0,0:0:0:0:
351,215,155277,1,0,0:0:0:0:
351,215,155355,2,0,P|350:128|341:90,1,100,2|0,3:2|0:0,0:0:0:0:
506,8,155511,1,0,0:0:0:0:
199,194,155668,6,0,B|149:176|101:146|101:146|79:189|6:255,1,200,2|0,3:2|0:0,0:0:0:0:
15,109,155902,1,0,0:0:0:0:
15,109,155980,2,0,B|48:80|70:37|70:37|118:67|168:85,1,200,2|0,3:2|0:0,0:0:0:0:
255,28,156214,1,0,0:0:0:0:
255,28,156293,2,0,P|243:111|244:149,1,100,2|0,3:2|0:0,0:0:0:0:
45,217,156449,1,2,0:0:0:0:
328,192,156605,6,0,P|414:164|486:150,1,150.000005722046,2|0,3:2|0:0,0:0:0:0:
172,318,156918,2,0,P|86:346|14:360,1,150.000005722046,2|0,3:2|0:0,0:0:0:0:
461,384,157230,2,0,P|433:298|419:226,1,150.000005722046,2|0,3:2|0:0,0:0:0:0:
137,221,157543,6,0,B|113:258|58:304|58:304|79:359|182:418,1,225.000008583069,2|0,3:2|0:0,0:0:0:0:
172,318,157855,1,2,3:2:0:0:
57,208,158011,2,0,B|58:166|44:96|44:96|121:81|156:58,1,225.000008583069,2|0,0:0|0:0,0:0:0:0:
184,130,158324,1,2,0:0:0:0:
184,130,158402,1,2,0:0:0:0:
184,130,158480,2,0,P|194:222|203:291,1,150.000005722046,2|0,3:2|0:0,0:0:0:0:
512,155,158793,2,0,P|502:63|493:-6,1,150.000005722046,2|0,3:2|0:0,0:0:0:0:
321,351,159105,2,0,P|413:341|482:332,1,150.000005722046,2|0,3:2|0:0,0:0:0:0:
387,0,159418,6,0,B|333:-3|299:45|299:45|260:105|183:101,1,225.000008583069,2|0,3:2|0:0,0:0:0:0:
215,20,159730,1,0,3:2:0:0:
383,104,159886,2,0,B|385:163|404:248|404:248|361:238|271:231,1,225.000008583069,2|0,0:0|0:0,0:0:0:0:
229,225,160199,1,0,0:0:0:0:
229,225,160277,1,0,3:0:0:0:
229,225,160355,5,2,3:2:0:0:
483,153,160511,1,0,3:0:0:0:
270,157,160668,1,2,3:2:0:0:
357,362,160824,1,0,0:0:0:0:
483,153,160980,2,0,P|479:67|476:-17,1,150.000005722046,2|0,3:2|0:0,0:0:0:0:
229,225,161293,6,0,B|178:230|145:276|145:276|118:318|35:320,1,200,2|0,3:2|0:0,0:0:0:0:
342,179,161527,1,0,0:0:0:0:
342,179,161605,2,0,B|393:184|426:230|426:230|453:272|536:274,1,200,2|0,3:2|0:0,0:0:0:0:
357,362,161839,1,0,0:0:0:0:
357,362,161918,2,0,P|342:278|337:246,1,100,2|0,3:2|0:0,0:0:0:0:
254,113,162074,1,0,0:0:0:0:
174,344,162230,6,0,B|118:318|62:326|62:326|79:281|83:205,1,200,2|0,3:2|0:0,0:0:0:0:
20,171,162464,1,0,0:0:0:0:
20,171,162543,2,0,B|79:152|115:109|115:109|132:154|180:213,1,200,2|0,3:2|0:0,0:0:0:0:
205,265,162777,1,0,0:0:0:0:
205,265,162855,2,0,P|293:248|358:245,1,100,2|0,3:2|0:0,0:0:0:0:
445,329,163011,1,0,0:0:0:0:
404,105,163168,6,0,B|352:96|311:47|311:47|250:91|224:187,1,200,2|0,3:2|0:0,0:0:0:0:
362,199,163402,1,0,0:0:0:0:
362,199,163480,2,0,B|414:208|455:257|455:257|516:213|542:117,1,200,2|0,3:2|0:0,0:0:0:0:
506,113,163714,1,0,0:0:0:0:
506,113,163793,2,0,P|489:17|481:-37,1,100,2|0,3:2|0:0,0:0:0:0:
362,199,163949,2,0,P|379:295|387:349,1,100,2|0,0:0|0:0,0:0:0:0:
177,263,164105,5,2,3:2:0:0:
379,297,164261,1,0,0:0:0:0:
222,191,164418,5,2,3:2:0:0:
97,354,164574,1,0,0:0:0:0:
154,97,164730,5,2,3:2:0:0:
77,273,164886,2,0,P|159:263|221:264,1,100,0|0,0:0|3:0,0:0:0:0:
332,378,165043,5,2,1:2:0:0:
288,173,165199,1,0,3:2:0:0:
196,355,165355,1,2,1:2:0:0:
404,246,165511,1,2,3:2:0:0:
176,262,165668,1,2,1:2:0:0:
438,348,165824,1,2,3:2:0:0:
200,157,165980,5,2,1:2:0:0:
404,246,166136,1,0,3:2:0:0:
323,14,166293,1,2,1:2:0:0:
257,263,166449,1,0,3:2:0:0:
442,129,166605,1,2,1:2:0:0:
180,57,166761,1,0,3:2:0:0:
354,361,166918,5,2,3:2:0:0:
398,369,166996,1,0,3:2:0:0:
438,348,167074,1,0,3:2:0:0:
452,305,167152,1,0,3:2:0:0:
419,275,167230,1,0,3:2:0:0:
408,227,167308,1,0,3:2:0:0:
434,186,167386,1,2,3:2:0:0:
482,185,167464,1,0,3:2:0:0:
511,208,167543,6,0,P|512:272|515:340,1,75.0000028610231,2|0,3:2|0:0,0:0:0:0:
356,141,167699,1,2,3:2:0:0:
241,297,167855,6,0,P|140:315|-16:365,1,240,2|0,1:3|0:0,0:0:0:0:
237,264,168168,2,0,P|119:286|4:322,1,240,2|0,1:3|0:0,0:0:0:0:
232,235,168480,2,0,P|114:257|0:293,1,240,2|0,1:3|0:0,0:0:0:0:
301,241,168793,5,6,3:2:0:0:
408,256,168949,1,0,0:0:0:0:
407,360,169105,1,2,3:2:0:0:
379,240,169261,1,2,0:0:0:0:
497,132,169418,5,0,3:2:0:0:
491,301,169574,1,2,0:0:0:0:
383,131,169730,5,2,3:2:0:0:
291,206,169886,1,0,0:0:0:0:
196,161,170043,1,2,3:2:0:0:
357,115,170199,5,2,0:0:0:0:
249,98,170355,1,0,3:2:0:0:
204,6,170511,1,2,0:0:0:0:
365,92,170668,5,2,3:2:0:0:
381,209,170824,1,0,0:0:0:0:
395,338,170980,1,0,3:2:0:0:
387,73,171136,5,2,0:0:0:0:
288,161,171293,1,0,3:2:0:0:
190,240,171449,1,2,0:0:0:0:
414,83,171605,5,2,3:2:0:0:
389,276,171761,1,0,0:0:0:0:
190,240,171918,1,2,3:2:0:0:
435,106,172074,5,2,0:0:0:0:
296,263,172230,1,0,3:2:0:0:
132,132,172386,1,2,0:0:0:0:
132,132,172464,1,0,3:2:0:0:
132,132,172543,5,2,3:2:0:0:
81,279,172699,1,0,0:0:0:0:
206,351,172855,1,2,3:2:0:0:
154,138,173011,5,2,0:0:0:0:
213,266,173168,1,0,3:2:0:0:
346,247,173324,1,2,0:0:0:0:
178,130,173480,5,2,3:2:0:0:
203,252,173636,1,0,0:0:0:0:
123,363,173793,1,2,3:2:0:0:
199,132,173949,5,2,0:0:0:0:
72,204,174105,1,0,3:2:0:0:
33,341,174261,1,2,0:0:0:0:
71,78,174418,5,2,3:2:0:0:
164,35,174574,1,0,0:0:0:0:
235,98,174730,1,2,3:2:0:0:
80,65,174886,5,2,0:0:0:0:
134,180,175043,1,0,3:2:0:0:
262,200,175199,1,2,0:0:0:0:
262,200,175277,1,0,3:0:0:0:
262,200,175355,5,2,3:2:0:0:
283,334,175511,1,0,0:0:0:0:
409,298,175668,1,2,3:2:0:0:
346,228,175824,1,0,0:0:0:0:
439,194,175980,1,2,3:2:0:0:
423,301,176136,1,0,0:0:0:0:
376,113,176293,5,6,3:2:0:0:
267,188,176449,1,0,0:0:0:0:
157,114,176605,1,2,3:2:0:0:
393,117,176761,5,2,0:0:0:0:
260,96,176918,1,0,3:2:0:0:
187,215,177074,1,2,0:0:0:0:
415,121,177230,5,2,3:2:0:0:
437,221,177386,1,0,0:0:0:0:
460,321,177543,1,2,3:2:0:0:
441,125,177699,5,2,0:0:0:0:
355,228,177855,1,0,3:2:0:0:
268,331,178011,1,2,0:0:0:0:
465,135,178168,5,6,3:2:0:0:
284,157,178324,1,0,0:0:0:0:
189,25,178480,1,2,3:2:0:0:
487,144,178636,5,2,0:0:0:0:
319,59,178793,1,0,3:2:0:0:
181,186,178949,1,2,0:0:0:0:
507,160,179105,5,2,3:2:0:0:
274,176,179261,1,0,0:0:0:0:
101,53,179418,1,2,3:2:0:0:
511,187,179574,5,2,0:0:0:0:
308,37,179730,1,0,3:2:0:0:
100,173,179886,1,2,0:0:0:0:
100,173,179964,1,0,3:2:0:0:
100,173,180043,5,6,3:2:0:0:
295,143,180199,1,0,0:0:0:0:
86,276,180355,1,0,3:2:0:0:
203,68,180511,1,2,0:0:0:0:
186,314,180668,1,2,3:2:0:0:
107,76,180824,1,2,0:0:0:0:
331,306,180980,5,6,3:2:0:0:
86,276,181136,1,0,0:0:0:0:
375,182,181293,1,0,3:2:0:0:
186,314,181449,1,2,0:0:0:0:
293,120,181605,1,2,3:2:0:0:
385,380,181761,1,2,0:0:0:0:
402,91,181918,5,6,1:2:0:0:
88,171,182074,1,0,3:2:0:0:
442,254,182230,1,2,1:2:0:0:
171,41,182386,1,0,3:2:0:0:
229,314,182543,1,2,1:2:0:0:
295,7,182699,1,0,3:2:0:0:
241,198,182855,5,2,3:2:0:0:
241,198,182933,1,0,3:2:0:0:
241,198,183011,1,2,3:2:0:0:
437,106,183168,1,2,3:2:0:0:
331,289,183324,1,2,3:2:0:0:
331,289,183402,1,0,3:2:0:0:
331,289,183480,1,2,3:2:0:0:
320,120,183636,2,0,P|330:75|332:61,2,37.5000014305115,2|0|0,3:2|3:2|3:2,0:0:0:0:
398,185,183793,6,0,P|405:233|422:316,1,120,0|0,3:2|0:0,0:0:0:0:
331,289,184418,2,0,P|296:283|275:282,1,40,2|0,0:0|0:0,0:0:0:0:
219,261,184730,6,0,P|190:302|117:307,1,120,2|0,0:0|0:0,0:0:0:0:
42,289,185355,2,0,P|54:254|52:239,1,40,2|0,0:0|0:0,0:0:0:0:
86,181,185668,6,0,P|181:183|221:179,1,120,2|0,0:0|0:0,0:0:0:0:
284,193,186293,2,0,P|314:167|327:167,1,40,2|0,0:0|0:0,0:0:0:0:
369,232,186605,6,0,P|368:276|370:285,1,40,2|0,0:0|0:0,0:0:0:0:
296,293,186918,2,0,P|297:337|295:346,1,40,2|0,0:0|0:0,0:0:0:0:
372,351,187230,1,2,0:0:0:0:
380,350,187386,1,2,0:0:0:0:
389,349,187543,6,0,P|440:342|513:339,1,120,2|0,0:0|0:0,0:0:0:0:
500,268,188168,2,0,P|501:245|481:218,1,40,2|0,0:0|0:0,0:0:0:0:
439,164,188480,6,0,P|410:192|332:192,1,120,2|0,0:0|0:0,0:0:0:0:
267,153,189105,2,0,P|268:121|275:110,1,40,2|0,0:0|0:0,0:0:0:0:
282,30,189418,6,0,P|352:55|413:62,1,120,2|0,0:0|0:0,0:0:0:0:
497,73,190043,2,0,P|471:93|460:116,1,40,2|0,0:0|0:0,0:0:0:0:
384,139,190355,6,0,P|352:136|329:137,1,40,2|0,0:0|0:0,0:0:0:0:
342,211,190668,2,0,P|310:214|287:213,1,40,2|0,0:0|0:0,0:0:0:0:
228,172,190980,1,2,0:0:0:0:
217,171,191136,1,0,0:0:0:0:
210,175,191293,6,0,P|155:169|108:166,1,100,6|0,1:3|3:2,0:0:0:0:
335,149,191605,2,0,P|367:104|392:65,1,100,2|0,1:3|3:2,0:0:0:0:
317,256,191918,2,0,P|338:305|360:347,1,100,2|0,1:3|3:2,0:0:0:0:
196,160,192230,2,0,P|129:153|74:150,1,100,2|0,1:3|3:2,0:0:0:0:
363,145,192543,2,0,P|402:91|432:44,1,100,2|0,1:3|3:2,0:0:0:0:
312,279,192855,2,0,P|338:339|364:389,1,100,2|0,1:3|3:2,0:0:0:0:
41,256,193168,6,0,P|36:184|25:114,1,100,6|0,1:3|3:2,0:0:0:0:
196,160,193480,2,0,P|191:88|180:18,1,100,2|0,1:3|3:2,0:0:0:0:
358,119,193793,2,0,P|353:47|342:-23,1,100,2|0,1:3|3:2,0:0:0:0:
501,313,194105,2,0,P|506:241|517:171,1,100,2|0,1:3|3:2,0:0:0:0:
274,236,194418,2,0,P|279:164|290:94,1,100,2|0,1:3|3:2,0:0:0:0:
64,331,194730,2,0,P|69:259|80:189,1,100,2|0,1:3|3:2,0:0:0:0:
185,345,195043,5,6,3:0:0:0:
211,322,195121,1,0,3:0:0:0:
245,314,195199,1,0,3:0:0:0:
278,324,195277,1,0,3:0:0:0:
306,358,195355,5,2,3:0:0:0:
348,372,195433,1,0,3:0:0:0:
385,346,195511,1,0,3:0:0:0:
380,301,195589,1,0,3:0:0:0:
345,271,195668,5,2,3:0:0:0:
338,226,195746,1,0,3:0:0:0:
369,193,195824,1,0,3:0:0:0:
413,198,195902,1,0,3:0:0:0:
452,235,195980,5,2,1:3:0:0:
412,272,196058,1,0,1:0:0:0:
358,258,196136,1,0,1:0:0:0:
332,209,196214,1,0,1:0:0:0:
285,178,196293,1,2,1:3:0:0:
230,183,196371,1,0,1:0:0:0:
191,221,196449,1,0,1:0:0:0:
194,275,196527,1,0,1:0:0:0:
175,326,196605,1,2,1:3:0:0:
121,338,196683,1,0,1:0:0:0:
72,311,196761,2,0,P|75:288|76:272,2,25,0|0|0,3:0|3:0|3:0,0:0:0:0:
0,151,196918,6,0,B|35:147|64:186|64:186|91:227|142:225,1,150,2|0,1:3|0:0,0:0:0:0:
33,80,197230,2,0,B|68:76|97:115|97:115|124:156|175:154,1,150,2|0,1:3|0:0,0:0:0:0:
70,12,197543,2,0,B|105:8|134:47|134:47|161:88|212:86,1,150,2|0,1:3|0:0,0:0:0:0:
230,183,197855,6,0,P|242:271|254:397,1,194.999991073609,2|0,1:3|0:0,0:0:0:0:
340,374,198168,2,0,P|330:276|317:180,1,194.999991073609,2|0,1:3|0:0,0:0:0:0:
148,191,198480,2,0,P|161:287|170:384,1,194.999991073609,2|0,1:3|0:0,0:0:0:0:
220,102,198793,5,4,0:0:0:0:
256,192,198871,12,0,202543,0:0:0:0:
260,193,203793,5,2,0:0:0:0:
177,158,203949,1,2,0:0:0:0:
278,120,204105,1,2,0:0:0:0:
181,245,204261,1,2,0:0:0:0:
197,73,204418,1,2,0:0:0:0:
317,251,204574,1,2,0:0:0:0:
465,154,204730,1,2,0:2:0:0:
278,120,204886,1,0,0:0:0:0:
192,256,205043,6,0,B|147:255|109:314|109:314|74:370|-20:363,1,225.000008583069,6|0,3:2|0:0,0:0:0:0:
40,274,205355,2,0,P|44:237|46:192,1,75.0000028610231,0|0,1:2|0:0,0:0:0:0:
184,339,205511,1,0,0:0:0:0:
150,183,205668,1,2,3:2:0:0:
173,165,205746,1,2,0:2:0:0:
202,165,205824,1,2,0:2:0:0:
311,307,205980,5,2,1:2:0:0:
346,345,206058,1,2,0:2:0:0:
397,352,206136,1,2,0:2:0:0:
443,327,206214,1,2,0:2:0:0:
455,275,206293,1,0,3:2:0:0:
413,242,206371,6,0,P|359:247|242:258,1,150.000005722046,2|0,0:3|0:0,0:0:0:0:
415,170,206605,2,0,P|361:175|244:186,1,150.000005722046,2|0,1:3|0:0,0:0:0:0:
418,95,206839,2,0,P|364:100|247:111,1,150.000005722046,2|0,0:3|0:0,0:0:0:0:
422,21,207074,5,2,0:3:0:0:
415,170,207230,1,2,1:3:0:0:
268,108,207386,1,2,0:3:0:0:
186,234,207543,2,0,P|203:317|213:386,1,150.000005722046,2|0,3:2|0:0,0:0:0:0:
21,213,207855,6,0,B|29:132|79:106|79:106|119:147|196:146,1,225.000008583069,0|0,1:2|0:0,0:0:0:0:
105,211,208168,2,0,P|113:282|119:335,1,75.0000028610231,2|2,3:2|0:2,0:0:0:0:
159,68,208324,1,2,0:2:0:0:
186,234,208480,5,2,1:2:0:0:
228,218,208558,1,2,0:2:0:0:
271,238,208636,1,2,0:2:0:0:
280,284,208714,1,2,0:2:0:0:
251,317,208793,1,0,3:2:0:0:
204,309,208871,6,0,P|210:221|215:130,1,150.000005722046,2|0,0:3|0:0,0:0:0:0:
284,318,209105,2,0,P|290:230|295:139,1,150.000005722046,2|0,1:3|0:0,0:0:0:0:
361,328,209339,2,0,P|367:240|372:149,1,150.000005722046,2|0,0:3|0:0,0:0:0:0:
436,336,209574,5,2,0:3:0:0:
293,168,209730,1,2,1:3:0:0:
509,200,209886,1,2,0:3:0:0:
228,244,210043,6,0,B|162:237|129:288|129:288|95:338|7:317,1,225.000008583069,2|0,3:2|0:0,0:0:0:0:
59,237,210355,1,0,1:2:0:0:
88,213,210433,1,0,0:0:0:0:
93,175,210511,1,2,0:0:0:0:
77,140,210589,1,2,0:0:0:0:
23,142,210668,5,2,3:0:0:0:
59,179,210746,1,0,0:0:0:0:
111,173,210824,1,2,0:0:0:0:
148,136,210902,1,2,0:0:0:0:
197,119,210980,5,2,1:3:0:0:
249,117,211058,1,0,0:0:0:0:
285,154,211136,1,2,0:0:0:0:
275,205,211214,1,2,0:0:0:0:
224,222,211293,5,2,3:0:0:0:
199,175,211371,1,2,0:0:0:0:
217,125,211449,1,2,0:0:0:0:
260,96,211527,1,2,0:0:0:0:
307,118,211605,5,2,1:3:0:0:
358,124,211683,1,2,0:0:0:0:
406,104,211761,1,2,0:0:0:0:
433,59,211839,1,2,0:0:0:0:
385,35,211918,6,0,P|381:127|379:172,1,75.0000028610231,2|0,3:0|0:0,0:0:0:0:
509,213,212074,1,2,0:0:0:0:
509,213,212152,2,0,P|493:184|411:188,1,75.0000028610231,2|0,0:3|1:2,0:0:0:0:
307,265,212308,1,2,0:0:0:0:
307,265,212386,2,0,P|341:251|360:220,1,75.0000028610231,2|0,3:0|0:0,0:0:0:0:
260,96,212543,6,0,B|218:96|200:131|200:131|183:172|124:162,1,150.000005722046,2|0,3:0|0:0,0:0:0:0:
139,24,212777,2,0,B|159:60|199:58|199:58|243:52|264:107,1,150.000005722046,2|0,0:3|0:0,0:0:0:0:
116,136,213011,2,0,B|126:117|115:101|115:101|102:83|120:60,1,75.0000028610231,2|0,0:3|0:0,0:0:0:0:
260,197,213168,5,0,3:0:0:0:
113,238,213324,2,0,P|52:237|-4:239,1,75.0000028610231
239,350,213480,5,2,1:3:0:0:
116,136,213636,1,2,0:3:0:0:
89,360,213793,6,0,P|214:352|301:340,1,150.000005722046,2|0,3:3|0:0,0:0:0:0:
260,281,214027,2,0,P|385:273|472:261,1,150.000005722046,2|0,0:3|0:0,0:0:0:0:
435,358,214261,2,0,P|497:354|541:348,1,75.0000028610231,2|0,0:3|0:0,0:0:0:0:
411,120,214418,6,0,P|408:243|413:312,1,150.000005722046,2|0,3:3|0:0,0:0:0:0:
198,152,214652,2,0,P|201:29|196:-40,1,150.000005722046,2|0,0:3|0:0,0:0:0:0:
332,169,214886,2,0,P|333:242|330:284,1,75.0000028610231,2|0,0:3|0:0,0:0:0:0:
125,249,215043,6,0,B|79:253|61:286|61:286|40:327|-58:326,1,150.000005722046,6|0,3:0|0:0,0:0:0:0:
133,174,215277,2,0,B|179:178|197:211|197:211|218:252|316:251,1,150.000005722046,2|0,0:3|0:0,0:0:0:0:
153,351,215511,2,0,P|192:320|258:313,1,75.0000028610231,2|0,0:3|0:0,0:0:0:0:
259,166,215668,1,0,3:0:0:0:
278,347,215824,1,0,0:0:0:0:
394,219,215980,5,2,1:3:0:0:
133,174,216136,1,2,0:3:0:0:
347,87,216293,6,0,B|382:79|434:63|434:63|464:82|477:137,1,150.000005722046,2|0,3:0|0:0,0:0:0:0:
331,197,216527,2,0,B|366:189|418:173|418:173|448:192|461:247,1,150.000005722046,2|0,0:3|0:0,0:0:0:0:
356,298,216761,2,0,B|375:293|403:284|403:284|420:295|427:325,1,75.0000028610231,2|0,0:3|0:0,0:0:0:0:
230,155,216918,6,0,P|224:74|222:-13,1,150.000005722046,2|0,3:0|0:0,0:0:0:0:
117,206,217152,2,0,P|123:125|125:38,1,150.000005722046,2|0,0:3|0:0,0:0:0:0:
215,322,217386,2,0,P|211:273|210:221,1,75.0000028610231,2|0,0:3|0:0,0:0:0:0:
124,56,217543,6,0,B|179:49|179:49|212:73|252:84|252:85|252:85|336:76,1,179.999994506836,2|0,3:0|0:0,0:0:0:0:
501,172,217777,2,0,B|446:165|446:165|413:189|373:200|373:201|373:201|289:192,1,179.999994506836,2|0,0:3|0:0,0:0:0:0:
403,10,218011,2,0,B|399:37|399:37|411:54|417:74|417:74|417:74|413:116,1,89.9999972534181,2|0,0:3|0:0,0:0:0:0:
215,322,218168,6,0,B|160:296|116:294|116:294|148:253|150:171,1,200,2|0,3:0|0:0,0:0:0:0:
302,329,218402,2,0,B|297:268|276:229|276:229|328:236|400:197,1,200,2|0,0:3|0:0,0:0:0:0:
381,353,218636,2,0,B|409:333|422:312|422:312|433:339|472:363,1,100,2|0,0:3|0:0,0:0:0:0:
147,204,218793,6,0,P|47:218|-46:229,1,150.000005722046,2|0,3:0|0:0,0:0:0:0:
154,90,219027,1,0,0:0:0:0:
154,90,219105,2,0,P|75:76|-3:65,1,150.000005722046
271,31,219339,1,2,0:2:0:0:
302,73,219418,1,2,3:2:0:0:
350,94,219496,1,2,0:2:0:0:
402,89,219574,1,2,0:2:0:0:
439,52,219652,1,2,0:2:0:0:
425,1,219730,6,0,P|376:7|319:13,1,75.0000028610231,2|0,1:3|0:0,0:0:0:0:
154,90,219886,2,0,P|203:84|260:78,1,75.0000028610231
453,235,220043,5,6,3:3:0:0:
471,267,220121,1,2,0:0:0:0:
473,304,220199,1,2,0:0:0:0:
447,331,220277,1,2,0:0:0:0:
411,344,220355,1,2,1:0:0:0:
383,318,220433,1,0,0:0:0:0:
346,311,220511,1,0,0:0:0:0:
311,325,220589,1,0,0:0:0:0:
279,303,220668,5,0,3:0:0:0:
258,302,220746,1,0,0:0:0:0:
239,290,220824,1,2,0:0:0:0:
234,268,220902,1,2,0:0:0:0:
243,249,220980,1,2,1:0:0:0:
261,236,221058,1,2,0:0:0:0:
266,215,221136,1,2,0:0:0:0:
267,194,221214,1,2,0:0:0:0:
238,164,221293,5,6,3:3:0:0:
200,188,221371,1,0,0:0:0:0:
155,183,221449,1,0,0:0:0:0:
124,149,221527,1,0,0:0:0:0:
85,126,221605,1,0,1:0:0:0:
40,130,221683,1,0,0:0:0:0:
6,160,221761,1,2,0:0:0:0:
2,204,221839,1,2,0:0:0:0:
42,223,221918,6,0,P|121:194|160:189,1,75.0000028610231,2|0,3:3|0:0,0:0:0:0:
200,37,222074,1,2,0:0:0:0:
200,37,222152,2,0,P|179:88|190:120,1,75.0000028610231,2|0,0:3|1:0,0:0:0:0:
263,254,222308,1,2,0:0:0:0:
263,254,222386,2,0,P|229:210|196:203,1,75.0000028610231,2|0,0:3|0:0,0:0:0:0:
3,18,222543,5,6,1:3:0:0:
28,54,222621,1,0,0:0:0:0:
72,59,222699,1,0,3:0:0:0:
113,41,222777,1,2,0:3:0:0:
156,30,222855,1,0,1:0:0:0:
200,37,222933,1,0,0:0:0:0:
229,71,223011,1,2,3:3:0:0:
226,115,223089,1,0,0:0:0:0:
201,153,223168,5,2,1:3:0:0:
221,96,223246,1,0,0:0:0:0:
279,85,223324,1,0,3:0:0:0:
332,112,223402,1,2,0:3:0:0:
389,129,223480,1,0,1:0:0:0:
446,113,223558,1,0,0:0:0:0:
481,65,223636,1,2,3:3:0:0:
470,6,223714,1,0,0:0:0:0:
405,27,223793,5,6,1:3:0:0:
381,89,223871,1,0,0:0:0:0:
394,155,223949,1,0,3:0:0:0:
428,212,224027,1,2,0:3:0:0:
468,266,224105,1,0,1:0:0:0:
468,340,224183,1,0,0:0:0:0:
405,381,224261,2,0,P|349:373|271:367,1,75.0000028610231,2|0,3:3|0:0,0:0:0:0:
207,240,224418,5,2,1:3:0:0:
274,205,224496,1,0,1:0:0:0:
326,262,224574,1,0,0:0:0:0:
154,359,224730,1,0,1:0:0:0:
2,181,224886,1,2,1:3:0:0:
2,181,224964,1,0,1:0:0:0:
2,181,225043,6,0,B|62:169|99:210|99:210|141:260|218:236,1,225.000008583069,6|0,3:2|0:0,0:0:0:0:
184,98,225355,2,0,P|177:134|162:201,1,75.0000028610231,0|0,1:2|0:0,0:0:0:0:
29,277,225511,1,0,0:0:0:0:
89,116,225668,1,2,3:2:0:0:
108,89,225746,1,2,0:2:0:0:
110,54,225824,1,2,0:2:0:0:
264,144,225980,5,2,1:2:0:0:
290,170,226058,1,2,0:2:0:0:
327,168,226136,1,2,0:2:0:0:
357,146,226214,1,2,0:2:0:0:
394,149,226293,1,0,3:2:0:0:
422,172,226371,6,0,P|421:271|426:339,1,150.000005722046,2|0,0:3|0:0,0:0:0:0:
327,168,226605,2,0,P|326:267|331:335,1,150.000005722046,2|0,1:3|0:0,0:0:0:0:
233,160,226839,2,0,P|232:259|237:327,1,150.000005722046,2|0,0:3|0:0,0:0:0:0:
139,152,227074,5,2,0:3:0:0:
329,317,227230,1,2,1:3:0:0:
266,60,227386,1,2,0:3:0:0:
90,309,227543,6,0,B|39:282|1:283|1:283|21:228|35:138,1,225.000008583069,2|0,3:2|0:0,0:0:0:0:
102,223,227855,2,0,P|168:227|222:227,1,75.0000028610231,0|0,1:2|0:0,0:0:0:0:
164,362,228011,1,0,0:0:0:0:
252,265,228168,1,2,3:2:0:0:
269,235,228246,1,2,0:2:0:0:
259,204,228324,1,2,0:2:0:0:
135,121,228480,5,2,1:2:0:0:
166,141,228558,1,2,0:2:0:0:
203,139,228636,1,2,0:2:0:0:
233,117,228714,1,2,0:2:0:0:
267,102,228793,1,0,3:2:0:0:
303,112,228871,6,0,P|390:118|486:130,1,150.000005722046,2|0,0:3|0:0,0:0:0:0:
259,204,229105,2,0,P|346:210|442:222,1,150.000005722046,2|0,1:3|0:0,0:0:0:0:
215,299,229339,2,0,P|302:305|398:317,1,150.000005722046,2|0,0:3|0:0,0:0:0:0:
180,384,229574,5,2,0:3:0:0:
364,312,229730,1,2,1:3:0:0:
128,260,229886,1,2,0:3:0:0:
465,326,230043,6,0,B|461:256|395:217|395:217|451:167|441:71,1,225.000008583069,2|0,3:2|0:0,0:0:0:0:
432,69,230355,1,0,1:2:0:0:
413,55,230433,1,0,0:0:0:0:
390,58,230511,1,2,0:0:0:0:
375,75,230589,1,2,0:0:0:0:
359,101,230668,5,2,3:0:0:0:
333,116,230746,1,0,0:0:0:0:
303,109,230824,1,2,0:0:0:0:
283,85,230902,1,2,0:0:0:0:
238,79,230980,5,2,1:3:0:0:
214,117,231058,1,0,0:0:0:0:
222,161,231136,1,2,0:0:0:0:
256,189,231214,1,2,0:0:0:0:
306,173,231293,5,2,3:0:0:0:
254,162,231371,1,2,0:0:0:0:
211,192,231449,1,2,0:0:0:0:
203,243,231527,1,2,0:0:0:0:
160,273,231605,1,2,1:3:0:0:
107,271,231683,1,2,0:0:0:0:
67,236,231761,1,2,0:0:0:0:
54,185,231839,1,2,0:0:0:0:
85,142,231918,6,0,P|168:147|198:151,1,75.0000028610231,2|0,3:0|0:0,0:0:0:0:
228,311,232074,1,2,0:0:0:0:
228,311,232152,2,0,P|202:245|216:196,1,75.0000028610231,2|0,0:3|1:2,0:0:0:0:
300,105,232308,1,2,0:0:0:0:
300,105,232386,2,0,P|255:160|206:172,1,75.0000028610231,2|0,3:0|0:0,0:0:0:0:
359,362,232543,6,0,B|386:363|420:381|420:381|462:349|537:338,1,150.000005722046,2|0,3:0|0:0,0:0:0:0:
412,215,232777,2,0,B|397:237|364:258|364:258|371:310|343:381,1,150.000005722046,2|0,0:3|0:0,0:0:0:0:
496,300,233011,2,0,B|488:285|487:262|487:262|458:250|430:214,1,75.0000028610231,2|0,0:3|0:0,0:0:0:0:
273,377,233168,1,0,3:0:0:0:
261,236,233324,2,0,P|255:181|250:117,1,75.0000028610231
300,17,233480,1,2,1:3:0:0:
148,98,233636,1,2,0:3:0:0:
381,82,233793,6,0,B|422:82|496:67|496:67|495:110|522:173,1,200,2|0,3:3|0:0,0:0:0:0:
415,179,234027,2,0,B|435:214|485:271|485:271|447:291|406:346,1,200,2|0,0:3|0:0,0:0:0:0:
349,262,234261,2,0,B|336:283|322:326|322:326|300:312|259:307,1,100,2|0,0:3|0:0,0:0:0:0:
148,98,234418,6,0,B|210:95|232:141|232:141|261:193|330:181,1,200,2|0,3:3|0:0,0:0:0:0:
157,177,234652,2,0,B|128:232|77:228|77:228|18:227|-5:293,1,200,2|0,0:3|0:0,0:0:0:0:
73,148,234886,2,0,B|55:120|70:97|70:97|86:70|62:42,1,100,2|0,0:3|0:0,0:0:0:0:
200,283,235043,6,0,P|238:275|417:261,1,150.000005722046,6|0,3:0|0:0,0:0:0:0:
245,161,235277,2,0,P|283:169|462:183,1,150.000005722046,2|0,0:3|0:0,0:0:0:0:
408,325,235511,2,0,P|431:260|420:231,1,75.0000028610231,2|0,0:3|0:0,0:0:0:0:
373,104,235668,1,0,3:0:0:0:
500,202,235824,1,0,0:0:0:0:
245,161,235980,5,2,1:3:0:0:
433,40,236136,1,2,0:3:0:0:
182,80,236293,6,0,B|159:96|116:112|116:112|143:144|168:202,1,150.000005722046,2|0,3:0|0:0,0:0:0:0:
219,257,236527,2,0,B|242:241|285:225|285:225|258:193|233:135,1,150.000005722046,2|0,0:3|0:0,0:0:0:0:
142,254,236761,2,0,P|79:250|30:245,1,75.0000028610231,2|0,0:3|0:0,0:0:0:0:
259,71,236918,6,0,B|304:62|330:104|330:104|355:137|418:129,1,150.000005722046,2|0,3:0|0:0,0:0:0:0:
452,87,237152,2,0,B|482:121|458:164|458:164|442:203|481:253,1,150.000005722046,2|0,0:3|0:0,0:0:0:0:
371,212,237386,2,0,P|363:294|348:332,1,75.0000028610231,2|0,0:3|0:0,0:0:0:0:
142,254,237543,6,0,P|136:159|129:67,1,150.000005722046,2|0,3:0|0:0,0:0:0:0:
227,355,237777,2,0,P|233:260|240:168,1,150.000005722046,2|0,0:3|0:0,0:0:0:0:
104,338,238011,2,0,P|56:281|63:240,1,75.0000028610231,2|0,0:3|0:0,0:0:0:0:
259,71,238168,6,0,B|308:52|335:81|335:81|345:126|401:137,1,150.000005722046,2|0,3:0|0:0,0:0:0:0:
131,104,238402,2,0,B|82:123|55:94|55:94|45:49|-11:38,1,150.000005722046,2|0,0:3|0:0,0:0:0:0:
222,131,238636,2,0,P|234:194|241:231,1,75.0000028610231,2|0,0:3|0:0,0:0:0:0:
369,384,238793,5,2,3:0:0:0:
104,338,238949,1,0,0:0:0:0:
366,187,239105,1,2,1:3:0:0:
221,384,239261,1,0,0:0:0:0:
443,303,239418,2,0,P|458:243|473:193,1,75.0000028610231,2|0,3:0|0:0,0:0:0:0:
294,111,239574,2,0,P|255:122|190:139,1,75.0000028610231
104,338,239730,5,2,1:3:0:0:
16,115,239886,1,0,0:0:0:0:
117,207,240043,5,6,3:3:0:0:
135,230,240121,1,2,0:0:0:0:
163,237,240199,1,2,0:0:0:0:
192,233,240277,1,2,0:0:0:0:
218,219,240355,1,2,1:0:0:0:
247,217,240433,1,0,0:0:0:0:
272,232,240511,1,0,0:0:0:0:
286,258,240589,1,0,0:0:0:0:
274,286,240668,1,0,3:0:0:0:
247,299,240746,1,0,0:0:0:0:
217,294,240824,1,2,0:0:0:0:
194,274,240902,1,2,0:0:0:0:
180,231,240980,5,2,1:0:0:0:
203,192,241058,1,2,0:0:0:0:
199,147,241136,1,2,0:0:0:0:
167,115,241214,1,2,0:0:0:0:
121,120,241293,5,6,3:3:0:0:
81,99,241371,1,0,0:0:0:0:
66,56,241449,1,0,0:0:0:0:
83,14,241527,1,0,0:0:0:0:
127,17,241605,5,0,1:0:0:0:
162,45,241683,1,0,0:0:0:0:
206,49,241761,1,2,0:0:0:0:
248,34,241839,1,2,0:0:0:0:
292,24,241918,6,0,P|346:18|428:45,1,75.0000028610231,2|0,3:3|0:0,0:0:0:0:
390,195,242074,1,2,0:0:0:0:
390,195,242152,2,0,P|370:159|375:106,1,75.0000028610231,2|0,0:3|1:0,0:0:0:0:
512,10,242308,1,2,0:0:0:0:
512,10,242386,2,0,P|490:45|442:67,1,75.0000028610231,2|0,0:3|0:0,0:0:0:0:
306,225,242543,5,6,1:3:0:0:
264,206,242621,1,0,3:0:0:0:
219,213,242699,1,0,3:0:0:0:
190,247,242777,1,2,3:3:0:0:
145,255,242855,1,0,1:0:0:0:
106,231,242933,1,0,3:0:0:0:
90,188,243011,1,2,3:3:0:0:
100,144,243089,1,0,3:0:0:0:
148,108,243168,5,2,1:3:0:0:
197,142,243246,1,0,3:0:0:0:
256,142,243324,1,0,3:0:0:0:
306,105,243402,1,2,3:3:0:0:
364,87,243480,5,0,1:0:0:0:
438,87,243558,1,0,1:0:0:0:
473,152,243636,1,2,1:3:0:0:
443,220,243714,1,0,1:0:0:0:
377,233,243793,5,2,1:3:0:0:
377,233,244105,1,2,1:3:0:0:
377,233,244418,1,2,1:3:0:0:
377,233,244730,1,2,1:3:0:0:
222,153,245043,6,0,B|156:154|137:211|137:211|111:278|25:263,1,225.000008583069,6|0,3:2|0:0,0:0:0:0:
6,155,245355,2,0,P|46:190|85:183,1,75.0000028610231,0|0,1:2|0:0,0:0:0:0:
213,233,245511,1,0,0:0:0:0:
113,66,245668,1,2,3:2:0:0:
108,96,245746,1,2,0:2:0:0:
104,127,245824,1,2,0:2:0:0:
170,305,245980,5,2,1:2:0:0:
210,325,246058,1,2,0:2:0:0:
254,318,246136,1,2,0:2:0:0:
283,284,246214,1,2,0:2:0:0:
320,257,246293,1,0,3:2:0:0:
364,256,246371,6,0,P|437:266|517:274,1,150.000005722046,2|0,0:3|0:0,0:0:0:0:
364,181,246605,2,0,P|437:191|517:199,1,150.000005722046,2|0,1:3|0:0,0:0:0:0:
364,105,246839,2,0,P|437:115|517:123,1,150.000005722046,2|0,0:3|0:0,0:0:0:0:
364,29,247074,5,2,0:3:0:0:
512,198,247230,1,2,1:3:0:0:
499,18,247386,1,2,0:3:0:0:
280,185,247543,6,0,B|194:205|157:145|157:145|193:105|188:58,1,225.000008583069,2|0,3:2|0:0,0:0:0:0:
278,37,247855,2,0,P|267:94|261:142,1,75.0000028610231,0|0,1:2|0:0,0:0:0:0:
97,71,248011,1,0,0:0:0:0:
129,230,248168,1,2,3:2:0:0:
153,258,248246,1,2,0:2:0:0:
192,263,248324,1,2,0:2:0:0:
373,183,248480,5,2,1:2:0:0:
342,215,248558,1,2,0:2:0:0:
332,259,248636,1,2,0:2:0:0:
354,297,248714,1,2,0:2:0:0:
388,326,248793,1,0,3:2:0:0:
388,370,248871,6,0,P|292:374|214:382,1,150.000005722046,2|0,0:3|0:0,0:0:0:0:
261,289,249105,2,0,P|165:293|87:301,1,150.000005722046,2|0,1:3|0:0,0:0:0:0:
163,219,249339,2,0,P|67:223|-11:231,1,150.000005722046,2|0,0:3|0:0,0:0:0:0:
82,148,249574,5,2,0:3:0:0:
111,298,249730,1,2,1:3:0:0:
176,84,249886,1,2,0:3:0:0:
304,208,250043,6,0,B|359:203|389:265|389:265|410:321|495:325,1,225.000008583069,2|0,3:2|0:0,0:0:0:0:
476,227,250355,1,0,1:2:0:0:
447,203,250433,1,0,0:0:0:0:
442,165,250511,1,2,0:0:0:0:
458,130,250589,1,2,0:0:0:0:
512,132,250668,5,2,3:0:0:0:
476,169,250746,1,0,0:0:0:0:
424,163,250824,1,2,0:0:0:0:
387,126,250902,1,2,0:0:0:0:
338,109,250980,5,2,1:3:0:0:
286,107,251058,1,0,0:0:0:0:
250,144,251136,1,2,0:0:0:0:
260,195,251214,1,2,0:0:0:0:
311,212,251293,5,2,3:0:0:0:
336,165,251371,1,2,0:0:0:0:
318,115,251449,1,2,0:0:0:0:
275,86,251527,1,2,0:0:0:0:
228,108,251605,5,2,1:3:0:0:
177,114,251683,1,2,0:0:0:0:
129,94,251761,1,2,0:0:0:0:
102,49,251839,1,2,0:0:0:0:
150,25,251918,6,0,P|154:117|156:162,1,75.0000028610231,2|0,3:0|0:0,0:0:0:0:
26,203,252074,1,2,0:0:0:0:
26,203,252152,2,0,P|42:174|124:178,1,75.0000028610231,2|0,0:3|1:2,0:0:0:0:
228,255,252308,1,2,0:0:0:0:
228,255,252386,2,0,P|194:241|175:210,1,75.0000028610231,2|0,3:0|0:0,0:0:0:0:
353,43,252543,6,0,B|399:35|445:25|445:25|447:69|469:107,1,150.000005722046,2|0,3:0|0:0,0:0:0:0:
366,168,252777,2,0,B|336:132|304:97|304:97|341:73|363:35,1,150.000005722046,2|0,0:3|0:0,0:0:0:0:
452,129,253011,2,0,B|443:152|435:177|435:177|414:166|390:166,1,75.0000028610231,2|0,0:3|0:0,0:0:0:0:
227,108,253168,1,0,3:0:0:0:
324,261,253324,1,0,0:0:0:0:
353,43,253480,1,2,1:3:0:0:
228,255,253636,1,2,0:3:0:0:
161,39,253793,6,0,B|126:50|73:49|73:49|63:66|21:125,1,150.000005722046,2|0,3:3|0:0,0:0:0:0:
126,163,254027,2,0,B|118:198|90:244|90:244|100:261|130:327,1,150.000005722046,2|0,0:3|0:0,0:0:0:0:
228,255,254261,2,0,P|230:190|237:163,1,75.0000028610231,2|0,0:3|0:0,0:0:0:0:
353,43,254418,6,0,P|364:160|376:213,1,150.000005722046,2|0,3:3|0:0,0:0:0:0:
477,101,254652,2,0,P|464:174|459:249,1,150.000005722046,2|0,0:3|0:0,0:0:0:0:
376,299,254886,2,0,P|345:276|293:286,1,75.0000028610231,2|0,0:3|0:0,0:0:0:0:
5,94,255043,6,0,B|59:87|81:116|81:116|97:167|170:171,1,150.000005722046,6|0,3:0|0:0,0:0:0:0:
155,94,255277,2,0,B|209:101|231:72|231:72|247:21|320:17,1,150.000005722046,2|0,0:3|0:0,0:0:0:0:
307,98,255511,2,0,P|290:146|284:192,1,75.0000028610231,2|0,0:3|0:0,0:0:0:0:
138,244,255668,1,0,3:0:0:0:
155,94,255824,1,0,0:0:0:0:
291,258,255980,2,0,P|239:263|195:283,1,75.0000028610231,2|0,1:3|0:0,0:0:0:0:
29,203,256136,1,2,0:3:0:0:
292,353,256293,6,0,P|358:312|367:230,1,150.000005722046,2|0,3:0|0:0,0:0:0:0:
448,281,256527,2,0,P|445:203|378:154,1,150.000005722046,2|0,0:3|0:0,0:0:0:0:
307,98,256761,2,0,P|314:152|306:194,1,75.0000028610231,2|0,0:3|0:0,0:0:0:0:
181,253,256918,6,0,B|147:243|88:251|88:251|108:216|105:156,1,150.000005722046,2|0,3:0|0:0,0:0:0:0:
100,110,257152,2,0,B|134:120|193:112|193:112|173:147|176:165,1,150.000005722046,2|0,0:3|0:0,0:0:0:0:
14,237,257386,2,0,P|35:169|36:141,1,75.0000028610231,2|0,0:3|0:0,0:0:0:0:
307,98,257543,6,0,P|412:76|499:54,1,150.000005722046,2|0,3:0|0:0,0:0:0:0:
321,167,257777,2,0,P|426:189|513:211,1,150.000005722046,2|0,0:3|0:0,0:0:0:0:
491,276,258011,2,0,P|462:298|458:351,1,75.0000028610231,2|0,0:3|0:0,0:0:0:0:
239,384,258168,6,0,P|261:279|283:192,1,150.000005722046,2|0,3:0|0:0,0:0:0:0:
170,370,258402,2,0,P|148:265|126:178,1,150.000005722046,2|0,0:3|0:0,0:0:0:0:
0,273,258636,2,0,P|41:280|72:253,1,75.0000028610231,2|0,0:3|0:0,0:0:0:0:
243,131,258793,5,2,3:0:0:0:
0,131,258949,1,0,0:0:0:0:
271,237,259105,1,2,1:3:0:0:
171,13,259261,1,0,0:0:0:0:
137,223,259418,5,2,3:0:0:0:
276,9,259574,1,0,0:0:0:0:
6,0,259730,1,2,1:3:0:0:
243,131,259886,2,0,P|293:125|338:122,1,75.0000028610231
422,25,260043,5,6,3:3:0:0:
446,42,260121,1,2,0:0:0:0:
457,69,260199,1,2,0:0:0:0:
452,98,260277,1,2,0:0:0:0:
436,123,260355,1,2,1:0:0:0:
434,152,260433,1,0,0:0:0:0:
443,180,260511,1,0,0:0:0:0:
462,202,260589,1,0,0:0:0:0:
492,205,260668,1,0,3:0:0:0:
505,178,260746,1,0,0:0:0:0:
485,155,260824,1,2,0:0:0:0:
456,162,260902,1,2,0:0:0:0:
437,185,260980,5,2,1:0:0:0:
407,192,261058,1,2,0:0:0:0:
377,191,261136,1,2,0:0:0:0:
351,174,261214,1,2,0:0:0:0:
315,145,261293,5,6,3:3:0:0:
270,151,261371,1,0,0:0:0:0:
251,192,261449,1,0,0:0:0:0:
275,229,261527,1,0,0:0:0:0:
276,273,261605,1,0,1:0:0:0:
245,305,261683,1,0,0:0:0:0:
200,313,261761,1,2,0:0:0:0:
163,287,261839,1,2,0:0:0:0:
158,241,261918,6,0,P|241:229|272:226,1,75.0000028610231,2|0,3:3|0:0,0:0:0:0:
396,319,262074,1,2,0:0:0:0:
396,319,262152,2,0,P|371:285|366:240,1,75.0000028610231,2|0,0:3|1:0,0:0:0:0:
356,85,262308,1,2,0:0:0:0:
356,85,262386,2,0,P|339:123|302:150,1,75.0000028610231,2|0,0:3|0:0,0:0:0:0:
36,238,262543,6,0,P|30:183|20:124,1,75.0000028610231,6|0,1:3|0:0,0:0:0:0:
8,56,262699,2,0,B|70:40|104:90|104:90|152:146|223:109,1,225.000008583069,0|0,3:0|0:0,0:0:0:0:
211,0,263011,6,0,P|176:21|172:62,1,75.0000028610231,2|0,3:3|0:0,0:0:0:0:
127,208,263168,2,0,P|242:194|334:194,1,150.000005722046,2|0,1:3|3:0,0:0:0:0:
324,121,263402,1,2,0:3:0:0:
324,121,263480,6,0,P|366:160|406:157,1,75.0000028610231,0|0,1:0|0:0,0:0:0:0:
439,38,263636,1,2,3:3:0:0:
444,335,263793,2,0,P|401:259|306:261,1,150.000005722046,6|0,1:3|3:0,0:0:0:0:
284,293,264027,1,2,0:3:0:0:
284,293,264105,5,0,1:0:0:0:
465,224,264261,2,0,P|454:177|449:136,1,75.0000028610231,2|0,3:3|0:0,0:0:0:0:
320,29,264418,6,0,B|259:29|232:87|232:87|201:146|112:129,1,225.000008583069,2|2,1:3|3:3,0:0:0:0:
37,145,264730,1,0,1:0:0:0:
72,172,264808,1,2,1:3:0:0:
77,216,264886,1,2,1:3:0:0:
54,254,264964,1,0,1:0:0:0:
18,240,265043,6,0,B|71:230|90:239|90:239|122:307|122:307|157:319|241:286,1,225.000008583069,6|0,3:2|0:0,0:0:0:0:
175,211,265355,2,0,P|231:235|267:240,1,75.0000028610231,0|0,1:2|0:0,0:0:0:0:
234,383,265511,1,0,0:0:0:0:
326,253,265668,1,2,3:2:0:0:
320,216,265746,1,2,0:2:0:0:
313,178,265824,1,2,0:2:0:0:
90,76,265980,5,2,1:2:0:0:
123,106,266058,1,2,0:2:0:0:
167,106,266136,1,2,0:2:0:0:
205,82,266214,1,2,0:2:0:0:
244,60,266293,1,0,3:2:0:0:
288,68,266371,6,0,P|366:62|471:52,1,150.000005722046,2|0,0:3|0:0,0:0:0:0:
303,155,266605,2,0,P|381:149|486:139,1,150.000005722046,2|0,1:3|0:0,0:0:0:0:
321,249,266839,2,0,P|399:243|504:233,1,150.000005722046,2|0,0:3|0:0,0:0:0:0:
335,337,267074,5,2,0:3:0:0:
452,142,267230,1,2,1:3:0:0:
502,379,267386,1,2,0:3:0:0:
249,275,267543,6,0,B|183:270|154:320|154:320|126:371|41:363,1,225.000008583069,2|0,3:2|0:0,0:0:0:0:
16,266,267855,2,0,P|64:288|105:269,1,75.0000028610231,0|0,1:2|0:0,0:0:0:0:
229,356,268011,1,0,0:0:0:0:
144,229,268168,1,2,3:2:0:0:
137,193,268246,1,2,0:2:0:0:
132,157,268324,1,2,0:2:0:0:
253,13,268480,5,2,1:2:0:0:
220,43,268558,1,2,0:2:0:0:
219,87,268636,1,2,0:2:0:0:
246,122,268714,1,2,0:2:0:0:
254,166,268793,1,0,3:2:0:0:
234,206,268871,6,0,P|232:287|228:361,1,150.000005722046,2|0,0:3|0:0,0:0:0:0:
326,217,269105,2,0,P|324:298|320:372,1,150.000005722046,2|0,1:3|0:0,0:0:0:0:
419,221,269339,2,0,P|417:302|413:376,1,150.000005722046,2|0,0:3|0:0,0:0:0:0:
512,229,269574,5,2,0:3:0:0:
320,366,269730,1,2,1:3:0:0:
409,91,269886,1,2,0:3:0:0:
234,206,270043,6,0,B|213:180|163:144|163:144|214:103|224:24,1,225.000008583069,2|0,3:2|0:0,0:0:0:0:
289,80,270355,5,0,1:2:0:0:
306,104,270433,1,0,0:0:0:0:
335,110,270511,1,2,0:0:0:0:
364,103,270589,1,2,0:0:0:0:
409,91,270668,5,2,3:0:0:0:
450,107,270746,1,0,0:0:0:0:
466,148,270824,1,2,0:0:0:0:
448,189,270902,1,2,0:0:0:0:
405,203,270980,5,2,1:3:0:0:
378,239,271058,1,0,0:0:0:0:
383,283,271136,1,2,0:0:0:0:
414,314,271214,1,2,0:0:0:0:
466,306,271293,5,2,3:0:0:0:
419,282,271371,1,2,0:0:0:0:
366,287,271449,1,2,0:0:0:0:
332,326,271527,1,2,0:0:0:0:
293,361,271605,1,2,1:3:0:0:
240,363,271683,1,2,0:0:0:0:
197,331,271761,1,2,0:0:0:0:
185,279,271839,1,2,0:0:0:0:
212,233,271918,6,0,P|284:223|324:210,1,75.0000028610231,2|0,3:0|0:0,0:0:0:0:
116,120,272074,1,2,0:0:0:0:
116,120,272152,2,0,P|143:187|152:228,1,75.0000028610231,2|0,0:3|1:2,0:0:0:0:
296,126,272308,1,2,0:0:0:0:
296,126,272386,2,0,P|268:58|259:17,1,75.0000028610231,2|0,3:0|0:0,0:0:0:0:
37,220,272543,6,0,B|26:261|-3:291|-3:291|42:312|66:363,1,150.000005722046,2|0,3:0|0:0,0:0:0:0:
161,258,272777,2,0,B|130:227|119:187|119:187|78:216|22:211,1,150.000005722046,2|0,0:3|0:0,0:0:0:0:
94,335,273011,2,0,B|115:329|137:334|137:334|135:308|152:283,1,75.0000028610231,2|0,0:3|0:0,0:0:0:0:
204,179,273168,1,0,3:0:0:0:
49,119,273324,1,0,0:0:0:0:
94,335,273480,1,2,1:3:0:0:
171,85,273636,1,2,0:3:0:0:
310,348,273793,6,0,B|343:333|375:361|375:361|405:386|451:358,1,150.000005722046,2|0,3:3|0:0,0:0:0:0:
462,191,274027,2,0,B|428:205|396:177|396:177|366:152|320:180,1,150.000005722046,2|0,0:3|0:0,0:0:0:0:
276,269,274261,2,0,P|350:266|404:275,1,75.0000028610231,2|0,0:3|0:0,0:0:0:0:
440,111,274418,6,0,B|435:80|423:26|423:26|393:40|305:39,1,150.000005722046,2|0,3:3|0:0,0:0:0:0:
255,115,274652,2,0,B|225:103|172:87|172:87|170:120|125:195,1,150.000005722046,2|0,0:3|0:0,0:0:0:0:
154,268,274886,2,0,P|195:249|175:232,1,75.0000028610231,2|0,0:3|0:0,0:0:0:0:
17,95,275043,6,0,P|36:173|49:266,1,150.000005722046,6|0,3:0|0:0,0:0:0:0:
152,146,275277,2,0,P|133:224|120:317,1,150.000005722046,2|0,0:3|0:0,0:0:0:0:
2,369,275511,2,0,P|56:351|102:348,1,75.0000028610231,2|0,0:3|0:0,0:0:0:0:
231,360,275668,1,0,3:0:0:0:
225,209,275824,1,0,0:0:0:0:
149,366,275980,1,2,1:3:0:0:
316,282,276136,1,2,0:3:0:0:
232,89,276293,6,0,B|188:121|142:115|142:115|132:66|71:58,1,150.000005722046,2|0,3:0|0:0,0:0:0:0:
305,41,276527,2,0,B|349:73|395:67|395:67|405:18|466:10,1,150.000005722046,2|0,0:3|0:0,0:0:0:0:
311,131,276761,2,0,P|320:179|327:218,1,75.0000028610231,2|0,0:3|0:0,0:0:0:0:
504,345,276918,6,0,B|484:311|442:325|442:325|417:375|331:382,1,150.000005722046,2|0,3:0|0:0,0:0:0:0:
194,254,277152,2,0,B|214:220|256:234|256:234|281:284|367:291,1,150.000005722046,2|0,0:3|0:0,0:0:0:0:
468,225,277386,2,0,P|423:238|376:247,1,75.0000028610231,2|0,0:3|0:0,0:0:0:0:
114,369,277543,6,0,P|107:282|95:202,1,150.000005722046,2|0,3:0|0:0,0:0:0:0:
194,254,277777,2,0,P|201:167|213:87,1,150.000005722046,2|0,0:3|0:0,0:0:0:0:
21,105,278011,2,0,P|83:107|130:102,1,75.0000028610231,2|0,0:3|0:0,0:0:0:0:
382,20,278168,6,0,P|313:73|336:169,1,150.000005722046,2|0,3:0|0:0,0:0:0:0:
436,224,278402,2,0,P|505:171|482:75,1,150.000005722046,2|0,0:3|0:0,0:0:0:0:
396,140,278636,2,0,P|356:214|330:249,1,75.0000028610231,2|0,0:3|0:0,0:0:0:0:
226,363,278793,5,2,3:0:0:0:
479,328,278949,1,0,0:0:0:0:
182,248,279105,1,2,1:3:0:0:
356,384,279261,1,0,0:0:0:0:
396,140,279418,1,2,3:0:0:0:
226,363,279574,1,0,0:0:0:0:
233,88,279730,1,2,1:3:0:0:
182,248,279886,2,0,P|129:257|70:275,1,75.0000028610231
19,56,280043,5,6,1:3:0:0:
37,88,280121,1,0,0:0:0:0:
72,99,280199,1,0,3:0:0:0:
109,95,280277,1,0,0:0:0:0:
138,71,280355,1,0,1:0:0:0:
172,57,280433,1,0,0:0:0:0:
208,62,280511,1,0,3:0:0:0:
233,88,280589,1,0,0:0:0:0:
241,125,280668,6,0,P|234:201|231:233,1,75.0000028610231,2|0,1:3|0:0,0:0:0:0:
94,190,280824,1,0,3:0:0:0:
94,190,280902,2,0,P|128:168|179:190,1,75.0000028610231,2|0,0:3|1:0,0:0:0:0:
229,297,281058,1,0,0:0:0:0:
229,297,281136,2,0,P|193:277|187:223,1,75.0000028610231,2|0,3:3|0:0,0:0:0:0:
348,81,281293,5,2,1:3:0:0:
367,113,281371,1,0,0:0:0:0:
368,150,281449,1,0,3:0:0:0:
350,182,281527,1,2,0:3:0:0:
329,213,281605,1,0,1:0:0:0:
310,245,281683,1,0,0:0:0:0:
309,282,281761,1,2,3:3:0:0:
327,314,281839,1,0,0:0:0:0:
362,326,281918,6,0,P|441:320|481:318,1,75.0000028610231,2|0,1:3|0:0,0:0:0:0:
501,235,282074,1,0,3:0:0:0:
501,235,282152,2,0,P|422:241|382:243,1,75.0000028610231,2|0,0:3|1:0,0:0:0:0:
368,150,282308,1,0,0:0:0:0:
368,150,282386,2,0,P|447:144|487:142,1,75.0000028610231,2|0,3:3|0:0,0:0:0:0:
229,297,282543,5,2,3:0:0:0:
211,311,282621,1,0,3:0:0:0:
181,316,282699,1,0,3:0:0:0:
153,303,282777,1,2,3:0:0:0:
128,274,282855,1,0,3:0:0:0:
90,273,282933,1,0,3:0:0:0:
64,300,283011,1,2,3:0:0:0:
72,336,283089,1,0,3:0:0:0:
124,344,283168,1,2,1:3:0:0:
147,297,283246,1,0,1:3:0:0:
147,244,283324,1,0,1:3:0:0:
114,203,283402,1,2,1:3:0:0:
62,159,283480,5,0,1:3:0:0:
47,93,283558,1,0,1:3:0:0:
84,37,283636,1,2,1:3:0:0:
150,27,283714,1,0,1:3:0:0:
196,86,283793,6,0,P|297:106|356:122,1,150.000005722046,2|0,1:3|0:0,0:0:0:0:
430,72,284027,2,0,B|432:142|468:184|468:184|413:206|363:297,1,200,2|0,1:3|0:0,0:0:0:0:
311,252,284261,2,0,P|300:197|295:180,2,50,2|0|0,1:3|1:3|1:3,0:0:0:0:
446,326,284418,6,0,P|341:337|233:354,1,200,2|0,1:3|0:0,0:0:0:0:
160,383,284652,2,0,B|135:330|170:292|170:292|221:237|180:169,1,200,2|0,1:3|0:0,0:0:0:0:
108,222,284886,2,0,P|59:231|30:237,2,50,2|0|0,1:3|0:0|0:0,0:0:0:0:
168,96,285043,6,0,B|225:168|290:148|336:64|484:75|519:221|405:293|289:281|240:230|272:171|316:79|315:-6|315:-6|403:88|516:69,1,862.500032901765,2|0,3:3|0:0,0:0:0:0:
509,149,286918,6,0,P|491:206|483:252,1,104.999996795654,2|0,0:0|0:0,0:0:0:0:
422,307,287543,2,0,P|387:339|328:327,1,104.999996795654,2|0,0:0|0:0,0:0:0:0:
233,215,288793,2,0,P|198:183|139:195,1,104.999996795654,2|0,0:0|0:0,0:0:0:0:
442,232,290043,6,0,B|391:172|417:92|457:53|394:4|283:45|303:135|424:177|505:149,1,419.999987182618,2|0,0:0|0:0,0:0:0:0:
286,180,292543,6,0,B|197:143|174:335|7:341|-37:143|104:3|185:219|200:308|277:306,1,542.499983444214,2|0,0:0|0:0,0:0:0:0:
318,248,295043,5,2,3:2:0:0:
256,192,295121,12,0,302543,0:0:0:0:
