osu file format v14

[General]
AudioFilename: Yooh - salvation.mp3
AudioLeadIn: 0
PreviewTime: 203671
Countdown: 0
SampleSet: Soft
StackLeniency: 0.7
Mode: 3
LetterboxInBreaks: 0
SpecialStyle: 0
WidescreenStoryboard: 0

[Editor]
DistanceSpacing: 1
BeatDivisor: 4
GridSize: 4
TimelineZoom: 1.5

[Metadata]
Title:salvation
TitleUnicode:salvation
Artist:Yooh
ArtistUnicode:Yooh
Creator:[-Seiryuu-]
Version:
Source:
Tags:voltage ignition 2
BeatmapID:995043
BeatmapSetID:464754

[Difficulty]
HPDrainRate:8
CircleSize:4
OverallDifficulty:8.5
ApproachRate:5
SliderMultiplier:1.4
SliderTickRate:1

[Events]
//Background and Video events
0,0,"k.jpg",0,0
//Break Periods
//Storyboard Layer 0 (Background)
//Storyboard Layer 1 (Fail)
//Storyboard Layer 2 (Pass)
//Storyboard Layer 3 (Foreground)
//Storyboard Sound Samples

[TimingPoints]
2423,312.5,4,2,1,30,1,0
72421,312.5,3,2,1,30,1,0
87421,312.5,5,2,1,30,1,0
93671,312.5,3,2,1,30,1,0
138671,-100,3,2,1,30,0,1
168358,-100,3,2,1,30,0,0
198671,312.5,4,2,1,30,1,0
204921,312.5,4,2,1,30,1,1
304921,-100,4,2,1,30,0,0

[HitObjects]
64,192,2423,5,0,0:0:0:0:
448,192,2423,1,0,0:0:0:0:
320,192,2423,1,0,0:0:0:0:
192,192,2735,1,0,0:0:0:0:
448,192,2735,1,0,0:0:0:0:
64,192,3048,1,0,0:0:0:0:
320,192,3048,1,0,0:0:0:0:
192,192,3204,1,0,0:0:0:0:
320,192,3204,1,0,0:0:0:0:
448,192,3360,1,0,0:0:0:0:
192,192,3360,1,0,0:0:0:0:
320,192,3516,1,0,0:0:0:0:
64,192,3516,1,0,0:0:0:0:
64,192,3673,1,0,0:0:0:0:
448,192,3673,1,0,0:0:0:0:
192,192,3985,1,0,0:0:0:0:
448,192,3985,1,0,0:0:0:0:
320,192,4298,1,0,0:0:0:0:
64,192,4298,1,0,0:0:0:0:
320,192,4610,1,0,0:0:0:0:
192,192,4610,1,0,0:0:0:0:
64,192,4923,1,0,0:0:0:0:
448,192,4923,1,0,0:0:0:0:
192,192,5235,1,0,0:0:0:0:
448,192,5235,1,0,0:0:0:0:
64,192,5548,1,0,0:0:0:0:
320,192,5548,1,0,0:0:0:0:
192,192,5704,1,0,0:0:0:0:
320,192,5704,1,0,0:0:0:0:
448,192,5860,1,0,0:0:0:0:
192,192,5860,1,0,0:0:0:0:
64,192,6016,1,0,0:0:0:0:
448,192,6016,1,0,0:0:0:0:
320,192,6173,1,0,0:0:0:0:
448,192,6173,1,0,0:0:0:0:
192,192,6485,1,0,0:0:0:0:
448,192,6485,1,0,0:0:0:0:
192,192,6798,1,0,0:0:0:0:
320,192,6798,1,0,0:0:0:0:
64,192,7110,1,0,0:0:0:0:
320,192,7110,1,0,0:0:0:0:
192,192,7266,1,0,0:0:0:0:
320,192,7344,1,0,0:0:0:0:
64,192,7423,1,0,0:0:0:0:
448,192,7423,1,0,0:0:0:0:
192,192,7735,1,0,0:0:0:0:
448,192,7735,1,0,0:0:0:0:
448,192,8048,1,0,0:0:0:0:
64,192,8048,1,0,0:0:0:0:
320,192,8204,1,0,0:0:0:0:
64,192,8204,1,0,0:0:0:0:
320,192,8360,1,0,0:0:0:0:
448,192,8360,1,0,0:0:0:0:
64,192,8516,1,0,0:0:0:0:
192,192,8516,1,0,0:0:0:0:
64,192,8673,1,0,0:0:0:0:
448,192,8673,1,0,0:0:0:0:
320,192,8985,1,0,0:0:0:0:
448,192,8985,1,0,0:0:0:0:
64,192,9298,1,0,0:0:0:0:
448,192,9298,1,0,0:0:0:0:
192,192,9610,1,0,0:0:0:0:
64,192,9610,1,0,0:0:0:0:
320,192,9923,1,0,0:0:0:0:
448,192,9923,1,0,0:0:0:0:
64,192,9923,1,0,0:0:0:0:
192,192,10235,1,0,0:0:0:0:
448,192,10235,1,0,0:0:0:0:
64,192,10391,1,0,0:0:0:0:
192,192,10391,1,0,0:0:0:0:
320,192,10391,1,0,0:0:0:0:
448,192,10548,1,0,0:0:0:0:
320,192,10548,1,0,0:0:0:0:
64,192,10704,1,0,0:0:0:0:
448,192,10704,1,0,0:0:0:0:
320,192,10860,1,0,0:0:0:0:
64,192,10860,1,0,0:0:0:0:
448,192,10860,1,0,0:0:0:0:
192,192,11016,1,0,0:0:0:0:
320,192,11016,1,0,0:0:0:0:
448,192,11173,1,0,0:0:0:0:
64,192,11173,1,0,0:0:0:0:
448,192,11485,1,0,0:0:0:0:
192,192,11485,1,0,0:0:0:0:
64,192,11798,1,0,0:0:0:0:
448,192,11798,1,0,0:0:0:0:
320,192,11798,1,0,0:0:0:0:
320,192,12110,1,0,0:0:0:0:
192,192,12110,1,0,0:0:0:0:
192,192,12423,1,0,0:0:0:0:
64,192,12423,1,0,0:0:0:0:
448,192,12423,1,0,0:0:0:0:
64,192,12735,1,0,0:0:0:0:
320,192,12735,1,0,0:0:0:0:
448,192,13048,1,0,0:0:0:0:
192,192,13048,1,0,0:0:0:0:
64,192,13204,1,0,0:0:0:0:
448,192,13204,1,0,0:0:0:0:
320,192,13360,1,0,0:0:0:0:
64,192,13360,1,0,0:0:0:0:
192,192,13516,1,0,0:0:0:0:
320,192,13516,1,0,0:0:0:0:
448,192,13673,1,0,0:0:0:0:
64,192,13673,1,0,0:0:0:0:
192,192,13985,1,0,0:0:0:0:
448,192,13985,1,0,0:0:0:0:
320,192,14298,1,0,0:0:0:0:
192,192,14298,1,0,0:0:0:0:
320,192,14610,1,0,0:0:0:0:
64,192,14610,1,0,0:0:0:0:
448,192,14923,1,0,0:0:0:0:
192,192,14923,1,0,0:0:0:0:
320,192,14923,1,0,0:0:0:0:
64,192,15235,1,0,0:0:0:0:
320,192,15235,1,0,0:0:0:0:
320,192,15548,1,0,0:0:0:0:
448,192,15548,1,0,0:0:0:0:
64,192,15704,1,0,0:0:0:0:
320,192,15704,1,0,0:0:0:0:
64,192,15860,1,0,0:0:0:0:
192,192,15860,1,0,0:0:0:0:
448,192,16016,1,0,0:0:0:0:
192,192,16016,1,0,0:0:0:0:
448,192,16173,1,0,0:0:0:0:
64,192,16173,1,0,0:0:0:0:
320,192,16485,1,0,0:0:0:0:
64,192,16485,1,0,0:0:0:0:
192,192,16798,1,0,0:0:0:0:
320,192,16798,1,0,0:0:0:0:
192,192,17110,1,0,0:0:0:0:
448,192,17110,1,0,0:0:0:0:
192,192,17423,1,0,0:0:0:0:
64,192,17423,1,0,0:0:0:0:
320,192,17423,1,0,0:0:0:0:
64,192,17735,1,0,0:0:0:0:
448,192,17735,1,0,0:0:0:0:
192,192,18048,1,0,0:0:0:0:
448,192,18048,1,0,0:0:0:0:
448,192,18204,1,0,0:0:0:0:
64,192,18204,1,0,0:0:0:0:
320,192,18360,1,0,0:0:0:0:
64,192,18360,1,0,0:0:0:0:
192,192,18516,1,0,0:0:0:0:
64,192,18516,1,0,0:0:0:0:
192,192,18673,1,0,0:0:0:0:
448,192,18673,1,0,0:0:0:0:
64,192,18985,1,0,0:0:0:0:
320,192,18985,1,0,0:0:0:0:
448,192,19298,1,0,0:0:0:0:
64,192,19298,1,0,0:0:0:0:
192,192,19610,1,0,0:0:0:0:
320,192,19610,1,0,0:0:0:0:
320,192,19923,1,0,0:0:0:0:
448,192,19923,1,0,0:0:0:0:
64,192,19923,1,0,0:0:0:0:
192,192,20235,1,0,0:0:0:0:
448,192,20235,1,0,0:0:0:0:
64,192,20548,1,0,0:0:0:0:
448,192,20548,1,0,0:0:0:0:
192,192,20704,1,0,0:0:0:0:
448,192,20704,1,0,0:0:0:0:
320,192,20860,1,0,0:0:0:0:
64,192,20860,1,0,0:0:0:0:
448,192,21016,1,0,0:0:0:0:
192,192,21016,1,0,0:0:0:0:
64,192,21173,1,0,0:0:0:0:
448,192,21173,1,0,0:0:0:0:
192,192,21485,1,0,0:0:0:0:
448,192,21485,1,0,0:0:0:0:
320,192,21798,1,0,0:0:0:0:
192,192,21798,1,0,0:0:0:0:
320,192,22110,1,0,0:0:0:0:
64,192,22110,1,0,0:0:0:0:
64,192,22423,1,0,0:0:0:0:
448,192,22423,1,2,0:0:0:0:
320,192,22423,1,0,0:0:0:0:
192,192,22735,1,0,0:0:0:0:
64,192,22735,1,0,0:0:0:0:
448,192,22735,1,2,0:0:0:0:
320,192,23048,1,0,0:0:0:0:
448,192,23048,1,2,0:0:0:0:
192,192,23048,1,0,0:0:0:0:
64,192,23204,1,0,0:0:0:0:
320,192,23204,1,0,0:0:0:0:
192,192,23360,1,0,0:0:0:0:
64,192,23360,1,0,0:0:0:0:
448,192,23360,1,2,0:0:0:0:
448,192,23516,1,0,0:0:0:0:
320,192,23516,1,0,0:0:0:0:
192,192,23673,1,0,0:0:0:0:
64,192,23673,1,0,0:0:0:0:
448,192,23673,1,2,0:0:0:0:
320,192,23829,1,0,0:0:0:0:
320,192,23985,1,0,0:0:0:0:
448,192,23985,1,2,0:0:0:0:
64,192,23985,1,0,0:0:0:0:
192,192,24141,1,0,0:0:0:0:
320,192,24219,1,0,0:0:0:0:
64,192,24298,1,0,0:0:0:0:
448,192,24298,1,2,0:0:0:0:
192,192,24298,1,0,0:0:0:0:
320,192,24454,1,0,0:0:0:0:
320,192,24610,1,0,0:0:0:0:
448,192,24610,1,2,0:0:0:0:
64,192,24610,1,0,0:0:0:0:
192,192,24766,1,0,0:0:0:0:
320,192,24844,1,0,0:0:0:0:
192,192,24923,1,0,0:0:0:0:
64,192,24923,1,0,0:0:0:0:
448,192,24923,1,2,0:0:0:0:
320,192,25079,1,0,0:0:0:0:
320,192,25235,1,0,0:0:0:0:
448,192,25235,1,2,0:0:0:0:
64,192,25235,1,0,0:0:0:0:
192,192,25391,1,0,0:0:0:0:
448,192,25469,1,0,0:0:0:0:
320,192,25548,1,2,0:0:0:0:
192,192,25548,1,0,0:0:0:0:
64,192,25548,1,0,0:0:0:0:
448,192,25704,1,0,0:0:0:0:
320,192,25704,1,0,0:0:0:0:
192,192,25860,1,0,0:0:0:0:
64,192,25860,1,0,0:0:0:0:
448,192,25860,1,2,0:0:0:0:
320,192,26016,1,0,0:0:0:0:
192,192,26016,1,0,0:0:0:0:
64,192,26094,1,0,0:0:0:0:
192,192,26173,1,0,0:0:0:0:
320,192,26173,1,0,0:0:0:0:
448,192,26173,1,2,0:0:0:0:
320,192,26329,1,0,0:0:0:0:
448,192,26485,1,2,0:0:0:0:
64,192,26485,1,0,0:0:0:0:
192,192,26485,1,0,0:0:0:0:
320,192,26641,1,0,0:0:0:0:
192,192,26719,1,0,0:0:0:0:
320,192,26798,1,0,0:0:0:0:
448,192,26798,1,2,0:0:0:0:
64,192,26798,1,0,0:0:0:0:
192,192,26954,1,0,0:0:0:0:
320,192,27110,1,0,0:0:0:0:
448,192,27110,1,2,0:0:0:0:
64,192,27110,1,0,0:0:0:0:
320,192,27266,1,0,0:0:0:0:
448,192,27266,1,2,0:0:0:0:
64,192,27266,1,0,0:0:0:0:
192,192,27423,1,0,0:0:0:0:
64,192,27423,1,0,0:0:0:0:
448,192,27423,1,2,0:0:0:0:
320,192,27423,1,4,0:0:0:0:
192,192,27579,1,0,0:0:0:0:
320,192,27579,1,2,0:0:0:0:
448,192,27579,1,0,0:0:0:0:
64,192,27735,1,0,0:0:0:0:
192,192,27735,1,0,0:0:0:0:
320,192,27735,1,2,0:0:0:0:
320,192,27891,1,2,0:0:0:0:
448,192,27891,1,0,0:0:0:0:
64,192,27891,1,0,0:0:0:0:
192,192,28048,1,0,0:0:0:0:
64,192,28048,1,0,0:0:0:0:
448,192,28048,1,2,0:0:0:0:
192,192,28204,1,0,0:0:0:0:
320,192,28204,1,2,0:0:0:0:
448,192,28204,1,0,0:0:0:0:
64,192,28360,1,0,0:0:0:0:
192,192,28360,1,0,0:0:0:0:
320,192,28360,1,2,0:0:0:0:
320,192,28516,1,0,0:0:0:0:
448,192,28516,1,2,0:0:0:0:
64,192,28516,1,0,0:0:0:0:
64,192,28673,1,0,0:0:0:0:
192,192,28673,1,0,0:0:0:0:
320,192,28673,1,2,0:0:0:0:
448,192,28673,1,4,0:0:0:0:
192,192,28829,1,0,0:0:0:0:
64,192,28829,1,0,0:0:0:0:
448,192,28829,1,2,0:0:0:0:
192,192,28985,1,0,0:0:0:0:
320,192,28985,1,2,0:0:0:0:
448,192,28985,1,0,0:0:0:0:
64,192,29141,1,0,0:0:0:0:
192,192,29141,1,0,0:0:0:0:
320,192,29141,1,2,0:0:0:0:
320,192,29298,1,2,0:0:0:0:
448,192,29298,1,0,0:0:0:0:
64,192,29298,1,0,0:0:0:0:
192,192,29454,1,0,0:0:0:0:
64,192,29454,1,0,0:0:0:0:
448,192,29454,1,2,0:0:0:0:
192,192,29610,1,0,0:0:0:0:
320,192,29610,1,0,0:0:0:0:
448,192,29610,1,2,0:0:0:0:
64,192,29766,1,0,0:0:0:0:
192,192,29766,1,0,0:0:0:0:
320,192,29766,1,2,0:0:0:0:
448,192,29923,1,2,0:0:0:0:
320,192,29923,1,4,0:0:0:0:
64,192,29923,1,0,0:0:0:0:
192,192,30001,1,2,0:0:0:0:
320,192,30079,1,0,0:0:0:0:
448,192,30079,1,2,0:0:0:0:
192,192,30157,1,2,0:0:0:0:
64,192,30157,1,0,0:0:0:0:
320,192,30235,1,0,0:0:0:0:
448,192,30235,1,2,0:0:0:0:
192,192,30313,1,2,0:0:0:0:
64,192,30313,1,0,0:0:0:0:
448,192,30391,1,2,0:0:0:0:
320,192,30391,1,0,0:0:0:0:
64,192,30469,1,2,0:0:0:0:
448,192,30548,1,4,0:0:0:0:
320,192,30548,1,2,0:0:0:0:
192,192,30548,1,0,0:0:0:0:
64,192,30626,1,2,0:0:0:0:
320,192,30704,1,0,0:0:0:0:
448,192,30704,1,2,0:0:0:0:
192,192,30782,1,2,0:0:0:0:
64,192,30782,1,0,0:0:0:0:
320,192,30860,1,0,0:0:0:0:
448,192,30860,1,2,0:0:0:0:
192,192,30938,1,2,0:0:0:0:
64,192,30938,1,0,0:0:0:0:
320,192,31016,1,0,0:0:0:0:
448,192,31016,1,2,0:0:0:0:
192,192,31094,1,2,0:0:0:0:
64,192,31173,1,0,0:0:0:0:
448,192,31173,1,2,0:0:0:0:
320,192,31173,1,4,0:0:0:0:
64,192,31329,1,0,0:0:0:0:
448,192,31329,1,2,0:0:0:0:
320,192,31329,1,4,0:0:0:0:
64,192,31485,1,0,0:0:0:0:
448,192,31485,1,2,0:0:0:0:
192,192,31485,1,4,0:0:0:0:
64,192,31798,1,0,0:0:0:0:
320,192,31798,1,4,0:0:0:0:
192,192,31798,1,2,0:0:0:0:
64,192,32110,1,0,0:0:0:0:
448,192,32110,1,0,0:0:0:0:
192,192,32188,1,0,0:0:0:0:
320,192,32266,1,0,0:0:0:0:
192,192,32344,1,0,0:0:0:0:
64,192,32423,1,0,0:0:0:0:
320,192,32423,1,2,0:0:0:0:
448,192,32423,1,4,0:0:0:0:
192,192,32501,1,0,0:0:0:0:
320,192,32579,1,0,0:0:0:0:
448,192,32657,1,0,0:0:0:0:
192,192,32735,1,8,0:0:0:0:
64,192,32735,1,0,0:0:0:0:
320,192,32813,1,0,0:0:0:0:
448,192,32891,1,0,0:0:0:0:
64,192,32969,1,0,0:0:0:0:
192,192,33048,1,2,0:0:0:0:
320,192,33048,1,0,0:0:0:0:
448,192,33048,1,0,0:0:0:0:
64,192,33126,1,0,0:0:0:0:
320,192,33204,1,0,0:0:0:0:
448,192,33282,1,0,0:0:0:0:
320,192,33360,1,0,0:0:0:0:
192,192,33360,1,8,0:0:0:0:
64,192,33438,1,0,0:0:0:0:
192,192,33516,1,0,0:0:0:0:
320,192,33594,1,0,0:0:0:0:
192,192,33673,1,2,0:0:0:0:
64,192,33673,1,0,0:0:0:0:
448,192,33673,1,0,0:0:0:0:
320,192,33751,1,0,0:0:0:0:
64,192,33829,1,0,0:0:0:0:
448,192,33907,1,0,0:0:0:0:
320,192,33985,1,0,0:0:0:0:
192,192,33985,1,8,0:0:0:0:
64,192,34063,1,0,0:0:0:0:
192,192,34141,1,0,0:0:0:0:
448,192,34219,1,0,0:0:0:0:
320,192,34298,1,2,0:0:0:0:
192,192,34298,1,0,0:0:0:0:
64,192,34298,1,0,0:0:0:0:
448,192,34376,1,0,0:0:0:0:
64,192,34454,1,0,0:0:0:0:
320,192,34532,1,0,0:0:0:0:
448,192,34610,1,8,0:0:0:0:
192,192,34610,1,0,0:0:0:0:
64,192,34688,1,0,0:0:0:0:
320,192,34766,1,0,0:0:0:0:
192,192,34844,1,0,0:0:0:0:
320,192,34923,1,2,0:0:0:0:
448,192,34923,1,0,0:0:0:0:
64,192,34923,1,0,0:0:0:0:
192,192,35001,1,0,0:0:0:0:
448,192,35079,1,0,0:0:0:0:
64,192,35157,1,0,0:0:0:0:
320,192,35235,1,8,0:0:0:0:
192,192,35235,1,0,0:0:0:0:
448,192,35313,1,0,0:0:0:0:
320,192,35391,1,0,0:0:0:0:
192,192,35469,1,0,0:0:0:0:
64,192,35548,1,0,0:0:0:0:
320,192,35548,1,0,0:0:0:0:
448,192,35548,1,2,0:0:0:0:
192,192,35626,1,0,0:0:0:0:
448,192,35704,1,0,0:0:0:0:
64,192,35782,1,0,0:0:0:0:
320,192,35860,1,8,0:0:0:0:
192,192,35860,1,0,0:0:0:0:
448,192,35938,1,0,0:0:0:0:
192,192,36016,1,0,0:0:0:0:
320,192,36094,1,0,0:0:0:0:
192,192,36173,1,0,0:0:0:0:
448,192,36173,1,0,0:0:0:0:
64,192,36173,1,2,0:0:0:0:
320,192,36251,1,0,0:0:0:0:
192,192,36329,1,0,0:0:0:0:
64,192,36407,1,0,0:0:0:0:
448,192,36485,1,0,0:0:0:0:
320,192,36485,1,8,0:0:0:0:
192,192,36563,1,0,0:0:0:0:
64,192,36641,1,0,0:0:0:0:
448,192,36719,1,0,0:0:0:0:
320,192,36798,1,2,0:0:0:0:
192,192,36798,1,0,0:0:0:0:
64,192,36798,1,0,0:0:0:0:
448,192,36876,1,0,0:0:0:0:
192,192,36954,1,0,0:0:0:0:
64,192,37032,1,0,0:0:0:0:
192,192,37110,1,8,0:0:0:0:
448,192,37110,1,0,0:0:0:0:
320,192,37188,1,0,0:0:0:0:
64,192,37266,1,0,0:0:0:0:
320,192,37344,1,0,0:0:0:0:
192,192,37423,1,2,0:0:0:0:
64,192,37423,1,0,0:0:0:0:
448,192,37423,1,0,0:0:0:0:
320,192,37501,1,0,0:0:0:0:
192,192,37579,1,0,0:0:0:0:
320,192,37657,1,0,0:0:0:0:
64,192,37735,1,8,0:0:0:0:
448,192,37735,1,0,0:0:0:0:
192,192,37813,1,0,0:0:0:0:
320,192,37891,1,0,0:0:0:0:
192,192,37969,1,0,0:0:0:0:
320,192,38048,1,0,0:0:0:0:
448,192,38048,1,2,0:0:0:0:
64,192,38048,1,0,0:0:0:0:
192,192,38126,1,0,0:0:0:0:
448,192,38204,1,0,0:0:0:0:
320,192,38282,1,0,0:0:0:0:
192,192,38360,1,8,0:0:0:0:
64,192,38360,1,0,0:0:0:0:
320,192,38438,1,0,0:0:0:0:
448,192,38516,1,0,0:0:0:0:
64,192,38594,1,0,0:0:0:0:
192,192,38673,1,0,0:0:0:0:
320,192,38673,1,2,0:0:0:0:
448,192,38673,1,0,0:0:0:0:
64,192,38751,1,0,0:0:0:0:
320,192,38829,1,0,0:0:0:0:
192,192,38907,1,0,0:0:0:0:
320,192,38985,1,8,0:0:0:0:
64,192,38985,1,0,0:0:0:0:
448,192,39063,1,0,0:0:0:0:
192,192,39141,1,0,0:0:0:0:
320,192,39219,1,0,0:0:0:0:
192,192,39298,1,0,0:0:0:0:
64,192,39298,1,2,0:0:0:0:
448,192,39298,1,0,0:0:0:0:
320,192,39376,1,0,0:0:0:0:
192,192,39454,1,0,0:0:0:0:
320,192,39532,1,0,0:0:0:0:
64,192,39610,1,0,0:0:0:0:
448,192,39610,1,8,0:0:0:0:
320,192,39688,1,0,0:0:0:0:
192,192,39766,1,0,0:0:0:0:
448,192,39844,1,0,0:0:0:0:
320,192,39923,1,0,0:0:0:0:
192,192,39923,1,2,0:0:0:0:
64,192,39923,1,0,0:0:0:0:
448,192,40001,1,0,0:0:0:0:
64,192,40079,1,0,0:0:0:0:
320,192,40157,1,0,0:0:0:0:
192,192,40235,1,8,0:0:0:0:
448,192,40235,1,0,0:0:0:0:
64,192,40313,1,0,0:0:0:0:
320,192,40391,1,0,0:0:0:0:
192,192,40469,1,0,0:0:0:0:
64,192,40548,1,0,0:0:0:0:
320,192,40548,1,2,0:0:0:0:
448,192,40548,1,0,0:0:0:0:
192,192,40626,1,0,0:0:0:0:
448,192,40704,1,0,0:0:0:0:
320,192,40782,1,0,0:0:0:0:
192,192,40860,1,8,0:0:0:0:
64,192,40860,1,0,0:0:0:0:
320,192,40938,1,0,0:0:0:0:
448,192,41016,1,0,0:0:0:0:
64,192,41094,1,0,0:0:0:0:
192,192,41173,1,0,0:0:0:0:
320,192,41173,1,2,0:0:0:0:
448,192,41173,1,0,0:0:0:0:
64,192,41251,1,0,0:0:0:0:
320,192,41329,1,0,0:0:0:0:
192,192,41407,1,0,0:0:0:0:
448,192,41485,1,8,0:0:0:0:
64,192,41485,1,0,0:0:0:0:
320,192,41563,1,0,0:0:0:0:
192,192,41641,1,0,0:0:0:0:
320,192,41719,1,0,0:0:0:0:
448,192,41798,1,0,0:0:0:0:
192,192,41798,1,2,0:0:0:0:
64,192,41798,1,0,0:0:0:0:
320,192,41876,1,0,0:0:0:0:
448,192,41954,1,0,0:0:0:0:
192,192,42032,1,0,0:0:0:0:
320,192,42110,1,8,0:0:0:0:
64,192,42110,1,0,0:0:0:0:
448,192,42110,1,0,0:0:0:0:
192,192,42188,1,0,0:0:0:0:
64,192,42266,1,0,0:0:0:0:
448,192,42266,1,8,0:0:0:0:
320,192,42344,1,0,0:0:0:0:
192,192,42423,1,2,0:0:0:0:
64,192,42423,1,4,0:0:0:0:
448,192,42423,1,0,0:0:0:0:
320,192,42501,1,0,0:0:0:0:
192,192,42579,1,0,0:0:0:0:
320,192,42657,1,0,0:0:0:0:
448,192,42735,1,0,0:0:0:0:
64,192,42735,1,8,0:0:0:0:
192,192,42813,1,0,0:0:0:0:
320,192,42891,1,0,0:0:0:0:
192,192,42969,1,0,0:0:0:0:
320,192,43048,1,2,0:0:0:0:
448,192,43048,1,0,0:0:0:0:
64,192,43048,1,0,0:0:0:0:
192,192,43126,1,0,0:0:0:0:
320,192,43204,1,0,0:0:0:0:
192,192,43282,1,0,0:0:0:0:
64,192,43360,1,0,0:0:0:0:
448,192,43360,1,8,0:0:0:0:
320,192,43438,1,0,0:0:0:0:
192,192,43516,1,0,0:0:0:0:
448,192,43594,1,0,0:0:0:0:
320,192,43673,1,2,0:0:0:0:
192,192,43673,1,0,0:0:0:0:
64,192,43673,1,0,0:0:0:0:
448,192,43751,1,0,0:0:0:0:
64,192,43829,1,0,0:0:0:0:
320,192,43907,1,0,0:0:0:0:
448,192,43985,1,0,0:0:0:0:
192,192,43985,1,8,0:0:0:0:
64,192,44063,1,0,0:0:0:0:
320,192,44141,1,0,0:0:0:0:
192,192,44219,1,0,0:0:0:0:
320,192,44298,1,2,0:0:0:0:
448,192,44298,1,0,0:0:0:0:
64,192,44298,1,0,0:0:0:0:
192,192,44376,1,0,0:0:0:0:
320,192,44454,1,0,0:0:0:0:
192,192,44532,1,0,0:0:0:0:
64,192,44610,1,0,0:0:0:0:
320,192,44610,1,8,0:0:0:0:
448,192,44688,1,0,0:0:0:0:
192,192,44766,1,0,0:0:0:0:
320,192,44844,1,0,0:0:0:0:
448,192,44923,1,0,0:0:0:0:
192,192,44923,1,0,0:0:0:0:
64,192,44923,1,2,0:0:0:0:
320,192,45001,1,0,0:0:0:0:
192,192,45079,1,0,0:0:0:0:
320,192,45157,1,0,0:0:0:0:
448,192,45235,1,8,0:0:0:0:
64,192,45235,1,0,0:0:0:0:
192,192,45313,1,0,0:0:0:0:
320,192,45391,1,0,0:0:0:0:
64,192,45469,1,0,0:0:0:0:
448,192,45548,1,0,0:0:0:0:
192,192,45548,1,2,0:0:0:0:
320,192,45548,1,0,0:0:0:0:
64,192,45626,1,0,0:0:0:0:
320,192,45704,1,0,0:0:0:0:
192,192,45782,1,0,0:0:0:0:
448,192,45860,1,8,0:0:0:0:
64,192,45860,1,0,0:0:0:0:
320,192,45938,1,0,0:0:0:0:
192,192,46016,1,0,0:0:0:0:
320,192,46094,1,0,0:0:0:0:
192,192,46173,1,2,0:0:0:0:
64,192,46173,1,0,0:0:0:0:
448,192,46173,1,0,0:0:0:0:
320,192,46251,1,0,0:0:0:0:
64,192,46329,1,0,0:0:0:0:
192,192,46407,1,0,0:0:0:0:
320,192,46485,1,8,0:0:0:0:
448,192,46485,1,0,0:0:0:0:
192,192,46563,1,0,0:0:0:0:
64,192,46641,1,0,0:0:0:0:
448,192,46719,1,0,0:0:0:0:
192,192,46798,1,2,0:0:0:0:
320,192,46798,1,0,0:0:0:0:
64,192,46798,1,0,0:0:0:0:
448,192,46876,1,0,0:0:0:0:
192,192,46954,1,0,0:0:0:0:
320,192,47032,1,0,0:0:0:0:
64,192,47110,1,0,0:0:0:0:
448,192,47110,1,8,0:0:0:0:
192,192,47188,1,0,0:0:0:0:
320,192,47266,1,0,0:0:0:0:
64,192,47344,1,0,0:0:0:0:
192,192,47423,1,2,0:0:0:0:
320,192,47423,1,0,0:0:0:0:
448,192,47423,1,0,0:0:0:0:
64,192,47501,1,0,0:0:0:0:
448,192,47579,1,0,0:0:0:0:
192,192,47657,1,0,0:0:0:0:
64,192,47735,1,0,0:0:0:0:
320,192,47735,1,8,0:0:0:0:
448,192,47813,1,0,0:0:0:0:
192,192,47891,1,0,0:0:0:0:
320,192,47969,1,0,0:0:0:0:
192,192,48048,1,0,0:0:0:0:
64,192,48048,1,0,0:0:0:0:
448,192,48048,1,2,0:0:0:0:
320,192,48126,1,0,0:0:0:0:
64,192,48204,1,0,0:0:0:0:
192,192,48282,1,0,0:0:0:0:
320,192,48360,1,8,0:0:0:0:
448,192,48360,1,0,0:0:0:0:
192,192,48438,1,0,0:0:0:0:
64,192,48516,1,0,0:0:0:0:
448,192,48594,1,0,0:0:0:0:
320,192,48673,1,0,0:0:0:0:
192,192,48673,1,2,0:0:0:0:
64,192,48673,1,0,0:0:0:0:
448,192,48751,1,0,0:0:0:0:
192,192,48829,1,0,0:0:0:0:
320,192,48907,1,0,0:0:0:0:
64,192,48985,1,0,0:0:0:0:
448,192,48985,1,8,0:0:0:0:
192,192,49063,1,0,0:0:0:0:
320,192,49141,1,0,0:0:0:0:
64,192,49219,1,0,0:0:0:0:
192,192,49298,1,2,0:0:0:0:
320,192,49298,1,0,0:0:0:0:
448,192,49298,1,0,0:0:0:0:
64,192,49376,1,0,0:0:0:0:
448,192,49454,1,0,0:0:0:0:
192,192,49532,1,0,0:0:0:0:
64,192,49610,1,0,0:0:0:0:
320,192,49610,1,8,0:0:0:0:
448,192,49688,1,0,0:0:0:0:
192,192,49766,1,0,0:0:0:0:
320,192,49844,1,0,0:0:0:0:
64,192,49923,1,0,0:0:0:0:
192,192,49923,1,0,0:0:0:0:
448,192,49923,1,2,0:0:0:0:
320,192,50001,1,0,0:0:0:0:
64,192,50079,1,0,0:0:0:0:
448,192,50157,1,0,0:0:0:0:
320,192,50235,1,8,0:0:0:0:
64,192,50235,1,0,0:0:0:0:
192,192,50313,1,0,0:0:0:0:
448,192,50391,1,0,0:0:0:0:
64,192,50469,1,0,0:0:0:0:
192,192,50548,1,0,0:0:0:0:
320,192,50548,1,2,0:0:0:0:
448,192,50548,1,0,0:0:0:0:
64,192,50626,1,0,0:0:0:0:
320,192,50704,1,0,0:0:0:0:
192,192,50782,1,0,0:0:0:0:
448,192,50860,1,8,0:0:0:0:
64,192,50860,1,0,0:0:0:0:
320,192,50938,1,0,0:0:0:0:
192,192,51016,1,0,0:0:0:0:
320,192,51094,1,0,0:0:0:0:
192,192,51173,1,0,0:0:0:0:
64,192,51173,1,2,0:0:0:0:
448,192,51173,1,0,0:0:0:0:
320,192,51251,1,0,0:0:0:0:
192,192,51329,1,0,0:0:0:0:
320,192,51407,1,0,0:0:0:0:
448,192,51485,1,8,0:0:0:0:
64,192,51485,1,0,0:0:0:0:
192,192,51563,1,0,0:0:0:0:
320,192,51641,1,0,0:0:0:0:
64,192,51719,1,0,0:0:0:0:
192,192,51798,1,0,0:0:0:0:
320,192,51798,1,2,0:0:0:0:
448,192,51798,1,0,0:0:0:0:
64,192,51876,1,0,0:0:0:0:
448,192,51954,1,0,0:0:0:0:
320,192,52032,1,0,0:0:0:0:
64,192,52110,1,0,0:0:0:0:
192,192,52110,1,8,0:0:0:0:
320,192,52188,1,0,0:0:0:0:
64,192,52266,1,8,0:0:0:0:
448,192,52266,1,0,0:0:0:0:
192,192,52344,1,8,0:0:0:0:
64,192,52423,1,0,0:0:0:0:
320,192,52423,1,4,0:0:0:0:
448,192,52423,1,2,0:0:0:0:
192,192,52501,1,0,0:0:0:0:
320,192,52579,1,0,0:0:0:0:
448,192,52657,1,0,0:0:0:0:
64,192,52735,1,0,0:0:0:0:
192,192,52735,1,8,0:0:0:0:
320,192,52813,1,0,0:0:0:0:
448,192,52891,1,0,0:0:0:0:
64,192,52969,1,0,0:0:0:0:
192,192,53048,1,2,0:0:0:0:
320,192,53048,1,0,0:0:0:0:
448,192,53048,1,0,0:0:0:0:
64,192,53126,1,0,0:0:0:0:
320,192,53204,1,0,0:0:0:0:
192,192,53282,1,0,0:0:0:0:
64,192,53360,1,0,0:0:0:0:
448,192,53360,1,8,0:0:0:0:
320,192,53438,1,0,0:0:0:0:
192,192,53516,1,0,0:0:0:0:
320,192,53594,1,0,0:0:0:0:
192,192,53673,1,2,0:0:0:0:
64,192,53673,1,0,0:0:0:0:
448,192,53673,1,0,0:0:0:0:
320,192,53751,1,0,0:0:0:0:
64,192,53829,1,0,0:0:0:0:
192,192,53907,1,0,0:0:0:0:
320,192,53985,1,8,0:0:0:0:
448,192,53985,1,0,0:0:0:0:
192,192,54063,1,0,0:0:0:0:
64,192,54141,1,0,0:0:0:0:
448,192,54219,1,0,0:0:0:0:
64,192,54298,1,0,0:0:0:0:
192,192,54298,1,0,0:0:0:0:
320,192,54298,1,2,0:0:0:0:
448,192,54376,1,0,0:0:0:0:
192,192,54454,1,0,0:0:0:0:
320,192,54532,1,0,0:0:0:0:
64,192,54610,1,0,0:0:0:0:
448,192,54610,1,8,0:0:0:0:
192,192,54688,1,0,0:0:0:0:
320,192,54766,1,0,0:0:0:0:
192,192,54844,1,0,0:0:0:0:
320,192,54923,1,2,0:0:0:0:
448,192,54923,1,0,0:0:0:0:
64,192,54923,1,0,0:0:0:0:
192,192,55001,1,0,0:0:0:0:
448,192,55079,1,0,0:0:0:0:
320,192,55157,1,0,0:0:0:0:
192,192,55235,1,8,0:0:0:0:
64,192,55235,1,0,0:0:0:0:
320,192,55313,1,0,0:0:0:0:
448,192,55391,1,0,0:0:0:0:
64,192,55469,1,0,0:0:0:0:
192,192,55548,1,0,0:0:0:0:
320,192,55548,1,2,0:0:0:0:
448,192,55548,1,0,0:0:0:0:
64,192,55626,1,0,0:0:0:0:
448,192,55704,1,0,0:0:0:0:
192,192,55782,1,0,0:0:0:0:
320,192,55860,1,8,0:0:0:0:
64,192,55860,1,0,0:0:0:0:
448,192,55938,1,0,0:0:0:0:
192,192,56016,1,0,0:0:0:0:
320,192,56094,1,0,0:0:0:0:
192,192,56173,1,0,0:0:0:0:
64,192,56173,1,2,0:0:0:0:
448,192,56173,1,0,0:0:0:0:
320,192,56251,1,0,0:0:0:0:
64,192,56329,1,0,0:0:0:0:
448,192,56407,1,0,0:0:0:0:
320,192,56485,1,8,0:0:0:0:
192,192,56485,1,0,0:0:0:0:
64,192,56563,1,0,0:0:0:0:
448,192,56641,1,0,0:0:0:0:
192,192,56719,1,0,0:0:0:0:
64,192,56798,1,0,0:0:0:0:
320,192,56798,1,2,0:0:0:0:
448,192,56798,1,0,0:0:0:0:
192,192,56876,1,0,0:0:0:0:
320,192,56954,1,0,0:0:0:0:
64,192,57032,1,0,0:0:0:0:
192,192,57110,1,0,0:0:0:0:
448,192,57110,1,8,0:0:0:0:
320,192,57188,1,0,0:0:0:0:
64,192,57266,1,0,0:0:0:0:
448,192,57344,1,0,0:0:0:0:
192,192,57423,1,2,0:0:0:0:
64,192,57423,1,0,0:0:0:0:
320,192,57423,1,0,0:0:0:0:
448,192,57501,1,0,0:0:0:0:
192,192,57579,1,0,0:0:0:0:
448,192,57657,1,0,0:0:0:0:
64,192,57735,1,0,0:0:0:0:
320,192,57735,1,8,0:0:0:0:
192,192,57813,1,0,0:0:0:0:
320,192,57891,1,0,0:0:0:0:
192,192,57969,1,0,0:0:0:0:
320,192,58048,1,0,0:0:0:0:
448,192,58048,1,2,0:0:0:0:
64,192,58048,1,0,0:0:0:0:
192,192,58126,1,0,0:0:0:0:
448,192,58204,1,0,0:0:0:0:
320,192,58282,1,0,0:0:0:0:
192,192,58360,1,0,0:0:0:0:
64,192,58360,1,8,0:0:0:0:
320,192,58438,1,0,0:0:0:0:
448,192,58516,1,0,0:0:0:0:
64,192,58594,1,0,0:0:0:0:
192,192,58673,1,0,0:0:0:0:
320,192,58673,1,2,0:0:0:0:
448,192,58673,1,0,0:0:0:0:
64,192,58751,1,0,0:0:0:0:
320,192,58829,1,0,0:0:0:0:
192,192,58907,1,0,0:0:0:0:
448,192,58985,1,8,0:0:0:0:
64,192,58985,1,0,0:0:0:0:
320,192,59063,1,0,0:0:0:0:
192,192,59141,1,0,0:0:0:0:
320,192,59219,1,0,0:0:0:0:
192,192,59298,1,2,0:0:0:0:
64,192,59298,1,0,0:0:0:0:
448,192,59298,1,0,0:0:0:0:
320,192,59376,1,0,0:0:0:0:
64,192,59454,1,0,0:0:0:0:
192,192,59532,1,0,0:0:0:0:
448,192,59610,1,0,0:0:0:0:
320,192,59610,1,8,0:0:0:0:
192,192,59688,1,0,0:0:0:0:
64,192,59766,1,0,0:0:0:0:
448,192,59844,1,0,0:0:0:0:
320,192,59923,1,2,0:0:0:0:
192,192,59923,1,0,0:0:0:0:
64,192,59923,1,0,0:0:0:0:
448,192,60001,1,0,0:0:0:0:
192,192,60079,1,0,0:0:0:0:
320,192,60157,1,0,0:0:0:0:
64,192,60235,1,0,0:0:0:0:
448,192,60235,1,8,0:0:0:0:
192,192,60313,1,0,0:0:0:0:
320,192,60391,1,0,0:0:0:0:
192,192,60469,1,0,0:0:0:0:
320,192,60548,1,2,0:0:0:0:
448,192,60548,1,0,0:0:0:0:
64,192,60548,1,0,0:0:0:0:
192,192,60626,1,0,0:0:0:0:
320,192,60704,1,0,0:0:0:0:
64,192,60782,1,0,0:0:0:0:
448,192,60860,1,8,0:0:0:0:
192,192,60860,1,0,0:0:0:0:
320,192,60938,1,0,0:0:0:0:
64,192,61016,1,0,0:0:0:0:
448,192,61094,1,0,0:0:0:0:
320,192,61173,1,0,0:0:0:0:
192,192,61173,1,2,0:0:0:0:
64,192,61173,1,0,0:0:0:0:
448,192,61251,1,0,0:0:0:0:
192,192,61329,1,0,0:0:0:0:
320,192,61407,1,0,0:0:0:0:
64,192,61485,1,0,0:0:0:0:
448,192,61485,1,8,0:0:0:0:
192,192,61563,1,0,0:0:0:0:
320,192,61641,1,0,0:0:0:0:
192,192,61719,1,0,0:0:0:0:
320,192,61798,1,2,0:0:0:0:
448,192,61798,1,0,0:0:0:0:
64,192,61798,1,0,0:0:0:0:
192,192,61876,1,0,0:0:0:0:
64,192,61954,1,0,0:0:0:0:
320,192,62032,1,0,0:0:0:0:
448,192,62110,1,0,0:0:0:0:
192,192,62110,1,8,0:0:0:0:
64,192,62110,1,0,0:0:0:0:
320,192,62188,1,0,0:0:0:0:
448,192,62266,1,8,0:0:0:0:
192,192,62266,1,0,0:0:0:0:
64,192,62344,1,0,0:0:0:0:
320,192,62423,1,4,0:0:0:0:
192,192,62423,1,0,0:0:0:0:
448,192,62423,1,2,0:0:0:0:
64,192,62501,1,0,0:0:0:0:
320,192,62579,1,0,0:0:0:0:
192,192,62657,1,0,0:0:0:0:
320,192,62735,1,0,0:0:0:0:
64,192,62735,1,8,0:0:0:0:
448,192,62813,1,0,0:0:0:0:
192,192,62891,1,0,0:0:0:0:
448,192,62969,1,0,0:0:0:0:
320,192,63048,1,0,0:0:0:0:
192,192,63048,1,2,0:0:0:0:
64,192,63048,1,0,0:0:0:0:
448,192,63126,1,0,0:0:0:0:
64,192,63204,1,0,0:0:0:0:
320,192,63282,1,0,0:0:0:0:
192,192,63360,1,8,0:0:0:0:
448,192,63360,1,0,0:0:0:0:
64,192,63438,1,0,0:0:0:0:
320,192,63516,1,0,0:0:0:0:
192,192,63594,1,0,0:0:0:0:
320,192,63673,1,0,0:0:0:0:
448,192,63673,1,2,0:0:0:0:
64,192,63673,1,0,0:0:0:0:
192,192,63751,1,0,0:0:0:0:
320,192,63829,1,0,0:0:0:0:
192,192,63907,1,0,0:0:0:0:
448,192,63985,1,8,0:0:0:0:
64,192,63985,1,0,0:0:0:0:
320,192,64063,1,0,0:0:0:0:
192,192,64141,1,0,0:0:0:0:
320,192,64219,1,0,0:0:0:0:
448,192,64298,1,2,0:0:0:0:
192,192,64298,1,0,0:0:0:0:
64,192,64298,1,0,0:0:0:0:
320,192,64376,1,0,0:0:0:0:
64,192,64454,1,0,0:0:0:0:
448,192,64532,1,0,0:0:0:0:
320,192,64610,1,8,0:0:0:0:
192,192,64610,1,0,0:0:0:0:
64,192,64688,1,0,0:0:0:0:
448,192,64766,1,0,0:0:0:0:
192,192,64844,1,0,0:0:0:0:
320,192,64923,1,2,0:0:0:0:
448,192,64923,1,4,0:0:0:0:
64,192,64923,1,0,0:0:0:0:
192,192,65001,1,0,0:0:0:0:
320,192,65079,1,0,0:0:0:0:
448,192,65157,1,0,0:0:0:0:
192,192,65235,1,8,0:0:0:0:
64,192,65235,1,0,0:0:0:0:
320,192,65313,1,0,0:0:0:0:
448,192,65391,1,0,0:0:0:0:
64,192,65469,1,0,0:0:0:0:
192,192,65548,1,0,0:0:0:0:
320,192,65548,1,2,0:0:0:0:
448,192,65548,1,0,0:0:0:0:
64,192,65626,1,0,0:0:0:0:
320,192,65704,1,0,0:0:0:0:
192,192,65782,1,0,0:0:0:0:
64,192,65860,1,0,0:0:0:0:
448,192,65860,1,8,0:0:0:0:
320,192,65938,1,0,0:0:0:0:
192,192,66016,1,0,0:0:0:0:
448,192,66094,1,0,0:0:0:0:
320,192,66173,1,2,0:0:0:0:
192,192,66173,1,0,0:0:0:0:
64,192,66173,1,0,0:0:0:0:
448,192,66251,1,0,0:0:0:0:
64,192,66329,1,0,0:0:0:0:
192,192,66407,1,0,0:0:0:0:
320,192,66485,1,0,0:0:0:0:
448,192,66485,1,8,0:0:0:0:
64,192,66563,1,0,0:0:0:0:
192,192,66641,1,0,0:0:0:0:
320,192,66719,1,0,0:0:0:0:
192,192,66798,1,0,0:0:0:0:
64,192,66798,1,2,0:0:0:0:
448,192,66798,1,0,0:0:0:0:
320,192,66876,1,0,0:0:0:0:
192,192,66954,1,0,0:0:0:0:
320,192,67032,1,0,0:0:0:0:
64,192,67110,1,0,0:0:0:0:
448,192,67110,1,8,0:0:0:0:
192,192,67188,1,0,0:0:0:0:
320,192,67266,1,0,0:0:0:0:
192,192,67344,1,0,0:0:0:0:
64,192,67423,1,0,0:0:0:0:
448,192,67423,1,2,0:0:0:0:
320,192,67423,1,4,0:0:0:0:
192,192,67501,1,0,0:0:0:0:
448,192,67579,1,0,0:0:0:0:
320,192,67579,1,2,0:0:0:0:
64,192,67657,1,0,0:0:0:0:
320,192,67735,1,8,0:0:0:0:
192,192,67735,1,0,0:0:0:0:
448,192,67813,1,0,0:0:0:0:
64,192,67891,1,0,0:0:0:0:
192,192,67891,1,2,0:0:0:0:
320,192,67969,1,0,0:0:0:0:
448,192,68048,1,0,0:0:0:0:
64,192,68048,1,0,0:0:0:0:
192,192,68048,1,2,0:0:0:0:
320,192,68126,1,0,0:0:0:0:
64,192,68204,1,0,0:0:0:0:
448,192,68204,1,2,0:0:0:0:
192,192,68282,1,0,0:0:0:0:
64,192,68360,1,0,0:0:0:0:
320,192,68360,1,8,0:0:0:0:
448,192,68438,1,0,0:0:0:0:
192,192,68516,1,0,0:0:0:0:
320,192,68516,1,2,0:0:0:0:
64,192,68594,1,0,0:0:0:0:
448,192,68673,1,2,0:0:0:0:
192,192,68673,1,0,0:0:0:0:
320,192,68673,1,4,0:0:0:0:
64,192,68751,1,0,0:0:0:0:
448,192,68829,1,0,0:0:0:0:
320,192,68829,1,2,0:0:0:0:
192,192,68907,1,0,0:0:0:0:
64,192,68985,1,0,0:0:0:0:
448,192,68985,1,8,0:0:0:0:
320,192,69063,1,0,0:0:0:0:
64,192,69141,1,0,0:0:0:0:
192,192,69141,1,2,0:0:0:0:
448,192,69219,1,0,0:0:0:0:
320,192,69298,1,0,0:0:0:0:
192,192,69298,1,2,0:0:0:0:
64,192,69298,1,0,0:0:0:0:
448,192,69376,1,0,0:0:0:0:
64,192,69454,1,0,0:0:0:0:
320,192,69454,1,2,0:0:0:0:
192,192,69532,1,0,0:0:0:0:
448,192,69610,1,0,0:0:0:0:
320,192,69610,1,8,0:0:0:0:
64,192,69688,1,0,0:0:0:0:
192,192,69766,1,0,0:0:0:0:
320,192,69766,1,2,0:0:0:0:
448,192,69844,1,0,0:0:0:0:
64,192,69923,1,0,0:0:0:0:
192,192,69923,1,6,0:0:0:0:
320,192,70001,1,0,0:0:0:0:
448,192,70001,1,0,0:0:0:0:
64,192,70079,1,0,0:0:0:0:
192,192,70079,1,2,0:0:0:0:
320,192,70157,1,0,0:0:0:0:
448,192,70157,1,0,0:0:0:0:
64,192,70235,1,0,0:0:0:0:
192,192,70235,1,2,0:0:0:0:
448,192,70313,1,0,0:0:0:0:
320,192,70313,1,0,0:0:0:0:
192,192,70391,1,2,0:0:0:0:
64,192,70391,1,0,0:0:0:0:
320,192,70469,1,0,0:0:0:0:
448,192,70548,1,0,0:0:0:0:
64,192,70548,1,4,0:0:0:0:
192,192,70548,1,2,0:0:0:0:
320,192,70626,1,0,0:0:0:0:
192,192,70704,1,2,0:0:0:0:
64,192,70704,1,0,0:0:0:0:
320,192,70782,1,0,0:0:0:0:
448,192,70782,1,0,0:0:0:0:
64,192,70860,1,0,0:0:0:0:
192,192,70860,1,2,0:0:0:0:
448,192,70938,1,0,0:0:0:0:
320,192,70938,1,0,0:0:0:0:
192,192,71016,1,2,0:0:0:0:
64,192,71016,1,0,0:0:0:0:
320,192,71094,1,0,0:0:0:0:
192,192,71173,1,2,0:0:0:0:
64,192,71173,1,4,0:0:0:0:
448,192,71173,1,0,0:0:0:0:
320,192,71407,1,4,0:0:0:0:
448,192,71407,1,0,0:0:0:0:
192,192,71407,1,0,0:0:0:0:
320,192,71641,1,4,0:0:0:0:
192,192,71641,1,0,0:0:0:0:
64,192,71641,1,0,0:0:0:0:
320,192,71876,1,4,0:0:0:0:
448,192,71876,1,0,0:0:0:0:
64,192,71876,1,0,0:0:0:0:
192,192,72110,1,0,0:0:0:0:
64,192,72110,1,0,0:0:0:0:
448,192,72110,1,4,0:0:0:0:
448,192,72266,1,2,0:0:0:0:
320,192,72305,1,2,0:0:0:0:
192,192,72344,1,2,0:0:0:0:
64,192,72383,1,2,0:0:0:0:
320,192,72421,1,2,0:0:0:0:
448,192,72421,1,4,0:0:0:0:
320,192,72733,1,0,0:0:0:0:
448,192,72733,1,2,0:0:0:0:
192,192,72733,1,0,0:0:0:0:
320,192,73046,1,0,0:0:0:0:
448,192,73046,1,2,0:0:0:0:
192,192,73046,1,0,0:0:0:0:
192,192,73202,1,0,0:0:0:0:
64,192,73202,1,0,0:0:0:0:
448,192,73202,1,2,0:0:0:0:
320,192,73514,1,0,0:0:0:0:
448,192,73514,1,2,0:0:0:0:
64,192,73514,1,0,0:0:0:0:
320,192,73827,1,0,0:0:0:0:
448,192,73827,1,2,0:0:0:0:
64,192,73827,1,0,0:0:0:0:
320,192,74139,1,0,0:0:0:0:
448,192,74139,1,2,0:0:0:0:
64,192,74139,1,0,0:0:0:0:
320,192,74296,1,0,0:0:0:0:
192,192,74296,1,2,0:0:0:0:
64,192,74296,1,0,0:0:0:0:
64,192,74608,1,0,0:0:0:0:
192,192,74608,1,2,0:0:0:0:
320,192,74608,1,0,0:0:0:0:
64,192,74921,1,0,0:0:0:0:
192,192,74921,1,2,0:0:0:0:
320,192,74921,1,0,0:0:0:0:
192,192,75077,1,2,0:0:0:0:
64,192,75077,1,0,0:0:0:0:
448,192,75077,1,0,0:0:0:0:
320,192,75389,1,0,0:0:0:0:
448,192,75389,1,2,0:0:0:0:
64,192,75389,1,0,0:0:0:0:
320,192,75702,1,0,0:0:0:0:
448,192,75702,1,2,0:0:0:0:
64,192,75702,1,0,0:0:0:0:
320,192,76014,1,0,0:0:0:0:
448,192,76014,1,2,0:0:0:0:
64,192,76014,1,0,0:0:0:0:
192,192,76092,1,2,0:0:0:0:
320,192,76171,1,0,0:0:0:0:
448,192,76171,1,2,0:0:0:0:
64,192,76171,1,0,0:0:0:0:
192,192,76483,1,0,0:0:0:0:
320,192,76483,1,2,0:0:0:0:
64,192,76483,1,0,0:0:0:0:
320,192,76796,1,2,0:0:0:0:
192,192,76796,1,0,0:0:0:0:
64,192,76796,1,0,0:0:0:0:
320,192,76952,1,2,0:0:0:0:
448,192,76952,1,0,0:0:0:0:
192,192,76952,1,0,0:0:0:0:
192,192,77264,1,0,0:0:0:0:
64,192,77264,1,0,0:0:0:0:
448,192,77264,1,2,0:0:0:0:
192,192,77577,1,0,0:0:0:0:
64,192,77577,1,0,0:0:0:0:
448,192,77577,1,2,0:0:0:0:
192,192,77889,1,0,0:0:0:0:
64,192,77889,1,0,0:0:0:0:
448,192,77889,1,2,0:0:0:0:
320,192,78046,1,0,0:0:0:0:
448,192,78046,1,2,0:0:0:0:
64,192,78046,1,0,0:0:0:0:
320,192,78358,1,2,0:0:0:0:
448,192,78358,1,0,0:0:0:0:
64,192,78358,1,0,0:0:0:0:
320,192,78671,1,2,0:0:0:0:
448,192,78671,1,0,0:0:0:0:
64,192,78671,1,0,0:0:0:0:
192,192,78827,1,0,0:0:0:0:
64,192,78827,1,0,0:0:0:0:
320,192,78827,1,2,0:0:0:0:
64,192,79087,1,0,0:0:0:0:
192,192,79087,1,4,0:0:0:0:
64,192,79191,1,0,0:0:0:0:
192,192,79191,1,4,0:0:0:0:
320,192,79296,1,4,0:0:0:0:
448,192,79296,1,0,0:0:0:0:
448,192,79400,1,0,0:0:0:0:
320,192,79400,1,4,0:0:0:0:
64,192,79510,1,0,0:0:0:0:
192,192,79510,1,4,0:0:0:0:
64,192,79608,1,0,0:0:0:0:
192,192,79608,1,4,0:0:0:0:
320,192,79712,1,4,0:0:0:0:
448,192,79712,1,0,0:0:0:0:
448,192,79816,1,0,0:0:0:0:
320,192,79816,1,4,0:0:0:0:
64,192,79921,1,0,0:0:0:0:
320,192,79921,1,4,0:0:0:0:
448,192,79921,1,8,0:0:0:0:
192,192,79999,1,0,0:0:0:0:
448,192,80077,1,0,0:0:0:0:
320,192,80077,1,2,0:0:0:0:
192,192,80155,1,0,0:0:0:0:
320,192,80233,1,8,0:0:0:0:
448,192,80233,1,0,0:0:0:0:
64,192,80233,1,0,0:0:0:0:
192,192,80311,1,0,0:0:0:0:
448,192,80389,1,0,0:0:0:0:
64,192,80389,1,2,0:0:0:0:
320,192,80467,1,0,0:0:0:0:
64,192,80546,1,0,0:0:0:0:
448,192,80546,1,0,0:0:0:0:
192,192,80546,1,8,0:0:0:0:
320,192,80624,1,0,0:0:0:0:
448,192,80702,1,0,0:0:0:0:
64,192,80702,1,2,0:0:0:0:
192,192,80702,1,0,0:0:0:0:
320,192,80780,1,0,0:0:0:0:
64,192,80858,1,0,0:0:0:0:
192,192,80858,1,8,0:0:0:0:
320,192,80936,1,0,0:0:0:0:
192,192,81014,1,2,0:0:0:0:
448,192,81014,1,0,0:0:0:0:
64,192,81014,1,0,0:0:0:0:
320,192,81092,1,0,0:0:0:0:
192,192,81171,1,8,0:0:0:0:
448,192,81171,1,0,0:0:0:0:
64,192,81249,1,0,0:0:0:0:
192,192,81327,1,0,0:0:0:0:
448,192,81327,1,0,0:0:0:0:
320,192,81327,1,2,0:0:0:0:
64,192,81405,1,0,0:0:0:0:
448,192,81483,1,0,0:0:0:0:
320,192,81483,1,8,0:0:0:0:
192,192,81561,1,0,0:0:0:0:
320,192,81639,1,2,0:0:0:0:
448,192,81639,1,0,0:0:0:0:
64,192,81639,1,0,0:0:0:0:
192,192,81717,1,2,0:0:0:0:
320,192,81796,1,8,0:0:0:0:
448,192,81796,1,4,0:0:0:0:
64,192,81796,1,0,0:0:0:0:
192,192,81874,1,0,0:0:0:0:
448,192,81952,1,2,0:0:0:0:
320,192,81952,1,2,0:0:0:0:
192,192,82030,1,0,0:0:0:0:
320,192,82108,1,8,0:0:0:0:
64,192,82108,1,0,0:0:0:0:
448,192,82108,1,0,0:0:0:0:
192,192,82186,1,0,0:0:0:0:
448,192,82264,1,0,0:0:0:0:
64,192,82264,1,2,0:0:0:0:
320,192,82342,1,0,0:0:0:0:
448,192,82421,1,0,0:0:0:0:
192,192,82421,1,8,0:0:0:0:
64,192,82421,1,0,0:0:0:0:
320,192,82499,1,0,0:0:0:0:
448,192,82577,1,0,0:0:0:0:
192,192,82577,1,2,0:0:0:0:
64,192,82577,1,0,0:0:0:0:
320,192,82655,1,0,0:0:0:0:
64,192,82733,1,0,0:0:0:0:
192,192,82733,1,8,0:0:0:0:
320,192,82811,1,0,0:0:0:0:
448,192,82889,1,2,0:0:0:0:
64,192,82889,1,0,0:0:0:0:
192,192,82889,1,0,0:0:0:0:
320,192,82967,1,0,0:0:0:0:
448,192,83046,1,0,0:0:0:0:
192,192,83046,1,8,0:0:0:0:
64,192,83124,1,0,0:0:0:0:
320,192,83202,1,2,0:0:0:0:
448,192,83202,1,0,0:0:0:0:
192,192,83202,1,0,0:0:0:0:
64,192,83280,1,0,0:0:0:0:
448,192,83358,1,0,0:0:0:0:
320,192,83358,1,8,0:0:0:0:
192,192,83436,1,0,0:0:0:0:
320,192,83514,1,8,0:0:0:0:
64,192,83514,1,0,0:0:0:0:
448,192,83514,1,0,0:0:0:0:
192,192,83592,1,8,0:0:0:0:
64,192,83671,1,4,0:0:0:0:
448,192,83671,1,8,0:0:0:0:
192,192,83749,1,0,0:0:0:0:
320,192,83749,1,2,0:0:0:0:
448,192,83827,1,2,0:0:0:0:
64,192,83827,1,0,0:0:0:0:
192,192,83905,1,0,0:0:0:0:
320,192,83905,1,2,0:0:0:0:
448,192,83983,1,8,0:0:0:0:
64,192,83983,1,2,0:0:0:0:
192,192,84061,1,0,0:0:0:0:
320,192,84061,1,2,0:0:0:0:
448,192,84139,1,2,0:0:0:0:
64,192,84139,1,0,0:0:0:0:
192,192,84217,1,0,0:0:0:0:
320,192,84217,1,2,0:0:0:0:
448,192,84296,1,8,0:0:0:0:
64,192,84296,1,2,0:0:0:0:
192,192,84374,1,0,0:0:0:0:
320,192,84374,1,2,0:0:0:0:
448,192,84452,1,2,0:0:0:0:
64,192,84452,1,0,0:0:0:0:
192,192,84530,1,2,0:0:0:0:
448,192,84608,1,8,0:0:0:0:
320,192,84608,1,4,0:0:0:0:
192,192,84686,1,2,0:0:0:0:
64,192,84686,1,0,0:0:0:0:
448,192,84764,1,0,0:0:0:0:
320,192,84764,1,2,0:0:0:0:
192,192,84842,1,2,0:0:0:0:
64,192,84842,1,0,0:0:0:0:
320,192,84921,1,8,0:0:0:0:
448,192,84921,1,2,0:0:0:0:
64,192,84999,1,0,0:0:0:0:
192,192,84999,1,2,0:0:0:0:
320,192,85077,1,2,0:0:0:0:
448,192,85077,1,0,0:0:0:0:
192,192,85155,1,2,0:0:0:0:
64,192,85155,1,0,0:0:0:0:
448,192,85233,1,2,0:0:0:0:
320,192,85233,1,8,0:0:0:0:
64,192,85311,1,0,0:0:0:0:
192,192,85311,1,2,0:0:0:0:
320,192,85389,1,2,0:0:0:0:
448,192,85389,1,0,0:0:0:0:
192,192,85467,1,2,0:0:0:0:
448,192,85546,1,4,0:0:0:0:
320,192,85546,1,8,0:0:0:0:
64,192,85546,1,0,0:0:0:0:
448,192,85858,1,4,0:0:0:0:
320,192,85858,1,8,0:0:0:0:
64,192,85858,1,0,0:0:0:0:
320,192,86171,1,8,0:0:0:0:
448,192,86171,1,4,0:0:0:0:
64,192,86171,1,0,0:0:0:0:
192,192,86483,1,8,0:0:0:0:
64,192,86483,1,4,0:0:0:0:
448,192,86483,1,0,0:0:0:0:
192,192,86796,1,8,0:0:0:0:
64,192,86796,1,4,0:0:0:0:
448,192,86796,1,0,0:0:0:0:
192,192,87108,1,8,0:0:0:0:
64,192,87108,1,4,0:0:0:0:
448,192,87108,1,0,0:0:0:0:
320,192,87421,1,2,0:0:0:0:
448,192,87421,1,0,0:0:0:0:
64,192,87421,1,2,0:0:0:0:
192,192,87421,1,2,0:0:0:0:
320,192,89243,128,0,89530:0:0:0:0:
192,192,89530,128,0,90103:0:0:0:0:
64,192,90103,128,0,90754:0:0:0:0:
320,192,90754,128,0,91405:0:0:0:0:
448,192,91405,128,0,92030:0:0:0:0:
192,192,92030,128,0,92707:0:0:0:0:
64,192,92707,128,0,93358:0:0:0:0:
64,192,93671,1,0,0:0:0:0:
192,192,93671,1,0,0:0:0:0:
448,192,93827,1,0,0:0:0:0:
192,192,93983,1,0,0:0:0:0:
64,192,93983,1,0,0:0:0:0:
320,192,94139,1,0,0:0:0:0:
64,192,94296,1,0,0:0:0:0:
448,192,94296,1,0,0:0:0:0:
320,192,94452,1,0,0:0:0:0:
448,192,94608,1,0,0:0:0:0:
192,192,94608,1,0,0:0:0:0:
64,192,94764,1,0,0:0:0:0:
448,192,94921,1,0,0:0:0:0:
192,192,94921,1,0,0:0:0:0:
64,192,95077,1,0,0:0:0:0:
320,192,95233,1,0,0:0:0:0:
448,192,95233,1,0,0:0:0:0:
64,192,95389,1,0,0:0:0:0:
320,192,95546,1,0,0:0:0:0:
192,192,95546,1,0,0:0:0:0:
448,192,95702,1,0,0:0:0:0:
320,192,95858,1,0,0:0:0:0:
192,192,95858,1,0,0:0:0:0:
448,192,96014,1,0,0:0:0:0:
192,192,96171,1,0,0:0:0:0:
64,192,96171,1,0,0:0:0:0:
320,192,96327,1,0,0:0:0:0:
192,192,96327,1,0,0:0:0:0:
320,192,96483,1,0,0:0:0:0:
448,192,96483,1,0,0:0:0:0:
64,192,96639,1,0,0:0:0:0:
192,192,96796,1,0,0:0:0:0:
448,192,96796,1,0,0:0:0:0:
320,192,96952,1,0,0:0:0:0:
64,192,97108,1,0,0:0:0:0:
192,192,97108,1,0,0:0:0:0:
448,192,97264,1,0,0:0:0:0:
64,192,97421,1,0,0:0:0:0:
320,192,97421,1,0,0:0:0:0:
192,192,97577,1,0,0:0:0:0:
448,192,97733,1,0,0:0:0:0:
320,192,97733,1,0,0:0:0:0:
192,192,97889,1,0,0:0:0:0:
448,192,97889,1,0,0:0:0:0:
64,192,98046,1,0,0:0:0:0:
448,192,98046,1,0,0:0:0:0:
64,192,98202,1,0,0:0:0:0:
320,192,98202,1,0,0:0:0:0:
64,192,98358,1,0,0:0:0:0:
448,192,98358,1,0,0:0:0:0:
320,192,98514,1,0,0:0:0:0:
64,192,98671,1,0,0:0:0:0:
448,192,98671,1,0,0:0:0:0:
192,192,98827,1,0,0:0:0:0:
448,192,98983,1,0,0:0:0:0:
320,192,98983,1,0,0:0:0:0:
192,192,99139,1,0,0:0:0:0:
64,192,99296,1,0,0:0:0:0:
320,192,99296,1,0,0:0:0:0:
448,192,99452,1,0,0:0:0:0:
320,192,99608,1,0,0:0:0:0:
64,192,99608,1,0,0:0:0:0:
448,192,99764,1,0,0:0:0:0:
192,192,99921,1,0,0:0:0:0:
64,192,99921,1,0,0:0:0:0:
448,192,100077,1,0,0:0:0:0:
320,192,100077,1,0,0:0:0:0:
192,192,100233,1,0,0:0:0:0:
64,192,100233,1,0,0:0:0:0:
448,192,100389,1,0,0:0:0:0:
320,192,100546,1,0,0:0:0:0:
192,192,100546,1,0,0:0:0:0:
64,192,100702,1,0,0:0:0:0:
320,192,100858,1,0,0:0:0:0:
448,192,100858,1,0,0:0:0:0:
192,192,101014,1,0,0:0:0:0:
64,192,101171,1,0,0:0:0:0:
448,192,101171,1,0,0:0:0:0:
192,192,101327,1,0,0:0:0:0:
64,192,101483,1,0,0:0:0:0:
448,192,101483,1,0,0:0:0:0:
320,192,101639,1,0,0:0:0:0:
192,192,101796,1,0,0:0:0:0:
448,192,101796,1,0,0:0:0:0:
320,192,101952,1,0,0:0:0:0:
192,192,102108,1,0,0:0:0:0:
64,192,102108,1,0,0:0:0:0:
448,192,102264,1,0,0:0:0:0:
64,192,102421,1,0,0:0:0:0:
192,192,102421,1,0,0:0:0:0:
320,192,102577,1,0,0:0:0:0:
64,192,102733,1,0,0:0:0:0:
448,192,102733,1,0,0:0:0:0:
192,192,102889,1,0,0:0:0:0:
320,192,103046,1,0,0:0:0:0:
64,192,103046,1,0,0:0:0:0:
448,192,103202,1,0,0:0:0:0:
320,192,103358,1,0,0:0:0:0:
64,192,103358,1,0,0:0:0:0:
192,192,103514,1,0,0:0:0:0:
320,192,103671,1,0,0:0:0:0:
64,192,103671,1,0,0:0:0:0:
192,192,103827,1,0,0:0:0:0:
320,192,103827,1,0,0:0:0:0:
192,192,103983,1,0,0:0:0:0:
448,192,103983,1,0,0:0:0:0:
64,192,104139,1,0,0:0:0:0:
192,192,104296,1,0,0:0:0:0:
320,192,104296,1,0,0:0:0:0:
448,192,104452,1,0,0:0:0:0:
192,192,104608,1,0,0:0:0:0:
64,192,104608,1,0,0:0:0:0:
448,192,104764,1,0,0:0:0:0:
192,192,104921,1,0,0:0:0:0:
64,192,104921,1,0,0:0:0:0:
320,192,105077,1,0,0:0:0:0:
192,192,105233,1,0,0:0:0:0:
448,192,105233,1,0,0:0:0:0:
64,192,105389,1,0,0:0:0:0:
448,192,105389,1,0,0:0:0:0:
64,192,105546,1,0,0:0:0:0:
320,192,105546,1,0,0:0:0:0:
192,192,105702,1,0,0:0:0:0:
64,192,105702,1,0,0:0:0:0:
64,192,105858,1,0,0:0:0:0:
448,192,105858,1,0,0:0:0:0:
320,192,106014,1,0,0:0:0:0:
448,192,106171,1,0,0:0:0:0:
192,192,106171,1,0,0:0:0:0:
320,192,106327,1,0,0:0:0:0:
64,192,106483,1,0,0:0:0:0:
448,192,106483,1,0,0:0:0:0:
192,192,106639,1,0,0:0:0:0:
320,192,106796,1,0,0:0:0:0:
64,192,106796,1,0,0:0:0:0:
448,192,106952,1,0,0:0:0:0:
192,192,107108,1,0,0:0:0:0:
448,192,107264,1,0,0:0:0:0:
64,192,107264,1,0,0:0:0:0:
320,192,107421,1,0,0:0:0:0:
192,192,107421,1,0,0:0:0:0:
64,192,107577,1,0,0:0:0:0:
448,192,107577,1,0,0:0:0:0:
320,192,107733,1,0,0:0:0:0:
448,192,107733,1,0,0:0:0:0:
192,192,107772,1,0,0:0:0:0:
448,192,107889,1,0,0:0:0:0:
192,192,108046,1,0,0:0:0:0:
64,192,108202,1,0,0:0:0:0:
448,192,108358,1,0,0:0:0:0:
320,192,108514,1,0,0:0:0:0:
192,192,108671,1,0,0:0:0:0:
448,192,108671,1,0,0:0:0:0:
64,192,108671,1,0,0:0:0:0:
64,192,108983,1,0,0:0:0:0:
448,192,108983,1,0,0:0:0:0:
192,192,109296,1,0,0:0:0:0:
448,192,109296,1,0,0:0:0:0:
64,192,109608,1,0,0:0:0:0:
320,192,109608,1,0,0:0:0:0:
448,192,109608,1,0,0:0:0:0:
320,192,109921,1,0,0:0:0:0:
64,192,109921,1,0,0:0:0:0:
192,192,110233,1,0,0:0:0:0:
448,192,110233,1,0,0:0:0:0:
192,192,110546,1,0,0:0:0:0:
64,192,110546,1,0,0:0:0:0:
320,192,110546,1,0,0:0:0:0:
192,192,110858,1,0,0:0:0:0:
64,192,110858,1,0,0:0:0:0:
64,192,111171,1,0,0:0:0:0:
448,192,111171,1,0,0:0:0:0:
192,192,111327,1,0,0:0:0:0:
320,192,111327,1,0,0:0:0:0:
320,192,111483,1,0,0:0:0:0:
448,192,111483,1,0,0:0:0:0:
64,192,111483,1,0,0:0:0:0:
320,192,111796,1,0,0:0:0:0:
448,192,111796,1,0,0:0:0:0:
320,192,112108,1,0,0:0:0:0:
64,192,112108,1,0,0:0:0:0:
64,192,112421,1,0,0:0:0:0:
448,192,112421,1,0,0:0:0:0:
192,192,112421,1,0,0:0:0:0:
64,192,112733,1,0,0:0:0:0:
320,192,112733,1,0,0:0:0:0:
192,192,112889,1,0,0:0:0:0:
320,192,112889,1,0,0:0:0:0:
192,192,113046,1,0,0:0:0:0:
448,192,113046,1,0,0:0:0:0:
64,192,113202,1,0,0:0:0:0:
448,192,113202,1,0,0:0:0:0:
192,192,113358,1,0,0:0:0:0:
320,192,113358,1,0,0:0:0:0:
448,192,113358,1,0,0:0:0:0:
320,192,113671,1,0,0:0:0:0:
448,192,113671,1,0,0:0:0:0:
320,192,113983,1,0,0:0:0:0:
64,192,113983,1,0,0:0:0:0:
192,192,114296,1,0,0:0:0:0:
448,192,114296,1,0,0:0:0:0:
64,192,114296,1,0,0:0:0:0:
192,192,114608,1,0,0:0:0:0:
448,192,114608,1,0,0:0:0:0:
64,192,114921,1,0,0:0:0:0:
448,192,114921,1,0,0:0:0:0:
192,192,115077,1,0,0:0:0:0:
64,192,115077,1,0,0:0:0:0:
320,192,115233,1,0,0:0:0:0:
448,192,115233,1,0,0:0:0:0:
64,192,115233,1,0,0:0:0:0:
448,192,115546,1,0,0:0:0:0:
192,192,115546,1,0,0:0:0:0:
320,192,115858,1,0,0:0:0:0:
64,192,115858,1,0,0:0:0:0:
64,192,116171,1,0,0:0:0:0:
448,192,116171,1,0,0:0:0:0:
192,192,116171,1,0,0:0:0:0:
64,192,116483,1,0,0:0:0:0:
448,192,116483,1,0,0:0:0:0:
320,192,116796,1,0,0:0:0:0:
64,192,116796,1,0,0:0:0:0:
192,192,117108,1,0,0:0:0:0:
448,192,117108,1,0,0:0:0:0:
320,192,117108,1,0,0:0:0:0:
64,192,117421,1,0,0:0:0:0:
448,192,117421,1,0,0:0:0:0:
192,192,117733,1,0,0:0:0:0:
64,192,117733,1,0,0:0:0:0:
192,192,118046,1,0,0:0:0:0:
320,192,118046,1,0,0:0:0:0:
64,192,118046,1,0,0:0:0:0:
192,192,118358,1,0,0:0:0:0:
320,192,118358,1,0,0:0:0:0:
64,192,118671,1,0,0:0:0:0:
320,192,118671,1,0,0:0:0:0:
192,192,118827,1,0,0:0:0:0:
320,192,118827,1,0,0:0:0:0:
192,192,118983,1,0,0:0:0:0:
448,192,118983,1,0,0:0:0:0:
64,192,118983,1,0,0:0:0:0:
448,192,119296,1,0,0:0:0:0:
64,192,119296,1,0,0:0:0:0:
320,192,119608,1,0,0:0:0:0:
64,192,119608,1,0,0:0:0:0:
320,192,119921,1,0,0:0:0:0:
64,192,119921,1,0,0:0:0:0:
448,192,119921,1,0,0:0:0:0:
192,192,120233,1,0,0:0:0:0:
448,192,120233,1,0,0:0:0:0:
320,192,120389,1,0,0:0:0:0:
192,192,120389,1,0,0:0:0:0:
320,192,120546,1,0,0:0:0:0:
64,192,120546,1,0,0:0:0:0:
192,192,120702,1,0,0:0:0:0:
448,192,120702,1,0,0:0:0:0:
64,192,120858,1,0,0:0:0:0:
448,192,120858,1,0,0:0:0:0:
192,192,120858,1,0,0:0:0:0:
192,192,121171,1,0,0:0:0:0:
320,192,121171,1,0,0:0:0:0:
64,192,121483,1,0,0:0:0:0:
320,192,121483,1,0,0:0:0:0:
192,192,121796,1,0,0:0:0:0:
448,192,121796,1,0,0:0:0:0:
64,192,121796,1,0,0:0:0:0:
448,192,122264,1,0,0:0:0:0:
192,192,122264,1,0,0:0:0:0:
320,192,122421,1,0,0:0:0:0:
64,192,122421,1,0,0:0:0:0:
192,192,122577,1,0,0:0:0:0:
448,192,122577,1,0,0:0:0:0:
320,192,122733,1,0,0:0:0:0:
448,192,122733,1,0,0:0:0:0:
64,192,122733,1,0,0:0:0:0:
64,192,123671,1,0,0:0:0:0:
192,192,123671,1,0,0:0:0:0:
320,192,123671,1,2,0:0:0:0:
448,192,123671,1,0,0:0:0:0:
192,192,123983,1,0,0:0:0:0:
320,192,123983,1,0,0:0:0:0:
448,192,124139,1,2,0:0:0:0:
320,192,124296,1,0,0:0:0:0:
64,192,124296,1,0,0:0:0:0:
448,192,124296,1,8,0:0:0:0:
192,192,124608,1,2,0:0:0:0:
448,192,124608,1,0,0:0:0:0:
64,192,124608,1,0,0:0:0:0:
192,192,124921,1,2,0:0:0:0:
448,192,124921,1,0,0:0:0:0:
64,192,124921,1,0,0:0:0:0:
64,192,125233,1,0,0:0:0:0:
448,192,125233,1,8,0:0:0:0:
320,192,125546,1,2,0:0:0:0:
192,192,125546,1,0,0:0:0:0:
448,192,125546,1,0,0:0:0:0:
320,192,125858,1,0,0:0:0:0:
192,192,125858,1,0,0:0:0:0:
448,192,126014,1,2,0:0:0:0:
64,192,126171,1,0,0:0:0:0:
448,192,126171,1,8,0:0:0:0:
192,192,126327,1,0,0:0:0:0:
320,192,126327,1,0,0:0:0:0:
192,192,126483,1,2,0:0:0:0:
448,192,126483,1,0,0:0:0:0:
64,192,126483,1,0,0:0:0:0:
320,192,126796,1,2,0:0:0:0:
64,192,126796,1,0,0:0:0:0:
448,192,126796,1,0,0:0:0:0:
64,192,127108,1,0,0:0:0:0:
448,192,127108,1,8,0:0:0:0:
64,192,127421,1,0,0:0:0:0:
448,192,127421,1,0,0:0:0:0:
192,192,127421,1,2,0:0:0:0:
64,192,127733,1,0,0:0:0:0:
448,192,127733,1,0,0:0:0:0:
192,192,127889,1,2,0:0:0:0:
320,192,127889,1,0,0:0:0:0:
64,192,127889,1,0,0:0:0:0:
64,192,128046,1,0,0:0:0:0:
448,192,128046,1,8,0:0:0:0:
320,192,128202,1,0,0:0:0:0:
448,192,128202,1,0,0:0:0:0:
192,192,128358,1,2,0:0:0:0:
64,192,128358,1,0,0:0:0:0:
320,192,128358,1,0,0:0:0:0:
64,192,128671,1,0,0:0:0:0:
320,192,128671,1,2,0:0:0:0:
448,192,128671,1,0,0:0:0:0:
64,192,128983,1,0,0:0:0:0:
448,192,128983,1,8,0:0:0:0:
320,192,129139,1,0,0:0:0:0:
192,192,129139,1,0,0:0:0:0:
64,192,129296,1,0,0:0:0:0:
448,192,129296,1,0,0:0:0:0:
320,192,129296,1,2,0:0:0:0:
448,192,129608,1,0,0:0:0:0:
192,192,129608,1,0,0:0:0:0:
64,192,129764,1,0,0:0:0:0:
320,192,129764,1,2,0:0:0:0:
192,192,129764,1,0,0:0:0:0:
64,192,129921,1,0,0:0:0:0:
448,192,129921,1,8,0:0:0:0:
320,192,130077,1,0,0:0:0:0:
448,192,130077,1,0,0:0:0:0:
192,192,130233,1,2,0:0:0:0:
64,192,130233,1,0,0:0:0:0:
448,192,130233,1,0,0:0:0:0:
448,192,130546,1,0,0:0:0:0:
192,192,130546,1,0,0:0:0:0:
320,192,130546,1,2,0:0:0:0:
320,192,130858,1,0,0:0:0:0:
64,192,130858,1,0,0:0:0:0:
192,192,130858,1,8,0:0:0:0:
192,192,131014,1,0,0:0:0:0:
64,192,131014,1,0,0:0:0:0:
64,192,131171,1,0,0:0:0:0:
320,192,131171,1,2,0:0:0:0:
448,192,131171,1,0,0:0:0:0:
320,192,131483,1,2,0:0:0:0:
448,192,131483,1,0,0:0:0:0:
64,192,131483,1,0,0:0:0:0:
192,192,131796,1,0,0:0:0:0:
64,192,131796,1,0,0:0:0:0:
448,192,131796,1,8,0:0:0:0:
192,192,132108,1,0,0:0:0:0:
320,192,132108,1,2,0:0:0:0:
448,192,132108,1,0,0:0:0:0:
192,192,132421,1,0,0:0:0:0:
320,192,132421,1,2,0:0:0:0:
448,192,132421,1,0,0:0:0:0:
320,192,132733,1,0,0:0:0:0:
192,192,132733,1,8,0:0:0:0:
64,192,132733,1,0,0:0:0:0:
320,192,133046,1,2,0:0:0:0:
64,192,133046,1,0,0:0:0:0:
448,192,133046,1,4,0:0:0:0:
192,192,133046,1,0,0:0:0:0:
320,192,133358,1,2,0:0:0:0:
448,192,133358,1,0,0:0:0:0:
64,192,133358,1,0,0:0:0:0:
64,192,133671,1,0,0:0:0:0:
192,192,133671,1,8,0:0:0:0:
320,192,133671,1,0,0:0:0:0:
320,192,133827,1,0,0:0:0:0:
448,192,133827,1,0,0:0:0:0:
64,192,133983,1,0,0:0:0:0:
192,192,133983,1,2,0:0:0:0:
448,192,133983,1,0,0:0:0:0:
320,192,134296,1,2,0:0:0:0:
448,192,134296,1,0,0:0:0:0:
64,192,134296,1,0,0:0:0:0:
192,192,134608,1,8,0:0:0:0:
64,192,134608,1,0,0:0:0:0:
320,192,134608,1,0,0:0:0:0:
64,192,134921,1,0,0:0:0:0:
320,192,134921,1,4,0:0:0:0:
448,192,134921,1,0,0:0:0:0:
192,192,134921,1,2,0:0:0:0:
192,192,135077,1,2,0:0:0:0:
64,192,135077,1,0,0:0:0:0:
320,192,135077,1,0,0:0:0:0:
320,192,135233,1,0,0:0:0:0:
192,192,135233,1,2,0:0:0:0:
448,192,135233,1,0,0:0:0:0:
192,192,135389,1,2,0:0:0:0:
64,192,135389,1,0,0:0:0:0:
448,192,135389,1,0,0:0:0:0:
320,192,135546,1,2,0:0:0:0:
448,192,135546,1,0,0:0:0:0:
64,192,135546,1,0,0:0:0:0:
320,192,135702,1,2,0:0:0:0:
192,192,135702,1,0,0:0:0:0:
64,192,135702,1,0,0:0:0:0:
192,192,135858,1,0,0:0:0:0:
320,192,135858,1,4,0:0:0:0:
448,192,135858,1,0,0:0:0:0:
64,192,135858,1,2,0:0:0:0:
64,192,136014,1,2,0:0:0:0:
192,192,136014,1,0,0:0:0:0:
448,192,136014,1,0,0:0:0:0:
320,192,136171,1,0,0:0:0:0:
448,192,136171,1,0,0:0:0:0:
64,192,136171,1,2,0:0:0:0:
320,192,136327,1,0,0:0:0:0:
192,192,136327,1,0,0:0:0:0:
64,192,136327,1,2,0:0:0:0:
192,192,136483,1,0,0:0:0:0:
320,192,136483,1,2,0:0:0:0:
448,192,136483,1,0,0:0:0:0:
192,192,136639,1,0,0:0:0:0:
64,192,136639,1,0,0:0:0:0:
448,192,136639,1,2,0:0:0:0:
448,192,136796,1,2,0:0:0:0:
64,192,136796,1,0,0:0:0:0:
192,192,136874,1,0,0:0:0:0:
320,192,136874,1,2,0:0:0:0:
448,192,136952,1,2,0:0:0:0:
64,192,136952,1,0,0:0:0:0:
192,192,137030,1,0,0:0:0:0:
320,192,137030,1,2,0:0:0:0:
64,192,137108,1,0,0:0:0:0:
448,192,137108,1,2,0:0:0:0:
320,192,137186,1,2,0:0:0:0:
192,192,137186,1,0,0:0:0:0:
64,192,137264,1,0,0:0:0:0:
448,192,137264,1,2,0:0:0:0:
192,192,137342,1,0,0:0:0:0:
320,192,137342,1,2,0:0:0:0:
448,192,137421,1,2,0:0:0:0:
64,192,137421,1,0,0:0:0:0:
448,192,137577,1,2,0:0:0:0:
320,192,137616,1,2,0:0:0:0:
192,192,137655,1,2,0:0:0:0:
64,192,137694,1,2,0:0:0:0:
320,192,137733,1,2,0:0:0:0:
448,192,137733,1,4,0:0:0:0:
320,192,138046,1,4,0:0:0:0:
448,192,138046,1,0,0:0:0:0:
192,192,138046,1,2,0:0:0:0:
64,192,138358,1,2,0:0:0:0:
192,192,138358,1,4,0:0:0:0:
320,192,138358,1,0,0:0:0:0:
192,192,138671,1,2,0:0:0:0:
64,192,138671,1,4,0:0:0:0:
448,192,138671,1,0,0:0:0:0:
320,192,138749,1,0,0:0:0:0:
64,192,138827,1,0,0:0:0:0:
448,192,138905,1,0,0:0:0:0:
192,192,138983,1,2,0:0:0:0:
64,192,138983,1,0,0:0:0:0:
320,192,139061,1,0,0:0:0:0:
192,192,139139,1,0,0:0:0:0:
64,192,139217,1,0,0:0:0:0:
320,192,139296,1,2,0:0:0:0:
448,192,139296,1,0,0:0:0:0:
192,192,139374,1,0,0:0:0:0:
320,192,139452,1,0,0:0:0:0:
64,192,139530,1,0,0:0:0:0:
192,192,139608,1,2,0:0:0:0:
448,192,139608,1,0,0:0:0:0:
320,192,139686,1,0,0:0:0:0:
64,192,139764,1,0,0:0:0:0:
320,192,139842,1,0,0:0:0:0:
192,192,139921,1,2,0:0:0:0:
448,192,139921,1,0,0:0:0:0:
64,192,139999,1,0,0:0:0:0:
320,192,140077,1,0,0:0:0:0:
192,192,140155,1,0,0:0:0:0:
448,192,140233,1,0,0:0:0:0:
64,192,140233,1,2,0:0:0:0:
320,192,140311,1,0,0:0:0:0:
192,192,140389,1,0,0:0:0:0:
64,192,140467,1,0,0:0:0:0:
320,192,140546,1,2,0:0:0:0:
448,192,140546,1,0,0:0:0:0:
192,192,140624,1,0,0:0:0:0:
64,192,140702,1,0,0:0:0:0:
192,192,140780,1,0,0:0:0:0:
448,192,140858,1,0,0:0:0:0:
320,192,140858,1,2,0:0:0:0:
64,192,140936,1,0,0:0:0:0:
320,192,141014,1,0,0:0:0:0:
192,192,141092,1,0,0:0:0:0:
320,192,141171,1,2,0:0:0:0:
448,192,141171,1,0,0:0:0:0:
192,192,141249,1,0,0:0:0:0:
448,192,141327,1,0,0:0:0:0:
64,192,141327,1,0,0:0:0:0:
320,192,141405,1,0,0:0:0:0:
192,192,141483,1,2,0:0:0:0:
64,192,141483,1,0,0:0:0:0:
448,192,141561,1,0,0:0:0:0:
192,192,141639,1,0,0:0:0:0:
320,192,141717,1,0,0:0:0:0:
64,192,141796,1,0,0:0:0:0:
448,192,141796,1,2,0:0:0:0:
192,192,141874,1,0,0:0:0:0:
320,192,141952,1,0,0:0:0:0:
448,192,142030,1,0,0:0:0:0:
320,192,142108,1,2,0:0:0:0:
64,192,142108,1,0,0:0:0:0:
192,192,142186,1,0,0:0:0:0:
448,192,142264,1,0,0:0:0:0:
192,192,142342,1,0,0:0:0:0:
320,192,142421,1,0,0:0:0:0:
64,192,142421,1,2,0:0:0:0:
448,192,142499,1,0,0:0:0:0:
192,192,142577,1,0,0:0:0:0:
320,192,142655,1,0,0:0:0:0:
448,192,142733,1,2,0:0:0:0:
64,192,142733,1,0,0:0:0:0:
192,192,142811,1,0,0:0:0:0:
320,192,142889,1,0,0:0:0:0:
448,192,142889,1,0,0:0:0:0:
64,192,142967,1,0,0:0:0:0:
192,192,143046,1,0,0:0:0:0:
320,192,143046,1,2,0:0:0:0:
448,192,143124,1,0,0:0:0:0:
192,192,143202,1,0,0:0:0:0:
64,192,143202,1,0,0:0:0:0:
320,192,143280,1,0,0:0:0:0:
448,192,143358,1,2,0:0:0:0:
64,192,143358,1,0,0:0:0:0:
192,192,143436,1,0,0:0:0:0:
320,192,143514,1,0,0:0:0:0:
448,192,143592,1,0,0:0:0:0:
192,192,143671,1,0,0:0:0:0:
64,192,143671,1,2,0:0:0:0:
320,192,143749,1,0,0:0:0:0:
192,192,143827,1,0,0:0:0:0:
448,192,143905,1,0,0:0:0:0:
320,192,143983,1,2,0:0:0:0:
64,192,143983,1,0,0:0:0:0:
192,192,144061,1,0,0:0:0:0:
320,192,144139,1,0,0:0:0:0:
192,192,144217,1,0,0:0:0:0:
64,192,144296,1,0,0:0:0:0:
448,192,144296,1,2,0:0:0:0:
320,192,144374,1,0,0:0:0:0:
192,192,144452,1,0,0:0:0:0:
320,192,144530,1,0,0:0:0:0:
448,192,144608,1,2,0:0:0:0:
64,192,144608,1,0,0:0:0:0:
192,192,144686,1,0,0:0:0:0:
320,192,144764,1,0,0:0:0:0:
448,192,144842,1,0,0:0:0:0:
192,192,144921,1,2,0:0:0:0:
64,192,144921,1,0,0:0:0:0:
320,192,144999,1,0,0:0:0:0:
448,192,145077,1,0,0:0:0:0:
64,192,145077,1,0,0:0:0:0:
320,192,145155,1,2,0:0:0:0:
64,192,145233,1,0,0:0:0:0:
192,192,145233,1,2,0:0:0:0:
448,192,145311,1,0,0:0:0:0:
320,192,145389,1,2,0:0:0:0:
192,192,145467,1,0,0:0:0:0:
64,192,145546,1,0,0:0:0:0:
320,192,145546,1,2,0:0:0:0:
448,192,145624,1,0,0:0:0:0:
192,192,145702,1,0,0:0:0:0:
320,192,145780,1,0,0:0:0:0:
192,192,145858,1,0,0:0:0:0:
448,192,145858,1,2,0:0:0:0:
64,192,145936,1,0,0:0:0:0:
320,192,146014,1,0,0:0:0:0:
192,192,146092,1,0,0:0:0:0:
448,192,146171,1,4,0:0:0:0:
64,192,146171,1,0,0:0:0:0:
320,192,146171,1,2,0:0:0:0:
192,192,146249,1,0,0:0:0:0:
448,192,146327,1,0,0:0:0:0:
320,192,146405,1,0,0:0:0:0:
64,192,146483,1,0,0:0:0:0:
448,192,146483,1,2,0:0:0:0:
192,192,146561,1,0,0:0:0:0:
320,192,146639,1,0,0:0:0:0:
64,192,146717,1,0,0:0:0:0:
320,192,146796,1,0,0:0:0:0:
448,192,146796,1,2,0:0:0:0:
192,192,146874,1,0,0:0:0:0:
320,192,146952,1,0,0:0:0:0:
448,192,147030,1,0,0:0:0:0:
192,192,147108,1,0,0:0:0:0:
64,192,147108,1,2,0:0:0:0:
320,192,147186,1,0,0:0:0:0:
448,192,147264,1,0,0:0:0:0:
320,192,147342,1,0,0:0:0:0:
192,192,147421,1,0,0:0:0:0:
64,192,147421,1,2,0:0:0:0:
448,192,147499,1,0,0:0:0:0:
320,192,147577,1,0,0:0:0:0:
192,192,147655,1,0,0:0:0:0:
64,192,147733,1,0,0:0:0:0:
320,192,147733,1,2,0:0:0:0:
448,192,147811,1,0,0:0:0:0:
192,192,147889,1,0,0:0:0:0:
320,192,147967,1,0,0:0:0:0:
64,192,148046,1,0,0:0:0:0:
448,192,148046,1,2,0:0:0:0:
192,192,148124,1,0,0:0:0:0:
320,192,148202,1,0,0:0:0:0:
192,192,148280,1,0,0:0:0:0:
448,192,148358,1,2,0:0:0:0:
64,192,148358,1,0,0:0:0:0:
320,192,148436,1,0,0:0:0:0:
192,192,148514,1,0,0:0:0:0:
64,192,148592,1,0,0:0:0:0:
320,192,148671,1,2,0:0:0:0:
448,192,148671,1,0,0:0:0:0:
192,192,148749,1,0,0:0:0:0:
448,192,148827,1,0,0:0:0:0:
64,192,148827,1,0,0:0:0:0:
320,192,148905,1,0,0:0:0:0:
192,192,148983,1,2,0:0:0:0:
64,192,148983,1,0,0:0:0:0:
448,192,149061,1,0,0:0:0:0:
320,192,149139,1,0,0:0:0:0:
192,192,149217,1,0,0:0:0:0:
448,192,149296,1,2,0:0:0:0:
64,192,149296,1,0,0:0:0:0:
320,192,149374,1,0,0:0:0:0:
192,192,149452,1,0,0:0:0:0:
448,192,149530,1,0,0:0:0:0:
64,192,149608,1,0,0:0:0:0:
320,192,149608,1,2,0:0:0:0:
448,192,149686,1,0,0:0:0:0:
192,192,149764,1,0,0:0:0:0:
320,192,149842,1,0,0:0:0:0:
448,192,149921,1,0,0:0:0:0:
192,192,149921,1,2,0:0:0:0:
64,192,149921,1,4,0:0:0:0:
320,192,149999,1,0,0:0:0:0:
448,192,150077,1,0,0:0:0:0:
64,192,150155,1,0,0:0:0:0:
192,192,150233,1,2,0:0:0:0:
320,192,150233,1,0,0:0:0:0:
448,192,150311,1,0,0:0:0:0:
192,192,150389,1,0,0:0:0:0:
64,192,150389,1,0,0:0:0:0:
320,192,150467,1,0,0:0:0:0:
64,192,150546,1,0,0:0:0:0:
448,192,150546,1,2,0:0:0:0:
192,192,150624,1,0,0:0:0:0:
320,192,150702,1,0,0:0:0:0:
448,192,150702,1,0,0:0:0:0:
192,192,150780,1,0,0:0:0:0:
64,192,150858,1,0,0:0:0:0:
448,192,150858,1,4,0:0:0:0:
320,192,150858,1,2,0:0:0:0:
192,192,150936,1,0,0:0:0:0:
320,192,151014,1,0,0:0:0:0:
64,192,151092,1,0,0:0:0:0:
320,192,151171,1,2,0:0:0:0:
448,192,151171,1,0,0:0:0:0:
192,192,151249,1,0,0:0:0:0:
320,192,151327,1,0,0:0:0:0:
448,192,151405,1,0,0:0:0:0:
192,192,151483,1,0,0:0:0:0:
64,192,151483,1,2,0:0:0:0:
320,192,151561,1,0,0:0:0:0:
192,192,151639,1,0,0:0:0:0:
64,192,151717,1,0,0:0:0:0:
192,192,151796,1,0,0:0:0:0:
448,192,151796,1,4,0:0:0:0:
320,192,151796,1,2,0:0:0:0:
64,192,151874,1,0,0:0:0:0:
320,192,151952,1,0,0:0:0:0:
192,192,152030,1,0,0:0:0:0:
64,192,152108,1,2,0:0:0:0:
448,192,152186,1,0,0:0:0:0:
320,192,152264,1,0,0:0:0:0:
192,192,152264,1,0,0:0:0:0:
64,192,152342,1,2,0:0:0:0:
448,192,152421,1,0,0:0:0:0:
320,192,152421,1,2,0:0:0:0:
192,192,152499,1,0,0:0:0:0:
64,192,152499,1,0,0:0:0:0:
448,192,152577,1,0,0:0:0:0:
320,192,152577,1,0,0:0:0:0:
192,192,152655,1,0,0:0:0:0:
448,192,152733,1,4,0:0:0:0:
64,192,152733,1,0,0:0:0:0:
320,192,152733,1,2,0:0:0:0:
192,192,152811,1,0,0:0:0:0:
320,192,152889,1,2,0:0:0:0:
192,192,152967,1,0,0:0:0:0:
448,192,153046,1,2,0:0:0:0:
64,192,153046,1,0,0:0:0:0:
320,192,153124,1,0,0:0:0:0:
448,192,153202,1,0,0:0:0:0:
192,192,153280,1,0,0:0:0:0:
320,192,153358,1,2,0:0:0:0:
64,192,153358,1,0,0:0:0:0:
448,192,153436,1,0,0:0:0:0:
192,192,153514,1,0,0:0:0:0:
320,192,153592,1,0,0:0:0:0:
192,192,153671,1,2,0:0:0:0:
448,192,153671,1,0,0:0:0:0:
64,192,153671,1,4,0:0:0:0:
320,192,153749,1,0,0:0:0:0:
64,192,153827,1,0,0:0:0:0:
320,192,153905,1,0,0:0:0:0:
192,192,153983,1,2,0:0:0:0:
448,192,153983,1,0,0:0:0:0:
64,192,154061,1,0,0:0:0:0:
320,192,154139,1,0,0:0:0:0:
448,192,154217,1,0,0:0:0:0:
192,192,154296,1,2,0:0:0:0:
64,192,154296,1,0,0:0:0:0:
320,192,154374,1,0,0:0:0:0:
192,192,154452,1,0,0:0:0:0:
448,192,154530,1,0,0:0:0:0:
320,192,154608,1,2,0:0:0:0:
64,192,154608,1,0,0:0:0:0:
192,192,154686,1,0,0:0:0:0:
448,192,154764,1,0,0:0:0:0:
192,192,154842,1,0,0:0:0:0:
320,192,154921,1,2,0:0:0:0:
64,192,154921,1,0,0:0:0:0:
448,192,154999,1,0,0:0:0:0:
64,192,155077,1,0,0:0:0:0:
192,192,155155,1,0,0:0:0:0:
320,192,155233,1,0,0:0:0:0:
448,192,155233,1,2,0:0:0:0:
64,192,155311,1,0,0:0:0:0:
320,192,155389,1,0,0:0:0:0:
192,192,155467,1,0,0:0:0:0:
448,192,155546,1,2,0:0:0:0:
64,192,155546,1,0,0:0:0:0:
320,192,155624,1,0,0:0:0:0:
192,192,155702,1,0,0:0:0:0:
320,192,155780,1,0,0:0:0:0:
448,192,155858,1,0,0:0:0:0:
64,192,155858,1,2,0:0:0:0:
192,192,155936,1,0,0:0:0:0:
320,192,156014,1,0,0:0:0:0:
448,192,156092,1,0,0:0:0:0:
192,192,156171,1,2,0:0:0:0:
64,192,156171,1,0,0:0:0:0:
320,192,156249,1,0,0:0:0:0:
448,192,156327,1,0,0:0:0:0:
64,192,156327,1,0,0:0:0:0:
192,192,156405,1,0,0:0:0:0:
320,192,156483,1,2,0:0:0:0:
448,192,156483,1,0,0:0:0:0:
192,192,156561,1,0,0:0:0:0:
64,192,156639,1,0,0:0:0:0:
320,192,156717,1,0,0:0:0:0:
192,192,156796,1,2,0:0:0:0:
448,192,156796,1,0,0:0:0:0:
64,192,156874,1,0,0:0:0:0:
320,192,156952,1,0,0:0:0:0:
192,192,157030,1,0,0:0:0:0:
448,192,157108,1,2,0:0:0:0:
64,192,157108,1,0,0:0:0:0:
192,192,157186,1,0,0:0:0:0:
320,192,157264,1,0,0:0:0:0:
448,192,157342,1,2,0:0:0:0:
192,192,157421,1,0,0:0:0:0:
64,192,157421,1,2,0:0:0:0:
320,192,157499,1,0,0:0:0:0:
448,192,157577,1,0,0:0:0:0:
64,192,157655,1,0,0:0:0:0:
192,192,157733,1,2,0:0:0:0:
320,192,157733,1,0,0:0:0:0:
448,192,157811,1,0,0:0:0:0:
192,192,157889,1,0,0:0:0:0:
64,192,157889,1,0,0:0:0:0:
320,192,157967,1,0,0:0:0:0:
192,192,158046,1,2,0:0:0:0:
320,192,158124,1,0,0:0:0:0:
448,192,158202,1,0,0:0:0:0:
192,192,158280,1,0,0:0:0:0:
320,192,158280,1,0,0:0:0:0:
448,192,158358,1,0,0:0:0:0:
64,192,158358,1,2,0:0:0:0:
192,192,158436,1,0,0:0:0:0:
320,192,158514,1,0,0:0:0:0:
448,192,158592,1,0,0:0:0:0:
192,192,158671,1,2,0:0:0:0:
64,192,158671,1,0,0:0:0:0:
320,192,158749,1,0,0:0:0:0:
448,192,158827,1,0,0:0:0:0:
192,192,158905,1,0,0:0:0:0:
320,192,158983,1,2,0:0:0:0:
64,192,158983,1,0,0:0:0:0:
448,192,159061,1,0,0:0:0:0:
192,192,159139,1,0,0:0:0:0:
320,192,159217,1,0,0:0:0:0:
448,192,159296,1,2,0:0:0:0:
64,192,159296,1,0,0:0:0:0:
192,192,159374,1,0,0:0:0:0:
320,192,159452,1,0,0:0:0:0:
192,192,159530,1,0,0:0:0:0:
448,192,159608,1,2,0:0:0:0:
64,192,159686,1,0,0:0:0:0:
192,192,159764,1,0,0:0:0:0:
320,192,159764,1,0,0:0:0:0:
448,192,159842,1,0,0:0:0:0:
64,192,159921,1,2,0:0:0:0:
192,192,159999,1,0,0:0:0:0:
320,192,160077,1,0,0:0:0:0:
448,192,160155,1,2,0:0:0:0:
192,192,160233,1,2,0:0:0:0:
64,192,160233,1,0,0:0:0:0:
320,192,160311,1,0,0:0:0:0:
192,192,160389,1,2,0:0:0:0:
64,192,160467,1,0,0:0:0:0:
320,192,160546,1,0,0:0:0:0:
448,192,160546,1,2,0:0:0:0:
192,192,160624,1,0,0:0:0:0:
320,192,160702,1,0,0:0:0:0:
64,192,160780,1,0,0:0:0:0:
192,192,160858,1,0,0:0:0:0:
448,192,160858,1,2,0:0:0:0:
320,192,160936,1,0,0:0:0:0:
448,192,161014,1,0,0:0:0:0:
64,192,161092,1,0,0:0:0:0:
192,192,161171,1,4,0:0:0:0:
448,192,161171,1,0,0:0:0:0:
320,192,161171,1,2,0:0:0:0:
64,192,161249,1,0,0:0:0:0:
320,192,161327,1,0,0:0:0:0:
64,192,161405,1,0,0:0:0:0:
448,192,161483,1,2,0:0:0:0:
192,192,161483,1,0,0:0:0:0:
320,192,161561,1,0,0:0:0:0:
64,192,161639,1,0,0:0:0:0:
192,192,161717,1,0,0:0:0:0:
320,192,161796,1,0,0:0:0:0:
448,192,161796,1,2,0:0:0:0:
192,192,161874,1,0,0:0:0:0:
64,192,161952,1,0,0:0:0:0:
448,192,162030,1,0,0:0:0:0:
320,192,162108,1,2,0:0:0:0:
64,192,162108,1,0,0:0:0:0:
192,192,162186,1,0,0:0:0:0:
448,192,162264,1,0,0:0:0:0:
192,192,162342,1,0,0:0:0:0:
320,192,162421,1,2,0:0:0:0:
64,192,162421,1,0,0:0:0:0:
448,192,162499,1,0,0:0:0:0:
192,192,162577,1,0,0:0:0:0:
64,192,162655,1,0,0:0:0:0:
320,192,162733,1,0,0:0:0:0:
448,192,162733,1,2,0:0:0:0:
192,192,162811,1,0,0:0:0:0:
64,192,162889,1,0,0:0:0:0:
320,192,162967,1,0,0:0:0:0:
192,192,163046,1,2,0:0:0:0:
64,192,163046,1,4,0:0:0:0:
448,192,163046,1,0,0:0:0:0:
320,192,163124,1,0,0:0:0:0:
64,192,163202,1,0,0:0:0:0:
192,192,163280,1,0,0:0:0:0:
320,192,163358,1,2,0:0:0:0:
448,192,163358,1,0,0:0:0:0:
192,192,163436,1,0,0:0:0:0:
64,192,163514,1,0,0:0:0:0:
320,192,163592,1,0,0:0:0:0:
192,192,163671,1,0,0:0:0:0:
448,192,163671,1,2,0:0:0:0:
64,192,163749,1,0,0:0:0:0:
320,192,163827,1,0,0:0:0:0:
448,192,163827,1,0,0:0:0:0:
192,192,163905,1,0,0:0:0:0:
448,192,163983,1,2,0:0:0:0:
64,192,163983,1,0,0:0:0:0:
320,192,164061,1,0,0:0:0:0:
192,192,164139,1,0,0:0:0:0:
64,192,164217,1,0,0:0:0:0:
320,192,164296,1,2,0:0:0:0:
448,192,164296,1,0,0:0:0:0:
192,192,164374,1,0,0:0:0:0:
320,192,164452,1,0,0:0:0:0:
448,192,164530,1,0,0:0:0:0:
192,192,164608,1,2,0:0:0:0:
64,192,164608,1,0,0:0:0:0:
320,192,164686,1,0,0:0:0:0:
192,192,164764,1,0,0:0:0:0:
64,192,164842,1,0,0:0:0:0:
192,192,164921,1,0,0:0:0:0:
320,192,164921,1,2,0:0:0:0:
448,192,164921,1,4,0:0:0:0:
64,192,164999,1,0,0:0:0:0:
320,192,165077,1,2,0:0:0:0:
448,192,165077,1,0,0:0:0:0:
192,192,165155,1,0,0:0:0:0:
448,192,165233,1,2,0:0:0:0:
64,192,165233,1,0,0:0:0:0:
320,192,165311,1,0,0:0:0:0:
192,192,165389,1,2,0:0:0:0:
64,192,165389,1,0,0:0:0:0:
448,192,165467,1,0,0:0:0:0:
320,192,165546,1,2,0:0:0:0:
192,192,165546,1,0,0:0:0:0:
64,192,165624,1,0,0:0:0:0:
320,192,165702,1,2,0:0:0:0:
448,192,165702,1,0,0:0:0:0:
192,192,165780,1,0,0:0:0:0:
320,192,165858,1,2,0:0:0:0:
448,192,165858,1,4,0:0:0:0:
64,192,165858,1,0,0:0:0:0:
192,192,165936,1,0,0:0:0:0:
448,192,166014,1,2,0:0:0:0:
64,192,166014,1,0,0:0:0:0:
192,192,166092,1,0,0:0:0:0:
320,192,166171,1,2,0:0:0:0:
448,192,166171,1,0,0:0:0:0:
64,192,166249,1,0,0:0:0:0:
320,192,166327,1,2,0:0:0:0:
192,192,166327,1,0,0:0:0:0:
448,192,166405,1,0,0:0:0:0:
192,192,166483,1,2,0:0:0:0:
64,192,166483,1,0,0:0:0:0:
320,192,166561,1,0,0:0:0:0:
192,192,166639,1,2,0:0:0:0:
448,192,166639,1,0,0:0:0:0:
320,192,166717,1,0,0:0:0:0:
192,192,166796,1,2,0:0:0:0:
64,192,166796,1,4,0:0:0:0:
320,192,166874,1,2,0:0:0:0:
448,192,166874,1,0,0:0:0:0:
192,192,166952,1,2,0:0:0:0:
64,192,166952,1,0,0:0:0:0:
320,192,167030,1,2,0:0:0:0:
448,192,167030,1,0,0:0:0:0:
192,192,167108,1,2,0:0:0:0:
64,192,167108,1,0,0:0:0:0:
320,192,167186,1,2,0:0:0:0:
448,192,167186,1,0,0:0:0:0:
192,192,167264,1,2,0:0:0:0:
64,192,167264,1,0,0:0:0:0:
320,192,167342,1,2,0:0:0:0:
448,192,167342,1,0,0:0:0:0:
192,192,167421,1,2,0:0:0:0:
64,192,167421,1,0,0:0:0:0:
64,192,167577,1,2,0:0:0:0:
192,192,167616,1,2,0:0:0:0:
320,192,167655,1,2,0:0:0:0:
448,192,167694,1,2,0:0:0:0:
192,192,167733,1,0,0:0:0:0:
64,192,167733,1,4,0:0:0:0:
64,192,168046,1,2,0:0:0:0:
192,192,168046,1,4,0:0:0:0:
448,192,168046,1,0,0:0:0:0:
320,192,168358,1,4,0:0:0:0:
448,192,168358,1,0,0:0:0:0:
64,192,168358,1,2,0:0:0:0:
448,192,168671,1,0,0:0:0:0:
64,192,168671,1,2,0:0:0:0:
320,192,168671,1,4,0:0:0:0:
192,192,168749,1,0,0:0:0:0:
320,192,168827,1,0,0:0:0:0:
448,192,168905,1,0,0:0:0:0:
64,192,168983,1,0,0:0:0:0:
192,192,168983,1,2,0:0:0:0:
320,192,169061,1,0,0:0:0:0:
64,192,169139,1,0,0:0:0:0:
448,192,169139,1,0,0:0:0:0:
192,192,169217,1,0,0:0:0:0:
320,192,169296,1,2,0:0:0:0:
448,192,169296,1,0,0:0:0:0:
64,192,169374,1,0,0:0:0:0:
192,192,169452,1,0,0:0:0:0:
448,192,169452,1,0,0:0:0:0:
320,192,169530,1,0,0:0:0:0:
448,192,169608,1,0,0:0:0:0:
64,192,169608,1,2,0:0:0:0:
192,192,169686,1,0,0:0:0:0:
320,192,169764,1,0,0:0:0:0:
448,192,169842,1,0,0:0:0:0:
64,192,169921,1,0,0:0:0:0:
192,192,169921,1,2,0:0:0:0:
448,192,169999,1,0,0:0:0:0:
320,192,170077,1,0,0:0:0:0:
192,192,170077,1,0,0:0:0:0:
64,192,170155,1,0,0:0:0:0:
320,192,170233,1,2,0:0:0:0:
448,192,170233,1,0,0:0:0:0:
64,192,170311,1,0,0:0:0:0:
192,192,170389,1,0,0:0:0:0:
320,192,170389,1,0,0:0:0:0:
448,192,170467,1,0,0:0:0:0:
64,192,170546,1,2,0:0:0:0:
192,192,170546,1,0,0:0:0:0:
320,192,170624,1,0,0:0:0:0:
192,192,170702,1,0,0:0:0:0:
448,192,170702,1,0,0:0:0:0:
64,192,170780,1,0,0:0:0:0:
320,192,170858,1,2,0:0:0:0:
448,192,170858,1,0,0:0:0:0:
192,192,170936,1,0,0:0:0:0:
64,192,171014,1,0,0:0:0:0:
448,192,171014,1,0,0:0:0:0:
320,192,171092,1,0,0:0:0:0:
192,192,171171,1,2,0:0:0:0:
64,192,171171,1,0,0:0:0:0:
320,192,171249,1,0,0:0:0:0:
448,192,171327,1,0,0:0:0:0:
192,192,171327,1,0,0:0:0:0:
64,192,171405,1,0,0:0:0:0:
320,192,171483,1,2,0:0:0:0:
448,192,171483,1,0,0:0:0:0:
192,192,171561,1,0,0:0:0:0:
320,192,171639,1,0,0:0:0:0:
448,192,171639,1,0,0:0:0:0:
64,192,171717,1,0,0:0:0:0:
192,192,171796,1,0,0:0:0:0:
320,192,171796,1,2,0:0:0:0:
448,192,171874,1,0,0:0:0:0:
192,192,171952,1,0,0:0:0:0:
64,192,171952,1,0,0:0:0:0:
320,192,172030,1,0,0:0:0:0:
64,192,172108,1,0,0:0:0:0:
192,192,172108,1,2,0:0:0:0:
448,192,172186,1,0,0:0:0:0:
320,192,172264,1,0,0:0:0:0:
64,192,172264,1,0,0:0:0:0:
448,192,172342,1,2,0:0:0:0:
64,192,172421,1,0,0:0:0:0:
192,192,172421,1,2,0:0:0:0:
320,192,172499,1,0,0:0:0:0:
192,192,172577,1,0,0:0:0:0:
64,192,172655,1,0,0:0:0:0:
320,192,172733,1,2,0:0:0:0:
448,192,172733,1,0,0:0:0:0:
192,192,172811,1,0,0:0:0:0:
448,192,172889,1,0,0:0:0:0:
64,192,172889,1,0,0:0:0:0:
320,192,172967,1,0,0:0:0:0:
192,192,173046,1,2,0:0:0:0:
64,192,173046,1,0,0:0:0:0:
448,192,173124,1,0,0:0:0:0:
320,192,173202,1,0,0:0:0:0:
64,192,173202,1,0,0:0:0:0:
192,192,173280,1,0,0:0:0:0:
64,192,173358,1,0,0:0:0:0:
448,192,173358,1,2,0:0:0:0:
320,192,173436,1,0,0:0:0:0:
448,192,173514,1,0,0:0:0:0:
64,192,173592,1,0,0:0:0:0:
320,192,173671,1,2,0:0:0:0:
448,192,173671,1,0,0:0:0:0:
64,192,173749,1,0,0:0:0:0:
192,192,173827,1,0,0:0:0:0:
320,192,173827,1,0,0:0:0:0:
448,192,173905,1,0,0:0:0:0:
192,192,173983,1,0,0:0:0:0:
64,192,173983,1,2,0:0:0:0:
448,192,174061,1,0,0:0:0:0:
320,192,174139,1,0,0:0:0:0:
192,192,174139,1,0,0:0:0:0:
64,192,174217,1,0,0:0:0:0:
320,192,174296,1,0,0:0:0:0:
448,192,174296,1,2,0:0:0:0:
192,192,174374,1,0,0:0:0:0:
448,192,174452,1,0,0:0:0:0:
192,192,174530,1,0,0:0:0:0:
320,192,174608,1,2,0:0:0:0:
64,192,174608,1,0,0:0:0:0:
448,192,174686,1,0,0:0:0:0:
64,192,174764,1,0,0:0:0:0:
192,192,174764,1,0,0:0:0:0:
320,192,174842,1,0,0:0:0:0:
448,192,174921,1,0,0:0:0:0:
64,192,174921,1,2,0:0:0:0:
320,192,174999,1,0,0:0:0:0:
448,192,175077,1,0,0:0:0:0:
192,192,175077,1,0,0:0:0:0:
64,192,175155,1,2,0:0:0:0:
320,192,175233,1,2,0:0:0:0:
448,192,175233,1,0,0:0:0:0:
192,192,175311,1,0,0:0:0:0:
64,192,175389,1,2,0:0:0:0:
448,192,175467,1,0,0:0:0:0:
320,192,175546,1,2,0:0:0:0:
192,192,175546,1,0,0:0:0:0:
64,192,175624,1,0,0:0:0:0:
320,192,175702,1,0,0:0:0:0:
448,192,175780,1,0,0:0:0:0:
192,192,175858,1,2,0:0:0:0:
64,192,175858,1,0,0:0:0:0:
448,192,175936,1,0,0:0:0:0:
192,192,176014,1,0,0:0:0:0:
64,192,176092,1,0,0:0:0:0:
192,192,176171,1,0,0:0:0:0:
320,192,176171,1,2,0:0:0:0:
448,192,176171,1,4,0:0:0:0:
64,192,176249,1,0,0:0:0:0:
320,192,176327,1,0,0:0:0:0:
448,192,176405,1,0,0:0:0:0:
192,192,176483,1,2,0:0:0:0:
64,192,176483,1,0,0:0:0:0:
320,192,176561,1,0,0:0:0:0:
448,192,176639,1,0,0:0:0:0:
64,192,176639,1,0,0:0:0:0:
192,192,176717,1,0,0:0:0:0:
320,192,176796,1,2,0:0:0:0:
448,192,176796,1,0,0:0:0:0:
64,192,176874,1,0,0:0:0:0:
192,192,176952,1,0,0:0:0:0:
448,192,176952,1,0,0:0:0:0:
320,192,177030,1,0,0:0:0:0:
64,192,177108,1,0,0:0:0:0:
448,192,177108,1,2,0:0:0:0:
192,192,177186,1,0,0:0:0:0:
320,192,177264,1,0,0:0:0:0:
64,192,177342,1,0,0:0:0:0:
192,192,177421,1,0,0:0:0:0:
448,192,177421,1,2,0:0:0:0:
320,192,177499,1,0,0:0:0:0:
192,192,177577,1,0,0:0:0:0:
64,192,177577,1,0,0:0:0:0:
320,192,177655,1,0,0:0:0:0:
448,192,177733,1,0,0:0:0:0:
64,192,177733,1,2,0:0:0:0:
192,192,177811,1,0,0:0:0:0:
320,192,177889,1,0,0:0:0:0:
448,192,177889,1,0,0:0:0:0:
192,192,177967,1,0,0:0:0:0:
64,192,178046,1,0,0:0:0:0:
448,192,178046,1,4,0:0:0:0:
320,192,178046,1,2,0:0:0:0:
192,192,178124,1,0,0:0:0:0:
448,192,178202,1,0,0:0:0:0:
64,192,178202,1,0,0:0:0:0:
320,192,178280,1,0,0:0:0:0:
64,192,178358,1,0,0:0:0:0:
192,192,178358,1,2,0:0:0:0:
448,192,178436,1,0,0:0:0:0:
320,192,178514,1,0,0:0:0:0:
192,192,178514,1,0,0:0:0:0:
64,192,178592,1,0,0:0:0:0:
320,192,178671,1,0,0:0:0:0:
448,192,178671,1,2,0:0:0:0:
64,192,178749,1,0,0:0:0:0:
192,192,178827,1,0,0:0:0:0:
320,192,178827,1,0,0:0:0:0:
448,192,178905,1,0,0:0:0:0:
192,192,178983,1,0,0:0:0:0:
64,192,178983,1,2,0:0:0:0:
320,192,179061,1,0,0:0:0:0:
192,192,179139,1,0,0:0:0:0:
64,192,179139,1,0,0:0:0:0:
448,192,179217,1,0,0:0:0:0:
320,192,179296,1,2,0:0:0:0:
64,192,179296,1,0,0:0:0:0:
192,192,179374,1,0,0:0:0:0:
448,192,179452,1,0,0:0:0:0:
320,192,179452,1,0,0:0:0:0:
64,192,179530,1,0,0:0:0:0:
448,192,179608,1,2,0:0:0:0:
320,192,179608,1,0,0:0:0:0:
192,192,179686,1,0,0:0:0:0:
320,192,179764,1,0,0:0:0:0:
64,192,179764,1,0,0:0:0:0:
448,192,179842,1,2,0:0:0:0:
320,192,179921,1,0,0:0:0:0:
192,192,179921,1,2,0:0:0:0:
64,192,179921,1,4,0:0:0:0:
448,192,179999,1,0,0:0:0:0:
320,192,180077,1,0,0:0:0:0:
192,192,180155,1,0,0:0:0:0:
448,192,180233,1,2,0:0:0:0:
64,192,180233,1,0,0:0:0:0:
192,192,180311,1,0,0:0:0:0:
320,192,180389,1,0,0:0:0:0:
448,192,180389,1,0,0:0:0:0:
64,192,180467,1,0,0:0:0:0:
320,192,180546,1,0,0:0:0:0:
192,192,180546,1,2,0:0:0:0:
448,192,180624,1,0,0:0:0:0:
192,192,180702,1,0,0:0:0:0:
64,192,180702,1,0,0:0:0:0:
320,192,180780,1,0,0:0:0:0:
192,192,180858,1,2,0:0:0:0:
64,192,180858,1,4,0:0:0:0:
448,192,180858,1,0,0:0:0:0:
320,192,180936,1,0,0:0:0:0:
64,192,181014,1,0,0:0:0:0:
448,192,181092,1,0,0:0:0:0:
320,192,181171,1,2,0:0:0:0:
192,192,181171,1,0,0:0:0:0:
64,192,181249,1,0,0:0:0:0:
448,192,181327,1,0,0:0:0:0:
192,192,181327,1,0,0:0:0:0:
320,192,181405,1,0,0:0:0:0:
192,192,181483,1,2,0:0:0:0:
64,192,181483,1,0,0:0:0:0:
320,192,181561,1,0,0:0:0:0:
448,192,181639,1,0,0:0:0:0:
64,192,181639,1,0,0:0:0:0:
192,192,181717,1,0,0:0:0:0:
448,192,181796,1,4,0:0:0:0:
64,192,181796,1,0,0:0:0:0:
320,192,181796,1,2,0:0:0:0:
192,192,181874,1,0,0:0:0:0:
320,192,181952,1,2,0:0:0:0:
448,192,181952,1,0,0:0:0:0:
64,192,182030,1,0,0:0:0:0:
192,192,182108,1,0,0:0:0:0:
448,192,182108,1,2,0:0:0:0:
320,192,182186,1,0,0:0:0:0:
64,192,182264,1,0,0:0:0:0:
192,192,182264,1,2,0:0:0:0:
448,192,182342,1,0,0:0:0:0:
320,192,182421,1,2,0:0:0:0:
192,192,182421,1,0,0:0:0:0:
64,192,182499,1,0,0:0:0:0:
448,192,182577,1,2,0:0:0:0:
192,192,182577,1,0,0:0:0:0:
320,192,182655,1,0,0:0:0:0:
64,192,182733,1,0,0:0:0:0:
192,192,182733,1,2,0:0:0:0:
320,192,182811,1,2,0:0:0:0:
448,192,182811,1,0,0:0:0:0:
192,192,182889,1,2,0:0:0:0:
64,192,182889,1,0,0:0:0:0:
448,192,182967,1,0,0:0:0:0:
320,192,183046,1,2,0:0:0:0:
64,192,183046,1,0,0:0:0:0:
192,192,183124,1,0,0:0:0:0:
320,192,183202,1,2,0:0:0:0:
448,192,183202,1,0,0:0:0:0:
192,192,183280,1,2,0:0:0:0:
64,192,183280,1,0,0:0:0:0:
320,192,183358,1,2,0:0:0:0:
448,192,183358,1,0,0:0:0:0:
448,192,183514,1,2,0:0:0:0:
320,192,183553,1,2,0:0:0:0:
192,192,183592,1,2,0:0:0:0:
64,192,183631,1,2,0:0:0:0:
320,192,183671,1,0,0:0:0:0:
448,192,183671,1,0,0:0:0:0:
64,192,183983,1,0,0:0:0:0:
192,192,184139,1,0,0:0:0:0:
320,192,184296,1,0,0:0:0:0:
448,192,184296,1,0,0:0:0:0:
64,192,184452,1,0,0:0:0:0:
320,192,184608,1,0,0:0:0:0:
192,192,184608,1,0,0:0:0:0:
448,192,184764,1,0,0:0:0:0:
64,192,184921,1,0,0:0:0:0:
320,192,185077,1,0,0:0:0:0:
192,192,185233,1,0,0:0:0:0:
64,192,185233,1,0,0:0:0:0:
448,192,185389,1,0,0:0:0:0:
320,192,185546,1,0,0:0:0:0:
192,192,185546,1,0,0:0:0:0:
64,192,185702,1,0,0:0:0:0:
448,192,185858,1,0,0:0:0:0:
192,192,186014,1,0,0:0:0:0:
320,192,186171,1,0,0:0:0:0:
448,192,186171,1,0,0:0:0:0:
192,192,186327,1,0,0:0:0:0:
64,192,186483,1,0,0:0:0:0:
448,192,186483,1,0,0:0:0:0:
320,192,186639,1,0,0:0:0:0:
192,192,186796,1,0,0:0:0:0:
64,192,186796,1,0,0:0:0:0:
448,192,186952,1,0,0:0:0:0:
64,192,187108,1,0,0:0:0:0:
192,192,187108,1,0,0:0:0:0:
320,192,187264,1,0,0:0:0:0:
192,192,187264,1,0,0:0:0:0:
320,192,187421,1,0,0:0:0:0:
448,192,187421,1,0,0:0:0:0:
64,192,187577,1,0,0:0:0:0:
320,192,187733,1,0,0:0:0:0:
192,192,187889,1,0,0:0:0:0:
320,192,188046,1,0,0:0:0:0:
448,192,188046,1,0,0:0:0:0:
192,192,188202,1,0,0:0:0:0:
64,192,188358,1,0,0:0:0:0:
448,192,188358,1,0,0:0:0:0:
320,192,188514,1,0,0:0:0:0:
192,192,188671,1,0,0:0:0:0:
448,192,188827,1,0,0:0:0:0:
192,192,188983,1,0,0:0:0:0:
64,192,188983,1,0,0:0:0:0:
320,192,189139,1,0,0:0:0:0:
448,192,189296,1,0,0:0:0:0:
64,192,189296,1,0,0:0:0:0:
192,192,189452,1,0,0:0:0:0:
320,192,189608,1,0,0:0:0:0:
448,192,189764,1,0,0:0:0:0:
192,192,189921,1,0,0:0:0:0:
64,192,189921,1,0,0:0:0:0:
448,192,190077,1,0,0:0:0:0:
320,192,190233,1,0,0:0:0:0:
192,192,190233,1,0,0:0:0:0:
64,192,190389,1,0,0:0:0:0:
320,192,190546,1,0,0:0:0:0:
448,192,190546,1,0,0:0:0:0:
192,192,190702,1,0,0:0:0:0:
64,192,190858,1,0,0:0:0:0:
320,192,190858,1,0,0:0:0:0:
192,192,191014,1,0,0:0:0:0:
448,192,191014,1,0,0:0:0:0:
64,192,191171,1,0,0:0:0:0:
320,192,191171,1,4,0:0:0:0:
448,192,191171,1,0,0:0:0:0:
192,192,191171,1,2,0:0:0:0:
192,192,191327,1,2,0:0:0:0:
64,192,191327,1,0,0:0:0:0:
192,192,191483,1,2,0:0:0:0:
320,192,191483,1,0,0:0:0:0:
448,192,191483,1,0,0:0:0:0:
64,192,191639,1,0,0:0:0:0:
320,192,191639,1,2,0:0:0:0:
64,192,191796,1,0,0:0:0:0:
192,192,191796,1,2,0:0:0:0:
448,192,191796,1,0,0:0:0:0:
320,192,191952,1,2,0:0:0:0:
192,192,191952,1,0,0:0:0:0:
64,192,192108,1,0,0:0:0:0:
320,192,192108,1,2,0:0:0:0:
448,192,192108,1,0,0:0:0:0:
192,192,192264,1,0,0:0:0:0:
448,192,192264,1,2,0:0:0:0:
192,192,192421,1,0,0:0:0:0:
320,192,192421,1,2,0:0:0:0:
64,192,192421,1,0,0:0:0:0:
320,192,192577,1,2,0:0:0:0:
448,192,192577,1,0,0:0:0:0:
64,192,192733,1,0,0:0:0:0:
192,192,192733,1,2,0:0:0:0:
448,192,192733,1,0,0:0:0:0:
320,192,192889,1,2,0:0:0:0:
64,192,192889,1,0,0:0:0:0:
192,192,193046,1,2,0:0:0:0:
320,192,193046,1,4,0:0:0:0:
448,192,193046,1,0,0:0:0:0:
64,192,193046,1,0,0:0:0:0:
64,192,193202,1,0,0:0:0:0:
192,192,193202,1,2,0:0:0:0:
448,192,193202,1,0,0:0:0:0:
64,192,193358,1,0,0:0:0:0:
448,192,193358,1,0,0:0:0:0:
320,192,193358,1,2,0:0:0:0:
64,192,193514,1,0,0:0:0:0:
192,192,193514,1,0,0:0:0:0:
320,192,193514,1,2,0:0:0:0:
320,192,193671,1,0,0:0:0:0:
448,192,193671,1,2,0:0:0:0:
64,192,193671,1,0,0:0:0:0:
192,192,193827,1,2,0:0:0:0:
64,192,193827,1,0,0:0:0:0:
448,192,193827,1,0,0:0:0:0:
192,192,193983,1,0,0:0:0:0:
320,192,193983,1,2,0:0:0:0:
448,192,193983,1,0,0:0:0:0:
320,192,194139,1,0,0:0:0:0:
192,192,194139,1,2,0:0:0:0:
64,192,194139,1,0,0:0:0:0:
320,192,194296,1,0,0:0:0:0:
448,192,194296,1,2,0:0:0:0:
64,192,194296,1,0,0:0:0:0:
192,192,194452,1,0,0:0:0:0:
64,192,194452,1,0,0:0:0:0:
448,192,194452,1,2,0:0:0:0:
192,192,194608,1,0,0:0:0:0:
320,192,194608,1,2,0:0:0:0:
448,192,194608,1,0,0:0:0:0:
192,192,194764,1,2,0:0:0:0:
64,192,194764,1,0,0:0:0:0:
448,192,194764,1,0,0:0:0:0:
320,192,194921,1,2,0:0:0:0:
448,192,194921,1,4,0:0:0:0:
64,192,194921,1,0,0:0:0:0:
192,192,194999,1,2,0:0:0:0:
448,192,195077,1,0,0:0:0:0:
320,192,195077,1,2,0:0:0:0:
192,192,195155,1,2,0:0:0:0:
64,192,195155,1,0,0:0:0:0:
320,192,195233,1,2,0:0:0:0:
448,192,195233,1,0,0:0:0:0:
64,192,195311,1,0,0:0:0:0:
192,192,195311,1,2,0:0:0:0:
448,192,195389,1,0,0:0:0:0:
320,192,195389,1,2,0:0:0:0:
192,192,195467,1,2,0:0:0:0:
64,192,195467,1,0,0:0:0:0:
320,192,195546,1,2,0:0:0:0:
448,192,195546,1,0,0:0:0:0:
64,192,195624,1,0,0:0:0:0:
192,192,195624,1,2,0:0:0:0:
448,192,195702,1,0,0:0:0:0:
320,192,195702,1,2,0:0:0:0:
64,192,195780,1,2,0:0:0:0:
320,192,195858,1,2,0:0:0:0:
192,192,195858,1,0,0:0:0:0:
448,192,195858,1,4,0:0:0:0:
64,192,195936,1,2,0:0:0:0:
448,192,196014,1,0,0:0:0:0:
320,192,196014,1,2,0:0:0:0:
64,192,196092,1,0,0:0:0:0:
192,192,196092,1,2,0:0:0:0:
320,192,196171,1,2,0:0:0:0:
448,192,196171,1,0,0:0:0:0:
192,192,196249,1,2,0:0:0:0:
64,192,196249,1,0,0:0:0:0:
320,192,196327,1,2,0:0:0:0:
448,192,196327,1,0,0:0:0:0:
64,192,196405,1,0,0:0:0:0:
192,192,196405,1,2,0:0:0:0:
320,192,196483,1,2,0:0:0:0:
448,192,196483,1,0,0:0:0:0:
192,192,196561,1,2,0:0:0:0:
64,192,196561,1,0,0:0:0:0:
448,192,196639,1,2,0:0:0:0:
320,192,196678,1,2,0:0:0:0:
192,192,196717,1,2,0:0:0:0:
64,192,196756,1,2,0:0:0:0:
320,192,196796,1,2,0:0:0:0:
448,192,196796,1,4,0:0:0:0:
320,192,197108,1,0,0:0:0:0:
64,192,197108,1,2,0:0:0:0:
192,192,197108,1,4,0:0:0:0:
320,192,197421,1,0,0:0:0:0:
192,192,197421,1,4,0:0:0:0:
64,192,197421,1,2,0:0:0:0:
192,192,197733,1,0,0:0:0:0:
320,192,197733,1,4,0:0:0:0:
448,192,197733,1,2,0:0:0:0:
192,192,198046,1,0,0:0:0:0:
320,192,198046,1,4,0:0:0:0:
448,192,198046,1,2,0:0:0:0:
192,192,198358,1,0,0:0:0:0:
320,192,198358,1,4,0:0:0:0:
448,192,198358,1,2,0:0:0:0:
448,192,198671,1,0,0:0:0:0:
192,192,203046,128,0,203671:0:0:0:0:
64,192,203671,1,0,0:0:0:0:
448,192,203671,1,0,0:0:0:0:
320,192,203671,1,0,0:0:0:0:
448,192,203827,1,0,0:0:0:0:
192,192,203827,1,0,0:0:0:0:
448,192,203983,1,0,0:0:0:0:
64,192,203983,1,0,0:0:0:0:
320,192,204139,1,0,0:0:0:0:
192,192,204139,1,0,0:0:0:0:
448,192,204296,1,0,0:0:0:0:
64,192,204296,1,0,0:0:0:0:
192,192,204296,1,0,0:0:0:0:
64,192,204452,1,0,0:0:0:0:
320,192,204452,1,0,0:0:0:0:
192,192,204608,1,0,0:0:0:0:
320,192,204608,1,0,0:0:0:0:
192,192,204764,1,0,0:0:0:0:
448,192,204764,1,0,0:0:0:0:
64,192,204921,1,2,0:0:0:0:
448,192,204921,1,0,0:0:0:0:
192,192,204999,1,0,0:0:0:0:
320,192,205077,1,0,0:0:0:0:
448,192,205155,1,0,0:0:0:0:
192,192,205233,1,0,0:0:0:0:
64,192,205233,1,8,0:0:0:0:
320,192,205311,1,0,0:0:0:0:
448,192,205389,1,0,0:0:0:0:
64,192,205467,1,0,0:0:0:0:
320,192,205546,1,2,0:0:0:0:
448,192,205546,1,0,0:0:0:0:
192,192,205624,1,0,0:0:0:0:
64,192,205624,1,0,0:0:0:0:
320,192,205702,1,0,0:0:0:0:
448,192,205780,1,0,0:0:0:0:
192,192,205858,1,8,0:0:0:0:
64,192,205858,1,0,0:0:0:0:
320,192,205936,1,0,0:0:0:0:
448,192,205936,1,0,0:0:0:0:
192,192,206014,1,0,0:0:0:0:
64,192,206014,1,0,0:0:0:0:
320,192,206092,1,0,0:0:0:0:
448,192,206171,1,0,0:0:0:0:
64,192,206171,1,2,0:0:0:0:
320,192,206249,1,0,0:0:0:0:
192,192,206249,1,0,0:0:0:0:
64,192,206327,1,0,0:0:0:0:
320,192,206405,1,0,0:0:0:0:
448,192,206483,1,0,0:0:0:0:
192,192,206483,1,8,0:0:0:0:
64,192,206561,1,0,0:0:0:0:
192,192,206639,1,0,0:0:0:0:
320,192,206717,1,0,0:0:0:0:
448,192,206717,1,0,0:0:0:0:
192,192,206796,1,2,0:0:0:0:
64,192,206796,1,0,0:0:0:0:
320,192,206874,1,0,0:0:0:0:
448,192,206952,1,0,0:0:0:0:
192,192,206952,1,0,0:0:0:0:
320,192,207030,1,0,0:0:0:0:
64,192,207108,1,0,0:0:0:0:
192,192,207108,1,8,0:0:0:0:
320,192,207186,1,0,0:0:0:0:
448,192,207264,1,0,0:0:0:0:
64,192,207264,1,0,0:0:0:0:
192,192,207342,1,0,0:0:0:0:
64,192,207421,1,0,0:0:0:0:
448,192,207421,1,2,0:0:0:0:
192,192,207499,1,0,0:0:0:0:
320,192,207577,1,0,0:0:0:0:
448,192,207655,1,0,0:0:0:0:
64,192,207733,1,0,0:0:0:0:
320,192,207733,1,8,0:0:0:0:
192,192,207811,1,0,0:0:0:0:
320,192,207889,1,0,0:0:0:0:
192,192,207967,1,0,0:0:0:0:
64,192,208046,1,0,0:0:0:0:
448,192,208046,1,2,0:0:0:0:
192,192,208124,1,0,0:0:0:0:
320,192,208124,1,0,0:0:0:0:
448,192,208202,1,0,0:0:0:0:
320,192,208280,1,0,0:0:0:0:
64,192,208358,1,0,0:0:0:0:
192,192,208358,1,8,0:0:0:0:
320,192,208436,1,0,0:0:0:0:
448,192,208436,1,0,0:0:0:0:
64,192,208514,1,0,0:0:0:0:
192,192,208514,1,0,0:0:0:0:
320,192,208592,1,0,0:0:0:0:
448,192,208671,1,0,0:0:0:0:
64,192,208671,1,2,0:0:0:0:
192,192,208749,1,0,0:0:0:0:
320,192,208749,1,0,0:0:0:0:
64,192,208827,1,0,0:0:0:0:
448,192,208905,1,0,0:0:0:0:
320,192,208983,1,8,0:0:0:0:
64,192,208983,1,0,0:0:0:0:
448,192,209061,1,0,0:0:0:0:
192,192,209139,1,0,0:0:0:0:
320,192,209217,1,0,0:0:0:0:
448,192,209217,1,0,0:0:0:0:
192,192,209296,1,2,0:0:0:0:
64,192,209296,1,0,0:0:0:0:
448,192,209374,1,0,0:0:0:0:
64,192,209452,1,0,0:0:0:0:
320,192,209452,1,0,0:0:0:0:
192,192,209530,1,0,0:0:0:0:
320,192,209608,1,8,0:0:0:0:
448,192,209608,1,0,0:0:0:0:
64,192,209686,1,0,0:0:0:0:
192,192,209764,1,2,0:0:0:0:
320,192,209764,1,0,0:0:0:0:
448,192,209842,1,0,0:0:0:0:
64,192,209921,1,0,0:0:0:0:
320,192,209921,1,2,0:0:0:0:
448,192,209999,1,0,0:0:0:0:
192,192,209999,1,0,0:0:0:0:
320,192,210077,1,0,0:0:0:0:
64,192,210077,1,0,0:0:0:0:
192,192,210155,1,0,0:0:0:0:
320,192,210233,1,8,0:0:0:0:
64,192,210311,1,0,0:0:0:0:
448,192,210389,1,0,0:0:0:0:
320,192,210467,1,0,0:0:0:0:
192,192,210467,1,0,0:0:0:0:
64,192,210546,1,0,0:0:0:0:
448,192,210546,1,2,0:0:0:0:
192,192,210624,1,0,0:0:0:0:
448,192,210702,1,0,0:0:0:0:
64,192,210780,1,0,0:0:0:0:
320,192,210780,1,0,0:0:0:0:
192,192,210858,1,8,0:0:0:0:
320,192,210936,1,0,0:0:0:0:
448,192,210936,1,0,0:0:0:0:
192,192,211014,1,0,0:0:0:0:
64,192,211014,1,0,0:0:0:0:
320,192,211092,1,0,0:0:0:0:
64,192,211171,1,0,0:0:0:0:
448,192,211171,1,2,0:0:0:0:
192,192,211249,1,0,0:0:0:0:
320,192,211327,1,0,0:0:0:0:
448,192,211405,1,0,0:0:0:0:
192,192,211483,1,8,0:0:0:0:
64,192,211483,1,0,0:0:0:0:
320,192,211561,1,0,0:0:0:0:
192,192,211639,1,0,0:0:0:0:
64,192,211717,1,0,0:0:0:0:
320,192,211796,1,2,0:0:0:0:
448,192,211796,1,0,0:0:0:0:
192,192,211874,1,0,0:0:0:0:
320,192,211952,1,0,0:0:0:0:
64,192,212030,1,0,0:0:0:0:
448,192,212030,1,0,0:0:0:0:
192,192,212108,1,8,0:0:0:0:
320,192,212186,1,0,0:0:0:0:
192,192,212264,1,0,0:0:0:0:
448,192,212264,1,0,0:0:0:0:
64,192,212342,1,0,0:0:0:0:
320,192,212421,1,0,0:0:0:0:
448,192,212421,1,2,0:0:0:0:
192,192,212499,1,0,0:0:0:0:
320,192,212577,1,0,0:0:0:0:
64,192,212655,1,0,0:0:0:0:
448,192,212655,1,0,0:0:0:0:
320,192,212733,1,8,0:0:0:0:
192,192,212811,1,0,0:0:0:0:
320,192,212889,1,0,0:0:0:0:
64,192,212889,1,0,0:0:0:0:
448,192,212967,1,0,0:0:0:0:
192,192,213046,1,2,0:0:0:0:
320,192,213124,1,0,0:0:0:0:
448,192,213124,1,0,0:0:0:0:
64,192,213202,1,0,0:0:0:0:
192,192,213280,1,0,0:0:0:0:
64,192,213358,1,0,0:0:0:0:
448,192,213358,1,8,0:0:0:0:
320,192,213436,1,0,0:0:0:0:
192,192,213514,1,0,0:0:0:0:
64,192,213514,1,0,0:0:0:0:
320,192,213592,1,0,0:0:0:0:
448,192,213671,1,0,0:0:0:0:
192,192,213671,1,2,0:0:0:0:
64,192,213749,1,0,0:0:0:0:
320,192,213827,1,0,0:0:0:0:
192,192,213905,1,0,0:0:0:0:
64,192,213905,1,0,0:0:0:0:
448,192,213983,1,8,0:0:0:0:
192,192,214061,1,0,0:0:0:0:
320,192,214139,1,0,0:0:0:0:
448,192,214139,1,0,0:0:0:0:
192,192,214217,1,0,0:0:0:0:
64,192,214296,1,2,0:0:0:0:
320,192,214296,1,0,0:0:0:0:
448,192,214374,1,0,0:0:0:0:
192,192,214452,1,0,0:0:0:0:
64,192,214530,1,0,0:0:0:0:
448,192,214530,1,2,0:0:0:0:
320,192,214608,1,8,0:0:0:0:
192,192,214686,1,0,0:0:0:0:
64,192,214764,1,0,0:0:0:0:
320,192,214764,1,2,0:0:0:0:
448,192,214842,1,0,0:0:0:0:
192,192,214921,1,2,0:0:0:0:
64,192,214921,1,4,0:0:0:0:
320,192,214999,1,0,0:0:0:0:
448,192,215077,1,0,0:0:0:0:
320,192,215155,1,0,0:0:0:0:
64,192,215155,1,0,0:0:0:0:
192,192,215233,1,8,0:0:0:0:
448,192,215311,1,0,0:0:0:0:
192,192,215389,1,0,0:0:0:0:
64,192,215389,1,0,0:0:0:0:
320,192,215467,1,0,0:0:0:0:
192,192,215546,1,2,0:0:0:0:
64,192,215624,1,0,0:0:0:0:
320,192,215624,1,0,0:0:0:0:
448,192,215702,1,0,0:0:0:0:
192,192,215780,1,0,0:0:0:0:
320,192,215858,1,8,0:0:0:0:
448,192,215858,1,0,0:0:0:0:
64,192,215936,1,0,0:0:0:0:
192,192,216014,1,0,0:0:0:0:
320,192,216014,1,0,0:0:0:0:
448,192,216092,1,0,0:0:0:0:
192,192,216171,1,0,0:0:0:0:
64,192,216171,1,2,0:0:0:0:
320,192,216249,1,0,0:0:0:0:
448,192,216327,1,0,0:0:0:0:
64,192,216405,1,0,0:0:0:0:
192,192,216405,1,0,0:0:0:0:
320,192,216483,1,8,0:0:0:0:
448,192,216561,1,0,0:0:0:0:
192,192,216639,1,0,0:0:0:0:
64,192,216639,1,0,0:0:0:0:
320,192,216717,1,0,0:0:0:0:
192,192,216796,1,2,0:0:0:0:
448,192,216796,1,0,0:0:0:0:
64,192,216874,1,0,0:0:0:0:
320,192,216952,1,0,0:0:0:0:
192,192,217030,1,0,0:0:0:0:
448,192,217030,1,0,0:0:0:0:
64,192,217108,1,8,0:0:0:0:
320,192,217186,1,0,0:0:0:0:
192,192,217264,1,0,0:0:0:0:
448,192,217264,1,0,0:0:0:0:
64,192,217342,1,0,0:0:0:0:
448,192,217421,1,2,0:0:0:0:
320,192,217421,1,0,0:0:0:0:
192,192,217499,1,0,0:0:0:0:
64,192,217577,1,0,0:0:0:0:
448,192,217655,1,0,0:0:0:0:
320,192,217655,1,0,0:0:0:0:
192,192,217733,1,8,0:0:0:0:
64,192,217811,1,0,0:0:0:0:
448,192,217889,1,0,0:0:0:0:
320,192,217889,1,0,0:0:0:0:
192,192,217967,1,0,0:0:0:0:
64,192,218046,1,0,0:0:0:0:
448,192,218046,1,2,0:0:0:0:
192,192,218124,1,0,0:0:0:0:
320,192,218202,1,0,0:0:0:0:
64,192,218280,1,0,0:0:0:0:
448,192,218280,1,0,0:0:0:0:
192,192,218358,1,8,0:0:0:0:
320,192,218436,1,0,0:0:0:0:
64,192,218514,1,0,0:0:0:0:
448,192,218514,1,0,0:0:0:0:
192,192,218592,1,0,0:0:0:0:
64,192,218671,1,0,0:0:0:0:
320,192,218671,1,2,0:0:0:0:
448,192,218671,1,0,0:0:0:0:
192,192,218749,1,0,0:0:0:0:
448,192,218827,1,0,0:0:0:0:
320,192,218905,1,0,0:0:0:0:
448,192,218983,1,0,0:0:0:0:
192,192,218983,1,0,0:0:0:0:
64,192,218983,1,8,0:0:0:0:
320,192,219061,1,0,0:0:0:0:
192,192,219139,1,0,0:0:0:0:
64,192,219217,1,0,0:0:0:0:
192,192,219296,1,0,0:0:0:0:
320,192,219296,1,0,0:0:0:0:
448,192,219296,1,2,0:0:0:0:
64,192,219374,1,0,0:0:0:0:
320,192,219452,1,0,0:0:0:0:
448,192,219530,1,0,0:0:0:0:
192,192,219608,1,8,0:0:0:0:
64,192,219608,1,0,0:0:0:0:
320,192,219608,1,0,0:0:0:0:
448,192,219686,1,0,0:0:0:0:
192,192,219764,1,0,0:0:0:0:
64,192,219764,1,0,0:0:0:0:
320,192,219842,1,0,0:0:0:0:
64,192,219921,1,2,0:0:0:0:
448,192,219921,1,4,0:0:0:0:
192,192,219999,1,0,0:0:0:0:
320,192,219999,1,0,0:0:0:0:
64,192,220077,1,0,0:0:0:0:
448,192,220077,1,0,0:0:0:0:
192,192,220155,1,0,0:0:0:0:
448,192,220233,1,8,0:0:0:0:
64,192,220311,1,0,0:0:0:0:
320,192,220389,1,0,0:0:0:0:
192,192,220467,1,0,0:0:0:0:
448,192,220546,1,2,0:0:0:0:
320,192,220624,1,0,0:0:0:0:
64,192,220702,1,0,0:0:0:0:
192,192,220780,1,0,0:0:0:0:
320,192,220858,1,8,0:0:0:0:
448,192,220936,1,0,0:0:0:0:
64,192,221014,1,0,0:0:0:0:
192,192,221014,1,0,0:0:0:0:
320,192,221092,1,0,0:0:0:0:
448,192,221092,1,0,0:0:0:0:
192,192,221171,1,4,0:0:0:0:
64,192,221171,1,2,0:0:0:0:
448,192,221249,1,0,0:0:0:0:
320,192,221327,1,0,0:0:0:0:
192,192,221405,1,0,0:0:0:0:
64,192,221483,1,8,0:0:0:0:
320,192,221561,1,0,0:0:0:0:
192,192,221639,1,0,0:0:0:0:
64,192,221717,1,0,0:0:0:0:
320,192,221796,1,0,0:0:0:0:
448,192,221796,1,2,0:0:0:0:
192,192,221874,1,0,0:0:0:0:
64,192,221952,1,0,0:0:0:0:
320,192,222030,1,0,0:0:0:0:
192,192,222030,1,0,0:0:0:0:
448,192,222108,1,8,0:0:0:0:
320,192,222186,1,0,0:0:0:0:
192,192,222264,1,0,0:0:0:0:
64,192,222264,1,0,0:0:0:0:
448,192,222342,1,0,0:0:0:0:
192,192,222421,1,2,0:0:0:0:
64,192,222421,1,4,0:0:0:0:
320,192,222499,1,0,0:0:0:0:
448,192,222577,1,2,0:0:0:0:
64,192,222577,1,0,0:0:0:0:
192,192,222655,1,0,0:0:0:0:
320,192,222733,1,8,0:0:0:0:
448,192,222733,1,0,0:0:0:0:
64,192,222811,1,0,0:0:0:0:
192,192,222889,1,2,0:0:0:0:
448,192,222889,1,0,0:0:0:0:
320,192,222967,1,0,0:0:0:0:
192,192,223046,1,2,0:0:0:0:
64,192,223046,1,0,0:0:0:0:
448,192,223124,1,0,0:0:0:0:
320,192,223202,1,0,0:0:0:0:
192,192,223202,1,2,0:0:0:0:
64,192,223280,1,0,0:0:0:0:
320,192,223358,1,8,0:0:0:0:
448,192,223358,1,0,0:0:0:0:
192,192,223436,1,0,0:0:0:0:
64,192,223514,1,0,0:0:0:0:
320,192,223514,1,2,0:0:0:0:
448,192,223592,1,0,0:0:0:0:
192,192,223671,1,2,0:0:0:0:
64,192,223671,1,4,0:0:0:0:
320,192,223749,1,0,0:0:0:0:
448,192,223827,1,2,0:0:0:0:
64,192,223905,1,0,0:0:0:0:
320,192,223983,1,8,0:0:0:0:
448,192,223983,1,0,0:0:0:0:
192,192,224061,1,0,0:0:0:0:
64,192,224139,1,0,0:0:0:0:
320,192,224139,1,2,0:0:0:0:
448,192,224217,1,0,0:0:0:0:
64,192,224296,1,0,0:0:0:0:
192,192,224296,1,2,0:0:0:0:
320,192,224374,1,2,0:0:0:0:
448,192,224374,1,0,0:0:0:0:
192,192,224452,1,0,0:0:0:0:
320,192,224530,1,2,0:0:0:0:
448,192,224530,1,0,0:0:0:0:
192,192,224608,1,8,0:0:0:0:
64,192,224608,1,0,0:0:0:0:
320,192,224686,1,0,0:0:0:0:
448,192,224764,1,0,0:0:0:0:
192,192,224764,1,8,0:0:0:0:
64,192,224842,1,8,0:0:0:0:
192,192,224921,1,0,0:0:0:0:
320,192,224921,1,8,0:0:0:0:
448,192,224921,1,4,0:0:0:0:
64,192,224999,1,0,0:0:0:0:
320,192,225077,1,0,0:0:0:0:
448,192,225155,1,0,0:0:0:0:
64,192,225233,1,0,0:0:0:0:
192,192,225233,1,8,0:0:0:0:
320,192,225311,1,0,0:0:0:0:
448,192,225389,1,0,0:0:0:0:
192,192,225467,1,0,0:0:0:0:
64,192,225546,1,2,0:0:0:0:
448,192,225546,1,0,0:0:0:0:
192,192,225624,1,0,0:0:0:0:
320,192,225624,1,0,0:0:0:0:
448,192,225702,1,0,0:0:0:0:
320,192,225780,1,0,0:0:0:0:
64,192,225858,1,0,0:0:0:0:
192,192,225858,1,8,0:0:0:0:
448,192,225936,1,0,0:0:0:0:
320,192,225936,1,0,0:0:0:0:
192,192,226014,1,0,0:0:0:0:
64,192,226014,1,0,0:0:0:0:
320,192,226092,1,0,0:0:0:0:
448,192,226171,1,2,0:0:0:0:
64,192,226171,1,0,0:0:0:0:
192,192,226249,1,0,0:0:0:0:
320,192,226249,1,0,0:0:0:0:
448,192,226327,1,0,0:0:0:0:
192,192,226405,1,0,0:0:0:0:
448,192,226483,1,0,0:0:0:0:
320,192,226483,1,8,0:0:0:0:
64,192,226561,1,0,0:0:0:0:
320,192,226639,1,0,0:0:0:0:
448,192,226717,1,0,0:0:0:0:
64,192,226717,1,0,0:0:0:0:
192,192,226796,1,2,0:0:0:0:
320,192,226796,1,0,0:0:0:0:
448,192,226874,1,0,0:0:0:0:
192,192,226952,1,0,0:0:0:0:
64,192,226952,1,0,0:0:0:0:
320,192,227030,1,0,0:0:0:0:
448,192,227108,1,8,0:0:0:0:
64,192,227108,1,0,0:0:0:0:
192,192,227186,1,0,0:0:0:0:
448,192,227264,1,0,0:0:0:0:
320,192,227264,1,0,0:0:0:0:
192,192,227342,1,0,0:0:0:0:
448,192,227421,1,0,0:0:0:0:
64,192,227421,1,2,0:0:0:0:
192,192,227499,1,0,0:0:0:0:
320,192,227577,1,0,0:0:0:0:
448,192,227655,1,0,0:0:0:0:
64,192,227733,1,0,0:0:0:0:
192,192,227733,1,8,0:0:0:0:
320,192,227811,1,0,0:0:0:0:
192,192,227889,1,0,0:0:0:0:
320,192,227967,1,0,0:0:0:0:
64,192,228046,1,0,0:0:0:0:
192,192,228046,1,0,0:0:0:0:
320,192,228124,1,0,0:0:0:0:
448,192,228124,1,0,0:0:0:0:
64,192,228202,1,0,0:0:0:0:
448,192,228280,1,0,0:0:0:0:
64,192,228358,1,0,0:0:0:0:
320,192,228358,1,8,0:0:0:0:
192,192,228436,1,0,0:0:0:0:
448,192,228436,1,0,0:0:0:0:
64,192,228514,1,0,0:0:0:0:
320,192,228514,1,0,0:0:0:0:
192,192,228592,1,0,0:0:0:0:
448,192,228671,1,2,0:0:0:0:
320,192,228671,1,0,0:0:0:0:
192,192,228749,1,0,0:0:0:0:
64,192,228749,1,0,0:0:0:0:
320,192,228827,1,0,0:0:0:0:
192,192,228905,1,0,0:0:0:0:
448,192,228983,1,8,0:0:0:0:
64,192,228983,1,0,0:0:0:0:
320,192,229061,1,0,0:0:0:0:
448,192,229139,1,0,0:0:0:0:
64,192,229217,1,0,0:0:0:0:
192,192,229217,1,0,0:0:0:0:
448,192,229296,1,0,0:0:0:0:
320,192,229296,1,2,0:0:0:0:
64,192,229374,1,0,0:0:0:0:
448,192,229452,1,0,0:0:0:0:
192,192,229452,1,0,0:0:0:0:
320,192,229530,1,0,0:0:0:0:
64,192,229608,1,8,0:0:0:0:
192,192,229608,1,0,0:0:0:0:
448,192,229686,1,0,0:0:0:0:
320,192,229764,1,0,0:0:0:0:
64,192,229764,1,0,0:0:0:0:
192,192,229842,1,0,0:0:0:0:
64,192,229921,1,0,0:0:0:0:
448,192,229921,1,2,0:0:0:0:
320,192,229999,1,0,0:0:0:0:
192,192,229999,1,0,0:0:0:0:
64,192,230077,1,0,0:0:0:0:
448,192,230077,1,0,0:0:0:0:
320,192,230155,1,0,0:0:0:0:
192,192,230233,1,8,0:0:0:0:
64,192,230311,1,0,0:0:0:0:
448,192,230389,1,0,0:0:0:0:
320,192,230467,1,0,0:0:0:0:
192,192,230467,1,0,0:0:0:0:
64,192,230546,1,0,0:0:0:0:
448,192,230546,1,2,0:0:0:0:
192,192,230624,1,0,0:0:0:0:
448,192,230702,1,0,0:0:0:0:
64,192,230780,1,0,0:0:0:0:
320,192,230780,1,0,0:0:0:0:
192,192,230858,1,8,0:0:0:0:
448,192,230936,1,0,0:0:0:0:
320,192,230936,1,0,0:0:0:0:
64,192,231014,1,0,0:0:0:0:
192,192,231014,1,0,0:0:0:0:
320,192,231092,1,0,0:0:0:0:
448,192,231171,1,0,0:0:0:0:
64,192,231171,1,2,0:0:0:0:
192,192,231249,1,0,0:0:0:0:
320,192,231327,1,0,0:0:0:0:
448,192,231405,1,0,0:0:0:0:
320,192,231483,1,8,0:0:0:0:
64,192,231483,1,0,0:0:0:0:
192,192,231561,1,0,0:0:0:0:
448,192,231639,1,0,0:0:0:0:
320,192,231717,1,0,0:0:0:0:
192,192,231796,1,0,0:0:0:0:
448,192,231796,1,2,0:0:0:0:
64,192,231874,1,0,0:0:0:0:
320,192,231952,1,0,0:0:0:0:
64,192,232030,1,0,0:0:0:0:
448,192,232030,1,0,0:0:0:0:
192,192,232108,1,8,0:0:0:0:
320,192,232186,1,0,0:0:0:0:
64,192,232264,1,0,0:0:0:0:
448,192,232264,1,0,0:0:0:0:
192,192,232342,1,0,0:0:0:0:
320,192,232421,1,2,0:0:0:0:
448,192,232421,1,0,0:0:0:0:
64,192,232499,1,0,0:0:0:0:
448,192,232577,1,0,0:0:0:0:
320,192,232655,1,0,0:0:0:0:
192,192,232655,1,0,0:0:0:0:
64,192,232733,1,8,0:0:0:0:
448,192,232811,1,0,0:0:0:0:
64,192,232889,1,0,0:0:0:0:
320,192,232889,1,0,0:0:0:0:
448,192,232967,1,0,0:0:0:0:
192,192,233046,1,2,0:0:0:0:
448,192,233124,1,0,0:0:0:0:
320,192,233124,1,0,0:0:0:0:
64,192,233202,1,0,0:0:0:0:
192,192,233280,1,0,0:0:0:0:
64,192,233358,1,0,0:0:0:0:
448,192,233358,1,8,0:0:0:0:
320,192,233436,1,0,0:0:0:0:
64,192,233514,1,0,0:0:0:0:
192,192,233514,1,0,0:0:0:0:
320,192,233592,1,0,0:0:0:0:
448,192,233671,1,0,0:0:0:0:
192,192,233671,1,2,0:0:0:0:
64,192,233749,1,0,0:0:0:0:
320,192,233827,1,0,0:0:0:0:
448,192,233905,1,0,0:0:0:0:
64,192,233905,1,0,0:0:0:0:
192,192,233983,1,8,0:0:0:0:
320,192,234061,1,0,0:0:0:0:
192,192,234139,1,0,0:0:0:0:
448,192,234139,1,0,0:0:0:0:
64,192,234217,1,0,0:0:0:0:
192,192,234296,1,0,0:0:0:0:
320,192,234296,1,2,0:0:0:0:
448,192,234374,1,0,0:0:0:0:
320,192,234452,1,0,0:0:0:0:
192,192,234530,1,2,0:0:0:0:
64,192,234530,1,0,0:0:0:0:
448,192,234608,1,8,0:0:0:0:
192,192,234686,1,0,0:0:0:0:
320,192,234764,1,0,0:0:0:0:
64,192,234764,1,0,0:0:0:0:
448,192,234842,1,0,0:0:0:0:
192,192,234921,1,4,0:0:0:0:
320,192,234921,1,2,0:0:0:0:
64,192,234999,1,0,0:0:0:0:
192,192,235077,1,0,0:0:0:0:
320,192,235155,1,0,0:0:0:0:
448,192,235155,1,0,0:0:0:0:
64,192,235233,1,8,0:0:0:0:
320,192,235311,1,0,0:0:0:0:
192,192,235389,1,0,0:0:0:0:
64,192,235389,1,0,0:0:0:0:
448,192,235467,1,0,0:0:0:0:
192,192,235546,1,2,0:0:0:0:
64,192,235624,1,0,0:0:0:0:
320,192,235624,1,0,0:0:0:0:
448,192,235702,1,0,0:0:0:0:
192,192,235780,1,0,0:0:0:0:
448,192,235858,1,0,0:0:0:0:
320,192,235858,1,8,0:0:0:0:
64,192,235936,1,0,0:0:0:0:
192,192,236014,1,0,0:0:0:0:
320,192,236014,1,0,0:0:0:0:
448,192,236092,1,0,0:0:0:0:
64,192,236171,1,2,0:0:0:0:
320,192,236171,1,0,0:0:0:0:
192,192,236249,1,0,0:0:0:0:
448,192,236327,1,0,0:0:0:0:
64,192,236405,1,0,0:0:0:0:
320,192,236405,1,0,0:0:0:0:
192,192,236483,1,8,0:0:0:0:
448,192,236561,1,0,0:0:0:0:
64,192,236639,1,0,0:0:0:0:
320,192,236639,1,0,0:0:0:0:
192,192,236717,1,0,0:0:0:0:
448,192,236796,1,0,0:0:0:0:
320,192,236796,1,2,0:0:0:0:
192,192,236874,1,0,0:0:0:0:
64,192,236952,1,0,0:0:0:0:
448,192,237030,1,0,0:0:0:0:
320,192,237030,1,0,0:0:0:0:
192,192,237108,1,8,0:0:0:0:
64,192,237186,1,0,0:0:0:0:
448,192,237264,1,0,0:0:0:0:
320,192,237264,1,0,0:0:0:0:
192,192,237342,1,0,0:0:0:0:
64,192,237421,1,0,0:0:0:0:
448,192,237421,1,2,0:0:0:0:
320,192,237499,1,0,0:0:0:0:
192,192,237577,1,0,0:0:0:0:
64,192,237655,1,0,0:0:0:0:
448,192,237655,1,0,0:0:0:0:
320,192,237733,1,8,0:0:0:0:
192,192,237811,1,0,0:0:0:0:
64,192,237889,1,0,0:0:0:0:
448,192,237889,1,0,0:0:0:0:
320,192,237967,1,0,0:0:0:0:
448,192,238046,1,0,0:0:0:0:
64,192,238046,1,2,0:0:0:0:
192,192,238124,1,0,0:0:0:0:
320,192,238202,1,0,0:0:0:0:
448,192,238280,1,0,0:0:0:0:
64,192,238280,1,0,0:0:0:0:
192,192,238358,1,8,0:0:0:0:
320,192,238436,1,0,0:0:0:0:
448,192,238514,1,0,0:0:0:0:
64,192,238514,1,0,0:0:0:0:
192,192,238592,1,0,0:0:0:0:
64,192,238671,1,0,0:0:0:0:
320,192,238671,1,2,0:0:0:0:
448,192,238671,1,0,0:0:0:0:
192,192,238749,1,0,0:0:0:0:
448,192,238827,1,0,0:0:0:0:
320,192,238905,1,0,0:0:0:0:
448,192,238983,1,0,0:0:0:0:
192,192,238983,1,8,0:0:0:0:
64,192,238983,1,0,0:0:0:0:
320,192,239061,1,0,0:0:0:0:
192,192,239139,1,0,0:0:0:0:
64,192,239217,1,0,0:0:0:0:
448,192,239296,1,2,0:0:0:0:
192,192,239296,1,0,0:0:0:0:
320,192,239296,1,0,0:0:0:0:
64,192,239374,1,0,0:0:0:0:
320,192,239452,1,0,0:0:0:0:
448,192,239530,1,0,0:0:0:0:
320,192,239608,1,0,0:0:0:0:
192,192,239608,1,8,0:0:0:0:
64,192,239608,1,0,0:0:0:0:
448,192,239686,1,0,0:0:0:0:
64,192,239764,1,0,0:0:0:0:
192,192,239764,1,2,0:0:0:0:
320,192,239842,1,0,0:0:0:0:
64,192,239921,1,4,0:0:0:0:
192,192,239921,1,2,0:0:0:0:
448,192,239999,1,0,0:0:0:0:
320,192,239999,1,0,0:0:0:0:
192,192,240077,1,0,0:0:0:0:
64,192,240077,1,0,0:0:0:0:
448,192,240155,1,0,0:0:0:0:
320,192,240233,1,8,0:0:0:0:
192,192,240311,1,0,0:0:0:0:
64,192,240389,1,0,0:0:0:0:
320,192,240467,1,0,0:0:0:0:
192,192,240546,1,2,0:0:0:0:
448,192,240624,1,0,0:0:0:0:
64,192,240702,1,0,0:0:0:0:
192,192,240780,1,0,0:0:0:0:
320,192,240858,1,8,0:0:0:0:
448,192,240936,1,0,0:0:0:0:
64,192,241014,1,0,0:0:0:0:
192,192,241014,1,0,0:0:0:0:
320,192,241092,1,0,0:0:0:0:
448,192,241092,1,0,0:0:0:0:
192,192,241171,1,2,0:0:0:0:
64,192,241171,1,4,0:0:0:0:
448,192,241249,1,0,0:0:0:0:
320,192,241327,1,0,0:0:0:0:
192,192,241405,1,0,0:0:0:0:
64,192,241483,1,8,0:0:0:0:
320,192,241561,1,0,0:0:0:0:
192,192,241639,1,0,0:0:0:0:
64,192,241717,1,0,0:0:0:0:
448,192,241717,1,0,0:0:0:0:
320,192,241796,1,2,0:0:0:0:
192,192,241796,1,0,0:0:0:0:
448,192,241874,1,0,0:0:0:0:
64,192,241952,1,0,0:0:0:0:
320,192,242030,1,0,0:0:0:0:
192,192,242030,1,0,0:0:0:0:
448,192,242108,1,8,0:0:0:0:
192,192,242186,1,0,0:0:0:0:
64,192,242264,1,0,0:0:0:0:
320,192,242264,1,0,0:0:0:0:
448,192,242342,1,0,0:0:0:0:
64,192,242421,1,4,0:0:0:0:
192,192,242421,1,2,0:0:0:0:
320,192,242499,1,0,0:0:0:0:
448,192,242577,1,0,0:0:0:0:
192,192,242577,1,2,0:0:0:0:
320,192,242655,1,0,0:0:0:0:
192,192,242733,1,8,0:0:0:0:
64,192,242733,1,0,0:0:0:0:
320,192,242811,1,0,0:0:0:0:
448,192,242889,1,2,0:0:0:0:
64,192,242889,1,0,0:0:0:0:
192,192,242967,1,0,0:0:0:0:
320,192,243046,1,2,0:0:0:0:
448,192,243046,1,0,0:0:0:0:
192,192,243124,1,0,0:0:0:0:
320,192,243202,1,2,0:0:0:0:
64,192,243202,1,0,0:0:0:0:
448,192,243280,1,0,0:0:0:0:
192,192,243358,1,8,0:0:0:0:
64,192,243358,1,0,0:0:0:0:
320,192,243436,1,2,0:0:0:0:
448,192,243436,1,0,0:0:0:0:
192,192,243514,1,8,0:0:0:0:
64,192,243514,1,0,0:0:0:0:
320,192,243592,1,8,0:0:0:0:
64,192,243671,1,4,0:0:0:0:
448,192,243671,1,0,0:0:0:0:
192,192,243671,1,8,0:0:0:0:
320,192,243749,1,0,0:0:0:0:
448,192,243827,1,0,0:0:0:0:
64,192,243905,1,0,0:0:0:0:
320,192,243983,1,8,0:0:0:0:
448,192,243983,1,0,0:0:0:0:
192,192,243983,1,4,0:0:0:0:
64,192,244061,1,0,0:0:0:0:
192,192,244139,1,0,0:0:0:0:
448,192,244217,1,0,0:0:0:0:
64,192,244296,1,0,0:0:0:0:
192,192,244296,1,8,0:0:0:0:
320,192,244296,1,4,0:0:0:0:
448,192,244374,1,0,0:0:0:0:
320,192,244452,1,0,0:0:0:0:
192,192,244530,1,0,0:0:0:0:
320,192,244608,1,4,0:0:0:0:
448,192,244608,1,8,0:0:0:0:
64,192,244608,1,0,0:0:0:0:
192,192,244686,1,0,0:0:0:0:
64,192,244764,1,0,0:0:0:0:
320,192,244842,1,0,0:0:0:0:
192,192,244921,1,2,0:0:0:0:
64,192,244921,1,4,0:0:0:0:
448,192,244921,1,0,0:0:0:0:
320,192,244999,1,0,0:0:0:0:
64,192,245077,1,0,0:0:0:0:
448,192,245155,1,0,0:0:0:0:
192,192,245233,1,8,0:0:0:0:
320,192,245233,1,0,0:0:0:0:
64,192,245311,1,0,0:0:0:0:
448,192,245389,1,0,0:0:0:0:
192,192,245467,1,0,0:0:0:0:
320,192,245546,1,2,0:0:0:0:
448,192,245546,1,0,0:0:0:0:
192,192,245624,1,0,0:0:0:0:
64,192,245624,1,0,0:0:0:0:
320,192,245702,1,0,0:0:0:0:
448,192,245780,1,0,0:0:0:0:
192,192,245858,1,8,0:0:0:0:
64,192,245858,1,0,0:0:0:0:
320,192,245936,1,0,0:0:0:0:
448,192,245936,1,0,0:0:0:0:
64,192,246014,1,0,0:0:0:0:
192,192,246014,1,0,0:0:0:0:
320,192,246092,1,0,0:0:0:0:
64,192,246171,1,2,0:0:0:0:
448,192,246171,1,0,0:0:0:0:
320,192,246249,1,0,0:0:0:0:
192,192,246249,1,0,0:0:0:0:
448,192,246327,1,0,0:0:0:0:
64,192,246405,1,0,0:0:0:0:
320,192,246483,1,0,0:0:0:0:
192,192,246483,1,8,0:0:0:0:
448,192,246561,1,0,0:0:0:0:
320,192,246639,1,0,0:0:0:0:
64,192,246717,1,0,0:0:0:0:
192,192,246717,1,0,0:0:0:0:
320,192,246796,1,2,0:0:0:0:
448,192,246796,1,0,0:0:0:0:
192,192,246874,1,0,0:0:0:0:
64,192,246952,1,0,0:0:0:0:
448,192,246952,1,0,0:0:0:0:
320,192,247030,1,0,0:0:0:0:
192,192,247108,1,8,0:0:0:0:
64,192,247108,1,0,0:0:0:0:
320,192,247186,1,0,0:0:0:0:
448,192,247264,1,0,0:0:0:0:
192,192,247264,1,0,0:0:0:0:
64,192,247342,1,0,0:0:0:0:
320,192,247421,1,2,0:0:0:0:
448,192,247421,1,0,0:0:0:0:
192,192,247499,1,0,0:0:0:0:
320,192,247577,1,0,0:0:0:0:
448,192,247655,1,0,0:0:0:0:
320,192,247733,1,0,0:0:0:0:
64,192,247733,1,8,0:0:0:0:
192,192,247811,1,0,0:0:0:0:
448,192,247889,1,0,0:0:0:0:
64,192,247967,1,0,0:0:0:0:
192,192,248046,1,0,0:0:0:0:
448,192,248046,1,2,0:0:0:0:
320,192,248124,1,0,0:0:0:0:
64,192,248124,1,0,0:0:0:0:
448,192,248202,1,0,0:0:0:0:
192,192,248202,1,0,0:0:0:0:
320,192,248280,1,0,0:0:0:0:
64,192,248358,1,8,0:0:0:0:
192,192,248358,1,0,0:0:0:0:
448,192,248436,1,0,0:0:0:0:
320,192,248436,1,0,0:0:0:0:
192,192,248514,1,0,0:0:0:0:
64,192,248514,1,0,0:0:0:0:
320,192,248592,1,0,0:0:0:0:
448,192,248671,1,2,0:0:0:0:
64,192,248671,1,0,0:0:0:0:
320,192,248749,1,0,0:0:0:0:
192,192,248749,1,0,0:0:0:0:
64,192,248827,1,0,0:0:0:0:
192,192,248905,1,0,0:0:0:0:
320,192,248983,1,8,0:0:0:0:
448,192,248983,1,0,0:0:0:0:
192,192,249061,1,0,0:0:0:0:
448,192,249139,1,0,0:0:0:0:
64,192,249217,1,0,0:0:0:0:
320,192,249217,1,0,0:0:0:0:
192,192,249296,1,2,0:0:0:0:
448,192,249296,1,0,0:0:0:0:
64,192,249374,1,0,0:0:0:0:
448,192,249452,1,0,0:0:0:0:
320,192,249452,1,0,0:0:0:0:
64,192,249530,1,0,0:0:0:0:
192,192,249608,1,0,0:0:0:0:
320,192,249608,1,8,0:0:0:0:
448,192,249686,1,0,0:0:0:0:
64,192,249764,1,0,0:0:0:0:
192,192,249764,1,2,0:0:0:0:
320,192,249842,1,0,0:0:0:0:
64,192,249921,1,2,0:0:0:0:
448,192,249921,1,0,0:0:0:0:
320,192,249999,1,0,0:0:0:0:
192,192,249999,1,0,0:0:0:0:
448,192,250077,1,0,0:0:0:0:
64,192,250077,1,0,0:0:0:0:
192,192,250155,1,0,0:0:0:0:
320,192,250233,1,8,0:0:0:0:
448,192,250311,1,0,0:0:0:0:
64,192,250389,1,0,0:0:0:0:
448,192,250467,1,0,0:0:0:0:
320,192,250467,1,0,0:0:0:0:
192,192,250546,1,2,0:0:0:0:
64,192,250546,1,0,0:0:0:0:
320,192,250624,1,0,0:0:0:0:
192,192,250702,1,0,0:0:0:0:
448,192,250780,1,0,0:0:0:0:
64,192,250780,1,0,0:0:0:0:
192,192,250858,1,8,0:0:0:0:
320,192,250936,1,0,0:0:0:0:
448,192,250936,1,0,0:0:0:0:
192,192,251014,1,0,0:0:0:0:
64,192,251014,1,0,0:0:0:0:
320,192,251092,1,0,0:0:0:0:
448,192,251171,1,0,0:0:0:0:
64,192,251171,1,2,0:0:0:0:
192,192,251249,1,0,0:0:0:0:
320,192,251327,1,0,0:0:0:0:
448,192,251405,1,0,0:0:0:0:
64,192,251483,1,8,0:0:0:0:
192,192,251483,1,0,0:0:0:0:
320,192,251561,1,0,0:0:0:0:
192,192,251639,1,0,0:0:0:0:
64,192,251717,1,0,0:0:0:0:
320,192,251796,1,0,0:0:0:0:
448,192,251796,1,2,0:0:0:0:
192,192,251874,1,0,0:0:0:0:
320,192,251952,1,0,0:0:0:0:
448,192,252030,1,0,0:0:0:0:
64,192,252030,1,0,0:0:0:0:
192,192,252108,1,8,0:0:0:0:
320,192,252186,1,0,0:0:0:0:
448,192,252264,1,0,0:0:0:0:
192,192,252264,1,0,0:0:0:0:
64,192,252342,1,0,0:0:0:0:
448,192,252421,1,0,0:0:0:0:
320,192,252421,1,2,0:0:0:0:
192,192,252499,1,0,0:0:0:0:
320,192,252577,1,0,0:0:0:0:
64,192,252655,1,0,0:0:0:0:
192,192,252655,1,0,0:0:0:0:
448,192,252733,1,8,0:0:0:0:
320,192,252811,1,0,0:0:0:0:
64,192,252889,1,0,0:0:0:0:
448,192,252889,1,0,0:0:0:0:
192,192,252967,1,0,0:0:0:0:
320,192,253046,1,2,0:0:0:0:
448,192,253124,1,0,0:0:0:0:
64,192,253124,1,0,0:0:0:0:
192,192,253202,1,0,0:0:0:0:
320,192,253280,1,0,0:0:0:0:
192,192,253358,1,0,0:0:0:0:
64,192,253358,1,8,0:0:0:0:
448,192,253436,1,0,0:0:0:0:
320,192,253514,1,0,0:0:0:0:
192,192,253514,1,0,0:0:0:0:
64,192,253592,1,0,0:0:0:0:
320,192,253671,1,0,0:0:0:0:
448,192,253671,1,2,0:0:0:0:
192,192,253749,1,0,0:0:0:0:
320,192,253827,1,0,0:0:0:0:
64,192,253905,1,0,0:0:0:0:
448,192,253905,1,0,0:0:0:0:
192,192,253983,1,8,0:0:0:0:
320,192,254061,1,0,0:0:0:0:
192,192,254139,1,0,0:0:0:0:
448,192,254139,1,0,0:0:0:0:
64,192,254217,1,0,0:0:0:0:
192,192,254296,1,0,0:0:0:0:
320,192,254296,1,2,0:0:0:0:
448,192,254374,1,0,0:0:0:0:
192,192,254452,1,0,0:0:0:0:
64,192,254530,1,0,0:0:0:0:
448,192,254530,1,2,0:0:0:0:
320,192,254608,1,8,0:0:0:0:
192,192,254686,1,0,0:0:0:0:
64,192,254764,1,0,0:0:0:0:
320,192,254764,1,2,0:0:0:0:
448,192,254842,1,0,0:0:0:0:
192,192,254921,1,2,0:0:0:0:
64,192,254921,1,4,0:0:0:0:
320,192,254999,1,0,0:0:0:0:
448,192,255077,1,0,0:0:0:0:
320,192,255155,1,0,0:0:0:0:
64,192,255155,1,0,0:0:0:0:
192,192,255233,1,8,0:0:0:0:
448,192,255311,1,0,0:0:0:0:
64,192,255389,1,0,0:0:0:0:
192,192,255389,1,0,0:0:0:0:
320,192,255467,1,0,0:0:0:0:
64,192,255546,1,2,0:0:0:0:
192,192,255624,1,0,0:0:0:0:
448,192,255624,1,0,0:0:0:0:
64,192,255702,1,0,0:0:0:0:
320,192,255780,1,0,0:0:0:0:
192,192,255858,1,0,0:0:0:0:
448,192,255858,1,8,0:0:0:0:
64,192,255936,1,0,0:0:0:0:
320,192,256014,1,0,0:0:0:0:
192,192,256014,1,0,0:0:0:0:
448,192,256092,1,0,0:0:0:0:
192,192,256171,1,2,0:0:0:0:
64,192,256171,1,0,0:0:0:0:
320,192,256249,1,0,0:0:0:0:
448,192,256327,1,0,0:0:0:0:
192,192,256405,1,0,0:0:0:0:
64,192,256405,1,0,0:0:0:0:
320,192,256483,1,8,0:0:0:0:
448,192,256561,1,0,0:0:0:0:
64,192,256639,1,0,0:0:0:0:
192,192,256639,1,0,0:0:0:0:
320,192,256717,1,0,0:0:0:0:
448,192,256796,1,0,0:0:0:0:
64,192,256796,1,2,0:0:0:0:
192,192,256874,1,0,0:0:0:0:
320,192,256952,1,0,0:0:0:0:
448,192,257030,1,0,0:0:0:0:
64,192,257030,1,0,0:0:0:0:
192,192,257108,1,8,0:0:0:0:
320,192,257186,1,0,0:0:0:0:
448,192,257264,1,0,0:0:0:0:
64,192,257264,1,0,0:0:0:0:
192,192,257342,1,0,0:0:0:0:
448,192,257421,1,0,0:0:0:0:
320,192,257421,1,2,0:0:0:0:
192,192,257499,1,0,0:0:0:0:
64,192,257577,1,0,0:0:0:0:
448,192,257655,1,0,0:0:0:0:
320,192,257655,1,0,0:0:0:0:
192,192,257733,1,8,0:0:0:0:
64,192,257811,1,0,0:0:0:0:
448,192,257889,1,0,0:0:0:0:
320,192,257889,1,0,0:0:0:0:
192,192,257967,1,0,0:0:0:0:
64,192,258046,1,0,0:0:0:0:
448,192,258046,1,2,0:0:0:0:
320,192,258124,1,0,0:0:0:0:
64,192,258202,1,0,0:0:0:0:
192,192,258280,1,0,0:0:0:0:
448,192,258280,1,0,0:0:0:0:
320,192,258358,1,8,0:0:0:0:
64,192,258436,1,0,0:0:0:0:
192,192,258514,1,0,0:0:0:0:
448,192,258514,1,0,0:0:0:0:
320,192,258592,1,0,0:0:0:0:
192,192,258671,1,2,0:0:0:0:
64,192,258671,1,0,0:0:0:0:
448,192,258671,1,0,0:0:0:0:
320,192,258749,1,0,0:0:0:0:
64,192,258827,1,0,0:0:0:0:
192,192,258905,1,0,0:0:0:0:
64,192,258983,1,0,0:0:0:0:
320,192,258983,1,8,0:0:0:0:
448,192,258983,1,0,0:0:0:0:
192,192,259061,1,0,0:0:0:0:
320,192,259139,1,0,0:0:0:0:
448,192,259217,1,0,0:0:0:0:
64,192,259296,1,2,0:0:0:0:
192,192,259296,1,0,0:0:0:0:
320,192,259296,1,0,0:0:0:0:
448,192,259374,1,0,0:0:0:0:
192,192,259452,1,0,0:0:0:0:
64,192,259530,1,0,0:0:0:0:
192,192,259608,1,0,0:0:0:0:
320,192,259608,1,8,0:0:0:0:
448,192,259608,1,0,0:0:0:0:
64,192,259686,1,0,0:0:0:0:
448,192,259764,1,0,0:0:0:0:
320,192,259764,1,2,0:0:0:0:
192,192,259842,1,0,0:0:0:0:
448,192,259921,1,4,0:0:0:0:
64,192,259921,1,2,0:0:0:0:
320,192,259999,1,0,0:0:0:0:
192,192,259999,1,0,0:0:0:0:
64,192,260077,1,0,0:0:0:0:
448,192,260077,1,0,0:0:0:0:
320,192,260155,1,0,0:0:0:0:
192,192,260233,1,8,0:0:0:0:
64,192,260311,1,0,0:0:0:0:
448,192,260389,1,0,0:0:0:0:
192,192,260467,1,0,0:0:0:0:
320,192,260546,1,2,0:0:0:0:
64,192,260624,1,0,0:0:0:0:
448,192,260702,1,0,0:0:0:0:
192,192,260780,1,0,0:0:0:0:
320,192,260858,1,8,0:0:0:0:
64,192,260936,1,0,0:0:0:0:
448,192,261014,1,0,0:0:0:0:
320,192,261014,1,0,0:0:0:0:
64,192,261092,1,0,0:0:0:0:
192,192,261092,1,0,0:0:0:0:
448,192,261171,1,4,0:0:0:0:
320,192,261171,1,2,0:0:0:0:
192,192,261249,1,0,0:0:0:0:
64,192,261327,1,0,0:0:0:0:
320,192,261405,1,0,0:0:0:0:
448,192,261483,1,8,0:0:0:0:
192,192,261561,1,0,0:0:0:0:
320,192,261639,1,0,0:0:0:0:
448,192,261717,1,0,0:0:0:0:
64,192,261717,1,0,0:0:0:0:
320,192,261796,1,0,0:0:0:0:
192,192,261796,1,2,0:0:0:0:
448,192,261874,1,0,0:0:0:0:
192,192,261952,1,0,0:0:0:0:
320,192,262030,1,0,0:0:0:0:
64,192,262030,1,0,0:0:0:0:
448,192,262108,1,8,0:0:0:0:
64,192,262186,1,0,0:0:0:0:
320,192,262264,1,0,0:0:0:0:
192,192,262264,1,0,0:0:0:0:
448,192,262342,1,0,0:0:0:0:
64,192,262421,1,4,0:0:0:0:
192,192,262421,1,2,0:0:0:0:
320,192,262499,1,0,0:0:0:0:
448,192,262577,1,0,0:0:0:0:
192,192,262577,1,2,0:0:0:0:
64,192,262655,1,0,0:0:0:0:
320,192,262733,1,8,0:0:0:0:
448,192,262733,1,0,0:0:0:0:
192,192,262811,1,0,0:0:0:0:
320,192,262889,1,2,0:0:0:0:
64,192,262889,1,0,0:0:0:0:
448,192,262967,1,0,0:0:0:0:
320,192,263046,1,2,0:0:0:0:
192,192,263046,1,0,0:0:0:0:
64,192,263124,1,0,0:0:0:0:
448,192,263202,1,0,0:0:0:0:
192,192,263202,1,2,0:0:0:0:
320,192,263280,1,0,0:0:0:0:
192,192,263358,1,8,0:0:0:0:
64,192,263358,1,0,0:0:0:0:
448,192,263436,1,0,0:0:0:0:
320,192,263436,1,2,0:0:0:0:
192,192,263514,1,8,0:0:0:0:
64,192,263514,1,0,0:0:0:0:
320,192,263592,1,8,0:0:0:0:
192,192,263671,1,8,0:0:0:0:
64,192,263671,1,4,0:0:0:0:
448,192,263671,1,0,0:0:0:0:
320,192,263749,1,0,0:0:0:0:
192,192,263827,1,0,0:0:0:0:
64,192,263905,1,0,0:0:0:0:
320,192,263983,1,8,0:0:0:0:
448,192,263983,1,0,0:0:0:0:
192,192,263983,1,4,0:0:0:0:
64,192,264061,1,0,0:0:0:0:
448,192,264139,1,0,0:0:0:0:
320,192,264217,1,0,0:0:0:0:
192,192,264296,1,8,0:0:0:0:
64,192,264296,1,4,0:0:0:0:
448,192,264296,1,0,0:0:0:0:
320,192,264374,1,0,0:0:0:0:
192,192,264452,1,0,0:0:0:0:
448,192,264530,1,0,0:0:0:0:
64,192,264608,1,0,0:0:0:0:
192,192,264608,1,8,0:0:0:0:
320,192,264608,1,4,0:0:0:0:
448,192,264686,1,0,0:0:0:0:
64,192,264764,1,0,0:0:0:0:
192,192,264842,1,0,0:0:0:0:
320,192,264921,1,2,0:0:0:0:
64,192,264921,1,0,0:0:0:0:
448,192,264921,1,4,0:0:0:0:
192,192,264999,1,0,0:0:0:0:
448,192,265077,1,0,0:0:0:0:
320,192,265155,1,0,0:0:0:0:
64,192,265233,1,0,0:0:0:0:
192,192,265233,1,8,0:0:0:0:
448,192,265311,1,0,0:0:0:0:
320,192,265389,1,0,0:0:0:0:
64,192,265467,1,0,0:0:0:0:
448,192,265546,1,0,0:0:0:0:
320,192,265546,1,2,0:0:0:0:
64,192,265624,1,0,0:0:0:0:
192,192,265624,1,0,0:0:0:0:
320,192,265702,1,0,0:0:0:0:
448,192,265780,1,0,0:0:0:0:
64,192,265858,1,0,0:0:0:0:
192,192,265858,1,8,0:0:0:0:
448,192,265936,1,0,0:0:0:0:
320,192,265936,1,0,0:0:0:0:
64,192,266014,1,0,0:0:0:0:
192,192,266014,1,0,0:0:0:0:
320,192,266092,1,0,0:0:0:0:
448,192,266171,1,2,0:0:0:0:
64,192,266171,1,4,0:0:0:0:
320,192,266249,1,0,0:0:0:0:
192,192,266249,1,0,0:0:0:0:
64,192,266327,1,0,0:0:0:0:
192,192,266405,1,0,0:0:0:0:
448,192,266483,1,0,0:0:0:0:
320,192,266483,1,8,0:0:0:0:
64,192,266561,1,0,0:0:0:0:
448,192,266639,1,0,0:0:0:0:
320,192,266717,1,0,0:0:0:0:
192,192,266717,1,0,0:0:0:0:
448,192,266796,1,2,0:0:0:0:
64,192,266796,1,0,0:0:0:0:
192,192,266874,1,0,0:0:0:0:
320,192,266952,1,0,0:0:0:0:
64,192,266952,1,0,0:0:0:0:
448,192,267030,1,0,0:0:0:0:
192,192,267108,1,8,0:0:0:0:
320,192,267108,1,0,0:0:0:0:
64,192,267186,1,0,0:0:0:0:
320,192,267264,1,0,0:0:0:0:
448,192,267264,1,0,0:0:0:0:
192,192,267342,1,0,0:0:0:0:
64,192,267421,1,4,0:0:0:0:
448,192,267421,1,2,0:0:0:0:
320,192,267499,1,0,0:0:0:0:
192,192,267577,1,0,0:0:0:0:
448,192,267655,1,0,0:0:0:0:
320,192,267733,1,8,0:0:0:0:
64,192,267733,1,0,0:0:0:0:
192,192,267811,1,0,0:0:0:0:
320,192,267889,1,0,0:0:0:0:
192,192,267967,1,0,0:0:0:0:
64,192,268046,1,2,0:0:0:0:
448,192,268046,1,0,0:0:0:0:
320,192,268124,1,0,0:0:0:0:
192,192,268124,1,0,0:0:0:0:
448,192,268202,1,0,0:0:0:0:
64,192,268280,1,0,0:0:0:0:
320,192,268358,1,8,0:0:0:0:
448,192,268358,1,0,0:0:0:0:
64,192,268436,1,0,0:0:0:0:
192,192,268436,1,0,0:0:0:0:
320,192,268514,1,0,0:0:0:0:
448,192,268514,1,0,0:0:0:0:
192,192,268592,1,0,0:0:0:0:
448,192,268671,1,4,0:0:0:0:
64,192,268671,1,2,0:0:0:0:
320,192,268749,1,0,0:0:0:0:
192,192,268749,1,0,0:0:0:0:
64,192,268827,1,0,0:0:0:0:
320,192,268905,1,0,0:0:0:0:
64,192,268983,1,0,0:0:0:0:
448,192,268983,1,8,0:0:0:0:
192,192,269061,1,0,0:0:0:0:
448,192,269139,1,0,0:0:0:0:
192,192,269217,1,0,0:0:0:0:
64,192,269217,1,0,0:0:0:0:
448,192,269296,1,0,0:0:0:0:
320,192,269296,1,2,0:0:0:0:
192,192,269374,1,0,0:0:0:0:
64,192,269452,1,0,0:0:0:0:
448,192,269452,1,0,0:0:0:0:
320,192,269530,1,0,0:0:0:0:
64,192,269608,1,0,0:0:0:0:
192,192,269608,1,8,0:0:0:0:
448,192,269686,1,0,0:0:0:0:
192,192,269764,1,0,0:0:0:0:
320,192,269764,1,2,0:0:0:0:
64,192,269842,1,0,0:0:0:0:
320,192,269921,1,2,0:0:0:0:
448,192,269921,1,4,0:0:0:0:
64,192,269999,1,0,0:0:0:0:
192,192,269999,1,0,0:0:0:0:
320,192,270077,1,0,0:0:0:0:
448,192,270077,1,0,0:0:0:0:
192,192,270155,1,0,0:0:0:0:
320,192,270233,1,8,0:0:0:0:
448,192,270311,1,0,0:0:0:0:
64,192,270389,1,0,0:0:0:0:
320,192,270467,1,0,0:0:0:0:
192,192,270467,1,0,0:0:0:0:
448,192,270546,1,0,0:0:0:0:
64,192,270546,1,2,0:0:0:0:
192,192,270624,1,0,0:0:0:0:
320,192,270702,1,0,0:0:0:0:
448,192,270780,1,0,0:0:0:0:
64,192,270780,1,0,0:0:0:0:
192,192,270858,1,8,0:0:0:0:
320,192,270936,1,0,0:0:0:0:
448,192,270936,1,0,0:0:0:0:
64,192,271014,1,0,0:0:0:0:
192,192,271014,1,0,0:0:0:0:
320,192,271092,1,0,0:0:0:0:
64,192,271171,1,4,0:0:0:0:
448,192,271171,1,2,0:0:0:0:
192,192,271249,1,0,0:0:0:0:
320,192,271327,1,0,0:0:0:0:
192,192,271405,1,0,0:0:0:0:
448,192,271483,1,8,0:0:0:0:
64,192,271483,1,0,0:0:0:0:
320,192,271561,1,0,0:0:0:0:
192,192,271639,1,0,0:0:0:0:
320,192,271717,1,0,0:0:0:0:
64,192,271796,1,2,0:0:0:0:
448,192,271796,1,4,0:0:0:0:
192,192,271874,1,0,0:0:0:0:
320,192,271952,1,0,0:0:0:0:
448,192,272030,1,0,0:0:0:0:
192,192,272030,1,0,0:0:0:0:
64,192,272108,1,8,0:0:0:0:
448,192,272186,1,0,0:0:0:0:
320,192,272264,1,0,0:0:0:0:
192,192,272264,1,0,0:0:0:0:
64,192,272342,1,0,0:0:0:0:
448,192,272421,1,2,0:0:0:0:
320,192,272421,1,4,0:0:0:0:
192,192,272499,1,0,0:0:0:0:
320,192,272577,1,0,0:0:0:0:
448,192,272655,1,0,0:0:0:0:
64,192,272655,1,0,0:0:0:0:
320,192,272733,1,8,0:0:0:0:
192,192,272811,1,0,0:0:0:0:
320,192,272889,1,0,0:0:0:0:
448,192,272889,1,0,0:0:0:0:
64,192,272967,1,0,0:0:0:0:
320,192,273046,1,6,0:0:0:0:
448,192,273124,1,0,0:0:0:0:
192,192,273124,1,0,0:0:0:0:
64,192,273202,1,0,0:0:0:0:
320,192,273280,1,0,0:0:0:0:
64,192,273358,1,8,0:0:0:0:
448,192,273358,1,0,0:0:0:0:
320,192,273436,1,0,0:0:0:0:
64,192,273514,1,0,0:0:0:0:
192,192,273514,1,0,0:0:0:0:
448,192,273592,1,0,0:0:0:0:
320,192,273671,1,2,0:0:0:0:
192,192,273671,1,4,0:0:0:0:
64,192,273749,1,0,0:0:0:0:
192,192,273827,1,0,0:0:0:0:
320,192,273905,1,0,0:0:0:0:
448,192,273905,1,0,0:0:0:0:
64,192,273983,1,8,0:0:0:0:
320,192,274061,1,0,0:0:0:0:
192,192,274139,1,0,0:0:0:0:
448,192,274139,1,0,0:0:0:0:
320,192,274217,1,0,0:0:0:0:
192,192,274296,1,0,0:0:0:0:
64,192,274296,1,2,0:0:0:0:
448,192,274374,1,0,0:0:0:0:
192,192,274452,1,0,0:0:0:0:
448,192,274530,1,2,0:0:0:0:
64,192,274530,1,0,0:0:0:0:
320,192,274608,1,8,0:0:0:0:
192,192,274686,1,0,0:0:0:0:
64,192,274764,1,0,0:0:0:0:
320,192,274764,1,2,0:0:0:0:
448,192,274842,1,0,0:0:0:0:
192,192,274921,1,2,0:0:0:0:
64,192,274921,1,4,0:0:0:0:
448,192,274999,1,0,0:0:0:0:
64,192,275077,1,0,0:0:0:0:
320,192,275155,1,0,0:0:0:0:
192,192,275155,1,0,0:0:0:0:
448,192,275233,1,8,0:0:0:0:
64,192,275311,1,0,0:0:0:0:
192,192,275389,1,0,0:0:0:0:
448,192,275389,1,0,0:0:0:0:
320,192,275467,1,0,0:0:0:0:
192,192,275546,1,2,0:0:0:0:
64,192,275624,1,0,0:0:0:0:
320,192,275624,1,0,0:0:0:0:
448,192,275702,1,0,0:0:0:0:
192,192,275780,1,0,0:0:0:0:
448,192,275858,1,0,0:0:0:0:
320,192,275858,1,8,0:0:0:0:
64,192,275936,1,0,0:0:0:0:
320,192,276014,1,0,0:0:0:0:
192,192,276014,1,0,0:0:0:0:
448,192,276092,1,0,0:0:0:0:
192,192,276171,1,4,0:0:0:0:
64,192,276171,1,2,0:0:0:0:
320,192,276249,1,0,0:0:0:0:
448,192,276327,1,0,0:0:0:0:
192,192,276405,1,0,0:0:0:0:
64,192,276405,1,0,0:0:0:0:
320,192,276483,1,8,0:0:0:0:
448,192,276561,1,0,0:0:0:0:
64,192,276639,1,0,0:0:0:0:
192,192,276639,1,0,0:0:0:0:
320,192,276717,1,0,0:0:0:0:
64,192,276796,1,2,0:0:0:0:
448,192,276796,1,0,0:0:0:0:
192,192,276874,1,0,0:0:0:0:
320,192,276952,1,0,0:0:0:0:
64,192,277030,1,0,0:0:0:0:
448,192,277030,1,0,0:0:0:0:
192,192,277108,1,8,0:0:0:0:
320,192,277186,1,0,0:0:0:0:
448,192,277264,1,0,0:0:0:0:
64,192,277264,1,0,0:0:0:0:
192,192,277342,1,0,0:0:0:0:
320,192,277421,1,2,0:0:0:0:
448,192,277421,1,4,0:0:0:0:
192,192,277499,1,0,0:0:0:0:
64,192,277577,1,0,0:0:0:0:
448,192,277655,1,0,0:0:0:0:
320,192,277655,1,0,0:0:0:0:
192,192,277733,1,8,0:0:0:0:
64,192,277811,1,0,0:0:0:0:
320,192,277889,1,0,0:0:0:0:
448,192,277889,1,0,0:0:0:0:
192,192,277967,1,0,0:0:0:0:
64,192,278046,1,0,0:0:0:0:
448,192,278046,1,2,0:0:0:0:
320,192,278124,1,0,0:0:0:0:
64,192,278202,1,0,0:0:0:0:
192,192,278280,1,0,0:0:0:0:
448,192,278280,1,0,0:0:0:0:
320,192,278358,1,8,0:0:0:0:
64,192,278436,1,0,0:0:0:0:
192,192,278514,1,0,0:0:0:0:
448,192,278514,1,0,0:0:0:0:
320,192,278592,1,0,0:0:0:0:
192,192,278671,1,2,0:0:0:0:
448,192,278671,1,0,0:0:0:0:
64,192,278671,1,4,0:0:0:0:
320,192,278749,1,0,0:0:0:0:
64,192,278827,1,0,0:0:0:0:
192,192,278905,1,0,0:0:0:0:
64,192,278983,1,0,0:0:0:0:
320,192,278983,1,8,0:0:0:0:
448,192,278983,1,0,0:0:0:0:
192,192,279061,1,0,0:0:0:0:
320,192,279139,1,0,0:0:0:0:
448,192,279217,1,0,0:0:0:0:
320,192,279296,1,0,0:0:0:0:
192,192,279296,1,2,0:0:0:0:
64,192,279296,1,4,0:0:0:0:
448,192,279374,1,0,0:0:0:0:
192,192,279452,1,0,0:0:0:0:
64,192,279530,1,0,0:0:0:0:
448,192,279608,1,0,0:0:0:0:
320,192,279608,1,8,0:0:0:0:
192,192,279608,1,0,0:0:0:0:
64,192,279686,1,0,0:0:0:0:
320,192,279764,1,2,0:0:0:0:
448,192,279764,1,0,0:0:0:0:
192,192,279842,1,0,0:0:0:0:
320,192,279921,1,2,0:0:0:0:
448,192,279921,1,4,0:0:0:0:
192,192,279999,1,0,0:0:0:0:
64,192,279999,1,0,0:0:0:0:
448,192,280077,1,0,0:0:0:0:
320,192,280077,1,0,0:0:0:0:
64,192,280155,1,0,0:0:0:0:
192,192,280233,1,8,0:0:0:0:
448,192,280311,1,0,0:0:0:0:
320,192,280389,1,0,0:0:0:0:
192,192,280467,1,0,0:0:0:0:
448,192,280546,1,2,0:0:0:0:
320,192,280624,1,0,0:0:0:0:
64,192,280702,1,0,0:0:0:0:
448,192,280780,1,0,0:0:0:0:
192,192,280858,1,8,0:0:0:0:
320,192,280936,1,0,0:0:0:0:
64,192,281014,1,0,0:0:0:0:
192,192,281014,1,0,0:0:0:0:
320,192,281092,1,0,0:0:0:0:
448,192,281092,1,0,0:0:0:0:
64,192,281171,1,2,0:0:0:0:
192,192,281171,1,4,0:0:0:0:
448,192,281249,1,0,0:0:0:0:
320,192,281327,1,0,0:0:0:0:
192,192,281405,1,0,0:0:0:0:
64,192,281483,1,8,0:0:0:0:
320,192,281561,1,0,0:0:0:0:
192,192,281639,1,0,0:0:0:0:
64,192,281717,1,0,0:0:0:0:
448,192,281717,1,0,0:0:0:0:
192,192,281796,1,0,0:0:0:0:
320,192,281796,1,2,0:0:0:0:
448,192,281874,1,0,0:0:0:0:
64,192,281952,1,0,0:0:0:0:
192,192,282030,1,0,0:0:0:0:
320,192,282030,1,0,0:0:0:0:
448,192,282108,1,8,0:0:0:0:
320,192,282186,1,0,0:0:0:0:
192,192,282264,1,0,0:0:0:0:
64,192,282264,1,0,0:0:0:0:
320,192,282342,1,0,0:0:0:0:
192,192,282421,1,2,0:0:0:0:
448,192,282421,1,4,0:0:0:0:
64,192,282421,1,0,0:0:0:0:
320,192,282499,1,0,0:0:0:0:
64,192,282577,1,0,0:0:0:0:
192,192,282655,1,2,0:0:0:0:
448,192,282655,1,0,0:0:0:0:
320,192,282733,1,0,0:0:0:0:
64,192,282811,1,0,0:0:0:0:
192,192,282889,1,2,0:0:0:0:
448,192,282889,1,0,0:0:0:0:
320,192,282967,1,0,0:0:0:0:
64,192,283046,1,2,0:0:0:0:
192,192,283046,1,0,0:0:0:0:
320,192,283124,1,0,0:0:0:0:
448,192,283202,1,0,0:0:0:0:
64,192,283280,1,2,0:0:0:0:
192,192,283280,1,0,0:0:0:0:
320,192,283358,1,0,0:0:0:0:
448,192,283436,1,0,0:0:0:0:
64,192,283514,1,2,0:0:0:0:
192,192,283514,1,0,0:0:0:0:
320,192,283592,1,0,0:0:0:0:
64,192,283671,1,0,0:0:0:0:
448,192,283671,1,4,0:0:0:0:
192,192,283671,1,2,0:0:0:0:
320,192,283749,1,0,0:0:0:0:
64,192,283827,1,0,0:0:0:0:
192,192,283905,1,2,0:0:0:0:
448,192,283905,1,0,0:0:0:0:
320,192,283983,1,0,0:0:0:0:
64,192,284061,1,0,0:0:0:0:
192,192,284139,1,2,0:0:0:0:
448,192,284139,1,0,0:0:0:0:
320,192,284217,1,0,0:0:0:0:
64,192,284296,1,2,0:0:0:0:
448,192,284296,1,0,0:0:0:0:
192,192,284374,1,0,0:0:0:0:
320,192,284452,1,0,0:0:0:0:
64,192,284530,1,0,0:0:0:0:
192,192,284530,1,2,0:0:0:0:
320,192,284608,1,2,0:0:0:0:
448,192,284608,1,0,0:0:0:0:
64,192,284686,1,0,0:0:0:0:
192,192,284686,1,2,0:0:0:0:
320,192,284764,1,2,0:0:0:0:
448,192,284764,1,0,0:0:0:0:
192,192,284842,1,2,0:0:0:0:
64,192,284921,1,0,0:0:0:0:
448,192,284921,1,4,0:0:0:0:
320,192,284921,1,2,0:0:0:0:
192,192,284999,1,0,0:0:0:0:
320,192,285077,1,0,0:0:0:0:
448,192,285155,1,0,0:0:0:0:
192,192,285233,1,8,0:0:0:0:
64,192,285233,1,0,0:0:0:0:
320,192,285311,1,0,0:0:0:0:
448,192,285389,1,0,0:0:0:0:
64,192,285467,1,0,0:0:0:0:
448,192,285546,1,0,0:0:0:0:
320,192,285546,1,2,0:0:0:0:
192,192,285624,1,0,0:0:0:0:
64,192,285624,1,0,0:0:0:0:
320,192,285702,1,0,0:0:0:0:
192,192,285780,1,0,0:0:0:0:
64,192,285858,1,8,0:0:0:0:
448,192,285858,1,0,0:0:0:0:
192,192,285936,1,0,0:0:0:0:
320,192,285936,1,0,0:0:0:0:
448,192,286014,1,0,0:0:0:0:
64,192,286014,1,0,0:0:0:0:
320,192,286092,1,0,0:0:0:0:
64,192,286171,1,4,0:0:0:0:
192,192,286171,1,2,0:0:0:0:
448,192,286249,1,0,0:0:0:0:
320,192,286249,1,0,0:0:0:0:
192,192,286327,1,0,0:0:0:0:
64,192,286405,1,0,0:0:0:0:
320,192,286483,1,8,0:0:0:0:
448,192,286483,1,0,0:0:0:0:
192,192,286561,1,0,0:0:0:0:
320,192,286639,1,0,0:0:0:0:
64,192,286717,1,0,0:0:0:0:
448,192,286717,1,0,0:0:0:0:
192,192,286796,1,2,0:0:0:0:
320,192,286796,1,0,0:0:0:0:
64,192,286874,1,0,0:0:0:0:
448,192,286952,1,0,0:0:0:0:
192,192,286952,1,0,0:0:0:0:
320,192,287030,1,0,0:0:0:0:
64,192,287108,1,0,0:0:0:0:
448,192,287108,1,8,0:0:0:0:
192,192,287186,1,0,0:0:0:0:
64,192,287264,1,0,0:0:0:0:
320,192,287264,1,0,0:0:0:0:
448,192,287342,1,0,0:0:0:0:
64,192,287421,1,4,0:0:0:0:
192,192,287421,1,2,0:0:0:0:
448,192,287499,1,0,0:0:0:0:
320,192,287577,1,0,0:0:0:0:
192,192,287655,1,0,0:0:0:0:
448,192,287733,1,8,0:0:0:0:
64,192,287733,1,0,0:0:0:0:
320,192,287811,1,0,0:0:0:0:
192,192,287889,1,0,0:0:0:0:
64,192,287967,1,0,0:0:0:0:
448,192,288046,1,0,0:0:0:0:
192,192,288046,1,2,0:0:0:0:
64,192,288124,1,0,0:0:0:0:
320,192,288124,1,0,0:0:0:0:
448,192,288202,1,0,0:0:0:0:
320,192,288280,1,0,0:0:0:0:
64,192,288358,1,8,0:0:0:0:
192,192,288358,1,0,0:0:0:0:
320,192,288436,1,0,0:0:0:0:
448,192,288436,1,0,0:0:0:0:
192,192,288514,1,0,0:0:0:0:
64,192,288514,1,0,0:0:0:0:
320,192,288592,1,0,0:0:0:0:
448,192,288671,1,2,0:0:0:0:
64,192,288671,1,4,0:0:0:0:
320,192,288749,1,0,0:0:0:0:
192,192,288749,1,0,0:0:0:0:
64,192,288827,1,0,0:0:0:0:
448,192,288905,1,0,0:0:0:0:
320,192,288983,1,8,0:0:0:0:
64,192,288983,1,0,0:0:0:0:
448,192,289061,1,0,0:0:0:0:
192,192,289139,1,0,0:0:0:0:
320,192,289217,1,0,0:0:0:0:
448,192,289217,1,0,0:0:0:0:
192,192,289296,1,2,0:0:0:0:
64,192,289296,1,0,0:0:0:0:
448,192,289374,1,0,0:0:0:0:
320,192,289452,1,0,0:0:0:0:
64,192,289452,1,0,0:0:0:0:
192,192,289530,1,0,0:0:0:0:
320,192,289608,1,0,0:0:0:0:
448,192,289608,1,8,0:0:0:0:
64,192,289686,1,0,0:0:0:0:
192,192,289764,1,2,0:0:0:0:
320,192,289764,1,0,0:0:0:0:
448,192,289842,1,0,0:0:0:0:
192,192,289921,1,4,0:0:0:0:
64,192,289921,1,2,0:0:0:0:
320,192,289999,1,0,0:0:0:0:
448,192,289999,1,0,0:0:0:0:
192,192,290077,1,0,0:0:0:0:
64,192,290077,1,0,0:0:0:0:
320,192,290155,1,0,0:0:0:0:
192,192,290233,1,8,0:0:0:0:
64,192,290311,1,0,0:0:0:0:
448,192,290389,1,0,0:0:0:0:
192,192,290467,1,0,0:0:0:0:
320,192,290467,1,0,0:0:0:0:
448,192,290546,1,2,0:0:0:0:
64,192,290546,1,0,0:0:0:0:
192,192,290624,1,0,0:0:0:0:
448,192,290702,1,0,0:0:0:0:
64,192,290780,1,0,0:0:0:0:
320,192,290780,1,0,0:0:0:0:
192,192,290858,1,8,0:0:0:0:
448,192,290936,1,0,0:0:0:0:
320,192,290936,1,0,0:0:0:0:
64,192,291014,1,0,0:0:0:0:
192,192,291014,1,0,0:0:0:0:
320,192,291092,1,0,0:0:0:0:
448,192,291171,1,2,0:0:0:0:
64,192,291171,1,4,0:0:0:0:
192,192,291249,1,0,0:0:0:0:
320,192,291327,1,0,0:0:0:0:
448,192,291405,1,0,0:0:0:0:
192,192,291483,1,8,0:0:0:0:
64,192,291483,1,0,0:0:0:0:
320,192,291561,1,0,0:0:0:0:
192,192,291639,1,0,0:0:0:0:
64,192,291717,1,0,0:0:0:0:
320,192,291796,1,2,0:0:0:0:
448,192,291796,1,4,0:0:0:0:
192,192,291874,1,0,0:0:0:0:
320,192,291952,1,0,0:0:0:0:
448,192,292030,1,0,0:0:0:0:
64,192,292030,1,0,0:0:0:0:
192,192,292108,1,8,0:0:0:0:
320,192,292186,1,0,0:0:0:0:
192,192,292264,1,0,0:0:0:0:
448,192,292264,1,0,0:0:0:0:
64,192,292342,1,0,0:0:0:0:
448,192,292421,1,4,0:0:0:0:
320,192,292421,1,2,0:0:0:0:
192,192,292499,1,0,0:0:0:0:
320,192,292577,1,0,0:0:0:0:
448,192,292655,1,0,0:0:0:0:
64,192,292655,1,0,0:0:0:0:
320,192,292733,1,8,0:0:0:0:
192,192,292811,1,0,0:0:0:0:
64,192,292889,1,0,0:0:0:0:
320,192,292889,1,0,0:0:0:0:
448,192,292967,1,0,0:0:0:0:
192,192,293046,1,6,0:0:0:0:
448,192,293124,1,0,0:0:0:0:
320,192,293124,1,0,0:0:0:0:
64,192,293202,1,0,0:0:0:0:
320,192,293280,1,0,0:0:0:0:
192,192,293358,1,0,0:0:0:0:
448,192,293358,1,8,0:0:0:0:
320,192,293436,1,0,0:0:0:0:
64,192,293514,1,0,0:0:0:0:
192,192,293514,1,0,0:0:0:0:
448,192,293592,1,0,0:0:0:0:
320,192,293671,1,4,0:0:0:0:
192,192,293671,1,2,0:0:0:0:
64,192,293749,1,0,0:0:0:0:
320,192,293827,1,0,0:0:0:0:
64,192,293905,1,0,0:0:0:0:
448,192,293905,1,0,0:0:0:0:
192,192,293983,1,8,0:0:0:0:
64,192,294061,1,0,0:0:0:0:
320,192,294139,1,0,0:0:0:0:
448,192,294139,1,0,0:0:0:0:
192,192,294217,1,0,0:0:0:0:
320,192,294296,1,2,0:0:0:0:
64,192,294296,1,0,0:0:0:0:
448,192,294374,1,0,0:0:0:0:
192,192,294452,1,0,0:0:0:0:
64,192,294530,1,0,0:0:0:0:
448,192,294530,1,2,0:0:0:0:
320,192,294608,1,8,0:0:0:0:
192,192,294686,1,0,0:0:0:0:
320,192,294764,1,2,0:0:0:0:
64,192,294764,1,0,0:0:0:0:
448,192,294842,1,0,0:0:0:0:
64,192,294921,1,4,0:0:0:0:
192,192,294921,1,2,0:0:0:0:
320,192,294999,1,0,0:0:0:0:
448,192,295077,1,0,0:0:0:0:
320,192,295155,1,0,0:0:0:0:
64,192,295155,1,0,0:0:0:0:
192,192,295233,1,8,0:0:0:0:
320,192,295311,1,0,0:0:0:0:
64,192,295389,1,0,0:0:0:0:
448,192,295389,1,0,0:0:0:0:
192,192,295467,1,0,0:0:0:0:
64,192,295546,1,2,0:0:0:0:
320,192,295624,1,0,0:0:0:0:
448,192,295624,1,0,0:0:0:0:
192,192,295702,1,0,0:0:0:0:
64,192,295780,1,0,0:0:0:0:
448,192,295858,1,8,0:0:0:0:
192,192,295858,1,0,0:0:0:0:
320,192,295936,1,0,0:0:0:0:
192,192,296014,1,0,0:0:0:0:
448,192,296014,1,0,0:0:0:0:
64,192,296092,1,0,0:0:0:0:
320,192,296171,1,2,0:0:0:0:
448,192,296171,1,4,0:0:0:0:
192,192,296249,1,0,0:0:0:0:
64,192,296327,1,0,0:0:0:0:
448,192,296405,1,0,0:0:0:0:
320,192,296405,1,0,0:0:0:0:
192,192,296483,1,8,0:0:0:0:
64,192,296561,1,0,0:0:0:0:
320,192,296639,1,0,0:0:0:0:
448,192,296639,1,0,0:0:0:0:
192,192,296717,1,0,0:0:0:0:
64,192,296796,1,2,0:0:0:0:
320,192,296796,1,0,0:0:0:0:
448,192,296874,1,0,0:0:0:0:
192,192,296952,1,0,0:0:0:0:
64,192,297030,1,0,0:0:0:0:
320,192,297030,1,0,0:0:0:0:
448,192,297108,1,8,0:0:0:0:
192,192,297186,1,0,0:0:0:0:
320,192,297264,1,0,0:0:0:0:
64,192,297264,1,0,0:0:0:0:
448,192,297342,1,0,0:0:0:0:
192,192,297421,1,4,0:0:0:0:
64,192,297421,1,2,0:0:0:0:
448,192,297499,1,0,0:0:0:0:
320,192,297577,1,0,0:0:0:0:
192,192,297655,1,0,0:0:0:0:
64,192,297655,1,0,0:0:0:0:
448,192,297733,1,8,0:0:0:0:
320,192,297811,1,0,0:0:0:0:
64,192,297889,1,0,0:0:0:0:
192,192,297889,1,0,0:0:0:0:
448,192,297967,1,0,0:0:0:0:
320,192,298046,1,0,0:0:0:0:
64,192,298046,1,2,0:0:0:0:
192,192,298124,1,0,0:0:0:0:
448,192,298202,1,0,0:0:0:0:
320,192,298280,1,0,0:0:0:0:
64,192,298280,1,0,0:0:0:0:
192,192,298358,1,8,0:0:0:0:
448,192,298436,1,0,0:0:0:0:
64,192,298514,1,0,0:0:0:0:
320,192,298514,1,0,0:0:0:0:
192,192,298592,1,0,0:0:0:0:
448,192,298671,1,4,0:0:0:0:
320,192,298671,1,2,0:0:0:0:
64,192,298671,1,0,0:0:0:0:
192,192,298749,1,0,0:0:0:0:
448,192,298827,1,0,0:0:0:0:
320,192,298905,1,0,0:0:0:0:
448,192,298983,1,0,0:0:0:0:
64,192,298983,1,8,0:0:0:0:
192,192,298983,1,0,0:0:0:0:
320,192,299061,1,0,0:0:0:0:
192,192,299139,1,0,0:0:0:0:
64,192,299217,1,0,0:0:0:0:
192,192,299296,1,0,0:0:0:0:
448,192,299296,1,2,0:0:0:0:
320,192,299296,1,4,0:0:0:0:
64,192,299374,1,0,0:0:0:0:
320,192,299452,1,0,0:0:0:0:
448,192,299530,1,0,0:0:0:0:
64,192,299608,1,0,0:0:0:0:
320,192,299608,1,0,0:0:0:0:
192,192,299608,1,8,0:0:0:0:
448,192,299686,1,0,0:0:0:0:
192,192,299764,1,2,0:0:0:0:
64,192,299764,1,0,0:0:0:0:
320,192,299842,1,0,0:0:0:0:
64,192,299921,1,4,0:0:0:0:
448,192,299921,1,0,0:0:0:0:
192,192,299921,1,2,0:0:0:0:
320,192,299999,1,0,0:0:0:0:
448,192,300077,1,0,0:0:0:0:
64,192,300077,1,2,0:0:0:0:
192,192,300155,1,0,0:0:0:0:
320,192,300233,1,8,0:0:0:0:
448,192,300233,1,0,0:0:0:0:
192,192,300311,1,0,0:0:0:0:
64,192,300389,1,0,0:0:0:0:
320,192,300389,1,2,0:0:0:0:
448,192,300467,1,0,0:0:0:0:
192,192,300546,1,2,0:0:0:0:
64,192,300546,1,0,0:0:0:0:
320,192,300624,1,0,0:0:0:0:
448,192,300702,1,2,0:0:0:0:
192,192,300702,1,0,0:0:0:0:
64,192,300780,1,0,0:0:0:0:
448,192,300858,1,0,0:0:0:0:
320,192,300858,1,8,0:0:0:0:
192,192,300936,1,0,0:0:0:0:
64,192,301014,1,0,0:0:0:0:
448,192,301014,1,2,0:0:0:0:
320,192,301092,1,0,0:0:0:0:
64,192,301171,1,0,0:0:0:0:
448,192,301171,1,4,0:0:0:0:
192,192,301171,1,2,0:0:0:0:
320,192,301249,1,0,0:0:0:0:
64,192,301327,1,0,0:0:0:0:
192,192,301327,1,2,0:0:0:0:
448,192,301405,1,0,0:0:0:0:
320,192,301483,1,8,0:0:0:0:
192,192,301483,1,0,0:0:0:0:
64,192,301561,1,0,0:0:0:0:
192,192,301639,1,2,0:0:0:0:
448,192,301639,1,0,0:0:0:0:
320,192,301717,1,0,0:0:0:0:
192,192,301796,1,2,0:0:0:0:
64,192,301796,1,0,0:0:0:0:
448,192,301874,1,0,0:0:0:0:
320,192,301952,1,0,0:0:0:0:
64,192,301952,1,2,0:0:0:0:
192,192,302030,1,0,0:0:0:0:
448,192,302108,1,8,0:0:0:0:
320,192,302108,1,0,0:0:0:0:
192,192,302186,1,0,0:0:0:0:
64,192,302264,1,0,0:0:0:0:
448,192,302264,1,2,0:0:0:0:
320,192,302342,1,0,0:0:0:0:
64,192,302421,1,0,0:0:0:0:
448,192,302421,1,4,0:0:0:0:
192,192,302421,1,2,0:0:0:0:
320,192,302499,1,2,0:0:0:0:
64,192,302577,1,0,0:0:0:0:
192,192,302577,1,2,0:0:0:0:
320,192,302655,1,2,0:0:0:0:
448,192,302655,1,0,0:0:0:0:
64,192,302733,1,2,0:0:0:0:
192,192,302733,1,8,0:0:0:0:
320,192,302811,1,2,0:0:0:0:
448,192,302811,1,0,0:0:0:0:
64,192,302889,1,0,0:0:0:0:
192,192,302889,1,2,0:0:0:0:
320,192,302967,1,2,0:0:0:0:
64,192,303046,1,4,0:0:0:0:
448,192,303046,1,0,0:0:0:0:
192,192,303046,1,2,0:0:0:0:
320,192,303124,1,2,0:0:0:0:
448,192,303202,1,2,0:0:0:0:
64,192,303202,1,0,0:0:0:0:
192,192,303280,1,0,0:0:0:0:
320,192,303280,1,2,0:0:0:0:
448,192,303358,1,8,0:0:0:0:
64,192,303358,1,2,0:0:0:0:
192,192,303436,1,0,0:0:0:0:
320,192,303436,1,2,0:0:0:0:
448,192,303514,1,2,0:0:0:0:
64,192,303514,1,0,0:0:0:0:
320,192,303592,1,2,0:0:0:0:
448,192,303671,1,2,0:0:0:0:
192,192,303671,1,4,0:0:0:0:
64,192,303671,1,0,0:0:0:0:
64,192,303905,1,0,0:0:0:0:
192,192,303905,1,4,0:0:0:0:
448,192,303905,1,0,0:0:0:0:
192,192,304139,1,4,0:0:0:0:
320,192,304139,1,0,0:0:0:0:
448,192,304139,1,0,0:0:0:0:
192,192,304296,1,4,0:0:0:0:
64,192,304296,1,0,0:0:0:0:
320,192,304296,1,0,0:0:0:0:
192,192,304530,1,4,0:0:0:0:
320,192,304530,1,0,0:0:0:0:
448,192,304530,1,0,0:0:0:0:
192,192,304764,1,4,0:0:0:0:
64,192,304764,1,0,0:0:0:0:
448,192,304764,1,0,0:0:0:0:
64,192,304921,1,0,0:1:0:0:
192,192,304921,1,0,0:0:0:0:
320,192,304921,1,4,0:0:0:0:
448,192,304921,1,0,0:0:0:0:
320,192,306796,1,0,0:0:0:0:
192,192,306796,1,0,0:0:0:0:
64,192,307421,1,0,0:0:0:0:
320,192,307421,128,0,308671:0:0:0:0:
64,192,307863,1,0,0:0:0:0:
64,192,308319,1,0,0:0:0:0:
448,192,308671,1,0,0:0:0:0:
192,192,308671,128,0,309921:0:0:0:0:
448,192,309113,1,0,0:0:0:0:
448,192,309556,1,0,0:0:0:0:
320,192,309921,1,0,0:0:0:0:
64,192,309921,128,0,312421:0:0:0:0:
320,192,310363,1,0,0:0:0:0:
320,192,310806,1,0,0:0:0:0:
320,192,311275,1,0,0:0:0:0:
192,192,312421,1,0,0:0:0:0:
448,192,312421,128,0,314921:0:0:0:0:
192,192,312863,1,0,0:0:0:0:
192,192,313306,1,0,0:0:0:0:
192,192,313775,1,0,0:0:0:0:
320,192,314921,1,2,0:0:0:0:
192,192,314921,1,2,0:0:0:0:
64,192,314921,1,2,0:0:0:0:
