osu file format v14

[General]
AudioFilename: audio.mp3
AudioLeadIn: 0
PreviewTime: 29630
Countdown: 0
SampleSet: Normal
StackLeniency: 0.7
Mode: 1
LetterboxInBreaks: 0
WidescreenStoryboard: 1

[Editor]
Bookmarks: 1994,7085,7812,12176,13630,16176,16540,18721,19449,21994,22358,23085,23812,24540,25267,27994,28176,28903,29630,31085,35449,36176,36903,41267,42358,42721,47085,47812,48540,51085,51449,52903,53630,54358,60176,64540,65630,65994,71812,77630,83449,84903,85630,86358,87812,88540,88903,89267,93630,95085,99449,100358,100540,100721,100903,105267,106358,106721,107812,108176,109267,109630,110721,111085,111630,111994,112176,112540
DistanceSpacing: 1.2
BeatDivisor: 4
GridSize: 32
TimelineZoom: 2.3

[Metadata]
Title:Tribal Trial
TitleUnicode:Tribal Trial
Artist:Yooh
ArtistUnicode:Yooh
Creator:Leniane
Version:Outer Trial
Source:SOUND VOLTEX VIVID WAVE
Tags:SDVX 5 制作決定記念オリジナル楽曲コンテスト Production Confirmation Commemorative Original Song Contest Konami Bemani Instrumental Video Game
BeatmapID:2079172
BeatmapSetID:994395

[Difficulty]
HPDrainRate:6
CircleSize:2
OverallDifficulty:6
ApproachRate:0
SliderMultiplier:1.4
SliderTickRate:1

[Events]
//Background and Video events
0,0,"bg.jpg",0,0
//Break Periods
//Storyboard Layer 0 (Background)
//Storyboard Layer 1 (Fail)
//Storyboard Layer 2 (Pass)
//Storyboard Layer 3 (Foreground)
//Storyboard Sound Samples

[TimingPoints]
540,363.636363636364,4,1,0,40,1,0
31085,-83.3333333333333,4,1,0,40,0,0
41267,-85.1063829787234,4,1,0,40,0,0
41449,-86.9565217391304,4,1,0,40,0,0
41540,-88.8888888888889,4,1,0,40,0,0
41630,-90.9090909090909,4,1,0,40,0,0
41812,-93.0232558139535,4,1,0,40,0,0
41994,-95.2380952380952,4,1,0,40,0,0
42085,-97.5609756097561,4,1,0,40,0,0
42176,-100,4,1,0,40,0,0
42721,-83.3333333333333,4,1,0,40,0,0
51449,-84.7457627118644,4,1,0,40,0,0
51630,-86.2068965517241,4,1,0,40,0,0
51721,-87.719298245614,4,1,0,40,0,0
51812,-89.2857142857143,4,1,0,40,0,0
51994,-90.9090909090909,4,1,0,40,0,0
52176,-92.5925925925926,4,1,0,40,0,0
52358,-94.3396226415094,4,1,0,40,0,0
52449,-96.1538461538461,4,1,0,40,0,0
52540,-98.0392156862745,4,1,0,40,0,0
52721,-100,4,1,0,40,0,0
79085,-98.0392156862745,4,1,0,40,0,0
79176,-96.1538461538461,4,1,0,40,0,0
79267,-94.3396226415094,4,1,0,40,0,0
80540,-92.5925925925926,4,1,0,40,0,0
80630,-90.9090909090909,4,1,0,40,0,0
80721,-89.2857142857143,4,1,0,40,0,0
81994,-87.719298245614,4,1,0,40,0,0
82085,-86.2068965517241,4,1,0,40,0,0
82176,-84.7457627118644,4,1,0,40,0,0
83449,-84.0336134453781,4,1,0,40,0,0
83540,-83.3333333333333,4,1,0,40,0,0
83630,-82.6446280991736,4,1,0,40,0,0
83721,-81.9672131147541,4,1,0,40,0,0
83812,-81.3008130081301,4,1,0,40,0,0
83903,-80.6451612903226,4,1,0,40,0,0
83994,-80,4,1,0,40,0,0
84085,-79.3650793650794,4,1,0,40,0,0
84176,-78.7401574803149,4,1,0,40,0,0
84267,-78.125,4,1,0,40,0,0
84358,-77.5193798449612,4,1,0,40,0,0
84449,-76.9230769230769,4,1,0,40,0,0
84540,-76.3358778625954,4,1,0,40,0,0
84630,-75.7575757575758,4,1,0,40,0,0
84721,-75.187969924812,4,1,0,40,0,0
84812,-74.6268656716418,4,1,0,40,0,0
84903,-74.0740740740741,4,1,0,40,0,0
84994,-73.5294117647059,4,1,0,40,0,0
85085,-72.992700729927,4,1,0,40,0,0
85176,-72.463768115942,4,1,0,40,0,0
85267,-71.9424460431655,4,1,0,40,0,0
85358,-71.4285714285714,4,1,0,40,0,0
85449,-70.9219858156028,4,1,0,40,0,0
85540,-70.4225352112676,4,1,0,40,0,0
85630,-68.9655172413793,4,1,0,40,0,0
87812,-83.3333333333333,4,1,0,40,0,0
89267,-71.4285714285714,4,1,0,60,0,1
93630,-72.463768115942,4,1,0,40,0,0
93812,-73.5294117647059,4,1,0,40,0,0
93903,-74.6268656716418,4,1,0,40,0,0
93994,-75.7575757575758,4,1,0,40,0,0
94176,-76.9230769230769,4,1,0,40,0,0
94267,-78.125,4,1,0,40,0,0
94358,-79.3650793650794,4,1,0,40,0,0
94540,-80,4,1,0,40,0,0
95085,-71.4285714285714,4,1,0,60,0,1
99449,-72.7272727272727,4,1,0,40,0,0
99630,-74.0740740740741,4,1,0,40,0,0
99721,-75.4716981132076,4,1,0,40,0,0
99812,-76.9230769230769,4,1,0,40,0,0
100903,-71.4285714285714,4,1,0,60,0,1
105267,-72.463768115942,4,1,0,40,0,0
105449,-73.5294117647059,4,1,0,40,0,0
105540,-74.6268656716418,4,1,0,40,0,0
105630,-75.7575757575758,4,1,0,40,0,0
105812,-76.9230769230769,4,1,0,40,0,0
105903,-78.125,4,1,0,40,0,0
105994,-79.3650793650794,4,1,0,40,0,0
106176,-80,4,1,0,40,0,0

[HitObjects]
256,192,540,5,0,0:0:0:0:
256,192,721,1,2,0:0:0:0:
256,192,812,1,0,0:0:0:0:
256,192,994,1,2,0:0:0:0:
256,192,1085,1,0,0:0:0:0:
256,192,1449,1,0,0:0:0:0:
256,192,1630,1,0,0:0:0:0:
256,192,1994,1,4,0:0:0:0:
256,192,2176,1,2,0:0:0:0:
256,192,2267,1,0,0:0:0:0:
256,192,2358,1,0,0:0:0:0:
256,192,2540,1,2,0:0:0:0:
256,192,2721,1,2,0:0:0:0:
256,192,2812,1,0,0:0:0:0:
256,192,2903,1,0,0:0:0:0:
256,192,3085,1,0,0:0:0:0:
256,192,3267,1,0,0:0:0:0:
256,192,3449,1,2,0:0:0:0:
256,192,3631,1,2,0:0:0:0:
256,192,3722,1,0,0:0:0:0:
256,192,3813,1,0,0:0:0:0:
256,192,3995,1,2,0:0:0:0:
256,192,4176,1,2,0:0:0:0:
256,192,4267,1,0,0:0:0:0:
256,192,4358,1,0,0:0:0:0:
256,192,4540,1,0,0:0:0:0:
256,192,4721,1,2,0:0:0:0:
256,192,4903,1,4,0:0:0:0:
256,192,5085,1,2,0:0:0:0:
256,192,5176,1,0,0:0:0:0:
256,192,5267,1,0,0:0:0:0:
256,192,5449,1,2,0:0:0:0:
256,192,5630,1,2,0:0:0:0:
256,192,5721,1,0,0:0:0:0:
256,192,5812,1,0,0:0:0:0:
256,192,5994,1,0,0:0:0:0:
256,192,6176,1,0,0:0:0:0:
256,192,6358,1,2,0:0:0:0:
256,192,6449,1,2,0:0:0:0:
256,192,6540,1,0,0:0:0:0:
256,192,6630,1,2,0:0:0:0:
256,192,6721,1,2,0:0:0:0:
256,192,6812,1,0,0:0:0:0:
256,192,6903,1,2,0:0:0:0:
256,192,7085,1,2,0:0:0:0:
256,192,7146,1,2,0:0:0:0:
256,192,7206,1,2,0:0:0:0:
256,192,7267,1,2,0:0:0:0:
256,192,7327,1,2,0:0:0:0:
256,192,7388,1,2,0:0:0:0:
256,192,7449,1,2,0:0:0:0:
256,192,7509,1,2,0:0:0:0:
256,192,7570,1,2,0:0:0:0:
256,192,7630,1,2,0:0:0:0:
256,192,7691,1,2,0:0:0:0:
256,192,7752,1,2,0:0:0:0:
256,192,7812,1,4,0:0:0:0:
256,192,7994,1,2,0:0:0:0:
256,192,8085,1,0,0:0:0:0:
256,192,8176,1,0,0:0:0:0:
256,192,8358,1,2,0:0:0:0:
256,192,8539,1,2,0:0:0:0:
256,192,8630,1,0,0:0:0:0:
256,192,8721,1,0,0:0:0:0:
256,192,8903,1,0,0:0:0:0:
256,192,9085,1,0,0:0:0:0:
256,192,9267,1,2,0:0:0:0:
256,192,9449,1,2,0:0:0:0:
256,192,9540,1,0,0:0:0:0:
256,192,9631,1,0,0:0:0:0:
256,192,9813,1,2,0:0:0:0:
256,192,9994,1,2,0:0:0:0:
256,192,10085,1,0,0:0:0:0:
256,192,10176,1,0,0:0:0:0:
256,192,10358,1,0,0:0:0:0:
256,192,10539,1,2,0:0:0:0:
256,192,10721,1,4,0:0:0:0:
256,192,10903,1,2,0:0:0:0:
256,192,10994,1,0,0:0:0:0:
256,192,11085,1,0,0:0:0:0:
256,192,11267,1,2,0:0:0:0:
256,192,11448,1,2,0:0:0:0:
256,192,11539,1,0,0:0:0:0:
256,192,11630,1,0,0:0:0:0:
256,192,11812,1,0,0:0:0:0:
256,192,11994,1,0,0:0:0:0:
256,192,12176,1,2,0:0:0:0:
256,192,12267,1,0,0:0:0:0:
256,192,12358,1,0,0:0:0:0:
256,192,12449,1,2,0:0:0:0:
256,192,12540,1,0,0:0:0:0:
256,192,12630,1,0,0:0:0:0:
256,192,12721,1,2,0:0:0:0:
256,192,12903,1,0,0:0:0:0:
256,192,12964,1,0,0:0:0:0:
256,192,13024,1,0,0:0:0:0:
256,192,13085,1,0,0:0:0:0:
256,192,13146,1,0,0:0:0:0:
256,192,13206,1,0,0:0:0:0:
256,192,13267,1,0,0:0:0:0:
256,192,13327,1,0,0:0:0:0:
256,192,13388,1,0,0:0:0:0:
256,192,13449,1,0,0:0:0:0:
256,192,13509,1,0,0:0:0:0:
256,192,13570,1,0,0:0:0:0:
256,192,13630,1,6,0:0:0:0:
256,192,13812,1,2,0:0:0:0:
256,192,13903,1,0,0:0:0:0:
256,192,13994,1,0,0:0:0:0:
256,192,14085,1,0,0:0:0:0:
256,192,14176,1,2,0:0:0:0:
256,192,14358,1,2,0:0:0:0:
256,192,14449,1,0,0:0:0:0:
256,192,14540,1,0,0:0:0:0:
256,192,14721,1,0,0:0:0:0:
256,192,14903,1,0,0:0:0:0:
256,192,15085,1,2,0:0:0:0:
256,192,15267,1,2,0:0:0:0:
256,192,15358,1,0,0:0:0:0:
256,192,15449,1,0,0:0:0:0:
256,192,15540,1,0,0:0:0:0:
256,192,15630,1,2,0:0:0:0:
256,192,15812,1,2,0:0:0:0:
256,192,15903,1,0,0:0:0:0:
256,192,15994,1,0,0:0:0:0:
256,192,16176,1,0,0:0:0:0:
256,192,16540,1,6,0:0:0:0:
256,192,16721,1,2,0:0:0:0:
256,192,16812,1,0,0:0:0:0:
256,192,16903,1,0,0:0:0:0:
256,192,16994,1,0,0:0:0:0:
256,192,17085,1,2,0:0:0:0:
256,192,17267,1,2,0:0:0:0:
256,192,17358,1,0,0:0:0:0:
256,192,17449,1,0,0:0:0:0:
256,192,17630,1,0,0:0:0:0:
256,192,17812,1,0,0:0:0:0:
256,192,17994,1,2,0:0:0:0:
256,192,18085,1,0,0:0:0:0:
256,192,18176,1,0,0:0:0:0:
256,192,18267,1,2,0:0:0:0:
256,192,18358,1,0,0:0:0:0:
256,192,18449,1,0,0:0:0:0:
256,192,18540,1,2,0:0:0:0:
256,192,18721,1,2,0:0:0:0:
256,192,18782,1,2,0:0:0:0:
256,192,18843,1,2,0:0:0:0:
256,192,18903,1,2,0:0:0:0:
256,192,18964,1,2,0:0:0:0:
256,192,19024,1,2,0:0:0:0:
256,192,19085,1,2,0:0:0:0:
256,192,19146,1,2,0:0:0:0:
256,192,19206,1,2,0:0:0:0:
256,192,19267,1,2,0:0:0:0:
256,192,19327,1,2,0:0:0:0:
256,192,19388,1,2,0:0:0:0:
256,192,19449,1,4,0:0:0:0:
256,192,19630,1,2,0:0:0:0:
256,192,19721,1,0,0:0:0:0:
256,192,19812,1,0,0:0:0:0:
256,192,19903,1,0,0:0:0:0:
256,192,19994,1,2,0:0:0:0:
256,192,20176,1,2,0:0:0:0:
256,192,20267,1,0,0:0:0:0:
256,192,20358,1,0,0:0:0:0:
256,192,20539,1,0,0:0:0:0:
256,192,20721,1,0,0:0:0:0:
256,192,20903,1,6,0:0:0:0:
256,192,21085,1,2,0:0:0:0:
256,192,21176,1,0,0:0:0:0:
256,192,21267,1,0,0:0:0:0:
256,192,21358,1,0,0:0:0:0:
256,192,21448,1,2,0:0:0:0:
256,192,21630,1,2,0:0:0:0:
256,192,21721,1,0,0:0:0:0:
256,192,21812,1,0,0:0:0:0:
256,192,21994,1,0,0:0:0:0:
256,192,22358,1,4,0:0:0:0:
256,192,22539,1,2,0:0:0:0:
256,192,22630,1,0,0:0:0:0:
256,192,22721,1,0,0:0:0:0:
256,192,22812,1,0,0:0:0:0:
256,192,22903,1,2,0:0:0:0:
256,192,23085,1,2,0:0:0:0:
256,192,23176,1,0,0:0:0:0:
256,192,23267,1,0,0:0:0:0:
256,192,23448,1,0,0:0:0:0:
256,192,23630,1,0,0:0:0:0:
256,192,23812,1,2,0:0:0:0:
256,192,23903,1,0,0:0:0:0:
256,192,23994,1,0,0:0:0:0:
256,192,24085,1,2,0:0:0:0:
256,192,24176,1,0,0:0:0:0:
256,192,24267,1,0,0:0:0:0:
256,192,24358,1,2,0:0:0:0:
256,192,24539,1,0,0:0:0:0:
256,192,24600,1,0,0:0:0:0:
256,192,24661,1,0,0:0:0:0:
256,192,24721,1,0,0:0:0:0:
256,192,24782,1,0,0:0:0:0:
256,192,24842,1,0,0:0:0:0:
256,192,24903,1,0,0:0:0:0:
256,192,24964,1,0,0:0:0:0:
256,192,25024,1,0,0:0:0:0:
256,192,25085,1,0,0:0:0:0:
256,192,25145,1,0,0:0:0:0:
256,192,25206,1,0,0:0:0:0:
256,192,25267,1,6,0:0:0:0:
256,192,25630,1,6,0:0:0:0:
256,192,25994,1,6,0:0:0:0:
256,192,26358,1,6,0:0:0:0:
256,192,26721,1,6,0:0:0:0:
256,192,27085,1,6,0:0:0:0:
256,192,27449,1,6,0:0:0:0:
256,192,27812,1,6,0:0:0:0:
256,192,27994,1,0,0:0:0:0:
256,192,28085,1,2,0:0:0:0:
256,192,28176,1,2,0:0:0:0:
256,192,28267,1,0,0:0:0:0:
256,192,28358,1,2,0:0:0:0:
256,192,28540,1,0,0:0:0:0:
256,192,28630,1,2,0:0:0:0:
256,192,28721,1,0,0:0:0:0:
256,192,28903,1,2,0:0:0:0:
256,192,28994,1,2,0:0:0:0:
256,192,29085,1,2,0:0:0:0:
256,192,29176,1,2,0:0:0:0:
256,192,29267,1,0,0:0:0:0:
256,192,29358,1,0,0:0:0:0:
256,192,29449,1,0,0:0:0:0:
256,192,29540,1,0,0:0:0:0:
256,192,29630,1,2,0:0:0:0:
256,192,29994,1,2,0:0:0:0:
256,192,30358,1,2,0:0:0:0:
256,192,30721,1,2,0:0:0:0:
256,192,31085,1,6,0:0:0:0:
256,192,31267,1,0,0:0:0:0:
256,192,31358,1,2,0:0:0:0:
256,192,31449,1,0,0:0:0:0:
256,192,31540,1,2,0:0:0:0:
256,192,31721,1,0,0:0:0:0:
256,192,31812,1,2,0:0:0:0:
256,192,31994,1,0,0:0:0:0:
256,192,32085,1,0,0:0:0:0:
256,192,32176,1,2,0:0:0:0:
256,192,32358,1,0,0:0:0:0:
256,192,32449,1,0,0:0:0:0:
256,192,32540,1,2,0:0:0:0:
256,192,32721,1,0,0:0:0:0:
256,192,32812,1,2,0:0:0:0:
256,192,32903,1,0,0:0:0:0:
256,192,32994,1,2,0:0:0:0:
256,192,33176,1,0,0:0:0:0:
256,192,33267,1,2,0:0:0:0:
256,192,33449,1,0,0:0:0:0:
256,192,33540,1,0,0:0:0:0:
256,192,33630,1,2,0:0:0:0:
256,192,33812,1,2,0:0:0:0:
256,192,33858,1,0,0:0:0:0:
256,192,33903,1,0,0:0:0:0:
256,192,33949,1,0,0:0:0:0:
256,192,33994,1,2,0:0:0:0:
256,192,34176,1,0,0:0:0:0:
256,192,34267,1,2,0:0:0:0:
256,192,34358,1,0,0:0:0:0:
256,192,34449,1,2,0:0:0:0:
256,192,34630,1,0,0:0:0:0:
256,192,34721,1,2,0:0:0:0:
256,192,34903,1,0,0:0:0:0:
256,192,34994,1,0,0:0:0:0:
256,192,35085,1,2,0:0:0:0:
256,192,35267,1,0,0:0:0:0:
256,192,35358,1,0,0:0:0:0:
256,192,35449,1,0,0:0:0:0:
256,192,35540,1,0,0:0:0:0:
256,192,35630,1,2,0:0:0:0:
256,192,35812,1,0,0:0:0:0:
256,192,35903,1,0,0:0:0:0:
256,192,35994,1,2,0:0:0:0:
256,192,36176,1,0,0:0:0:0:
256,192,36267,1,0,0:0:0:0:
256,192,36358,1,2,0:0:0:0:
256,192,36449,1,2,0:0:0:0:
256,192,36540,1,0,0:0:0:0:
256,192,36630,1,0,0:0:0:0:
256,192,36721,1,2,0:0:0:0:
256,192,36903,1,6,0:0:0:0:
256,192,37085,1,0,0:0:0:0:
256,192,37176,1,2,0:0:0:0:
256,192,37267,1,0,0:0:0:0:
256,192,37358,1,2,0:0:0:0:
256,192,37540,1,0,0:0:0:0:
256,192,37630,1,2,0:0:0:0:
256,192,37812,1,0,0:0:0:0:
256,192,37903,1,0,0:0:0:0:
256,192,37994,1,2,0:0:0:0:
256,192,38176,1,0,0:0:0:0:
256,192,38267,1,0,0:0:0:0:
256,192,38358,1,2,0:0:0:0:
256,192,38540,1,0,0:0:0:0:
256,192,38630,1,2,0:0:0:0:
256,192,38721,1,0,0:0:0:0:
256,192,38812,1,2,0:0:0:0:
256,192,38994,1,0,0:0:0:0:
256,192,39085,1,2,0:0:0:0:
256,192,39267,1,0,0:0:0:0:
256,192,39358,1,0,0:0:0:0:
256,192,39449,1,2,0:0:0:0:
256,192,39630,1,2,0:0:0:0:
256,192,39676,1,0,0:0:0:0:
256,192,39721,1,0,0:0:0:0:
256,192,39767,1,0,0:0:0:0:
256,192,39812,1,2,0:0:0:0:
256,192,39994,1,0,0:0:0:0:
256,192,40085,1,2,0:0:0:0:
256,192,40176,1,0,0:0:0:0:
256,192,40267,1,2,0:0:0:0:
256,192,40449,1,0,0:0:0:0:
256,192,40540,1,2,0:0:0:0:
256,192,40721,1,0,0:0:0:0:
256,192,40812,1,0,0:0:0:0:
256,192,40903,1,2,0:0:0:0:
256,192,41085,1,0,0:0:0:0:
256,192,41176,1,0,0:0:0:0:
256,192,41267,1,2,0:0:0:0:
256,192,41449,1,2,0:0:0:0:
256,192,41540,1,0,0:0:0:0:
256,192,41630,1,0,0:0:0:0:
256,192,41812,1,2,0:0:0:0:
256,192,41994,1,2,0:0:0:0:
256,192,42085,1,0,0:0:0:0:
256,192,42176,1,0,0:0:0:0:
256,192,42358,1,0,0:0:0:0:
256,192,42449,1,0,0:0:0:0:
256,192,42540,1,2,0:0:0:0:
256,192,42630,1,2,0:0:0:0:
256,192,42721,1,4,0:0:0:0:
256,192,42903,1,2,0:0:0:0:
256,192,42994,1,0,0:0:0:0:
256,192,43085,1,2,0:0:0:0:
256,192,43176,1,0,0:0:0:0:
256,192,43358,1,2,0:0:0:0:
256,192,43449,1,0,0:0:0:0:
256,192,43630,1,2,0:0:0:0:
256,192,43721,1,2,0:0:0:0:
256,192,43812,1,0,0:0:0:0:
256,192,43994,1,2,0:0:0:0:
256,192,44085,1,2,0:0:0:0:
256,192,44176,1,0,0:0:0:0:
256,192,44358,1,2,0:0:0:0:
256,192,44449,1,0,0:0:0:0:
256,192,44540,1,2,0:0:0:0:
256,192,44630,1,0,0:0:0:0:
256,192,44812,1,2,0:0:0:0:
256,192,44903,1,0,0:0:0:0:
256,192,45085,1,2,0:0:0:0:
256,192,45176,1,2,0:0:0:0:
256,192,45267,1,0,0:0:0:0:
256,192,45449,1,0,0:0:0:0:
256,192,45494,1,2,0:0:0:0:
256,192,45540,1,2,0:0:0:0:
256,192,45585,1,2,0:0:0:0:
256,192,45630,1,0,0:0:0:0:
256,192,45812,1,2,0:0:0:0:
256,192,45903,1,0,0:0:0:0:
256,192,45994,1,2,0:0:0:0:
256,192,46085,1,0,0:0:0:0:
256,192,46267,1,2,0:0:0:0:
256,192,46358,1,0,0:0:0:0:
256,192,46540,1,2,0:0:0:0:
256,192,46630,1,2,0:0:0:0:
256,192,46721,1,0,0:0:0:0:
256,192,46903,1,2,0:0:0:0:
256,192,46994,1,2,0:0:0:0:
256,192,47085,1,2,0:0:0:0:
256,192,47176,1,2,0:0:0:0:
256,192,47267,1,0,0:0:0:0:
256,192,47449,1,2,0:0:0:0:
256,192,47540,1,2,0:0:0:0:
256,192,47630,1,0,0:0:0:0:
256,192,47812,1,2,0:0:0:0:
256,192,47903,1,2,0:0:0:0:
256,192,47994,1,0,0:0:0:0:
256,192,48085,1,0,0:0:0:0:
256,192,48176,1,2,0:0:0:0:
256,192,48267,1,2,0:0:0:0:
256,192,48358,1,0,0:0:0:0:
256,192,48449,1,0,0:0:0:0:
256,192,48540,1,6,0:0:0:0:
256,192,48721,1,0,0:0:0:0:
256,192,48812,1,2,0:0:0:0:
256,192,48903,1,0,0:0:0:0:
256,192,48994,1,2,0:0:0:0:
256,192,49176,1,0,0:0:0:0:
256,192,49267,1,2,0:0:0:0:
256,192,49449,1,0,0:0:0:0:
256,192,49540,1,0,0:0:0:0:
256,192,49630,1,2,0:0:0:0:
256,192,49812,1,0,0:0:0:0:
256,192,49903,1,0,0:0:0:0:
256,192,49994,1,6,0:0:0:0:
256,192,50176,1,0,0:0:0:0:
256,192,50267,1,2,0:0:0:0:
256,192,50358,1,0,0:0:0:0:
256,192,50449,1,2,0:0:0:0:
256,192,50630,1,0,0:0:0:0:
256,192,50721,1,2,0:0:0:0:
256,192,50903,1,0,0:0:0:0:
256,192,50994,1,0,0:0:0:0:
256,192,51085,1,2,0:0:0:0:
256,192,51176,1,2,0:0:0:0:
256,192,51267,1,0,0:0:0:0:
256,192,51358,1,0,0:0:0:0:
256,192,51449,1,2,0:0:0:0:
256,192,51630,1,2,0:0:0:0:
256,192,51721,1,0,0:0:0:0:
256,192,51812,1,0,0:0:0:0:
256,192,51994,1,2,0:0:0:0:
256,192,52176,1,2,0:0:0:0:
256,192,52358,1,2,0:0:0:0:
256,192,52449,1,0,0:0:0:0:
256,192,52540,1,0,0:0:0:0:
256,192,52721,1,2,0:0:0:0:
256,192,52903,1,0,0:0:0:0:
256,192,53267,1,0,0:0:0:0:
256,192,53449,1,2,0:0:0:0:
256,192,53812,1,2,0:0:0:0:
256,192,53994,1,0,0:0:0:0:
256,192,54176,1,0,0:0:0:0:
256,192,54358,1,0,0:0:0:0:
256,192,54540,1,0,0:0:0:0:
256,192,54721,1,2,0:0:0:0:
256,192,54903,1,0,0:0:0:0:
256,192,55085,1,2,0:0:0:0:
256,192,55267,1,2,0:0:0:0:
256,192,55449,1,0,0:0:0:0:
256,192,55630,1,0,0:0:0:0:
256,192,55812,1,2,0:0:0:0:
256,192,55994,1,0,0:0:0:0:
256,192,56176,1,2,0:0:0:0:
256,192,56358,1,2,0:0:0:0:
256,192,56540,1,0,0:0:0:0:
256,192,56721,1,2,0:0:0:0:
256,192,56903,1,0,0:0:0:0:
256,192,57085,1,0,0:0:0:0:
256,192,57267,1,2,0:0:0:0:
256,192,57449,1,0,0:0:0:0:
256,192,57630,1,2,0:0:0:0:
256,192,57812,1,0,0:0:0:0:
256,192,57994,1,2,0:0:0:0:
256,192,58176,1,2,0:0:0:0:
256,192,58358,1,0,0:0:0:0:
256,192,58539,1,0,0:0:0:0:
256,192,58721,1,2,0:0:0:0:
256,192,58903,1,0,0:0:0:0:
256,192,59085,1,2,0:0:0:0:
256,192,59267,1,2,0:0:0:0:
256,192,59449,1,0,0:0:0:0:
256,192,59630,1,2,0:0:0:0:
256,192,59812,1,0,0:0:0:0:
256,192,59994,1,0,0:0:0:0:
256,192,60176,1,2,0:0:0:0:
256,192,60358,1,0,0:0:0:0:
256,192,60539,1,2,0:0:0:0:
256,192,60721,1,0,0:0:0:0:
256,192,60903,1,2,0:0:0:0:
256,192,61085,1,2,0:0:0:0:
256,192,61267,1,0,0:0:0:0:
256,192,61448,1,0,0:0:0:0:
256,192,61630,1,2,0:0:0:0:
256,192,61812,1,0,0:0:0:0:
256,192,61994,1,2,0:0:0:0:
256,192,62176,1,2,0:0:0:0:
256,192,62358,1,0,0:0:0:0:
256,192,62539,1,2,0:0:0:0:
256,192,62721,1,0,0:0:0:0:
256,192,62903,1,0,0:0:0:0:
256,192,63085,1,2,0:0:0:0:
256,192,63267,1,0,0:0:0:0:
256,192,63448,1,2,0:0:0:0:
256,192,63630,1,0,0:0:0:0:
256,192,63812,1,2,0:0:0:0:
256,192,63994,1,2,0:0:0:0:
256,192,64176,1,0,0:0:0:0:
256,192,64357,1,0,0:0:0:0:
256,192,64540,1,0,0:0:0:0:
256,192,64630,1,2,0:0:0:0:
256,192,64721,1,0,0:0:0:0:
256,192,64812,1,0,0:0:0:0:
256,192,64994,1,0,0:0:0:0:
256,192,65085,1,2,0:0:0:0:
256,192,65146,1,2,0:0:0:0:
256,192,65206,1,2,0:0:0:0:
256,192,65267,1,0,0:0:0:0:
256,192,65358,1,2,0:0:0:0:
256,192,65449,1,0,0:0:0:0:
256,192,65540,1,0,0:0:0:0:
256,192,65630,1,6,0:0:0:0:
256,192,65994,1,4,0:0:0:0:
256,192,66358,1,0,0:0:0:0:
256,192,66449,1,2,0:0:0:0:
256,192,66540,1,2,0:0:0:0:
256,192,66630,1,0,0:0:0:0:
256,192,66721,1,0,0:0:0:0:
256,192,66812,1,2,0:0:0:0:
256,192,66903,1,2,0:0:0:0:
256,192,66994,1,0,0:0:0:0:
256,192,67085,1,0,0:0:0:0:
256,192,67176,1,2,0:0:0:0:
256,192,67267,1,2,0:0:0:0:
256,192,67358,1,0,0:0:0:0:
256,192,67449,1,0,0:0:0:0:
256,192,67540,1,2,0:0:0:0:
256,192,67630,1,0,0:0:0:0:
256,192,67812,1,0,0:0:0:0:
256,192,67903,1,2,0:0:0:0:
256,192,67994,1,0,0:0:0:0:
256,192,68176,1,0,0:0:0:0:
256,192,68267,1,2,0:0:0:0:
256,192,68358,1,0,0:0:0:0:
256,192,68540,1,0,0:0:0:0:
256,192,68630,1,2,0:0:0:0:
256,192,68721,1,0,0:0:0:0:
256,192,68903,1,0,0:0:0:0:
256,192,68994,1,2,0:0:0:0:
256,192,69176,1,2,0:0:0:0:
256,192,69267,1,0,0:0:0:0:
256,192,69449,1,2,0:0:0:0:
256,192,69630,1,0,0:0:0:0:
256,192,69721,1,2,0:0:0:0:
256,192,69903,1,2,0:0:0:0:
256,192,69994,1,0,0:0:0:0:
256,192,70176,1,2,0:0:0:0:
256,192,70358,1,0,0:0:0:0:
256,192,70540,1,2,0:0:0:0:
256,192,70630,1,2,0:0:0:0:
256,192,70721,1,0,0:0:0:0:
256,192,70903,1,2,0:0:0:0:
256,192,70994,1,2,0:0:0:0:
256,192,71085,1,0,0:0:0:0:
256,192,71176,1,2,0:0:0:0:
256,192,71267,1,0,0:0:0:0:
256,192,71358,1,2,0:0:0:0:
256,192,71449,1,0,0:0:0:0:
256,192,71630,1,0,0:0:0:0:
256,192,71812,1,4,0:0:0:0:
256,192,72176,1,2,0:0:0:0:
256,192,72236,1,2,0:0:0:0:
256,192,72297,1,0,0:0:0:0:
256,192,72358,1,0,0:0:0:0:
256,192,72540,1,2,0:0:0:0:
256,192,72600,1,2,0:0:0:0:
256,192,72661,1,0,0:0:0:0:
256,192,72721,1,0,0:0:0:0:
256,192,72903,1,2,0:0:0:0:
256,192,72964,1,2,0:0:0:0:
256,192,73024,1,0,0:0:0:0:
256,192,73085,1,0,0:0:0:0:
256,192,73267,1,2,0:0:0:0:
256,192,73358,1,2,0:0:0:0:
256,192,73449,1,0,0:0:0:0:
256,192,73540,1,2,0:0:0:0:
256,192,73630,1,0,0:0:0:0:
256,192,73721,1,2,0:0:0:0:
256,192,73812,1,0,0:0:0:0:
256,192,73903,1,2,0:0:0:0:
256,192,73994,1,0,0:0:0:0:
256,192,74085,1,2,0:0:0:0:
256,192,74176,1,0,0:0:0:0:
256,192,74267,1,0,0:0:0:0:
256,192,74358,1,2,0:0:0:0:
256,192,74449,1,0,0:0:0:0:
256,192,74540,1,0,0:0:0:0:
256,192,74630,1,2,0:0:0:0:
256,192,74721,1,0,0:0:0:0:
256,192,74812,1,2,0:0:0:0:
256,192,74903,1,0,0:0:0:0:
256,192,74994,1,0,0:0:0:0:
256,192,75085,1,2,0:0:0:0:
256,192,75176,1,0,0:0:0:0:
256,192,75267,1,0,0:0:0:0:
256,192,75449,1,0,0:0:0:0:
256,192,75540,1,2,0:0:0:0:
256,192,75630,1,0,0:0:0:0:
256,192,75721,1,0,0:0:0:0:
256,192,75812,1,2,0:0:0:0:
256,192,75903,1,0,0:0:0:0:
256,192,75994,1,0,0:0:0:0:
256,192,76176,1,0,0:0:0:0:
256,192,76297,1,2,0:0:0:0:
256,192,76418,1,0,0:0:0:0:
256,192,76540,1,2,0:0:0:0:
256,192,76661,1,2,0:0:0:0:
256,192,76782,1,2,0:0:0:0:
256,192,76903,1,4,0:0:0:0:
256,192,77146,1,0,0:0:0:0:
256,192,77267,1,2,0:0:0:0:
256,192,77449,1,0,0:0:0:0:
256,192,77630,1,0,0:0:0:0:
256,192,77721,1,0,0:0:0:0:
256,192,77812,1,0,0:0:0:0:
256,192,77994,1,0,0:0:0:0:
256,192,78085,1,0,0:0:0:0:
256,192,78176,1,0,0:0:0:0:
256,192,78358,1,0,0:0:0:0:
256,192,78449,1,0,0:0:0:0:
256,192,78540,1,0,0:0:0:0:
256,192,78721,1,0,0:0:0:0:
256,192,78812,1,0,0:0:0:0:
256,192,78903,1,0,0:0:0:0:
256,192,79085,1,2,0:0:0:0:
256,192,79176,1,0,0:0:0:0:
256,192,79267,1,0,0:0:0:0:
256,192,79449,1,2,0:0:0:0:
256,192,79540,1,0,0:0:0:0:
256,192,79630,1,0,0:0:0:0:
256,192,79812,1,2,0:0:0:0:
256,192,79903,1,0,0:0:0:0:
256,192,79994,1,0,0:0:0:0:
256,192,80176,1,2,0:0:0:0:
256,192,80267,1,0,0:0:0:0:
256,192,80358,1,0,0:0:0:0:
256,192,80540,1,2,0:0:0:0:
256,192,80630,1,2,0:0:0:0:
256,192,80721,1,0,0:0:0:0:
256,192,80903,1,2,0:0:0:0:
256,192,80994,1,2,0:0:0:0:
256,192,81085,1,0,0:0:0:0:
256,192,81267,1,2,0:0:0:0:
256,192,81358,1,2,0:0:0:0:
256,192,81449,1,0,0:0:0:0:
256,192,81630,1,2,0:0:0:0:
256,192,81721,1,2,0:0:0:0:
256,192,81812,1,0,0:0:0:0:
256,192,81994,1,2,0:0:0:0:
256,192,82085,1,2,0:0:0:0:
256,192,82176,1,2,0:0:0:0:
256,192,82358,1,2,0:0:0:0:
256,192,82449,1,2,0:0:0:0:
256,192,82540,1,2,0:0:0:0:
256,192,82721,1,2,0:0:0:0:
256,192,82812,1,2,0:0:0:0:
256,192,82903,1,2,0:0:0:0:
256,192,83085,1,2,0:0:0:0:
256,192,83176,1,2,0:0:0:0:
256,192,83267,1,2,0:0:0:0:
256,192,83449,1,2,0:0:0:0:
256,192,83540,1,2,0:0:0:0:
256,192,83630,1,0,0:0:0:0:
256,192,83721,1,0,0:0:0:0:
256,192,83812,1,2,0:0:0:0:
256,192,83903,1,2,0:0:0:0:
256,192,83994,1,0,0:0:0:0:
256,192,84085,1,0,0:0:0:0:
256,192,84176,1,0,0:0:0:0:
256,192,84267,1,0,0:0:0:0:
256,192,84358,1,2,0:0:0:0:
256,192,84449,1,2,0:0:0:0:
256,192,84540,1,0,0:0:0:0:
256,192,84630,1,0,0:0:0:0:
256,192,84721,1,2,0:0:0:0:
256,192,84812,1,2,0:0:0:0:
256,192,84903,1,0,0:0:0:0:
256,192,84994,1,0,0:0:0:0:
256,192,85085,1,2,0:0:0:0:
256,192,85176,1,2,0:0:0:0:
256,192,85267,1,2,0:0:0:0:
256,192,85358,1,2,0:0:0:0:
256,192,85449,1,0,0:0:0:0:
256,192,85540,1,0,0:0:0:0:
256,192,85630,1,2,0:0:0:0:
256,192,85676,1,2,0:0:0:0:
256,192,85721,1,2,0:0:0:0:
256,192,85767,1,2,0:0:0:0:
256,192,85812,1,2,0:0:0:0:
256,192,85858,1,2,0:0:0:0:
256,192,85903,1,2,0:0:0:0:
256,192,85949,1,2,0:0:0:0:
256,192,85994,1,2,0:0:0:0:
256,192,86040,1,2,0:0:0:0:
256,192,86085,1,2,0:0:0:0:
256,192,86130,1,2,0:0:0:0:
256,192,86176,1,2,0:0:0:0:
256,192,86221,1,2,0:0:0:0:
256,192,86267,1,2,0:0:0:0:
256,192,86312,1,2,0:0:0:0:
256,192,86358,1,4,0:0:0:0:
256,192,87812,1,0,0:0:0:0:
256,192,87994,1,2,0:0:0:0:
256,192,88085,1,2,0:0:0:0:
256,192,88176,1,0,0:0:0:0:
256,192,88358,1,0,0:0:0:0:
256,192,88449,1,0,0:0:0:0:
256,192,88540,1,2,0:0:0:0:
256,192,88721,1,0,0:0:0:0:
256,192,88903,1,4,0:0:0:0:
256,192,89267,1,6,0:0:0:0:
256,192,89540,1,2,0:0:0:0:
256,192,89630,1,2,0:0:0:0:
256,192,89812,1,2,0:0:0:0:
256,192,89903,1,0,0:0:0:0:
256,192,89994,1,2,0:0:0:0:
256,192,90176,1,2,0:0:0:0:
256,192,90267,1,0,0:0:0:0:
256,192,90358,1,2,0:0:0:0:
256,192,90540,1,2,0:0:0:0:
256,192,90630,1,0,0:0:0:0:
256,192,90721,1,2,0:0:0:0:
256,192,90994,1,2,0:0:0:0:
256,192,91085,1,2,0:0:0:0:
256,192,91176,1,0,0:0:0:0:
256,192,91267,1,2,0:0:0:0:
256,192,91358,1,0,0:0:0:0:
256,192,91449,1,2,0:0:0:0:
256,192,91630,1,2,0:0:0:0:
256,192,91721,1,2,0:0:0:0:
256,192,91812,1,2,0:0:0:0:
256,192,91903,1,0,0:0:0:0:
256,192,91994,1,2,0:0:0:0:
256,192,92085,1,2,0:0:0:0:
256,192,92176,1,2,0:0:0:0:
256,192,92449,1,2,0:0:0:0:
256,192,92540,1,2,0:0:0:0:
256,192,92721,1,2,0:0:0:0:
256,192,92812,1,0,0:0:0:0:
256,192,92903,1,2,0:0:0:0:
256,192,93085,1,2,0:0:0:0:
256,192,93176,1,0,0:0:0:0:
256,192,93267,1,2,0:0:0:0:
256,192,93449,1,2,0:0:0:0:
256,192,93540,1,0,0:0:0:0:
256,192,93630,1,0,0:0:0:0:
256,192,93812,1,2,0:0:0:0:
256,192,93903,1,2,0:0:0:0:
256,192,93994,1,0,0:0:0:0:
256,192,94176,1,2,0:0:0:0:
256,192,94267,1,2,0:0:0:0:
256,192,94358,1,0,0:0:0:0:
256,192,94540,1,2,0:0:0:0:
256,192,94630,1,2,0:0:0:0:
256,192,94721,1,0,0:0:0:0:
256,192,94812,1,2,0:0:0:0:
256,192,94903,1,0,0:0:0:0:
256,192,94994,1,2,0:0:0:0:
256,192,95085,1,4,0:0:0:0:
256,192,95358,1,0,0:0:0:0:
256,192,95449,1,0,0:0:0:0:
256,192,95630,1,0,0:0:0:0:
256,192,95721,1,2,0:0:0:0:
256,192,95812,1,0,0:0:0:0:
256,192,95994,1,0,0:0:0:0:
256,192,96085,1,2,0:0:0:0:
256,192,96176,1,0,0:0:0:0:
256,192,96358,1,0,0:0:0:0:
256,192,96449,1,2,0:0:0:0:
256,192,96540,1,0,0:0:0:0:
256,192,96812,1,0,0:0:0:0:
256,192,96903,1,0,0:0:0:0:
256,192,97085,1,0,0:0:0:0:
256,192,97176,1,2,0:0:0:0:
256,192,97358,1,0,0:0:0:0:
256,192,97449,1,2,0:0:0:0:
256,192,97540,1,0,0:0:0:0:
256,192,97630,1,0,0:0:0:0:
256,192,97721,1,2,0:0:0:0:
256,192,97812,1,0,0:0:0:0:
256,192,97903,1,0,0:0:0:0:
256,192,97994,1,0,0:0:0:0:
256,192,98267,1,0,0:0:0:0:
256,192,98358,1,0,0:0:0:0:
256,192,98540,1,0,0:0:0:0:
256,192,98630,1,2,0:0:0:0:
256,192,98721,1,0,0:0:0:0:
256,192,98903,1,0,0:0:0:0:
256,192,98994,1,2,0:0:0:0:
256,192,99085,1,0,0:0:0:0:
256,192,99267,1,0,0:0:0:0:
256,192,99358,1,2,0:0:0:0:
256,192,99449,1,4,0:0:0:0:
256,192,99630,1,2,0:0:0:0:
256,192,99721,1,2,0:0:0:0:
256,192,99812,1,2,0:0:0:0:
256,192,99903,1,2,0:0:0:0:
256,192,99994,1,2,0:0:0:0:
256,192,100085,1,2,0:0:0:0:
256,192,100176,1,0,0:0:0:0:
256,192,100358,1,0,0:0:0:0:
256,192,100403,1,0,0:0:0:0:
256,192,100494,1,2,0:0:0:0:
256,192,100540,1,2,0:0:0:0:
256,192,100721,1,0,0:0:0:0:
256,192,100903,1,6,0:0:0:0:
256,192,101176,1,2,0:0:0:0:
256,192,101266,1,2,0:0:0:0:
256,192,101448,1,2,0:0:0:0:
256,192,101539,1,0,0:0:0:0:
256,192,101630,1,2,0:0:0:0:
256,192,101812,1,2,0:0:0:0:
256,192,101903,1,0,0:0:0:0:
256,192,101994,1,2,0:0:0:0:
256,192,102176,1,2,0:0:0:0:
256,192,102266,1,0,0:0:0:0:
256,192,102357,1,2,0:0:0:0:
256,192,102630,1,2,0:0:0:0:
256,192,102721,1,2,0:0:0:0:
256,192,102812,1,0,0:0:0:0:
256,192,102903,1,2,0:0:0:0:
256,192,102994,1,0,0:0:0:0:
256,192,103085,1,2,0:0:0:0:
256,192,103266,1,2,0:0:0:0:
256,192,103357,1,2,0:0:0:0:
256,192,103448,1,0,0:0:0:0:
256,192,103539,1,0,0:0:0:0:
256,192,103630,1,2,0:0:0:0:
256,192,103721,1,2,0:0:0:0:
256,192,103812,1,2,0:0:0:0:
256,192,104085,1,2,0:0:0:0:
256,192,104176,1,2,0:0:0:0:
256,192,104357,1,2,0:0:0:0:
256,192,104448,1,0,0:0:0:0:
256,192,104539,1,2,0:0:0:0:
256,192,104721,1,2,0:0:0:0:
256,192,104812,1,0,0:0:0:0:
256,192,104903,1,2,0:0:0:0:
256,192,105085,1,2,0:0:0:0:
256,192,105176,1,0,0:0:0:0:
256,192,105266,1,0,0:0:0:0:
256,192,105448,1,2,0:0:0:0:
256,192,105539,1,2,0:0:0:0:
256,192,105630,1,0,0:0:0:0:
256,192,105812,1,2,0:0:0:0:
256,192,105903,1,2,0:0:0:0:
256,192,105994,1,0,0:0:0:0:
256,192,106176,1,2,0:0:0:0:
256,192,106266,1,2,0:0:0:0:
256,192,106357,1,0,0:0:0:0:
256,192,106448,1,2,0:0:0:0:
256,192,106539,1,0,0:0:0:0:
256,192,106630,1,2,0:0:0:0:
256,192,106721,1,0,0:0:0:0:
256,192,106994,1,0,0:0:0:0:
256,192,107085,1,0,0:0:0:0:
256,192,107176,1,2,0:0:0:0:
256,192,107267,1,0,0:0:0:0:
256,192,107358,1,2,0:0:0:0:
256,192,107449,1,0,0:0:0:0:
256,192,107540,1,2,0:0:0:0:
256,192,107630,1,0,0:0:0:0:
256,192,107812,1,4,0:0:0:0:
256,192,108176,1,0,0:0:0:0:
256,192,108449,1,0,0:0:0:0:
256,192,108540,1,0,0:0:0:0:
256,192,108630,1,2,0:0:0:0:
256,192,108721,1,0,0:0:0:0:
256,192,108812,1,2,0:0:0:0:
256,192,108903,1,0,0:0:0:0:
256,192,108994,1,0,0:0:0:0:
256,192,109085,1,2,0:0:0:0:
256,192,109176,1,0,0:0:0:0:
256,192,109267,1,6,0:0:0:0:
256,192,109630,1,0,0:0:0:0:
256,192,109903,1,0,0:0:0:0:
256,192,109994,1,0,0:0:0:0:
256,192,110085,1,2,0:0:0:0:
256,192,110176,1,0,0:0:0:0:
256,192,110267,1,2,0:0:0:0:
256,192,110358,1,0,0:0:0:0:
256,192,110449,1,2,0:0:0:0:
256,192,110540,1,0,0:0:0:0:
256,192,110630,1,0,0:0:0:0:
256,192,110721,1,0,0:0:0:0:
256,192,110903,1,0,0:0:0:0:
256,192,111085,1,2,0:0:0:0:
256,192,111267,1,0,0:0:0:0:
256,192,111358,1,2,0:0:0:0:
256,192,111540,1,2,0:0:0:0:
256,192,111630,1,0,0:0:0:0:
256,192,111994,1,0,0:0:0:0:
256,192,112176,1,2,0:0:0:0:
256,192,112358,1,2,0:0:0:0:
256,192,112540,1,4,0:0:0:0:
