osu file format v14

[General]
AudioFilename: audio.mp3
AudioLeadIn: 0
PreviewTime: 86382
Countdown: 0
SampleSet: Soft
StackLeniency: 0.7
Mode: 2
LetterboxInBreaks: 0
WidescreenStoryboard: 0

[Editor]
DistanceSpacing: 0.4
BeatDivisor: 8
GridSize: 32
TimelineZoom: 3.499998

[Metadata]
Title:Tribal Trial
TitleUnicode:Tribal Trial
Artist:Yooh
ArtistUnicode:Yooh
Creator:-Ken
Version:Wrath
Source:SOUND VOLTEX VIVID WAVE
Tags:sdvx 5 original song contest video game instrumental
BeatmapID:2134510
BeatmapSetID:1020101

[Difficulty]
HPDrainRate:6
CircleSize:4.2
OverallDifficulty:9.6
ApproachRate:9.6
SliderMultiplier:2
SliderTickRate:2

[Events]
//Background and Video events
0,0,"bg.jpg",0,0
//Break Periods
2,13855,18964
//Storyboard Layer 0 (Background)
//Storyboard Layer 1 (Fail)
//Storyboard Layer 2 (Pass)
//Storyboard Layer 3 (Foreground)
//Storyboard Layer 4 (Overlay)
//Storyboard Sound Samples

[TimingPoints]
564.533456807564,363.636363636364,4,2,1,70,1,0
7109,-100,4,2,2,70,0,0
7837,-100,4,2,1,70,0,0
12200,-100,4,2,2,70,0,0
13655,-100,4,2,1,70,0,0
22019,-76.9230769230769,4,2,1,70,0,0
22382,-100,4,2,1,70,0,0
23473,-100,4,2,1,70,0,0
31109,-76.9230769230769,4,2,1,90,0,1
41291,-76.9230769230769,4,2,1,90,0,0
42382,-66.6666666666667,4,2,1,90,0,0
42746,-66.6666666666667,4,2,1,90,0,1
51473,-100,4,2,1,70,0,0
53291,-100,4,2,22,70,0,0
54382,-133.333333333333,4,2,1,70,0,0
60200,-133.333333333333,4,2,22,70,0,0
64564,-100,4,2,1,70,0,0
65678,-100,4,2,1,10,0,0
66019,-40,4,2,1,70,0,0
66382,-100,4,2,2,70,0,0
71473,-55.5555555555556,4,2,2,70,0,0
71655,-100,4,2,2,70,0,0
71837,-100,4,2,1,70,0,0
72200,-100,4,2,2,70,0,0
76928,-100,4,2,1,70,0,0
77291,-100,4,2,22,70,0,0
78019,-83.3333333333333,4,2,22,70,0,0
86382,-83.3333333333333,4,2,1,70,0,0
86564,-83.3333333333333,4,2,1,30,0,0
88564,-83.3333333333333,4,2,1,60,0,0
88958,-83.3333333333333,4,2,1,10,0,0
89291,-66.6666666666667,4,2,1,90,0,1
90019,-40,4,2,1,90,0,1
90746,-66.6666666666667,4,2,1,90,0,1
92928,-40,4,2,1,90,0,1
93473,-66.6666666666667,4,2,1,90,0,1
95837,-66.6666666666667,4,2,1,90,0,1
96382,-66.6666666666667,4,2,1,90,0,1
99473,-66.6666666666667,4,2,1,90,0,0
100928,-66.6666666666667,4,2,1,90,0,1
101655,-40,4,2,1,90,0,1
102200,-66.6666666666667,4,2,1,90,0,1
104564,-40,4,2,1,90,0,1
105109,-66.6666666666667,4,2,1,90,0,1
106746,-66.6666666666667,4,2,1,70,0,0
111109,-100,4,2,1,70,0,0
112019,-76.9230769230769,4,2,1,70,0,0
115473,-66.6666666666667,4,2,1,10,0,0

[Colours]
Combo1 : 243,207,84
Combo2 : 137,191,64
Combo3 : 255,64,64
Combo4 : 143,67,130

[HitObjects]
91,319,564,6,0,L|91:200,1,100,8|2,0:0|0:0,0:0:0:0:
192,326,837,2,0,L|192:204,1,100,8|2,0:0|0:0,0:0:0:0:
405,226,1109,2,0,L|405:118,1,100,8|0,0:0|0:0,0:0:0:0:
236,122,1473,1,0,0:0:0:0:
386,70,1655,1,8,0:0:0:0:
72,63,1837,1,8,0:0:0:0:
329,181,2019,5,6,0:0:0:0:
465,170,2200,2,2,L|475:227,2,50
287,127,2564,1,2,0:0:0:0:
151,116,2745,2,2,L|141:173,2,50
336,246,3109,1,2,0:0:0:0:
336,246,3291,1,2,0:0:0:0:
180,242,3473,5,2,0:0:0:0:
317,181,3655,5,2,0:0:0:0:
267,180,3746,1,2,0:0:0:0:
217,179,3836,1,2,0:0:0:0:
388,97,4019,1,2,0:0:0:0:
252,20,4200,5,2,0:0:0:0:
301,19,4290,1,2,0:0:0:0:
351,18,4381,1,2,0:0:0:0:
166,95,4564,1,2,0:0:0:0:
166,95,4746,5,0,0:0:0:0:
463,277,4928,1,6,0:0:0:0:
289,269,5109,1,2,0:0:0:0:
238,268,5200,1,2,0:0:0:0:
187,268,5291,1,2,0:0:0:0:
357,184,5473,1,2,0:0:0:0:
183,176,5654,1,2,0:0:0:0:
132,175,5745,1,2,0:0:0:0:
81,175,5836,1,2,0:0:0:0:
266,115,6019,5,2,0:0:0:0:
266,115,6200,1,2,0:0:0:0:
155,77,6382,5,2,0:0:0:0:
212,77,6473,1,2,0:0:0:0:
271,77,6564,1,2,0:0:0:0:
155,77,6655,5,2,0:0:0:0:
212,77,6746,1,2,0:0:0:0:
271,77,6837,1,2,0:0:0:0:
99,248,6928,1,2,0:0:0:0:
233,252,7109,6,0,L|240:217,3,25,2|0|2|0,0:0|0:0|0:0|0:0,0:0:0:0:
184,213,7291,5,2,0:0:0:0:
157,194,7351,1,0,0:0:0:0:
159,162,7412,1,0,0:0:0:0:
187,147,7473,1,2,0:0:0:0:
222,147,7534,1,0,0:0:0:0:
247,126,7594,1,0,0:0:0:0:
249,93,7655,1,0,0:0:0:0:
228,69,7715,1,0,0:0:0:0:
196,66,7776,1,0,0:0:0:0:
35,321,7837,5,6,0:0:0:0:
203,266,8019,5,2,0:0:0:0:
140,265,8109,1,2,0:0:0:0:
331,257,8200,2,2,L|339:135,1,100,2|2,0:0|0:0,0:0:0:0:
192,194,8564,5,2,0:0:0:0:
188,146,8654,1,2,0:0:0:0:
291,106,8746,1,2,0:0:0:0:
228,105,8836,1,0,0:0:0:0:
421,233,8928,2,0,L|429:111,1,100,2|0,0:0|0:0,0:0:0:0:
303,320,9291,5,2,0:0:0:0:
135,265,9473,5,2,0:0:0:0:
198,264,9563,1,2,0:0:0:0:
18,171,9655,2,2,L|139:171,1,100
302,177,10019,5,2,0:0:0:0:
306,129,10109,1,2,0:0:0:0:
203,89,10201,1,2,0:0:0:0:
266,88,10291,1,0,0:0:0:0:
95,81,10382,1,2,0:0:0:0:
41,40,10564,5,0,0:0:0:0:
95,31,10655,1,0,0:0:0:0:
352,190,10746,5,6,0:0:0:0:
203,189,10928,1,2,0:0:0:0:
139,189,11019,1,2,0:0:0:0:
330,189,11109,2,2,L|341:71,1,100
159,101,11473,5,2,0:0:0:0:
95,99,11564,1,2,0:0:0:0:
159,101,11655,5,2,0:0:0:0:
95,99,11746,1,0,0:0:0:0:
276,215,11837,2,2,L|275:354,1,100
73,323,12200,5,2,0:0:0:0:
95,253,12291,1,2,0:0:0:0:
69,186,12382,1,2,0:0:0:0:
228,247,12473,5,2,0:0:0:0:
250,177,12564,1,2,0:0:0:0:
224,110,12655,1,2,0:0:0:0:
399,102,12746,1,2,0:0:0:0:
406,160,12928,6,0,L|418:196,2,33.3333333333333,2|0|0,0:0|0:0|0:0,0:0:0:0:
348,160,13109,2,0,L|336:196,2,33.3333333333333,2|0|0,0:0|0:0|0:0,0:0:0:0:
406,160,13291,6,0,L|418:196,2,33.3333333333333,2|0|0,0:0|0:0|0:0,0:0:0:0:
348,160,13472,2,0,L|336:196,2,33.3333333333333,2|0|0,0:0|0:0|0:0,0:0:0:0:
494,62,13655,1,6,0:0:0:0:
340,324,19473,5,2,0:2:0:0:
470,264,19655,1,2,0:0:0:0:
471,215,19746,1,2,0:0:0:0:
472,160,19837,1,2,0:0:0:0:
172,324,20019,5,2,0:0:0:0:
42,264,20201,1,2,0:0:0:0:
41,215,20292,1,2,0:0:0:0:
40,160,20383,1,2,0:0:0:0:
368,188,20564,2,2,L|367:69,1,100
65,330,20928,5,2,0:0:0:0:
214,329,21109,1,2,0:0:0:0:
254,329,21200,1,2,0:0:0:0:
214,329,21291,1,2,0:0:0:0:
498,329,21473,5,2,0:0:0:0:
349,328,21654,1,2,0:0:0:0:
309,328,21745,1,2,0:0:0:0:
349,328,21836,1,2,0:0:0:0:
106,303,22019,6,2,P|23:217|151:208,1,259.999988098145
218,123,22564,1,2,0:0:0:0:
159,122,22655,1,2,0:0:0:0:
100,122,22746,1,2,0:0:0:0:
396,252,22928,5,2,0:0:0:0:
480,165,23109,1,0,0:0:0:0:
421,164,23200,1,0,0:0:0:0:
362,164,23291,1,0,0:0:0:0:
87,195,23473,6,2,L|82:300,1,100
274,222,23837,6,2,L|337:222,2,50
355,166,24109,2,2,L|418:166,2,50
283,169,24382,2,2,L|334:169,1,50
176,263,24564,6,2,L|113:263,2,50
95,207,24836,2,2,L|32:207,2,50
167,210,25109,2,2,L|116:210,1,50
382,309,25291,6,2,L|397:239,1,50,10|2,0:0|0:0,0:0:0:0:
304,246,25473,1,2,0:0:0:0:
382,309,25564,2,2,L|397:239,1,50,2|10,0:0|0:0,0:0:0:0:
304,246,25746,1,2,0:0:0:0:
382,309,25837,2,2,L|395:254,1,50
165,287,26019,6,2,L|150:217,1,50,10|2,0:0|0:0,0:0:0:0:
243,224,26201,1,2,0:0:0:0:
165,287,26291,2,2,L|150:217,1,50,2|10,0:0|0:0,0:0:0:0:
243,224,26474,1,2,0:0:0:0:
165,287,26565,2,2,L|152:232,1,50
354,157,26746,5,10,0:0:0:0:
418,154,26837,1,2,0:0:0:0:
452,134,26928,1,2,0:0:0:0:
354,157,27019,1,2,0:0:0:0:
418,154,27110,1,10,0:0:0:0:
452,134,27201,1,2,0:0:0:0:
354,157,27291,1,2,0:0:0:0:
398,157,27382,1,2,0:0:0:0:
196,181,27473,5,10,0:0:0:0:
132,178,27564,1,2,0:0:0:0:
98,158,27655,1,2,0:0:0:0:
196,181,27746,1,2,0:0:0:0:
132,178,27837,1,10,0:0:0:0:
98,158,27928,1,2,0:0:0:0:
196,181,28018,1,2,0:0:0:0:
152,181,28109,1,2,0:0:0:0:
398,261,28200,5,10,0:0:0:0:
342,263,28291,1,0,0:0:0:0:
398,261,28382,1,2,0:0:0:0:
68,266,28564,5,10,0:0:0:0:
124,268,28655,1,0,0:0:0:0:
68,266,28746,1,2,0:0:0:0:
347,266,28928,5,10,0:0:0:0:
413,265,29019,1,0,0:0:0:0:
469,228,29110,1,10,0:0:0:0:
472,162,29200,1,0,0:0:0:0:
284,144,29291,5,10,0:0:0:0:
218,145,29382,1,0,0:0:0:0:
284,144,29473,1,10,0:0:0:0:
218,145,29563,1,0,0:0:0:0:
463,186,29655,6,0,L|488:297,1,100,2|0,0:0|0:0,0:0:0:0:
331,173,30019,2,0,L|356:284,1,100,2|0,0:0|0:0,0:0:0:0:
200,163,30382,2,0,L|225:274,1,100,2|0,0:0|0:0,0:0:0:0:
68,150,30746,2,0,L|93:261,1,100,2|0,0:0|0:0,0:0:0:0:
445,272,31109,5,4,3:2:0:0:
276,199,31291,1,2,0:2:0:0:
335,197,31382,1,2,0:2:0:0:
157,147,31473,1,0,3:2:0:0:
216,145,31564,1,2,0:2:0:0:
157,147,31655,1,2,0:2:0:0:
334,74,31746,1,2,0:2:0:0:
167,72,31837,1,2,3:2:0:0:
128,71,32019,5,2,0:0:0:0:
128,71,32110,1,2,0:0:0:0:
345,68,32201,1,2,3:2:0:0:
387,184,32382,1,2,0:0:0:0:
328,185,32473,1,2,0:0:0:0:
67,272,32564,5,2,3:2:0:0:
236,199,32746,1,2,0:0:0:0:
177,197,32837,1,2,0:0:0:0:
355,147,32928,1,0,3:0:0:0:
296,145,33019,1,2,0:0:0:0:
355,147,33110,1,2,0:0:0:0:
178,74,33201,1,2,0:0:0:0:
345,72,33292,1,2,3:2:0:0:
382,75,33474,5,2,0:0:0:0:
382,75,33565,1,2,0:0:0:0:
165,55,33656,1,2,3:2:0:0:
83,167,33837,1,2,0:1:0:0:
128,167,33897,1,2,0:1:0:0:
185,168,33958,1,2,0:1:0:0:
392,180,34019,6,0,L|392:324,1,129.999994049073,6|2,3:2|0:0,0:0:0:0:
328,316,34291,1,2,0:0:0:0:
501,253,34382,1,0,3:0:0:0:
442,273,34473,1,2,0:0:0:0:
218,295,34564,6,0,L|214:219,1,64.9999970245363,2|2,0:0|0:0,0:0:0:0:
409,137,34746,2,0,L|268:137,1,129.999994049073,2|2,3:2|0:0,0:0:0:0:
219,139,35019,1,2,0:0:0:0:
415,78,35109,2,0,L|230:82,1,129.999994049073,2|2,3:2|0:0,0:0:0:0:
345,53,35382,1,2,0:0:0:0:
136,314,35473,6,2,L|136:289,1,16.2499992561341,2|2,3:2|0:2,0:2:0:0:
205,312,35564,2,2,L|205:293,1,16.2499992561341,2|2,0:2|0:2,0:2:0:0:
18,225,35655,6,0,L|150:225,1,129.999994049073,2|2,0:0|3:2,0:0:0:0:
148,225,35859,1,2,0:0:0:0:
215,228,35928,2,2,L|215:206,1,16.2499992561341
18,46,36019,6,0,L|150:46,1,129.999994049073,2|2,0:0|3:2,0:0:0:0:
148,38,36223,1,2,0:0:0:0:
87,89,36291,2,2,L|87:111,1,16.2499992561341
272,157,36382,2,2,L|273:176,1,16.2499992561341
338,200,36473,2,2,L|338:220,1,16.2499992561341
162,307,36564,6,2,L|161:325,1,16.2499992561341,2|2,3:2|0:2,0:2:0:0:
300,291,36655,2,2,L|300:308,1,16.2499992561341
76,294,36746,2,0,P|40:265|88:219,1,129.999994049073,2|6,0:0|3:2,0:0:0:0:
232,182,37109,6,2,L|150:183,1,64.9999970245363
326,175,37291,2,0,L|413:175,2,64.9999970245363,0|2|2,3:0|0:0|0:0,0:0:0:0:
491,107,37564,1,2,0:0:0:0:
295,109,37655,1,2,3:2:0:0:
323,49,37837,1,2,0:0:0:0:
387,38,37928,1,2,0:0:0:0:
153,73,38019,1,2,3:2:0:0:
56,156,38200,1,2,0:2:0:0:
119,158,38291,1,2,0:2:0:0:
316,267,38382,5,2,3:2:0:0:
170,276,38564,2,2,L|241:275,1,64.9999970245363
23,275,38746,2,0,L|94:274,2,64.9999970245363,0|2|2,3:0|0:0|0:0,0:0:0:0:
205,214,39019,1,2,0:0:0:0:
22,176,39109,5,2,3:2:0:0:
175,140,39291,1,2,0:0:0:0:
111,119,39382,1,2,0:0:0:0:
387,149,39473,2,0,P|432:203|416:270,1,129.999994049073,2|2,3:2|0:1,0:0:0:0:
377,260,39716,1,2,0:1:0:0:
319,260,39776,1,2,0:1:0:0:
99,363,39837,6,0,L|179:260,1,129.999994049073,6|2,3:2|0:0,0:0:0:0:
116,254,40109,1,2,0:0:0:0:
281,159,40200,2,0,L|197:151,1,64.9999970245363,0|2,3:0|0:0,0:0:0:0:
157,143,40382,1,2,0:0:0:0:
367,109,40473,1,2,0:0:0:0:
192,84,40564,5,2,3:2:0:0:
308,42,40746,1,2,0:0:0:0:
252,42,40837,1,2,0:0:0:0:
74,70,40928,2,2,L|59:209,1,129.999994049073,2|2,3:2|0:0,0:0:0:0:
123,198,41200,1,2,0:0:0:0:
441,278,41291,5,2,0:0:0:0:
319,252,41473,1,2,0:0:0:0:
307,190,41563,1,2,0:0:0:0:
351,146,41654,1,2,0:0:0:0:
178,119,41837,5,2,0:0:0:0:
328,137,42019,1,2,0:0:0:0:
340,75,42109,1,2,0:0:0:0:
296,31,42200,1,2,0:0:0:0:
22,320,42382,6,0,L|350:320,1,300.000011444092,2|6,0:0|3:2,0:0:0:0:
184,204,42928,1,2,0:0:0:0:
173,153,43019,1,2,0:0:0:0:
328,204,43109,1,0,3:0:0:0:
339,153,43200,1,2,0:0:0:0:
266,132,43291,1,2,0:0:0:0:
436,126,43382,1,2,0:0:0:0:
182,120,43473,6,0,P|174:123|224:225,1,150.000005722046,2|2,3:2|0:0,0:0:0:0:
269,232,43746,1,2,0:0:0:0:
50,327,43837,2,0,P|47:202|67:180,1,150.000005722046,2|2,3:2|0:0,0:0:0:0:
140,185,44109,1,2,0:0:0:0:
347,316,44200,5,2,3:2:0:0:
184,200,44382,1,2,0:0:0:0:
173,149,44473,1,2,0:0:0:0:
328,200,44564,1,0,3:0:0:0:
339,149,44655,1,2,0:0:0:0:
266,128,44746,1,2,0:0:0:0:
436,122,44837,1,2,0:0:0:0:
182,116,44928,6,2,P|174:119|224:221,1,150.000005722046,2|2,3:2|0:0,0:0:0:0:
273,228,45200,1,2,0:0:0:0:
82,308,45291,1,2,3:2:0:0:
82,308,45473,5,2,0:1:0:0:
136,306,45534,1,2,0:1:0:0:
202,299,45594,1,2,0:1:0:0:
465,320,45655,2,0,L|354:200,1,150.000005722046,4|2,3:2|0:0,0:0:0:0:
432,200,45928,1,2,0:0:0:0:
281,202,46019,1,0,3:0:0:0:
279,155,46109,1,2,0:0:0:0:
352,158,46200,1,2,0:0:0:0:
182,99,46291,1,2,0:0:0:0:
361,269,46382,6,0,L|212:267,1,150.000005722046,2|2,3:2|0:0,0:0:0:0:
283,264,46655,1,2,0:0:0:0:
439,257,46746,2,0,P|469:200|416:146,1,150.000005722046,2|2,3:2|0:0,0:0:0:0:
331,145,47019,1,2,0:0:0:0:
71,241,47109,6,2,L|70:268,1,18.7500007152558,2|2,3:2|0:2,0:2:0:0:
127,256,47200,2,2,L|127:291,1,18.7500007152558
343,167,47291,6,0,L|181:167,1,150.000005722046,2|2,0:0|3:2,0:0:0:0:
193,167,47496,1,2,0:0:0:0:
250,206,47564,2,2,L|250:242,1,18.7500007152558
491,89,47655,6,2,L|329:89,1,150.000005722046,2|2,0:2|3:2,0:2:0:0:
341,89,47860,1,2,0:0:0:0:
397,119,47928,2,2,L|398:152,1,18.7500007152558
220,127,48019,2,2,L|220:159,1,18.7500007152558
276,153,48109,2,2,L|276:181,1,18.7500007152558
97,212,48200,6,2,L|98:238,1,18.7500007152558,2|2,3:2|0:2,0:2:0:0:
153,245,48291,2,2,L|154:278,1,18.7500007152558
334,251,48382,2,2,L|334:283,1,18.7500007152558
276,279,48472,2,2,L|276:307,1,18.7500007152558
23,250,48564,6,0,L|23:100,1,150.000005722046,6|2,3:2|0:0,0:0:0:0:
90,95,48837,1,2,0:0:0:0:
285,86,48928,1,0,3:0:0:0:
349,82,49019,1,2,0:0:0:0:
413,79,49109,1,2,0:0:0:0:
242,150,49200,1,2,0:0:0:0:
428,151,49291,5,2,3:2:0:0:
330,231,49473,1,2,0:0:0:0:
392,223,49564,1,2,0:0:0:0:
141,250,49655,2,0,P|80:200|79:114,1,150.000005722046,2|2,3:2|0:0,0:0:0:0:
145,130,49928,1,2,0:0:0:0:
453,277,50019,6,2,L|460:127,1,150.000005722046,2|2,3:2|0:0,0:0:0:0:
393,122,50292,1,2,0:0:0:0:
199,115,50383,1,0,3:0:0:0:
134,109,50474,1,2,0:0:0:0:
70,106,50564,1,2,0:0:0:0:
241,177,50655,1,2,0:0:0:0:
55,178,50746,5,2,3:2:0:0:
152,270,50928,1,2,0:0:0:0:
90,262,51019,1,2,0:0:0:0:
346,263,51110,2,2,P|428:223|431:143,1,150.000005722046,2|2,3:2|0:1,0:0:0:0:
367,169,51382,1,2,0:1:0:0:
105,155,51473,5,6,0:2:0:0:
219,128,51655,1,2,0:0:0:0:
280,128,51746,1,2,0:0:0:0:
341,124,51837,2,2,L|347:237,1,100
149,234,52200,5,2,0:0:0:0:
293,203,52382,1,2,0:0:0:0:
354,203,52473,1,2,0:0:0:0:
415,203,52564,2,2,L|421:316,1,100
231,312,52928,5,2,0:0:0:0:
79,312,53109,1,0,0:0:0:0:
231,312,53291,1,10,0:0:0:0:
419,304,53473,2,0,P|408:226|281:196,1,200,2|8,0:0|0:0,0:0:0:0:
41,187,54019,1,8,0:0:0:0:
188,177,54200,1,8,0:0:0:0:
489,314,54382,6,2,L|489:210,1,75.0000028610231,6|2,0:0|0:0,0:0:0:0:
338,215,54746,1,2,0:0:0:0:
429,189,54928,1,2,0:0:0:0:
409,94,55109,1,2,0:0:0:0:
273,163,55291,5,2,0:0:0:0:
364,137,55473,1,2,0:0:0:0:
344,42,55654,1,2,0:0:0:0:
200,82,55837,1,2,0:0:0:0:
314,79,56019,1,2,0:0:0:0:
200,82,56200,1,2,0:0:0:0:
85,80,56382,1,2,0:0:0:0:
261,182,56564,6,2,L|296:253,1,75.0000028610231
141,202,56928,2,2,L|145:288,1,75.0000028610231
342,301,57291,6,2,L|376:205,1,75.0000028610231
299,220,57564,1,0,0:0:0:0:
232,212,57655,2,2,L|341:207,1,75.0000028610231
175,136,58019,5,2,0:0:0:0:
334,109,58200,2,2,L|333:200,1,75.0000028610231
195,263,58564,5,2,0:0:0:0:
262,263,58655,1,0,0:0:0:0:
329,261,58746,2,2,L|229:261,1,75.0000028610231
324,238,59019,1,0,0:0:0:0:
392,223,59109,2,2,L|426:133,1,75.0000028610231
257,132,59473,5,2,0:0:0:0:
397,84,59655,1,2,0:0:0:0:
257,132,59837,1,2,0:0:0:0:
327,108,59928,1,0,0:0:0:0:
397,84,60019,1,2,0:0:0:0:
152,258,60200,5,10,0:0:0:0:
293,261,60382,6,0,L|292:191,1,37.5000014305115,2|0,0:0|0:0,0:0:0:0:
138,205,60564,1,10,0:0:0:0:
83,137,60746,1,2,0:0:0:0:
237,93,60928,5,10,0:0:0:0:
81,86,61109,1,2,0:0:0:0:
99,14,61291,1,10,0:0:0:0:
256,18,61473,5,2,0:0:0:0:
408,78,61655,1,10,0:0:0:0:
405,139,61837,1,2,0:0:0:0:
251,47,62019,5,10,0:0:0:0:
408,78,62201,1,2,0:0:0:0:
405,139,62383,5,10,0:0:0:0:
272,170,62564,1,2,0:0:0:0:
422,153,62746,1,10,0:0:0:0:
347,168,62837,1,0,0:0:0:0:
272,170,62927,1,2,0:0:0:0:
33,340,63109,5,10,0:0:0:0:
31,272,63291,1,2,0:0:0:0:
198,224,63473,1,10,0:0:0:0:
33,340,63655,5,2,0:0:0:0:
31,272,63837,1,10,0:0:0:0:
198,224,64019,1,2,0:0:0:0:
33,340,64200,5,10,0:0:0:0:
31,272,64382,1,2,0:0:0:0:
425,287,64564,6,2,L|487:263,1,50,2|2,0:1|0:1,0:1:0:0:
261,242,64746,2,2,L|206:232,1,50,2|2,0:1|0:1,0:1:0:0:
336,166,65019,1,2,0:1:0:0:
166,164,65109,1,2,0:1:0:0:
129,165,65169,1,2,0:1:0:0:
166,164,65230,1,2,0:1:0:0:
241,164,65291,6,2,L|331:164,1,50,2|2,0:1|0:1,0:1:0:0:
78,83,65473,2,2,L|19:85,1,50,2|2,0:1|0:1,0:1:0:0:
359,95,65655,2,2,L|380:93,1,16.6666666666667,2|0,0:1|0:1,0:1:0:0:
140,235,66019,6,0,B|125:33|-11:348|477:289,1,500,4|8,3:2|0:0,0:0:0:0:
421,273,66473,1,0,0:0:0:0:
474,245,66564,1,0,0:0:0:0:
386,242,66655,1,0,0:0:0:0:
298,291,66746,5,8,0:0:0:0:
351,273,66837,1,0,0:0:0:0:
298,245,66928,1,0,0:0:0:0:
386,242,67019,1,0,0:0:0:0:
474,291,67110,5,8,0:0:0:0:
421,273,67201,1,0,0:0:0:0:
474,245,67292,1,0,0:0:0:0:
386,242,67382,1,0,0:0:0:0:
298,291,67473,5,8,0:0:0:0:
351,273,67564,1,0,0:0:0:0:
298,245,67655,1,0,0:0:0:0:
474,191,67837,1,8,0:0:0:0:
477,141,67927,1,0,0:0:0:0:
480,91,68018,1,0,0:0:0:0:
287,223,68200,5,8,0:0:0:0:
340,205,68291,1,0,0:0:0:0:
287,177,68382,1,0,0:0:0:0:
463,123,68564,1,8,0:0:0:0:
466,73,68654,1,0,0:0:0:0:
469,23,68745,1,0,0:0:0:0:
287,177,68928,5,8,0:0:0:0:
130,180,69019,1,0,0:0:0:0:
130,180,69200,5,0,0:0:0:0:
287,177,69291,1,8,0:0:0:0:
177,110,69473,1,0,0:0:0:0:
332,217,69655,5,8,0:0:0:0:
175,220,69746,1,0,0:0:0:0:
175,220,69927,5,0,0:0:0:0:
332,217,70018,1,8,0:0:0:0:
222,150,70200,1,0,0:0:0:0:
111,94,70382,5,8,0:0:0:0:
234,61,70564,2,0,L|159:61,1,50
33,285,70746,5,8,0:0:0:0:
156,252,70928,2,0,L|81:252,1,50
363,251,71109,2,0,L|342:185,1,50,8|0,0:0|0:0,0:0:0:0:
244,215,71291,2,0,L|257:140,1,50
357,171,71473,2,0,P|413:127|329:80,1,179.999994506836,8|0,0:0|0:0,0:0:0:0:
33,255,71837,1,12,3:2:0:0:
481,299,72200,5,8,0:0:0:0:
431,299,72260,1,0,0:0:0:0:
381,299,72321,1,0,0:0:0:0:
331,299,72381,1,0,0:0:0:0:
145,237,72564,5,8,0:0:0:0:
195,237,72624,1,0,0:0:0:0:
245,237,72685,1,0,0:0:0:0:
295,237,72745,1,0,0:0:0:0:
481,299,72928,5,8,0:0:0:0:
431,299,72988,1,0,0:0:0:0:
381,299,73049,1,0,0:0:0:0:
331,299,73109,1,0,0:0:0:0:
145,237,73291,5,8,0:0:0:0:
102,223,73382,1,0,0:0:0:0:
190,205,73473,5,0,0:0:0:0:
147,191,73564,1,0,0:0:0:0:
235,161,73655,5,8,0:0:0:0:
192,147,73746,1,0,0:0:0:0:
280,124,73837,5,0,0:0:0:0:
237,110,73928,1,0,0:0:0:0:
137,82,74019,5,8,0:0:0:0:
180,68,74110,1,0,0:0:0:0:
92,49,74200,5,0,0:0:0:0:
135,35,74291,1,0,0:0:0:0:
235,146,74382,5,8,0:0:0:0:
192,132,74473,1,0,0:0:0:0:
280,113,74563,5,0,0:0:0:0:
237,99,74654,1,0,0:0:0:0:
126,177,74746,5,8,0:0:0:0:
195,178,74837,1,0,0:0:0:0:
264,180,74928,1,0,0:0:0:0:
195,178,75019,5,0,0:0:0:0:
305,236,75110,1,8,0:0:0:0:
372,233,75201,1,0,0:0:0:0:
305,236,75291,1,0,0:0:0:0:
372,233,75382,1,0,0:0:0:0:
275,173,75473,5,8,0:0:0:0:
206,174,75564,1,0,0:0:0:0:
137,176,75655,1,0,0:0:0:0:
206,174,75746,5,0,0:0:0:0:
96,232,75837,1,8,0:0:0:0:
29,229,75928,1,0,0:0:0:0:
96,232,76018,1,0,0:0:0:0:
29,229,76109,1,0,0:0:0:0:
223,91,76200,5,8,0:0:0:0:
324,86,76322,1,0,0:0:0:0:
425,79,76443,1,0,0:0:0:0:
199,154,76564,5,8,0:0:0:0:
286,149,76686,1,0,0:0:0:0:
290,71,76807,1,0,0:0:0:0:
64,179,76928,2,0,P|19:225|63:259,1,133.333333333333,12|0,0:0|0:0,0:0:0:0:
296,230,77291,1,8,0:0:0:0:
149,184,77473,1,0,0:0:0:0:
429,248,77655,5,10,0:0:0:0:
438,198,77745,1,0,0:0:0:0:
448,149,77836,1,2,0:0:0:0:
457,99,77928,1,0,0:0:0:0:
194,132,78019,2,0,L|94:99,1,59.9999981689454,10|0,0:0|0:0,0:0:0:0:
309,127,78200,2,0,L|252:100,1,59.9999981689454,2|0,0:0|0:0,0:0:0:0:
429,248,78382,5,10,0:0:0:0:
438,198,78472,1,0,0:0:0:0:
448,149,78563,1,2,0:0:0:0:
457,99,78655,1,0,0:0:0:0:
194,132,78746,2,0,L|94:99,1,59.9999981689454,10|0,0:0|0:0,0:0:0:0:
309,127,78927,2,0,L|252:100,1,59.9999981689454,2|0,0:0|0:0,0:0:0:0:
458,254,79109,5,10,0:0:0:0:
396,255,79199,1,0,0:0:0:0:
335,255,79290,1,2,0:0:0:0:
273,257,79382,1,0,0:0:0:0:
83,248,79473,2,0,L|19:249,1,59.9999981689454,10|0,0:0|0:0,0:0:0:0:
237,170,79654,2,0,L|320:164,1,59.9999981689454,2|0,0:0|0:0,0:0:0:0:
30,294,79837,5,10,0:0:0:0:
92,295,79927,1,0,0:0:0:0:
153,295,80018,1,2,0:0:0:0:
215,297,80110,1,0,0:0:0:0:
405,288,80200,2,0,L|469:289,1,59.9999981689454,10|0,0:0|0:0,0:0:0:0:
222,203,80382,2,0,L|139:197,1,59.9999981689454,2|0,0:0|0:0,0:0:0:0:
336,280,80564,6,0,L|438:275,1,59.9999981689454,10|0,0:0|0:0,0:0:0:0:
468,248,80746,2,0,L|496:171,1,59.9999981689454,2|0,0:0|0:0,0:0:0:0:
227,280,80928,6,0,L|125:275,1,59.9999981689454,10|0,0:0|0:0,0:0:0:0:
95,248,81110,2,0,L|67:171,1,59.9999981689454,2|0,0:0|0:0,0:0:0:0:
247,136,81291,6,0,L|171:110,1,59.9999981689454,10|0,0:0|0:0,0:0:0:0:
299,97,81473,2,0,L|316:31,1,59.9999981689454,2|0,0:0|0:0,0:0:0:0:
147,310,81655,6,0,L|223:284,1,59.9999981689454,10|0,0:0|0:0,0:0:0:0:
95,271,81837,2,0,L|78:205,1,59.9999981689454,2|0,0:0|0:0,0:0:0:0:
248,168,82019,6,0,L|328:169,1,59.9999981689454,10|0,0:0|0:0,0:0:0:0:
248,168,82200,2,0,L|153:169,1,59.9999981689454,2|0,0:0|0:0,0:0:0:0:
408,69,82382,6,0,L|488:70,1,59.9999981689454,10|0,0:0|0:0,0:0:0:0:
408,69,82563,2,0,L|313:70,1,59.9999981689454,2|0,0:0|0:0,0:0:0:0:
28,258,82746,6,0,L|66:195,1,59.9999981689454,10|0,0:0|0:0,0:0:0:0:
147,156,82928,2,0,L|252:141,1,59.9999981689454,2|0,0:0|0:0,0:0:0:0:
465,228,83109,6,0,L|427:165,1,59.9999981689454,10|0,0:0|0:0,0:0:0:0:
346,126,83291,2,0,L|241:111,1,59.9999981689454,2|0,0:0|0:0,0:0:0:0:
32,217,83473,6,0,L|119:214,1,59.9999981689454,10|0,0:0|0:0,0:0:0:0:
427,211,83655,2,0,L|408:296,1,59.9999981689454,10|0,0:0|0:0,0:0:0:0:
238,142,83837,2,0,L|226:200,1,59.9999981689454,10|2,0:0|0:0,0:0:0:0:
50,79,84019,2,0,L|38:137,1,59.9999981689454,10|2,0:0|0:0,0:0:0:0:
339,225,84200,6,2,L|292:313,1,59.9999981689454,10|2,0:0|0:0,0:0:0:0:
73,240,84382,2,2,L|71:306,1,59.9999981689454,10|2,0:0|0:0,0:0:0:0:
248,205,84564,2,2,L|252:293,1,59.9999981689454,10|2,0:0|0:0,0:0:0:0:
427,144,84746,2,2,L|429:228,1,59.9999981689454,10|2,0:0|0:0,0:0:0:0:
163,226,84928,5,10,0:0:0:0:
160,255,84973,1,2,0:0:0:0:
157,285,85018,1,2,0:0:0:0:
443,224,85109,2,2,L|382:223,1,59.9999981689454,10|2,0:0|0:0,0:0:0:0:
89,106,85291,2,2,L|175:106,1,59.9999981689454,10|2,0:0|0:0,0:0:0:0:
459,90,85473,2,2,L|380:90,1,59.9999981689454,10|2,0:0|0:0,0:0:0:0:
197,223,85655,5,10,0:0:0:0:
194,252,85700,1,2,0:0:0:0:
191,282,85745,1,2,0:0:0:0:
383,223,85837,5,10,0:0:0:0:
386,252,85882,1,2,0:0:0:0:
389,282,85927,1,2,0:0:0:0:
121,273,86019,5,10,0:0:0:0:
90,255,86064,1,0,0:0:0:0:
70,229,86109,1,10,0:0:0:0:
63,195,86155,1,0,0:0:0:0:
72,163,86200,1,10,0:0:0:0:
95,138,86246,1,0,0:0:0:0:
133,127,86291,1,10,0:0:0:0:
340,76,86382,5,4,0:0:0:0:
440,137,86564,1,0,0:0:0:0:
340,76,86746,1,0,0:0:0:0:
440,137,86928,1,0,0:0:0:0:
271,180,87109,1,0,0:0:0:0:
252,271,87291,1,0,0:0:0:0:
409,196,87473,1,0,0:0:0:0:
428,287,87655,1,0,0:0:0:0:
359,289,87746,1,0,0:0:0:0:
251,291,87837,6,0,L|96:291,1,119.999996337891,0|2,0:0|0:0,0:0:0:0:
191,288,88109,1,2,0:0:0:0:
299,263,88200,2,0,L|448:264,1,119.999996337891
352,260,88473,1,2,0:0:0:0:
116,257,88564,6,0,P|84:180|166:133,1,179.999994506836,2|0,0:0|0:0,0:0:0:0:
440,138,88928,2,0,L|448:112,1,19.9999993896485,4|0,0:0|0:0,0:0:0:0:
156,272,89291,6,0,P|94:208|220:143,1,225.000008583069,2|0,3:2|0:0,0:0:0:0:
342,86,89655,2,2,L|174:86,1,150.000005722046,2|2,3:2|0:0,0:0:0:0:
486,254,90019,2,2,L|226:254,1,250,2|2,3:2|0:0,0:0:0:0:
350,193,90382,2,2,L|75:193,1,250,2|2,3:2|0:0,0:0:0:0:
432,288,90746,6,0,P|477:223|351:158,1,225.000008583069,2|0,3:2|0:0,0:0:0:0:
214,86,91109,2,2,L|382:86,1,150.000005722046,2|2,3:2|0:0,0:0:0:0:
100,144,91473,1,2,3:2:0:0:
237,207,91655,1,2,0:0:0:0:
174,210,91746,1,2,0:0:0:0:
457,333,91837,1,2,3:2:0:0:
312,309,92019,1,2,0:0:0:0:
376,293,92109,1,2,0:0:0:0:
147,311,92200,6,0,P|121:227|256:170,1,225.000008583069,6|0,3:2|0:0,0:0:0:0:
403,187,92564,2,2,L|426:27,1,150.000005722046,2|2,3:2|0:0,0:0:0:0:
56,292,92928,2,2,L|361:291,1,250,2|2,3:2|0:0,0:0:0:0:
190,214,93291,2,2,L|495:213,1,250,2|2,3:2|0:0,0:0:0:0:
112,224,93655,5,0,3:0:0:0:
243,98,93837,2,2,L|249:74,1,18.7500007152558
243,98,93928,2,2,L|250:125,1,18.7500007152558
19,105,94019,1,0,3:0:0:0:
280,98,94200,6,2,L|274:74,1,18.7500007152558
280,98,94291,2,2,L|273:125,1,18.7500007152558
495,105,94382,1,0,3:0:0:0:
243,98,94564,6,2,L|249:74,1,18.7500007152558
243,98,94655,2,2,L|250:125,1,18.7500007152558
19,105,94746,1,0,3:0:0:0:
93,102,94837,1,2,0:0:0:0:
19,105,94928,1,0,0:0:0:0:
93,102,95019,1,2,0:0:0:0:
312,179,95109,6,0,P|370:224|290:326,1,225.000008583069,2|0,3:2|0:0,0:0:0:0:
121,256,95473,2,2,L|297:256,1,150.000005722046,2|2,3:2|0:0,0:0:0:0:
30,131,95837,2,2,L|185:131,1,150.000005722046,2|2,3:2|0:0,0:0:0:0:
491,74,96200,2,2,L|337:74,1,150.000005722046,2|2,3:2|0:0,0:0:0:0:
102,164,96564,6,0,P|33:234|162:296,1,225.000008583069,2|0,3:2|0:0,0:0:0:0:
278,260,96928,2,2,L|111:253,1,150.000005722046,2|2,3:2|0:2,0:2:0:0:
366,202,97291,1,2,3:2:0:0:
191,201,97382,2,2,L|363:121,1,150.000005722046,2|2,0:2|0:2,0:2:0:0:
150,116,97655,1,2,3:2:0:0:
273,75,97837,1,2,0:2:0:0:
211,74,97928,1,2,0:2:0:0:
428,139,98019,6,2,P|489:238|390:289,1,225.000008583069,2|0,3:2|0:2,0:2:0:0:
250,289,98382,2,2,L|57:289,1,150.000005722046,2|2,3:2|0:2,0:2:0:0:
429,193,98746,2,2,L|265:193,1,150.000005722046,2|2,3:2|0:2,0:2:0:0:
32,141,99109,1,2,3:2:0:0:
352,97,99291,1,2,3:2:0:0:
111,274,99473,5,4,3:2:0:0:
111,274,99655,5,2,0:0:0:0:
61,273,99746,1,2,0:0:0:0:
216,234,99837,5,2,0:0:0:0:
166,233,99928,1,2,0:0:0:0:
321,201,100019,5,2,0:0:0:0:
271,200,100110,1,2,0:0:0:0:
423,196,100200,2,0,B|468:129|468:129|400:47,1,150.000005722046,2|2,0:0|0:1,0:0:0:0:
368,72,100443,1,2,0:1:0:0:
314,71,100503,1,2,0:1:0:0:
75,110,100564,2,0,L|75:276,1,150.000005722046,2|0,0:0|0:0,0:0:0:0:
494,303,100928,6,0,L|258:303,1,225.000008583069,6|0,3:2|0:2,0:2:0:0:
442,220,101291,2,2,L|267:220,1,150.000005722046,2|2,3:2|0:2,0:2:0:0:
45,124,101655,2,2,L|353:124,1,250,2|2,3:2|0:2,0:2:0:0:
461,55,102019,2,2,L|166:55,1,250,2|2,3:2|0:2,0:2:0:0:
482,245,102382,6,0,L|233:245,1,225.000008583069,2|0,3:2|0:2,0:2:0:0:
432,194,102746,2,2,P|466:117|407:93,1,150.000005722046,2|2,3:2|0:2,0:2:0:0:
144,104,103109,1,2,3:2:0:0:
301,109,103291,1,2,0:2:0:0:
361,108,103382,1,2,0:2:0:0:
173,230,103473,1,0,3:2:0:0:
71,237,103564,1,2,0:2:0:0:
131,236,103655,1,2,0:2:0:0:
71,237,103746,1,2,0:2:0:0:
400,198,103837,6,0,L|156:198,1,225.000008583069,2|0,3:2|0:2,0:2:0:0:
20,111,104200,2,2,L|223:111,1,150.000005722046,2|2,3:2|0:2,0:2:0:0:
471,265,104564,6,2,L|181:266,1,250,2|2,3:2|0:2,0:2:0:0:
338,183,104928,2,2,L|83:186,1,250,2|2,3:2|0:2,0:2:0:0:
350,101,105291,5,0,3:2:0:0:
221,126,105473,2,2,L|220:148,1,18.7500007152558,2|2,0:2|0:2,0:2:0:0:
220,193,105564,2,2,L|220:217,1,18.7500007152558,2|2,0:2|0:2,0:2:0:0:
399,203,105655,1,0,3:2:0:0:
123,204,105837,6,2,L|122:226,1,18.7500007152558,2|2,0:2|0:2,0:2:0:0:
122,271,105928,2,2,L|122:295,1,18.7500007152558,2|2,0:2|0:2,0:2:0:0:
301,281,106019,1,0,3:2:0:0:
26,154,106200,6,2,L|25:176,1,18.7500007152558,2|2,0:2|0:2,0:2:0:0:
25,221,106291,2,2,L|25:245,1,18.7500007152558,2|2,0:2|0:2,0:2:0:0:
204,231,106382,1,0,3:2:0:0:
279,209,106473,1,2,0:2:0:0:
204,231,106564,1,0,3:2:0:0:
279,209,106655,1,2,0:2:0:0:
57,157,106746,6,0,L|50:80,1,75.0000028610231,6|0,0:2|0:0,0:0:0:0:
144,123,106928,2,0,L|137:46,1,75.0000028610231,0|2,0:0|0:0,0:0:0:0:
339,131,107109,2,0,L|423:106,3,75.0000028610231,2|0|2|0,0:0|0:0|0:0|0:0,0:0:0:0:
189,150,107473,2,0,L|105:125,3,75.0000028610231,2|0|2|0,0:0|0:0|0:0|0:0,0:0:0:0:
449,189,107837,1,10,0:0:0:0:
204,326,108200,6,0,L|205:246,1,75.0000028610231,2|0,0:2|0:0,0:0:0:0:
102,256,108382,2,0,L|103:179,1,75.0000028610231,0|2,0:0|0:0,0:0:0:0:
303,273,108564,2,0,L|387:248,3,75.0000028610231,2|0|2|0,0:0|0:0|0:0|0:0,0:0:0:0:
143,238,108928,1,2,0:0:0:0:
210,236,109019,1,2,0:0:0:0:
97,302,109200,1,2,0:0:0:0:
350,316,109291,1,2,0:1:0:0:
97,302,109655,6,0,L|87:255,6,37.5000014305115,2|0|0|0|0|0|2,0:0|0:0|0:0|0:0|0:0|0:0|0:0,0:0:0:0:
279,263,110019,2,0,L|222:195,1,75.0000028610231,2|0,0:0|0:0,0:0:0:0:
429,206,110200,1,2,0:0:0:0:
391,205,110246,1,0,0:0:0:0:
354,206,110291,1,0,0:0:0:0:
97,302,110382,6,0,L|87:255,6,37.5000014305115,2|0|0|0|0|0|2,0:0|0:0|0:0|0:0|0:0|0:0|0:0,0:0:0:0:
279,264,110746,2,0,L|228:202,1,75.0000028610231,2|0,0:0|0:0,0:0:0:0:
429,206,110927,1,2,0:0:0:0:
391,205,110973,1,0,0:0:0:0:
354,206,111018,1,0,0:0:0:0:
75,271,111109,6,0,L|75:157,1,100,10|0,0:0|0:0,0:0:0:0:
293,146,111382,2,0,L|183:147,1,100,8|0,0:0|0:0,0:0:0:0:
411,151,111655,2,0,P|435:86|362:68,1,150,8|0,0:0|0:0,0:0:0:0:
114,272,112019,2,0,L|254:273,2,129.999994049073,0|8|8,0:0|0:0|0:0,0:0:0:0:
476,240,112564,1,4,0:0:0:0:
256,192,112746,12,0,115473,0:0:0:0:
