osu file format v14

[General]
AudioFilename: audio.mp3
AudioLeadIn: 0
PreviewTime: 161804
Countdown: 0
SampleSet: None
StackLeniency: 0.2
Mode: 1
LetterboxInBreaks: 0
WidescreenStoryboard: 0

[Editor]
Bookmarks: 25546,37933,50320,62707,87481,112255,124642,137030,161804,211352,236126
DistanceSpacing: 2.2
BeatDivisor: 8
GridSize: 32
TimelineZoom: 3.959999

[Metadata]
Title:Summer Drops
TitleUnicode:Summer Drops
Artist:Yooh
ArtistUnicode:Yooh
Creator:Jaye
Version:Nov 29
Source:
Tags:November-Series remii
BeatmapID:1852659
BeatmapSetID:886244

[Difficulty]
HPDrainRate:5
CircleSize:2
OverallDifficulty:6
ApproachRate:10
SliderMultiplier:1.4
SliderTickRate:1

[Events]
//Background and Video events
0,0,"Konachan.com - 247272 sample.jpg",0,90
//Break Periods
//Storyboard Layer 0 (Background)
//Storyboard Layer 1 (Fail)
//Storyboard Layer 2 (Pass)
//Storyboard Layer 3 (Foreground)
//Storyboard Sound Samples

[TimingPoints]
772,387.096774193548,4,1,0,90,1,0
25159,-33.3333333333333,4,1,0,90,0,0
25497,-133.333333333333,4,1,0,75,0,0
25546,-133.333333333333,4,1,0,75,0,0
36917,-133.333333333333,4,1,0,90,0,0
37933,-100,4,1,0,90,0,0
61288,-103.092783505155,4,1,0,90,0,0
61417,-106.382978723404,4,1,0,90,0,0
61546,-109.89010989011,4,1,0,90,0,0
61675,-113.636363636364,4,1,0,90,0,0
61804,-117.647058823529,4,1,0,90,0,0
61933,-121.951219512195,4,1,0,90,0,0
62062,-126.582278481013,4,1,0,90,0,0
62191,-131.578947368421,4,1,0,90,0,0
62320,-33.3333333333333,4,1,0,90,0,0
62707,-100,4,1,0,90,0,0
63094,-50,4,1,0,90,0,0
63481,-100,4,1,0,90,0,0
63868,-66.6666666666667,4,1,0,90,0,0
65804,-100,4,1,0,90,0,0
67159,-125,4,1,0,90,0,0
67739,-100,4,1,0,90,0,0
68901,-66.6666666666667,4,1,0,90,0,0
69288,-133.333333333333,4,1,0,90,0,0
69546,-100,4,1,0,90,0,0
70384,-66.6666666666667,4,1,0,90,0,0
71933,-100,4,1,0,90,0,0
73094,-125,4,1,0,90,0,0
73868,-136.986301369863,4,1,0,90,0,0
74255,-151.515151515152,4,1,0,90,0,0
74642,-100,4,1,0,90,0,0
75417,-66.6666666666667,4,1,0,90,0,0
75610,-100,4,1,0,90,0,0
76578,-66.6666666666667,4,1,0,90,0,0
78126,-100,4,1,0,90,0,0
79481,-125,4,1,0,90,0,0
80062,-100,4,1,0,90,0,0
81417,-97.0873786407767,4,1,0,90,0,0
81546,-94.3396226415094,4,1,0,90,0,0
81675,-91.743119266055,4,1,0,90,0,0
81804,-89.2857142857143,4,1,0,90,0,0
81933,-86.9565217391304,4,1,0,90,0,0
82062,-84.7457627118644,4,1,0,90,0,0
82771,-66.6666666666667,4,1,0,90,0,0
84320,-100,4,1,0,90,0,0
86255,-57.1428571428571,4,1,0,90,0,0
87417,-100,4,1,0,90,0,0
112255,-133.333333333333,4,1,0,75,0,0
123610,-133.333333333333,4,1,0,90,0,0
124642,-100,4,1,0,90,0,0
149417,-95.2380952380952,4,1,0,90,0,0
152513,-90.9090909090909,4,1,0,90,0,0
155610,-86.9565217391304,4,1,0,90,0,0
157159,-83.3333333333333,4,1,0,90,0,0
158707,-80,4,1,0,90,0,0
161352,-33.3333333333333,4,1,0,90,0,0
161804,-66.6666666666667,4,1,0,100,0,1
185030,-66.6666666666667,4,1,0,100,0,0
186142,-100,4,1,0,100,0,0
186578,-66.6666666666667,4,1,0,100,0,1
198530,-57.1428571428571,4,1,0,100,0,1
199110,-66.6666666666667,4,1,0,100,0,1
205159,-40,4,1,0,100,0,1
205933,-66.6666666666667,4,1,0,100,0,1
210126,-57.1428571428571,4,1,0,100,0,1
211352,-100,4,1,0,90,0,0
237675,-105.263157894737,4,1,0,85,0,0
239223,-111.111111111111,4,1,0,80,0,0
242320,-125,4,1,0,75,0,0
243868,-133.333333333333,4,1,0,70,0,0
245417,-142.857142857143,4,1,0,65,0,0
248513,-166.666666666667,4,1,0,60,0,0
250062,-181.818181818182,4,1,0,55,0,0
251610,-200,4,1,0,50,0,0
254707,-250,4,1,0,50,0,0
256255,480,4,1,0,50,1,8
256321,480,4,1,0,50,1,0
256321,-238.095238095238,4,1,0,50,0,0
257281,-250,4,1,0,50,0,0
258241,480,4,1,0,50,1,8
258481,-277.777777777778,4,1,0,50,0,0
258801,-100,4,1,0,25,0,0

[HitObjects]
256,192,772,5,8,0:0:0:0:
256,192,965,1,0,0:0:0:0:
256,192,1062,1,8,0:0:0:0:
256,192,1255,1,0,0:0:0:0:
256,192,1352,1,8,0:0:0:0:
256,192,1546,1,8,0:0:0:0:
256,192,1739,1,0,0:0:0:0:
256,192,1836,1,8,0:0:0:0:
256,192,2029,1,0,0:0:0:0:
256,192,2126,1,8,0:0:0:0:
256,192,2320,1,8,0:0:0:0:
256,192,2513,1,0,0:0:0:0:
256,192,2610,1,8,0:0:0:0:
256,192,2803,1,0,0:0:0:0:
256,192,2900,1,8,0:0:0:0:
256,192,3094,1,8,0:0:0:0:
256,192,3288,1,0,0:0:0:0:
256,192,3481,1,0,0:0:0:0:
256,192,3868,1,8,0:0:0:0:
256,192,4061,1,0,0:0:0:0:
256,192,4158,1,8,0:0:0:0:
256,192,4351,1,0,0:0:0:0:
256,192,4448,1,8,0:0:0:0:
256,192,4642,1,8,0:0:0:0:
256,192,4835,1,0,0:0:0:0:
256,192,4932,1,8,0:0:0:0:
256,192,5125,1,0,0:0:0:0:
256,192,5222,1,8,0:0:0:0:
256,192,5416,1,8,0:0:0:0:
256,192,5609,1,0,0:0:0:0:
256,192,5706,1,8,0:0:0:0:
256,192,5901,1,0,0:0:0:0:
256,192,5996,1,8,0:0:0:0:
256,192,6190,1,8,0:0:0:0:
256,192,6384,1,0,0:0:0:0:
256,192,6577,1,0,0:0:0:0:
256,192,6965,1,12,0:0:0:0:
256,192,7158,1,0,0:0:0:0:
256,192,7255,1,8,0:0:0:0:
256,192,7352,1,0,0:0:0:0:
256,192,7448,1,0,0:0:0:0:
256,192,7545,1,8,0:0:0:0:
256,192,7739,1,8,0:0:0:0:
256,192,7932,1,0,0:0:0:0:
256,192,8029,1,8,0:0:0:0:
256,192,8222,1,0,0:0:0:0:
256,192,8319,1,8,0:0:0:0:
256,192,8513,1,8,0:0:0:0:
256,192,8706,1,0,0:0:0:0:
256,192,8803,1,8,0:0:0:0:
256,192,8901,1,0,0:0:0:0:
256,192,8996,1,0,0:0:0:0:
256,192,9093,1,8,0:0:0:0:
256,192,9287,1,8,0:0:0:0:
256,192,9481,1,0,0:0:0:0:
256,192,9674,1,0,0:0:0:0:
256,192,10062,1,8,0:0:0:0:
256,192,10255,1,0,0:0:0:0:
256,192,10352,1,8,0:0:0:0:
256,192,10449,1,0,0:0:0:0:
256,192,10545,1,0,0:0:0:0:
256,192,10642,1,8,0:0:0:0:
256,192,10836,1,8,0:0:0:0:
256,192,11029,1,0,0:0:0:0:
256,192,11126,1,8,0:0:0:0:
256,192,11319,1,0,0:0:0:0:
256,192,11416,1,8,0:0:0:0:
256,192,11610,1,8,0:0:0:0:
256,192,11803,1,0,0:0:0:0:
256,192,11900,1,8,0:0:0:0:
256,192,11997,1,0,0:0:0:0:
256,192,12093,1,0,0:0:0:0:
256,192,12190,1,8,0:0:0:0:
256,192,12384,1,8,0:0:0:0:
256,192,12578,1,0,0:0:0:0:
256,192,12771,1,0,0:0:0:0:
256,192,12965,1,8,0:0:0:0:
256,192,13062,1,0,0:0:0:0:
256,192,13159,1,12,0:0:0:0:
256,192,13352,1,0,0:0:0:0:
256,192,13449,1,8,0:0:0:0:
256,192,13546,1,0,0:0:0:0:
256,192,13642,1,0,0:0:0:0:
256,192,13739,1,8,0:0:0:0:
256,192,13836,1,0,0:0:0:0:
256,192,13933,1,8,0:0:0:0:
256,192,14126,1,0,0:0:0:0:
256,192,14223,1,8,0:0:0:0:
256,192,14416,1,0,0:0:0:0:
256,192,14513,1,8,0:0:0:0:
256,192,14610,1,0,0:0:0:0:
256,192,14707,1,8,0:0:0:0:
256,192,14900,1,0,0:0:0:0:
256,192,14997,1,8,0:0:0:0:
256,192,15094,1,0,0:0:0:0:
256,192,15190,1,0,0:0:0:0:
256,192,15287,1,8,0:0:0:0:
256,192,15384,1,0,0:0:0:0:
256,192,15481,1,8,0:0:0:0:
256,192,15675,1,0,0:0:0:0:
256,192,15868,1,0,0:0:0:0:
256,192,16062,1,8,0:0:0:0:
256,192,16159,1,0,0:0:0:0:
256,192,16255,1,8,0:0:0:0:
256,192,16352,1,8,0:0:0:0:
256,192,16449,1,0,0:0:0:0:
256,192,16546,1,8,0:0:0:0:
256,192,16643,1,0,0:0:0:0:
256,192,16739,1,0,0:0:0:0:
256,192,16836,1,8,0:0:0:0:
256,192,16933,1,0,0:0:0:0:
256,192,17030,1,8,0:0:0:0:
256,192,17126,1,0,0:0:0:0:
256,192,17223,1,0,0:0:0:0:
256,192,17320,1,8,0:0:0:0:
256,192,17417,1,8,0:0:0:0:
256,192,17513,1,0,0:0:0:0:
256,192,17610,1,8,0:0:0:0:
256,192,17707,1,0,0:0:0:0:
256,192,17804,1,8,0:0:0:0:
256,192,17901,1,8,0:0:0:0:
256,192,17997,1,0,0:0:0:0:
256,192,18094,1,8,0:0:0:0:
256,192,18191,1,0,0:0:0:0:
256,192,18287,1,0,0:0:0:0:
256,192,18384,1,8,0:0:0:0:
256,192,18481,1,0,0:0:0:0:
256,192,18578,1,8,0:0:0:0:
256,192,18772,1,0,0:0:0:0:
256,192,18965,1,0,0:0:0:0:
256,192,19062,1,0,0:0:0:0:
256,192,19159,1,8,0:0:0:0:
256,192,19255,1,0,0:0:0:0:
256,192,19352,1,12,0:0:0:0:
256,192,19546,1,0,0:0:0:0:
256,192,19642,1,0,0:0:0:0:
256,192,19739,1,8,0:0:0:0:
256,192,19933,1,0,0:0:0:0:
256,192,20126,1,8,0:0:0:0:
256,192,20223,1,8,0:0:0:0:
256,192,20320,1,0,0:0:0:0:
256,192,20417,1,0,0:0:0:0:
256,192,20513,1,8,0:0:0:0:
256,192,20707,1,0,0:0:0:0:
256,192,20901,1,8,0:0:0:0:
256,192,21094,1,0,0:0:0:0:
256,192,21191,1,0,0:0:0:0:
256,192,21288,1,8,0:0:0:0:
256,192,21481,1,0,0:0:0:0:
256,192,21578,1,8,0:0:0:0:
256,192,21675,1,8,0:0:0:0:
256,192,21771,1,8,0:0:0:0:
256,192,21868,1,0,0:0:0:0:
256,192,21965,1,0,0:0:0:0:
256,192,22062,1,8,0:0:0:0:
256,192,22255,1,0,0:0:0:0:
256,192,22449,1,8,0:0:0:0:
256,192,22642,1,8,0:0:0:0:
256,192,22836,1,8,0:0:0:0:
256,192,23030,1,8,0:0:0:0:
256,192,23223,1,8,0:0:0:0:
256,192,23417,1,8,0:0:0:0:
256,192,23610,1,8,0:0:0:0:
256,192,23804,1,8,0:0:0:0:
256,192,23997,1,8,0:0:0:0:
256,192,24094,1,0,0:0:0:0:
256,192,24191,1,8,0:0:0:0:
256,192,24288,1,0,0:0:0:0:
256,192,24384,1,8,0:0:0:0:
256,192,24481,1,0,0:0:0:0:
256,192,24578,1,8,0:0:0:0:
256,192,24675,1,0,0:0:0:0:
256,192,24771,1,8,0:0:0:0:
256,192,24965,1,0,0:0:0:0:
256,192,25159,1,12,0:0:0:0:
256,192,25546,1,0,0:0:0:0:
256,192,26126,1,0,0:0:0:0:
256,192,26320,1,0,0:0:0:0:
256,192,26513,1,8,0:0:0:0:
256,192,26707,1,0,0:0:0:0:
256,192,26901,1,8,0:0:0:0:
256,192,27288,1,0,0:0:0:0:
256,192,27675,1,8,0:0:0:0:
256,192,27868,1,0,0:0:0:0:
256,192,28062,1,0,0:0:0:0:
256,192,28255,1,8,0:0:0:0:
256,192,28449,1,8,0:0:0:0:
256,192,28836,1,8,0:0:0:0:
256,192,29223,1,0,0:0:0:0:
256,192,29610,1,8,0:0:0:0:
256,192,29997,1,0,0:0:0:0:
256,192,30384,1,8,0:0:0:0:
256,192,30965,1,8,0:0:0:0:
256,192,31739,1,0,0:0:0:0:
256,192,32320,1,0,0:0:0:0:
256,192,32514,1,0,0:0:0:0:
256,192,32707,1,8,0:0:0:0:
256,192,32901,1,0,0:0:0:0:
256,192,33095,1,8,0:0:0:0:
256,192,33482,1,0,0:0:0:0:
256,192,33869,1,8,0:0:0:0:
256,192,34062,1,8,0:0:0:0:
256,192,34256,1,0,0:0:0:0:
256,192,34449,1,8,0:0:0:0:
256,192,34643,1,8,0:0:0:0:
256,192,35030,1,8,0:0:0:0:
256,192,35417,1,0,0:0:0:0:
256,192,35804,1,8,0:0:0:0:
256,192,36191,1,0,0:0:0:0:
256,192,36578,1,8,0:0:0:0:
256,192,36965,1,0,0:0:0:0:
256,192,37030,1,0,0:0:0:0:
256,192,37094,1,0,0:0:0:0:
256,192,37159,1,8,0:0:0:0:
256,192,37223,1,8,0:0:0:0:
256,192,37288,1,8,0:0:0:0:
256,192,37352,1,0,0:0:0:0:
256,192,37417,1,0,0:0:0:0:
256,192,37481,1,0,0:0:0:0:
256,192,37546,1,8,0:0:0:0:
256,192,37610,1,8,0:0:0:0:
256,192,37675,1,8,0:0:0:0:
256,192,37739,1,0,0:0:0:0:
256,192,37933,1,8,0:0:0:0:
256,192,38126,1,0,0:0:0:0:
256,192,38223,1,0,0:0:0:0:
256,192,38320,1,8,0:0:0:0:
256,192,38513,1,0,0:0:0:0:
256,192,38707,1,0,0:0:0:0:
256,192,38900,1,8,0:0:0:0:
256,192,39094,1,0,0:0:0:0:
256,192,39288,1,8,0:0:0:0:
256,192,39384,1,0,0:0:0:0:
256,192,39481,1,8,0:0:0:0:
256,192,39578,1,8,0:0:0:0:
256,192,39675,1,0,0:0:0:0:
256,192,39868,1,0,0:0:0:0:
256,192,40062,1,8,0:0:0:0:
256,192,40159,1,0,0:0:0:0:
256,192,40352,1,0,0:0:0:0:
256,192,40449,1,8,0:0:0:0:
256,192,40642,1,8,0:0:0:0:
256,192,40739,1,0,0:0:0:0:
256,192,40836,1,8,0:0:0:0:
256,192,41030,1,8,0:0:0:0:
256,192,41223,1,0,0:0:0:0:
256,192,41320,1,0,0:0:0:0:
256,192,41417,1,8,0:0:0:0:
256,192,41513,1,8,0:0:0:0:
256,192,41610,1,0,0:0:0:0:
256,192,41804,1,8,0:0:0:0:
256,192,41997,1,0,0:0:0:0:
256,192,42191,1,8,0:0:0:0:
256,192,42384,1,0,0:0:0:0:
256,192,42481,1,0,0:0:0:0:
256,192,42578,1,8,0:0:0:0:
256,192,42771,1,8,0:0:0:0:
256,192,42965,1,8,0:0:0:0:
256,192,43062,1,0,0:0:0:0:
256,192,43159,1,0,0:0:0:0:
256,192,43352,1,8,0:0:0:0:
256,192,43546,1,0,0:0:0:0:
256,192,43739,1,8,0:0:0:0:
256,192,43836,1,8,0:0:0:0:
256,192,43933,1,8,0:0:0:0:
256,192,44126,1,0,0:0:0:0:
256,192,44320,1,0,0:0:0:0:
256,192,44417,1,0,0:0:0:0:
256,192,44513,1,8,0:0:0:0:
256,192,44707,1,0,0:0:0:0:
256,192,44901,1,0,0:0:0:0:
256,192,45094,1,8,0:0:0:0:
256,192,45288,1,0,0:0:0:0:
256,192,45482,1,8,0:0:0:0:
256,192,45578,1,8,0:0:0:0:
256,192,45675,1,8,0:0:0:0:
256,192,45771,1,8,0:0:0:0:
256,192,45869,1,0,0:0:0:0:
256,192,46062,1,0,0:0:0:0:
256,192,46256,1,8,0:0:0:0:
256,192,46449,1,8,0:0:0:0:
256,192,46546,1,8,0:0:0:0:
256,192,46643,1,0,0:0:0:0:
256,192,46836,1,8,0:0:0:0:
256,192,47030,1,8,0:0:0:0:
256,192,47223,1,8,0:0:0:0:
256,192,47417,1,0,0:0:0:0:
256,192,47513,1,8,0:0:0:0:
256,192,47610,1,8,0:0:0:0:
256,192,47707,1,8,0:0:0:0:
256,192,47804,1,0,0:0:0:0:
256,192,47997,1,8,0:0:0:0:
256,192,48191,1,0,0:0:0:0:
256,192,48384,1,8,0:0:0:0:
256,192,48578,1,0,0:0:0:0:
256,192,48675,1,8,0:0:0:0:
256,192,48771,1,0,0:0:0:0:
256,192,48965,1,8,0:0:0:0:
256,192,49062,1,0,0:0:0:0:
256,192,49255,1,0,0:0:0:0:
256,192,49352,1,8,0:0:0:0:
256,192,49546,1,8,0:0:0:0:
256,192,49642,1,8,0:0:0:0:
256,192,49739,1,8,0:0:0:0:
256,192,49836,1,8,0:0:0:0:
256,192,49933,1,0,0:0:0:0:
256,192,50030,1,0,0:0:0:0:
256,192,50126,1,0,0:0:0:0:
256,192,50223,1,0,0:0:0:0:
256,192,50320,1,12,0:0:0:0:
256,192,50513,1,0,0:0:0:0:
256,192,50610,1,0,0:0:0:0:
256,192,50707,1,8,0:0:0:0:
256,192,50804,1,0,0:0:0:0:
256,192,50901,1,0,0:0:0:0:
256,192,51094,1,8,0:0:0:0:
256,192,51288,1,0,0:0:0:0:
256,192,51384,1,8,0:0:0:0:
256,192,51481,1,8,0:0:0:0:
256,192,51578,1,0,0:0:0:0:
256,192,51675,1,0,0:0:0:0:
256,192,51868,1,0,0:0:0:0:
256,192,51965,1,8,0:0:0:0:
256,192,52159,1,8,0:0:0:0:
256,192,52255,1,0,0:0:0:0:
256,192,52449,1,8,0:0:0:0:
256,192,52642,1,8,0:0:0:0:
256,192,52739,1,8,0:0:0:0:
256,192,52836,1,8,0:0:0:0:
256,192,52933,1,0,0:0:0:0:
256,192,53030,1,8,0:0:0:0:
256,192,53126,1,8,0:0:0:0:
256,192,53223,1,0,0:0:0:0:
256,192,53417,1,8,0:0:0:0:
256,192,53610,1,0,0:0:0:0:
256,192,53707,1,0,0:0:0:0:
256,192,53804,1,8,0:0:0:0:
256,192,53901,1,0,0:0:0:0:
256,192,53997,1,0,0:0:0:0:
256,192,54191,1,8,0:0:0:0:
256,192,54384,1,0,0:0:0:0:
256,192,54481,1,8,0:0:0:0:
256,192,54578,1,8,0:0:0:0:
256,192,54675,1,0,0:0:0:0:
256,192,54771,1,0,0:0:0:0:
256,192,54965,1,8,0:0:0:0:
256,192,55062,1,0,0:0:0:0:
256,192,55159,1,0,0:0:0:0:
256,192,55255,1,0,0:0:0:0:
256,192,55352,1,8,0:0:0:0:
256,192,55449,1,0,0:0:0:0:
256,192,55546,1,0,0:0:0:0:
256,192,55739,1,8,0:0:0:0:
256,192,55836,1,0,0:0:0:0:
256,192,55933,1,0,0:0:0:0:
256,192,56126,1,8,0:0:0:0:
256,192,56223,1,8,0:0:0:0:
256,192,56320,1,0,0:0:0:0:
256,192,56513,1,8,0:0:0:0:
256,192,56610,1,8,0:0:0:0:
256,192,56804,1,0,0:0:0:0:
256,192,56901,1,8,0:0:0:0:
256,192,57094,1,8,0:0:0:0:
256,192,57288,1,0,0:0:0:0:
256,192,57481,1,8,0:0:0:0:
256,192,57675,1,8,0:0:0:0:
256,192,57771,1,0,0:0:0:0:
256,192,57868,1,8,0:0:0:0:
256,192,58062,1,8,0:0:0:0:
256,192,58159,1,8,0:0:0:0:
256,192,58353,1,0,0:0:0:0:
256,192,58450,1,8,0:0:0:0:
256,192,58643,1,8,0:0:0:0:
256,192,58837,1,0,0:0:0:0:
256,192,59030,1,8,0:0:0:0:
256,192,59224,1,8,0:0:0:0:
256,192,59320,1,0,0:0:0:0:
256,192,59417,1,8,0:0:0:0:
256,192,59610,1,8,0:0:0:0:
256,192,59804,1,8,0:0:0:0:
256,192,59997,1,8,0:0:0:0:
256,192,60191,1,8,0:0:0:0:
256,192,60384,1,8,0:0:0:0:
256,192,60578,1,8,0:0:0:0:
256,192,60771,1,8,0:0:0:0:
256,192,60965,1,8,0:0:0:0:
256,192,61159,1,0,0:0:0:0:
256,192,61288,1,0,0:0:0:0:
256,192,61417,1,0,0:0:0:0:
256,192,61546,1,8,0:0:0:0:
256,192,61675,1,0,0:0:0:0:
256,192,61804,1,0,0:0:0:0:
256,192,61933,1,8,0:0:0:0:
256,192,62062,1,8,0:0:0:0:
256,192,62191,1,0,0:0:0:0:
256,192,62320,1,12,0:0:0:0:
256,192,62707,1,4,0:0:0:0:
256,192,63094,1,12,0:0:0:0:
256,192,63481,1,0,0:0:0:0:
256,192,63675,1,8,0:0:0:0:
256,192,63868,1,4,0:0:0:0:
256,192,64255,1,4,0:0:0:0:
256,192,64449,1,4,0:0:0:0:
256,192,64642,1,4,0:0:0:0:
256,192,65030,1,4,0:0:0:0:
256,192,65223,1,4,0:0:0:0:
256,192,65417,1,4,0:0:0:0:
256,192,65804,1,0,0:0:0:0:
256,192,65997,1,8,0:0:0:0:
256,192,66191,1,8,0:0:0:0:
256,192,66288,1,8,0:0:0:0:
256,192,66481,1,0,0:0:0:0:
256,192,66578,1,8,0:0:0:0:
256,192,66771,1,8,0:0:0:0:
256,192,66965,1,0,0:0:0:0:
256,192,67159,1,0,0:0:0:0:
256,192,67223,1,0,0:0:0:0:
256,192,67288,1,0,0:0:0:0:
256,192,67352,1,0,0:0:0:0:
256,192,67417,1,0,0:0:0:0:
256,192,67481,1,0,0:0:0:0:
256,192,67546,1,8,0:0:0:0:
256,192,67739,1,8,0:0:0:0:
256,192,67836,1,8,0:0:0:0:
256,192,68030,1,0,0:0:0:0:
256,192,68126,1,8,0:0:0:0:
256,192,68320,1,8,0:0:0:0:
256,192,68513,1,0,0:0:0:0:
256,192,68707,1,0,0:0:0:0:
256,192,68901,1,12,0:0:0:0:
256,192,69288,1,4,0:0:0:0:
256,192,69578,1,0,0:0:0:0:
256,192,69626,1,0,0:0:0:0:
256,192,69675,1,8,0:0:0:0:
256,192,69771,1,8,0:0:0:0:
256,192,69868,1,8,0:0:0:0:
256,192,69965,1,8,0:0:0:0:
256,192,70062,1,0,0:0:0:0:
256,192,70449,1,12,0:0:0:0:
256,192,70642,1,12,0:0:0:0:
256,192,70836,1,12,0:0:0:0:
256,192,71223,1,12,0:0:0:0:
256,192,71417,1,12,0:0:0:0:
256,192,71610,1,12,0:0:0:0:
256,192,71997,1,0,0:0:0:0:
256,192,72190,1,8,0:0:0:0:
256,192,72384,1,8,0:0:0:0:
256,192,72481,1,8,0:0:0:0:
256,192,72674,1,0,0:0:0:0:
256,192,72771,1,8,0:0:0:0:
256,192,72964,1,8,0:0:0:0:
256,192,73158,1,8,0:0:0:0:
256,192,73223,1,8,0:0:0:0:
256,192,73288,1,8,0:0:0:0:
256,192,73352,1,0,0:0:0:0:
256,192,73417,1,0,0:0:0:0:
256,192,73481,1,0,0:0:0:0:
256,192,73546,1,12,0:0:0:0:
256,192,73933,1,4,0:0:0:0:
256,192,74320,1,4,0:0:0:0:
256,192,74707,1,8,0:0:0:0:
256,192,74804,1,8,0:0:0:0:
256,192,74901,1,0,0:0:0:0:
256,192,74997,1,8,0:0:0:0:
256,192,75094,1,4,0:0:0:0:
256,192,75481,1,12,0:0:0:0:
256,192,75675,1,0,0:0:0:0:
256,192,75739,1,0,0:0:0:0:
256,192,75804,1,8,0:0:0:0:
256,192,75868,1,8,0:0:0:0:
256,192,75933,1,8,0:0:0:0:
256,192,75997,1,8,0:0:0:0:
256,192,76062,1,0,0:0:0:0:
256,192,76126,1,0,0:0:0:0:
256,192,76191,1,0,0:0:0:0:
256,192,76255,1,0,0:0:0:0:
256,192,76642,1,4,0:0:0:0:
256,192,76836,1,4,0:0:0:0:
256,192,77030,1,4,0:0:0:0:
256,192,77417,1,4,0:0:0:0:
256,192,77611,1,4,0:0:0:0:
256,192,77805,1,4,0:0:0:0:
256,192,78191,1,0,0:0:0:0:
256,192,78384,1,8,0:0:0:0:
256,192,78578,1,8,0:0:0:0:
256,192,78675,1,8,0:0:0:0:
256,192,78868,1,0,0:0:0:0:
256,192,78965,1,8,0:0:0:0:
256,192,79159,1,8,0:0:0:0:
256,192,79352,1,0,0:0:0:0:
256,192,79546,1,0,0:0:0:0:
256,192,79610,1,0,0:0:0:0:
256,192,79675,1,0,0:0:0:0:
256,192,79739,1,0,0:0:0:0:
256,192,79804,1,0,0:0:0:0:
256,192,79868,1,0,0:0:0:0:
256,192,79933,1,8,0:0:0:0:
256,192,80126,1,8,0:0:0:0:
256,192,80223,1,8,0:0:0:0:
256,192,80417,1,0,0:0:0:0:
256,192,80513,1,8,0:0:0:0:
256,192,80707,1,8,0:0:0:0:
256,192,80900,1,0,0:0:0:0:
256,192,81094,1,0,0:0:0:0:
256,192,81288,1,0,0:0:0:0:
256,192,81417,1,0,0:0:0:0:
256,192,81546,1,0,0:0:0:0:
256,192,81675,1,8,0:0:0:0:
256,192,81804,1,8,0:0:0:0:
256,192,81933,1,8,0:0:0:0:
256,192,82062,1,8,0:0:0:0:
256,192,82159,1,0,0:0:0:0:
256,192,82255,1,0,0:0:0:0:
256,192,82352,1,8,0:0:0:0:
256,192,82449,1,4,0:0:0:0:
256,192,82836,1,12,0:0:0:0:
256,192,83030,1,12,0:0:0:0:
256,192,83223,1,12,0:0:0:0:
256,192,83610,1,12,0:0:0:0:
256,192,83804,1,12,0:0:0:0:
256,192,83997,1,12,0:0:0:0:
256,192,84384,1,0,0:0:0:0:
256,192,84577,1,8,0:0:0:0:
256,192,84771,1,0,0:0:0:0:
256,192,84868,1,8,0:0:0:0:
256,192,85061,1,8,0:0:0:0:
256,192,85158,1,0,0:0:0:0:
256,192,85352,1,8,0:0:0:0:
256,192,85449,1,0,0:0:0:0:
256,192,85546,1,0,0:0:0:0:
256,192,85643,1,8,0:0:0:0:
256,192,85836,1,8,0:0:0:0:
256,192,85933,1,0,0:0:0:0:
256,192,86319,1,0,0:0:0:0:
256,192,86384,1,0,0:0:0:0:
256,192,86449,1,0,0:0:0:0:
256,192,86513,1,8,0:0:0:0:
256,192,86578,1,0,0:0:0:0:
256,192,86642,1,0,0:0:0:0:
256,192,86706,1,8,0:0:0:0:
256,192,86771,1,8,0:0:0:0:
256,192,86836,1,0,0:0:0:0:
256,192,86900,1,8,0:0:0:0:
256,192,86965,1,0,0:0:0:0:
256,192,87030,1,0,0:0:0:0:
256,192,87093,1,8,0:0:0:0:
256,192,87481,1,8,0:0:0:0:
256,192,87674,1,0,0:0:0:0:
256,192,87868,1,8,0:0:0:0:
256,192,87964,1,8,0:0:0:0:
256,192,88061,1,8,0:0:0:0:
256,192,88159,1,0,0:0:0:0:
256,192,88255,1,8,0:0:0:0:
256,192,88352,1,8,0:0:0:0:
256,192,88448,1,0,0:0:0:0:
256,192,88545,1,8,0:0:0:0:
256,192,88642,1,0,0:0:0:0:
256,192,88707,1,8,0:0:0:0:
256,192,88771,1,8,0:0:0:0:
256,192,88835,1,8,0:0:0:0:
256,192,88901,1,8,0:0:0:0:
256,192,88965,1,8,0:0:0:0:
256,192,89029,1,0,0:0:0:0:
256,192,89126,1,8,0:0:0:0:
256,192,89222,1,0,0:0:0:0:
256,192,89319,1,8,0:0:0:0:
256,192,89417,1,8,0:0:0:0:
256,192,89512,1,0,0:0:0:0:
256,192,89609,1,8,0:0:0:0:
256,192,89707,1,0,0:0:0:0:
256,192,89803,1,8,0:0:0:0:
256,192,89997,1,0,0:0:0:0:
256,192,90190,1,8,0:0:0:0:
256,192,90578,1,8,0:0:0:0:
256,192,90771,1,0,0:0:0:0:
256,192,90965,1,8,0:0:0:0:
256,192,91061,1,8,0:0:0:0:
256,192,91158,1,8,0:0:0:0:
256,192,91256,1,0,0:0:0:0:
256,192,91352,1,8,0:0:0:0:
256,192,91449,1,8,0:0:0:0:
256,192,91545,1,0,0:0:0:0:
256,192,91642,1,8,0:0:0:0:
256,192,91739,1,0,0:0:0:0:
256,192,91836,1,0,0:0:0:0:
256,192,91932,1,8,0:0:0:0:
256,192,91997,1,8,0:0:0:0:
256,192,92062,1,8,0:0:0:0:
256,192,92126,1,8,0:0:0:0:
256,192,92223,1,8,0:0:0:0:
256,192,92319,1,0,0:0:0:0:
256,192,92416,1,8,0:0:0:0:
256,192,92514,1,8,0:0:0:0:
256,192,92609,1,0,0:0:0:0:
256,192,92706,1,8,0:0:0:0:
256,192,92804,1,0,0:0:0:0:
256,192,92900,1,8,0:0:0:0:
256,192,93094,1,0,0:0:0:0:
256,192,93288,1,8,0:0:0:0:
256,192,93352,1,8,0:0:0:0:
256,192,93417,1,8,0:0:0:0:
256,192,93481,1,0,0:0:0:0:
256,192,93578,1,0,0:0:0:0:
256,192,93675,1,8,0:0:0:0:
256,192,93868,1,0,0:0:0:0:
256,192,94062,1,8,0:0:0:0:
256,192,94159,1,8,0:0:0:0:
256,192,94255,1,0,0:0:0:0:
256,192,94449,1,8,0:0:0:0:
256,192,94545,1,0,0:0:0:0:
256,192,94642,1,8,0:0:0:0:
256,192,94740,1,8,0:0:0:0:
256,192,94836,1,0,0:0:0:0:
256,192,94901,1,0,0:0:0:0:
256,192,94965,1,0,0:0:0:0:
256,192,95030,1,8,0:0:0:0:
256,192,95094,1,8,0:0:0:0:
256,192,95159,1,8,0:0:0:0:
256,192,95223,1,0,0:0:0:0:
256,192,95320,1,0,0:0:0:0:
256,192,95416,1,8,0:0:0:0:
256,192,95513,1,0,0:0:0:0:
256,192,95610,1,8,0:0:0:0:
256,192,95707,1,8,0:0:0:0:
256,192,95803,1,0,0:0:0:0:
256,192,95900,1,8,0:0:0:0:
256,192,95998,1,8,0:0:0:0:
256,192,96190,1,0,0:0:0:0:
256,192,96384,1,8,0:0:0:0:
256,192,96771,1,8,0:0:0:0:
256,192,96964,1,0,0:0:0:0:
256,192,97158,1,8,0:0:0:0:
256,192,97254,1,0,0:0:0:0:
256,192,97351,1,8,0:0:0:0:
256,192,97449,1,0,0:0:0:0:
256,192,97545,1,8,0:0:0:0:
256,192,97610,1,8,0:0:0:0:
256,192,97675,1,8,0:0:0:0:
256,192,97738,1,0,0:0:0:0:
256,192,97835,1,0,0:0:0:0:
256,192,97932,1,8,0:0:0:0:
256,192,98029,1,0,0:0:0:0:
256,192,98125,1,8,0:0:0:0:
256,192,98223,1,0,0:0:0:0:
256,192,98319,1,8,0:0:0:0:
256,192,98416,1,8,0:0:0:0:
256,192,98512,1,8,0:0:0:0:
256,192,98609,1,0,0:0:0:0:
256,192,98707,1,8,0:0:0:0:
256,192,98771,1,0,0:0:0:0:
256,192,98836,1,0,0:0:0:0:
256,192,98901,1,8,0:0:0:0:
256,192,98965,1,0,0:0:0:0:
256,192,99030,1,0,0:0:0:0:
256,192,99093,1,8,0:0:0:0:
256,192,99287,1,0,0:0:0:0:
256,192,99384,1,8,0:0:0:0:
256,192,99578,1,0,0:0:0:0:
256,192,99674,1,8,0:0:0:0:
256,192,99868,1,8,0:0:0:0:
256,192,100062,1,0,0:0:0:0:
256,192,100255,1,8,0:0:0:0:
256,192,100351,1,8,0:0:0:0:
256,192,100448,1,8,0:0:0:0:
256,192,100546,1,0,0:0:0:0:
256,192,100642,1,8,0:0:0:0:
256,192,100739,1,8,0:0:0:0:
256,192,100835,1,0,0:0:0:0:
256,192,100932,1,8,0:0:0:0:
256,192,101029,1,0,0:0:0:0:
256,192,101126,1,8,0:0:0:0:
256,192,101222,1,8,0:0:0:0:
256,192,101320,1,8,0:0:0:0:
256,192,101416,1,0,0:0:0:0:
256,192,101513,1,8,0:0:0:0:
256,192,101609,1,0,0:0:0:0:
256,192,101706,1,8,0:0:0:0:
256,192,101804,1,8,0:0:0:0:
256,192,101901,1,0,0:0:0:0:
256,192,101996,1,8,0:0:0:0:
256,192,102094,1,0,0:0:0:0:
256,192,102190,1,8,0:0:0:0:
256,192,102384,1,0,0:0:0:0:
256,192,102449,1,0,0:0:0:0:
256,192,102513,1,0,0:0:0:0:
256,192,102577,1,8,0:0:0:0:
256,192,102771,1,0,0:0:0:0:
256,192,102965,1,8,0:0:0:0:
256,192,103159,1,0,0:0:0:0:
256,192,103352,1,8,0:0:0:0:
256,192,103448,1,0,0:0:0:0:
256,192,103545,1,8,0:0:0:0:
256,192,103643,1,0,0:0:0:0:
256,192,103739,1,8,0:0:0:0:
256,192,103836,1,8,0:0:0:0:
256,192,103932,1,0,0:0:0:0:
256,192,104029,1,8,0:0:0:0:
256,192,104126,1,0,0:0:0:0:
256,192,104223,1,0,0:0:0:0:
256,192,104319,1,8,0:0:0:0:
256,192,104417,1,8,0:0:0:0:
256,192,104513,1,0,0:0:0:0:
256,192,104610,1,8,0:0:0:0:
256,192,104706,1,0,0:0:0:0:
256,192,104803,1,8,0:0:0:0:
256,192,104901,1,8,0:0:0:0:
256,192,104996,1,8,0:0:0:0:
256,192,105093,1,0,0:0:0:0:
256,192,105191,1,8,0:0:0:0:
256,192,105287,1,8,0:0:0:0:
256,192,105481,1,0,0:0:0:0:
256,192,105546,1,0,0:0:0:0:
256,192,105610,1,0,0:0:0:0:
256,192,105674,1,8,0:0:0:0:
256,192,105868,1,0,0:0:0:0:
256,192,106062,1,8,0:0:0:0:
256,192,106255,1,0,0:0:0:0:
256,192,106304,1,0,0:0:0:0:
256,192,106352,1,0,0:0:0:0:
256,192,106401,1,0,0:0:0:0:
256,192,106449,1,8,0:0:0:0:
256,192,106642,1,0,0:0:0:0:
256,192,106691,1,0,0:0:0:0:
256,192,106739,1,0,0:0:0:0:
256,192,106788,1,0,0:0:0:0:
256,192,106836,1,8,0:0:0:0:
256,192,106933,1,8,0:0:0:0:
256,192,107030,1,0,0:0:0:0:
256,192,107126,1,0,0:0:0:0:
256,192,107224,1,8,0:0:0:0:
256,192,107321,1,8,0:0:0:0:
256,192,107417,1,0,0:0:0:0:
256,192,107514,1,8,0:0:0:0:
256,192,107611,1,8,0:0:0:0:
256,192,107708,1,0,0:0:0:0:
256,192,107804,1,8,0:0:0:0:
256,192,107902,1,0,0:0:0:0:
256,192,107998,1,8,0:0:0:0:
256,192,108095,1,8,0:0:0:0:
256,192,108191,1,8,0:0:0:0:
256,192,108288,1,0,0:0:0:0:
256,192,108384,1,8,0:0:0:0:
256,192,108578,1,0,0:0:0:0:
256,192,108772,1,8,0:0:0:0:
256,192,108965,1,0,0:0:0:0:
256,192,109159,1,8,0:0:0:0:
256,192,109255,1,8,0:0:0:0:
256,192,109352,1,0,0:0:0:0:
256,192,109449,1,0,0:0:0:0:
256,192,109546,1,8,0:0:0:0:
256,192,109643,1,0,0:0:0:0:
256,192,109739,1,8,0:0:0:0:
256,192,109837,1,8,0:0:0:0:
256,192,109934,1,8,0:0:0:0:
256,192,110030,1,0,0:0:0:0:
256,192,110127,1,8,0:0:0:0:
256,192,110224,1,0,0:0:0:0:
256,192,110321,1,0,0:0:0:0:
256,192,110417,1,8,0:0:0:0:
256,192,110513,1,8,0:0:0:0:
256,192,110611,1,0,0:0:0:0:
256,192,110707,1,8,0:0:0:0:
256,192,110836,1,8,0:0:0:0:
256,192,110965,1,8,0:0:0:0:
256,192,111094,1,8,0:0:0:0:
256,192,111223,1,8,0:0:0:0:
256,192,111352,1,8,0:0:0:0:
256,192,111481,1,0,0:0:0:0:
256,192,111675,1,0,0:0:0:0:
256,192,111723,1,0,0:0:0:0:
256,192,111771,1,0,0:0:0:0:
256,192,111820,1,0,0:0:0:0:
256,192,111868,1,8,0:0:0:0:
256,192,112255,1,0,0:0:0:0:
256,192,112642,1,8,0:0:0:0:
256,192,113030,1,8,0:0:0:0:
256,192,113417,1,0,0:0:0:0:
256,192,113804,1,0,0:0:0:0:
256,192,113997,1,8,0:0:0:0:
256,192,114191,1,8,0:0:0:0:
256,192,114384,1,0,0:0:0:0:
256,192,114578,1,8,0:0:0:0:
256,192,115159,1,0,0:0:0:0:
256,192,115255,1,0,0:0:0:0:
256,192,115352,1,8,0:0:0:0:
256,192,115739,1,8,0:0:0:0:
256,192,116126,1,8,0:0:0:0:
256,192,116320,1,0,0:0:0:0:
256,192,116707,1,8,0:0:0:0:
256,192,117094,1,0,0:0:0:0:
256,192,117481,1,0,0:0:0:0:
256,192,117675,1,8,0:0:0:0:
256,192,118449,1,0,0:0:0:0:
256,192,118836,1,0,0:0:0:0:
256,192,118933,1,0,0:0:0:0:
256,192,119030,1,8,0:0:0:0:
256,192,119126,1,8,0:0:0:0:
256,192,119223,1,8,0:0:0:0:
256,192,119417,1,0,0:0:0:0:
256,192,119610,1,8,0:0:0:0:
256,192,119804,1,8,0:0:0:0:
256,192,120771,1,8,0:0:0:0:
256,192,120965,1,8,0:0:0:0:
256,192,121159,1,0,0:0:0:0:
256,192,121352,1,0,0:0:0:0:
256,192,121546,1,8,0:0:0:0:
256,192,122126,1,8,0:0:0:0:
256,192,122320,1,8,0:0:0:0:
256,192,122901,1,0,0:0:0:0:
256,192,123094,1,0,0:0:0:0:
256,192,123675,1,0,0:0:0:0:
256,192,123739,1,0,0:0:0:0:
256,192,123804,1,0,0:0:0:0:
256,192,123868,1,8,0:0:0:0:
256,192,123933,1,8,0:0:0:0:
256,192,123997,1,8,0:0:0:0:
256,192,124062,1,0,0:0:0:0:
256,192,124126,1,0,0:0:0:0:
256,192,124191,1,0,0:0:0:0:
256,192,124255,1,8,0:0:0:0:
256,192,124320,1,8,0:0:0:0:
256,192,124384,1,8,0:0:0:0:
256,192,124449,1,0,0:0:0:0:
256,192,124642,1,0,0:0:0:0:
256,192,124933,1,0,0:0:0:0:
256,192,125030,1,8,0:0:0:0:
256,192,125223,1,0,0:0:0:0:
256,192,125417,1,8,0:0:0:0:
256,192,125610,1,8,0:0:0:0:
256,192,125707,1,8,0:0:0:0:
256,192,125804,1,0,0:0:0:0:
256,192,125997,1,8,0:0:0:0:
256,192,126191,1,0,0:0:0:0:
256,192,126384,1,8,0:0:0:0:
256,192,126481,1,0,0:0:0:0:
256,192,126578,1,8,0:0:0:0:
256,192,126771,1,8,0:0:0:0:
256,192,126868,1,8,0:0:0:0:
256,192,126965,1,8,0:0:0:0:
256,192,127062,1,0,0:0:0:0:
256,192,127159,1,8,0:0:0:0:
256,192,127352,1,0,0:0:0:0:
256,192,127546,1,0,0:0:0:0:
256,192,127739,1,8,0:0:0:0:
256,192,127933,1,0,0:0:0:0:
256,192,128030,1,8,0:0:0:0:
256,192,128126,1,0,0:0:0:0:
256,192,128320,1,0,0:0:0:0:
256,192,128513,1,8,0:0:0:0:
256,192,128610,1,8,0:0:0:0:
256,192,128707,1,0,0:0:0:0:
256,192,128804,1,8,0:0:0:0:
256,192,128997,1,0,0:0:0:0:
256,192,129094,1,8,0:0:0:0:
256,192,129288,1,8,0:0:0:0:
256,192,129481,1,0,0:0:0:0:
256,192,129578,1,8,0:0:0:0:
256,192,129675,1,0,0:0:0:0:
256,192,129868,1,0,0:0:0:0:
256,192,129965,1,0,0:0:0:0:
256,192,130062,1,8,0:0:0:0:
256,192,130159,1,8,0:0:0:0:
256,192,130255,1,0,0:0:0:0:
256,192,130449,1,0,0:0:0:0:
256,192,130642,1,0,0:0:0:0:
256,192,130739,1,0,0:0:0:0:
256,192,130836,1,8,0:0:0:0:
256,192,131030,1,0,0:0:0:0:
256,192,131126,1,8,0:0:0:0:
256,192,131320,1,0,0:0:0:0:
256,192,131417,1,8,0:0:0:0:
256,192,131610,1,8,0:0:0:0:
256,192,131804,1,0,0:0:0:0:
256,192,131900,1,8,0:0:0:0:
256,192,132094,1,0,0:0:0:0:
256,192,132191,1,8,0:0:0:0:
256,192,132384,1,8,0:0:0:0:
256,192,132578,1,0,0:0:0:0:
256,192,132674,1,8,0:0:0:0:
256,192,132771,1,0,0:0:0:0:
256,192,132868,1,0,0:0:0:0:
256,192,132965,1,8,0:0:0:0:
256,192,133159,1,8,0:0:0:0:
256,192,133353,1,0,0:0:0:0:
256,192,133449,1,0,0:0:0:0:
256,192,133546,1,8,0:0:0:0:
256,192,133643,1,0,0:0:0:0:
256,192,133740,1,0,0:0:0:0:
256,192,133836,1,8,0:0:0:0:
256,192,133933,1,8,0:0:0:0:
256,192,134126,1,8,0:0:0:0:
256,192,134320,1,8,0:0:0:0:
256,192,134513,1,8,0:0:0:0:
256,192,134707,1,8,0:0:0:0:
256,192,134900,1,8,0:0:0:0:
256,192,135094,1,8,0:0:0:0:
256,192,135287,1,8,0:0:0:0:
256,192,135481,1,8,0:0:0:0:
256,192,135674,1,8,0:0:0:0:
256,192,135868,1,8,0:0:0:0:
256,192,135965,1,0,0:0:0:0:
256,192,136061,1,8,0:0:0:0:
256,192,136159,1,0,0:0:0:0:
256,192,136255,1,8,0:0:0:0:
256,192,136352,1,0,0:0:0:0:
256,192,136448,1,8,0:0:0:0:
256,192,136546,1,0,0:0:0:0:
256,192,136642,1,12,0:0:0:0:
256,192,137030,1,12,0:0:0:0:
256,192,137223,1,0,0:0:0:0:
256,192,137320,1,0,0:0:0:0:
256,192,137417,1,8,0:0:0:0:
256,192,137610,1,0,0:0:0:0:
256,192,137804,1,8,0:0:0:0:
256,192,137997,1,0,0:0:0:0:
256,192,138094,1,8,0:0:0:0:
256,192,138191,1,0,0:0:0:0:
256,192,138384,1,8,0:0:0:0:
256,192,138578,1,8,0:0:0:0:
256,192,138675,1,8,0:0:0:0:
256,192,138771,1,0,0:0:0:0:
256,192,138966,1,8,0:0:0:0:
256,192,139061,1,0,0:0:0:0:
256,192,139158,1,0,0:0:0:0:
256,192,139352,1,0,0:0:0:0:
256,192,139449,1,8,0:0:0:0:
256,192,139546,1,0,0:0:0:0:
256,192,139739,1,0,0:0:0:0:
256,192,140127,1,8,0:0:0:0:
256,192,140320,1,0,0:0:0:0:
256,192,140417,1,8,0:0:0:0:
256,192,140514,1,8,0:0:0:0:
256,192,140610,1,0,0:0:0:0:
256,192,140707,1,8,0:0:0:0:
256,192,140901,1,8,0:0:0:0:
256,192,140998,1,8,0:0:0:0:
256,192,141094,1,0,0:0:0:0:
256,192,141191,1,8,0:0:0:0:
256,192,141288,1,0,0:0:0:0:
256,192,141385,1,0,0:0:0:0:
256,192,141481,1,8,0:0:0:0:
256,192,141675,1,8,0:0:0:0:
256,192,141772,1,8,0:0:0:0:
256,192,141868,1,8,0:0:0:0:
256,192,142063,1,8,0:0:0:0:
256,192,142158,1,8,0:0:0:0:
256,192,142255,1,0,0:0:0:0:
256,192,142449,1,8,0:0:0:0:
256,192,142546,1,0,0:0:0:0:
256,192,142643,1,0,0:0:0:0:
256,192,142837,1,0,0:0:0:0:
256,192,143030,1,0,0:0:0:0:
256,192,143127,1,8,0:0:0:0:
256,192,143224,1,8,0:0:0:0:
256,192,143417,1,0,0:0:0:0:
256,192,143611,1,8,0:0:0:0:
256,192,143708,1,8,0:0:0:0:
256,192,143804,1,0,0:0:0:0:
256,192,143998,1,8,0:0:0:0:
256,192,144094,1,0,0:0:0:0:
256,192,144191,1,8,0:0:0:0:
256,192,144289,1,8,0:0:0:0:
256,192,144385,1,0,0:0:0:0:
256,192,144481,1,0,0:0:0:0:
256,192,144579,1,8,0:0:0:0:
256,192,144772,1,8,0:0:0:0:
256,192,144868,1,8,0:0:0:0:
256,192,144965,1,8,0:0:0:0:
256,192,145062,1,0,0:0:0:0:
256,192,145159,1,8,0:0:0:0:
256,192,145256,1,8,0:0:0:0:
256,192,145352,1,0,0:0:0:0:
256,192,145547,1,0,0:0:0:0:
256,192,145642,1,0,0:0:0:0:
256,192,145739,1,8,0:0:0:0:
256,192,145933,1,0,0:0:0:0:
256,192,146320,1,8,0:0:0:0:
256,192,146513,1,0,0:0:0:0:
256,192,146707,1,8,0:0:0:0:
256,192,146900,1,8,0:0:0:0:
256,192,146998,1,0,0:0:0:0:
256,192,147094,1,8,0:0:0:0:
256,192,147191,1,8,0:0:0:0:
256,192,147288,1,0,0:0:0:0:
256,192,147481,1,8,0:0:0:0:
256,192,147674,1,8,0:0:0:0:
256,192,147772,1,0,0:0:0:0:
256,192,147868,1,8,0:0:0:0:
256,192,147965,1,8,0:0:0:0:
256,192,148061,1,8,0:0:0:0:
256,192,148158,1,0,0:0:0:0:
256,192,148256,1,8,0:0:0:0:
256,192,148448,1,8,0:0:0:0:
256,192,148546,1,8,0:0:0:0:
256,192,148642,1,0,0:0:0:0:
256,192,148836,1,0,0:0:0:0:
256,192,148933,1,8,0:0:0:0:
256,192,149030,1,8,0:0:0:0:
256,192,149127,1,0,0:0:0:0:
256,192,149223,1,0,0:0:0:0:
256,192,149417,1,8,0:0:0:0:
256,192,149610,1,0,0:0:0:0:
256,192,149707,1,0,0:0:0:0:
256,192,149804,1,8,0:0:0:0:
256,192,149901,1,8,0:0:0:0:
256,192,149997,1,0,0:0:0:0:
256,192,150191,1,8,0:0:0:0:
256,192,150384,1,0,0:0:0:0:
256,192,150481,1,0,0:0:0:0:
256,192,150578,1,8,0:0:0:0:
256,192,150675,1,8,0:0:0:0:
256,192,150771,1,0,0:0:0:0:
256,192,150965,1,8,0:0:0:0:
256,192,151062,1,8,0:0:0:0:
256,192,151158,1,0,0:0:0:0:
256,192,151255,1,0,0:0:0:0:
256,192,151353,1,8,0:0:0:0:
256,192,151448,1,0,0:0:0:0:
256,192,151545,1,0,0:0:0:0:
256,192,151642,1,8,0:0:0:0:
256,192,151739,1,0,0:0:0:0:
256,192,151836,1,8,0:0:0:0:
256,192,151933,1,8,0:0:0:0:
256,192,152030,1,8,0:0:0:0:
256,192,152126,1,0,0:0:0:0:
256,192,152320,1,0,0:0:0:0:
256,192,152514,1,8,0:0:0:0:
256,192,152610,1,0,0:0:0:0:
256,192,152707,1,0,0:0:0:0:
256,192,152804,1,8,0:0:0:0:
256,192,152901,1,8,0:0:0:0:
256,192,152997,1,0,0:0:0:0:
256,192,153094,1,8,0:0:0:0:
256,192,153288,1,8,0:0:0:0:
256,192,153385,1,8,0:0:0:0:
256,192,153481,1,0,0:0:0:0:
256,192,153578,1,8,0:0:0:0:
256,192,153675,1,0,0:0:0:0:
256,192,153772,1,0,0:0:0:0:
256,192,153868,1,8,0:0:0:0:
256,192,154062,1,8,0:0:0:0:
256,192,154159,1,8,0:0:0:0:
256,192,154255,1,8,0:0:0:0:
256,192,154352,1,0,0:0:0:0:
256,192,154450,1,8,0:0:0:0:
256,192,154545,1,8,0:0:0:0:
256,192,154642,1,0,0:0:0:0:
256,192,154739,1,0,0:0:0:0:
256,192,154836,1,8,0:0:0:0:
256,192,154933,1,0,0:0:0:0:
256,192,155030,1,0,0:0:0:0:
256,192,155224,1,0,0:0:0:0:
256,192,155320,1,8,0:0:0:0:
256,192,155417,1,0,0:0:0:0:
256,192,155611,1,8,0:0:0:0:
256,192,155804,1,0,0:0:0:0:
256,192,155998,1,8,0:0:0:0:
256,192,156095,1,0,0:0:0:0:
256,192,156191,1,0,0:0:0:0:
256,192,156385,1,8,0:0:0:0:
256,192,156578,1,0,0:0:0:0:
256,192,156772,1,8,0:0:0:0:
256,192,156868,1,0,0:0:0:0:
256,192,156966,1,0,0:0:0:0:
256,192,157159,1,8,0:0:0:0:
256,192,157352,1,0,0:0:0:0:
256,192,157546,1,8,0:0:0:0:
256,192,157643,1,8,0:0:0:0:
256,192,157739,1,0,0:0:0:0:
256,192,157934,1,8,0:0:0:0:
256,192,158126,1,0,0:0:0:0:
256,192,158320,1,8,0:0:0:0:
256,192,158417,1,8,0:0:0:0:
256,192,158513,1,0,0:0:0:0:
256,192,158707,1,0,0:0:0:0:
256,192,158771,1,0,0:0:0:0:
256,192,158836,1,0,0:0:0:0:
256,192,158901,1,0,0:0:0:0:
256,192,158965,1,0,0:0:0:0:
256,192,159030,1,0,0:0:0:0:
256,192,159094,1,0,0:0:0:0:
256,192,159158,1,0,0:0:0:0:
256,192,159223,1,0,0:0:0:0:
256,192,159288,1,0,0:0:0:0:
256,192,159352,1,0,0:0:0:0:
256,192,159417,1,0,0:0:0:0:
256,192,159481,1,0,0:0:0:0:
256,192,159545,1,0,0:0:0:0:
256,192,159610,1,0,0:0:0:0:
256,192,159675,1,0,0:0:0:0:
256,192,159739,1,0,0:0:0:0:
256,192,159804,1,0,0:0:0:0:
256,192,159868,1,0,0:0:0:0:
256,192,159932,1,0,0:0:0:0:
256,192,159997,1,0,0:0:0:0:
256,192,160062,1,0,0:0:0:0:
256,192,160126,1,0,0:0:0:0:
256,192,160191,1,0,0:0:0:0:
256,192,160255,1,8,0:0:0:0:
256,192,160352,1,8,0:0:0:0:
256,192,160449,1,0,0:0:0:0:
256,192,160546,1,8,0:0:0:0:
256,192,160642,1,0,0:0:0:0:
256,192,160739,1,8,0:0:0:0:
256,192,160836,1,0,0:0:0:0:
256,192,160933,1,0,0:0:0:0:
256,192,161030,1,8,0:0:0:0:
256,192,161223,1,0,0:0:0:0:
256,192,161417,1,12,0:0:0:0:
256,192,161804,1,8,0:0:0:0:
256,192,161997,1,0,0:0:0:0:
256,192,162191,1,0,0:0:0:0:
256,192,162288,1,8,0:0:0:0:
256,192,162384,1,0,0:0:0:0:
256,192,162481,1,8,0:0:0:0:
256,192,162578,1,0,0:0:0:0:
256,192,162626,1,8,0:0:0:0:
256,192,162675,1,8,0:0:0:0:
256,192,162771,1,8,0:0:0:0:
256,192,162868,1,0,0:0:0:0:
256,192,162917,1,8,0:0:0:0:
256,192,162965,1,8,0:0:0:0:
256,192,163061,1,8,0:0:0:0:
256,192,163159,1,0,0:0:0:0:
256,192,163255,1,8,0:0:0:0:
256,192,163352,1,0,0:0:0:0:
256,192,163401,1,0,0:0:0:0:
256,192,163449,1,8,0:0:0:0:
256,192,163545,1,8,0:0:0:0:
256,192,163642,1,0,0:0:0:0:
256,192,163691,1,0,0:0:0:0:
256,192,163738,1,8,0:0:0:0:
256,192,163836,1,8,0:0:0:0:
256,192,163933,1,0,0:0:0:0:
256,192,164030,1,8,0:0:0:0:
256,192,164126,1,0,0:0:0:0:
256,192,164175,1,0,0:0:0:0:
256,192,164223,1,0,0:0:0:0:
256,192,164319,1,8,0:0:0:0:
256,192,164416,1,0,0:0:0:0:
256,192,164465,1,0,0:0:0:0:
256,192,164513,1,0,0:0:0:0:
256,192,164609,1,8,0:0:0:0:
256,192,164707,1,0,0:0:0:0:
256,192,164804,1,8,0:0:0:0:
256,192,164901,1,0,0:0:0:0:
256,192,165093,1,8,0:0:0:0:
256,192,165191,1,0,0:0:0:0:
256,192,165288,1,8,0:0:0:0:
256,192,165384,1,8,0:0:0:0:
256,192,165482,1,0,0:0:0:0:
256,192,165578,1,8,0:0:0:0:
256,192,165675,1,0,0:0:0:0:
256,192,165723,1,0,0:0:0:0:
256,192,165771,1,8,0:0:0:0:
256,192,165867,1,8,0:0:0:0:
256,192,165965,1,0,0:0:0:0:
256,192,166013,1,0,0:0:0:0:
256,192,166062,1,8,0:0:0:0:
256,192,166158,1,8,0:0:0:0:
256,192,166256,1,0,0:0:0:0:
256,192,166352,1,8,0:0:0:0:
256,192,166449,1,0,0:0:0:0:
256,192,166497,1,8,0:0:0:0:
256,192,166546,1,8,0:0:0:0:
256,192,166642,1,8,0:0:0:0:
256,192,166739,1,0,0:0:0:0:
256,192,166788,1,8,0:0:0:0:
256,192,166836,1,8,0:0:0:0:
256,192,166932,1,8,0:0:0:0:
256,192,167030,1,0,0:0:0:0:
256,192,167126,1,8,0:0:0:0:
256,192,167223,1,0,0:0:0:0:
256,192,167271,1,0,0:0:0:0:
256,192,167320,1,8,0:0:0:0:
256,192,167417,1,8,0:0:0:0:
256,192,167513,1,0,0:0:0:0:
256,192,167610,1,8,0:0:0:0:
256,192,167804,1,0,0:0:0:0:
256,192,167997,1,0,0:0:0:0:
256,192,168191,1,8,0:0:0:0:
256,192,168288,1,8,0:0:0:0:
256,192,168384,1,0,0:0:0:0:
256,192,168481,1,8,0:0:0:0:
256,192,168578,1,0,0:0:0:0:
256,192,168675,1,8,0:0:0:0:
256,192,168771,1,0,0:0:0:0:
256,192,168819,1,8,0:0:0:0:
256,192,168868,1,8,0:0:0:0:
256,192,168964,1,8,0:0:0:0:
256,192,169061,1,0,0:0:0:0:
256,192,169110,1,8,0:0:0:0:
256,192,169158,1,8,0:0:0:0:
256,192,169254,1,8,0:0:0:0:
256,192,169352,1,0,0:0:0:0:
256,192,169448,1,8,0:0:0:0:
256,192,169545,1,0,0:0:0:0:
256,192,169594,1,0,0:0:0:0:
256,192,169642,1,8,0:0:0:0:
256,192,169738,1,8,0:0:0:0:
256,192,169835,1,0,0:0:0:0:
256,192,169884,1,0,0:0:0:0:
256,192,169933,1,8,0:0:0:0:
256,192,170029,1,8,0:0:0:0:
256,192,170126,1,0,0:0:0:0:
256,192,170223,1,8,0:0:0:0:
256,192,170319,1,0,0:0:0:0:
256,192,170368,1,0,0:0:0:0:
256,192,170416,1,0,0:0:0:0:
256,192,170512,1,8,0:0:0:0:
256,192,170609,1,0,0:0:0:0:
256,192,170658,1,0,0:0:0:0:
256,192,170706,1,0,0:0:0:0:
256,192,170804,1,8,0:0:0:0:
256,192,170901,1,0,0:0:0:0:
256,192,170997,1,8,0:0:0:0:
256,192,171094,1,0,0:0:0:0:
256,192,171288,1,8,0:0:0:0:
256,192,171384,1,0,0:0:0:0:
256,192,171481,1,8,0:0:0:0:
256,192,171578,1,8,0:0:0:0:
256,192,171675,1,0,0:0:0:0:
256,192,171771,1,8,0:0:0:0:
256,192,171868,1,0,0:0:0:0:
256,192,171916,1,0,0:0:0:0:
256,192,171964,1,0,0:0:0:0:
256,192,172062,1,8,0:0:0:0:
256,192,172158,1,0,0:0:0:0:
256,192,172206,1,0,0:0:0:0:
256,192,172255,1,0,0:0:0:0:
256,192,172351,1,8,0:0:0:0:
256,192,172449,1,0,0:0:0:0:
256,192,172545,1,8,0:0:0:0:
256,192,172642,1,0,0:0:0:0:
256,192,172690,1,0,0:0:0:0:
256,192,172739,1,8,0:0:0:0:
256,192,172835,1,0,0:0:0:0:
256,192,172932,1,8,0:0:0:0:
256,192,173030,1,0,0:0:0:0:
256,192,173077,1,0,0:0:0:0:
256,192,173125,1,8,0:0:0:0:
256,192,173223,1,0,0:0:0:0:
256,192,173319,1,8,0:0:0:0:
256,192,173416,1,0,0:0:0:0:
256,192,173465,1,8,0:0:0:0:
256,192,173513,1,8,0:0:0:0:
256,192,173610,1,0,0:0:0:0:
256,192,173707,1,8,0:0:0:0:
256,192,173804,1,0,0:0:0:0:
256,192,173901,1,0,0:0:0:0:
256,192,173997,1,8,0:0:0:0:
256,192,174094,1,8,0:0:0:0:
256,192,174191,1,8,0:0:0:0:
256,192,174384,1,0,0:0:0:0:
256,192,174578,1,0,0:0:0:0:
256,192,174675,1,8,0:0:0:0:
256,192,174771,1,0,0:0:0:0:
256,192,174868,1,8,0:0:0:0:
256,192,174965,1,0,0:0:0:0:
256,192,175013,1,8,0:0:0:0:
256,192,175062,1,8,0:0:0:0:
256,192,175158,1,8,0:0:0:0:
256,192,175255,1,0,0:0:0:0:
256,192,175304,1,8,0:0:0:0:
256,192,175352,1,8,0:0:0:0:
256,192,175448,1,8,0:0:0:0:
256,192,175546,1,0,0:0:0:0:
256,192,175642,1,8,0:0:0:0:
256,192,175739,1,0,0:0:0:0:
256,192,175788,1,0,0:0:0:0:
256,192,175836,1,8,0:0:0:0:
256,192,175932,1,8,0:0:0:0:
256,192,176029,1,0,0:0:0:0:
256,192,176078,1,0,0:0:0:0:
256,192,176125,1,8,0:0:0:0:
256,192,176223,1,8,0:0:0:0:
256,192,176320,1,0,0:0:0:0:
256,192,176417,1,8,0:0:0:0:
256,192,176513,1,0,0:0:0:0:
256,192,176562,1,0,0:0:0:0:
256,192,176610,1,0,0:0:0:0:
256,192,176706,1,8,0:0:0:0:
256,192,176803,1,0,0:0:0:0:
256,192,176852,1,0,0:0:0:0:
256,192,176900,1,0,0:0:0:0:
256,192,176996,1,8,0:0:0:0:
256,192,177094,1,0,0:0:0:0:
256,192,177191,1,8,0:0:0:0:
256,192,177288,1,0,0:0:0:0:
256,192,177480,1,8,0:0:0:0:
256,192,177578,1,0,0:0:0:0:
256,192,177675,1,8,0:0:0:0:
256,192,177771,1,8,0:0:0:0:
256,192,177869,1,0,0:0:0:0:
256,192,177965,1,8,0:0:0:0:
256,192,178062,1,0,0:0:0:0:
256,192,178110,1,0,0:0:0:0:
256,192,178158,1,8,0:0:0:0:
256,192,178254,1,8,0:0:0:0:
256,192,178352,1,0,0:0:0:0:
256,192,178400,1,0,0:0:0:0:
256,192,178449,1,8,0:0:0:0:
256,192,178545,1,8,0:0:0:0:
256,192,178643,1,0,0:0:0:0:
256,192,178739,1,8,0:0:0:0:
256,192,178836,1,0,0:0:0:0:
256,192,178884,1,8,0:0:0:0:
256,192,178933,1,8,0:0:0:0:
256,192,179029,1,8,0:0:0:0:
256,192,179126,1,0,0:0:0:0:
256,192,179175,1,8,0:0:0:0:
256,192,179223,1,8,0:0:0:0:
256,192,179319,1,8,0:0:0:0:
256,192,179417,1,0,0:0:0:0:
256,192,179513,1,8,0:0:0:0:
256,192,179610,1,0,0:0:0:0:
256,192,179658,1,0,0:0:0:0:
256,192,179707,1,8,0:0:0:0:
256,192,179804,1,0,0:0:0:0:
256,192,179901,1,8,0:0:0:0:
256,192,179997,1,0,0:0:0:0:
256,192,180046,1,0,0:0:0:0:
256,192,180094,1,8,0:0:0:0:
256,192,180191,1,0,0:0:0:0:
256,192,180384,1,0,0:0:0:0:
256,192,180481,1,0,0:0:0:0:
256,192,180578,1,8,0:0:0:0:
256,192,180675,1,8,0:0:0:0:
256,192,180771,1,0,0:0:0:0:
256,192,180868,1,8,0:0:0:0:
256,192,180965,1,0,0:0:0:0:
256,192,181062,1,8,0:0:0:0:
256,192,181159,1,0,0:0:0:0:
256,192,181207,1,8,0:0:0:0:
256,192,181256,1,8,0:0:0:0:
256,192,181352,1,8,0:0:0:0:
256,192,181449,1,0,0:0:0:0:
256,192,181498,1,8,0:0:0:0:
256,192,181546,1,8,0:0:0:0:
256,192,181642,1,8,0:0:0:0:
256,192,181740,1,0,0:0:0:0:
256,192,181836,1,8,0:0:0:0:
256,192,181933,1,0,0:0:0:0:
256,192,181982,1,0,0:0:0:0:
256,192,182030,1,8,0:0:0:0:
256,192,182126,1,8,0:0:0:0:
256,192,182223,1,0,0:0:0:0:
256,192,182272,1,0,0:0:0:0:
256,192,182319,1,8,0:0:0:0:
256,192,182417,1,8,0:0:0:0:
256,192,182514,1,0,0:0:0:0:
256,192,182611,1,8,0:0:0:0:
256,192,182707,1,0,0:0:0:0:
256,192,182756,1,0,0:0:0:0:
256,192,182804,1,0,0:0:0:0:
256,192,182900,1,8,0:0:0:0:
256,192,182997,1,0,0:0:0:0:
256,192,183046,1,0,0:0:0:0:
256,192,183094,1,0,0:0:0:0:
256,192,183192,1,8,0:0:0:0:
256,192,183289,1,0,0:0:0:0:
256,192,183385,1,8,0:0:0:0:
256,192,183482,1,0,0:0:0:0:
256,192,183676,1,8,0:0:0:0:
256,192,183772,1,0,0:0:0:0:
256,192,183869,1,8,0:0:0:0:
256,192,183966,1,8,0:0:0:0:
256,192,184063,1,0,0:0:0:0:
256,192,184159,1,8,0:0:0:0:
256,192,184256,1,0,0:0:0:0:
256,192,184304,1,0,0:0:0:0:
256,192,184352,1,0,0:0:0:0:
256,192,184448,1,8,0:0:0:0:
256,192,184546,1,0,0:0:0:0:
256,192,184643,1,8,0:0:0:0:
256,192,184691,1,8,0:0:0:0:
256,192,184739,1,8,0:0:0:0:
256,192,184788,1,8,0:0:0:0:
256,192,184837,1,0,0:0:0:0:
256,192,184933,1,8,0:0:0:0:
256,192,185029,1,0,0:0:0:0:
256,192,185223,1,8,0:0:0:0:
256,192,185417,1,8,0:0:0:0:
256,192,185513,1,8,0:0:0:0:
256,192,185707,1,0,0:0:0:0:
256,192,185804,1,8,0:0:0:0:
256,192,185997,1,8,0:0:0:0:
256,192,186191,1,4,0:0:0:0:
256,192,186384,1,4,0:0:0:0:
256,192,186578,1,8,0:0:0:0:
256,192,186771,1,0,0:0:0:0:
256,192,186965,1,0,0:0:0:0:
256,192,187062,1,8,0:0:0:0:
256,192,187158,1,0,0:0:0:0:
256,192,187255,1,8,0:0:0:0:
256,192,187352,1,0,0:0:0:0:
256,192,187400,1,8,0:0:0:0:
256,192,187449,1,8,0:0:0:0:
256,192,187545,1,8,0:0:0:0:
256,192,187642,1,0,0:0:0:0:
256,192,187691,1,8,0:0:0:0:
256,192,187739,1,8,0:0:0:0:
256,192,187835,1,8,0:0:0:0:
256,192,187933,1,0,0:0:0:0:
256,192,188029,1,8,0:0:0:0:
256,192,188126,1,0,0:0:0:0:
256,192,188175,1,0,0:0:0:0:
256,192,188223,1,8,0:0:0:0:
256,192,188319,1,8,0:0:0:0:
256,192,188416,1,0,0:0:0:0:
256,192,188465,1,0,0:0:0:0:
256,192,188512,1,8,0:0:0:0:
256,192,188610,1,8,0:0:0:0:
256,192,188707,1,0,0:0:0:0:
256,192,188804,1,8,0:0:0:0:
256,192,188900,1,0,0:0:0:0:
256,192,188949,1,0,0:0:0:0:
256,192,188997,1,0,0:0:0:0:
256,192,189093,1,8,0:0:0:0:
256,192,189190,1,0,0:0:0:0:
256,192,189239,1,0,0:0:0:0:
256,192,189287,1,0,0:0:0:0:
256,192,189383,1,8,0:0:0:0:
256,192,189481,1,0,0:0:0:0:
256,192,189578,1,8,0:0:0:0:
256,192,189675,1,0,0:0:0:0:
256,192,189867,1,8,0:0:0:0:
256,192,189965,1,0,0:0:0:0:
256,192,190062,1,8,0:0:0:0:
256,192,190158,1,8,0:0:0:0:
256,192,190256,1,0,0:0:0:0:
256,192,190352,1,8,0:0:0:0:
256,192,190449,1,0,0:0:0:0:
256,192,190497,1,0,0:0:0:0:
256,192,190545,1,8,0:0:0:0:
256,192,190641,1,0,0:0:0:0:
256,192,190739,1,8,0:0:0:0:
256,192,190836,1,0,0:0:0:0:
256,192,190884,1,0,0:0:0:0:
256,192,190932,1,8,0:0:0:0:
256,192,191030,1,0,0:0:0:0:
256,192,191126,1,8,0:0:0:0:
256,192,191223,1,0,0:0:0:0:
256,192,191271,1,8,0:0:0:0:
256,192,191320,1,8,0:0:0:0:
256,192,191416,1,8,0:0:0:0:
256,192,191513,1,8,0:0:0:0:
256,192,191610,1,0,0:0:0:0:
256,192,191659,1,8,0:0:0:0:
256,192,191706,1,8,0:0:0:0:
256,192,191804,1,8,0:0:0:0:
256,192,191900,1,8,0:0:0:0:
256,192,191997,1,0,0:0:0:0:
256,192,192045,1,0,0:0:0:0:
256,192,192094,1,8,0:0:0:0:
256,192,192191,1,8,0:0:0:0:
256,192,192287,1,0,0:0:0:0:
256,192,192384,1,8,0:0:0:0:
256,192,192578,1,8,0:0:0:0:
256,192,192771,1,0,0:0:0:0:
256,192,192965,1,8,0:0:0:0:
256,192,193062,1,8,0:0:0:0:
256,192,193158,1,0,0:0:0:0:
256,192,193255,1,8,0:0:0:0:
256,192,193352,1,0,0:0:0:0:
256,192,193449,1,8,0:0:0:0:
256,192,193545,1,0,0:0:0:0:
256,192,193593,1,8,0:0:0:0:
256,192,193642,1,8,0:0:0:0:
256,192,193738,1,8,0:0:0:0:
256,192,193835,1,0,0:0:0:0:
256,192,193884,1,8,0:0:0:0:
256,192,193932,1,8,0:0:0:0:
256,192,194030,1,8,0:0:0:0:
256,192,194126,1,0,0:0:0:0:
256,192,194222,1,8,0:0:0:0:
256,192,194319,1,0,0:0:0:0:
256,192,194368,1,0,0:0:0:0:
256,192,194416,1,8,0:0:0:0:
256,192,194512,1,0,0:0:0:0:
256,192,194609,1,8,0:0:0:0:
256,192,194707,1,0,0:0:0:0:
256,192,194755,1,0,0:0:0:0:
256,192,194803,1,8,0:0:0:0:
256,192,194900,1,0,0:0:0:0:
256,192,194997,1,8,0:0:0:0:
256,192,195093,1,0,0:0:0:0:
256,192,195142,1,0,0:0:0:0:
256,192,195190,1,0,0:0:0:0:
256,192,195288,1,8,0:0:0:0:
256,192,195383,1,8,0:0:0:0:
256,192,195480,1,0,0:0:0:0:
256,192,195530,1,0,0:0:0:0:
256,192,195578,1,0,0:0:0:0:
256,192,195675,1,8,0:0:0:0:
256,192,195771,1,8,0:0:0:0:
256,192,195868,1,0,0:0:0:0:
256,192,196062,1,8,0:0:0:0:
256,192,196158,1,0,0:0:0:0:
256,192,196255,1,8,0:0:0:0:
256,192,196352,1,8,0:0:0:0:
256,192,196449,1,0,0:0:0:0:
256,192,196545,1,8,0:0:0:0:
256,192,196642,1,0,0:0:0:0:
256,192,196690,1,0,0:0:0:0:
256,192,196738,1,0,0:0:0:0:
256,192,196836,1,8,0:0:0:0:
256,192,196932,1,0,0:0:0:0:
256,192,196980,1,0,0:0:0:0:
256,192,197029,1,0,0:0:0:0:
256,192,197125,1,8,0:0:0:0:
256,192,197223,1,0,0:0:0:0:
256,192,197319,1,8,0:0:0:0:
256,192,197416,1,0,0:0:0:0:
256,192,197464,1,0,0:0:0:0:
256,192,197513,1,8,0:0:0:0:
256,192,197609,1,0,0:0:0:0:
256,192,197706,1,8,0:0:0:0:
256,192,197804,1,0,0:0:0:0:
256,192,197852,1,0,0:0:0:0:
256,192,197901,1,8,0:0:0:0:
256,192,197997,1,0,0:0:0:0:
256,192,198093,1,8,0:0:0:0:
256,192,198191,1,0,0:0:0:0:
256,192,198239,1,8,0:0:0:0:
256,192,198288,1,8,0:0:0:0:
256,192,198384,1,0,0:0:0:0:
256,192,198481,1,8,0:0:0:0:
256,192,198578,1,0,0:0:0:0:
256,192,198642,1,8,0:0:0:0:
256,192,198707,1,0,0:0:0:0:
256,192,198771,1,8,0:0:0:0:
256,192,198836,1,0,0:0:0:0:
256,192,198901,1,8,0:0:0:0:
256,192,198965,1,0,0:0:0:0:
256,192,199158,1,0,0:0:0:0:
256,192,199352,1,0,0:0:0:0:
256,192,199449,1,8,0:0:0:0:
256,192,199545,1,0,0:0:0:0:
256,192,199642,1,8,0:0:0:0:
256,192,199739,1,0,0:0:0:0:
256,192,199787,1,8,0:0:0:0:
256,192,199836,1,8,0:0:0:0:
256,192,199932,1,8,0:0:0:0:
256,192,200029,1,0,0:0:0:0:
256,192,200078,1,8,0:0:0:0:
256,192,200126,1,8,0:0:0:0:
256,192,200222,1,8,0:0:0:0:
256,192,200320,1,0,0:0:0:0:
256,192,200416,1,8,0:0:0:0:
256,192,200513,1,0,0:0:0:0:
256,192,200562,1,0,0:0:0:0:
256,192,200610,1,8,0:0:0:0:
256,192,200706,1,0,0:0:0:0:
256,192,200803,1,8,0:0:0:0:
256,192,200901,1,0,0:0:0:0:
256,192,200949,1,0,0:0:0:0:
256,192,200997,1,8,0:0:0:0:
256,192,201094,1,0,0:0:0:0:
256,192,201191,1,8,0:0:0:0:
256,192,201287,1,0,0:0:0:0:
256,192,201336,1,0,0:0:0:0:
256,192,201384,1,0,0:0:0:0:
256,192,201480,1,8,0:0:0:0:
256,192,201577,1,8,0:0:0:0:
256,192,201674,1,0,0:0:0:0:
256,192,201723,1,0,0:0:0:0:
256,192,201770,1,0,0:0:0:0:
256,192,201868,1,8,0:0:0:0:
256,192,201965,1,8,0:0:0:0:
256,192,202062,1,0,0:0:0:0:
256,192,202254,1,8,0:0:0:0:
256,192,202352,1,0,0:0:0:0:
256,192,202449,1,8,0:0:0:0:
256,192,202545,1,8,0:0:0:0:
256,192,202643,1,0,0:0:0:0:
256,192,202739,1,8,0:0:0:0:
256,192,202836,1,0,0:0:0:0:
256,192,202884,1,0,0:0:0:0:
256,192,202932,1,8,0:0:0:0:
256,192,203030,1,8,0:0:0:0:
256,192,203126,1,0,0:0:0:0:
256,192,203174,1,0,0:0:0:0:
256,192,203223,1,8,0:0:0:0:
256,192,203319,1,8,0:0:0:0:
256,192,203417,1,0,0:0:0:0:
256,192,203513,1,8,0:0:0:0:
256,192,203610,1,0,0:0:0:0:
256,192,203658,1,8,0:0:0:0:
256,192,203707,1,8,0:0:0:0:
256,192,203803,1,0,0:0:0:0:
256,192,203900,1,8,0:0:0:0:
256,192,203997,1,0,0:0:0:0:
256,192,204046,1,8,0:0:0:0:
256,192,204093,1,8,0:0:0:0:
256,192,204191,1,0,0:0:0:0:
256,192,204287,1,8,0:0:0:0:
256,192,204384,1,0,0:0:0:0:
256,192,204432,1,0,0:0:0:0:
256,192,204481,1,8,0:0:0:0:
256,192,204578,1,0,0:0:0:0:
256,192,204675,1,8,0:0:0:0:
256,192,204771,1,0,0:0:0:0:
256,192,204820,1,0,0:0:0:0:
256,192,204868,1,8,0:0:0:0:
256,192,204965,1,0,0:0:0:0:
256,192,205159,1,12,0:0:0:0:
256,192,205546,1,4,0:0:0:0:
256,192,205739,1,4,0:0:0:0:
256,192,205934,1,0,0:0:0:0:
256,192,205982,1,8,0:0:0:0:
256,192,206031,1,8,0:0:0:0:
256,192,206127,1,8,0:0:0:0:
256,192,206224,1,0,0:0:0:0:
256,192,206271,1,8,0:0:0:0:
256,192,206321,1,8,0:0:0:0:
256,192,206417,1,8,0:0:0:0:
256,192,206513,1,0,0:0:0:0:
256,192,206611,1,8,0:0:0:0:
256,192,206708,1,0,0:0:0:0:
256,192,206755,1,0,0:0:0:0:
256,192,206805,1,8,0:0:0:0:
256,192,206901,1,0,0:0:0:0:
256,192,206998,1,8,0:0:0:0:
256,192,207094,1,0,0:0:0:0:
256,192,207142,1,0,0:0:0:0:
256,192,207192,1,8,0:0:0:0:
256,192,207289,1,0,0:0:0:0:
256,192,207384,1,8,0:0:0:0:
256,192,207482,1,0,0:0:0:0:
256,192,207531,1,0,0:0:0:0:
256,192,207579,1,0,0:0:0:0:
256,192,207675,1,8,0:0:0:0:
256,192,207771,1,8,0:0:0:0:
256,192,207869,1,0,0:0:0:0:
256,192,207917,1,0,0:0:0:0:
256,192,207965,1,0,0:0:0:0:
256,192,208062,1,8,0:0:0:0:
256,192,208160,1,8,0:0:0:0:
256,192,208255,1,0,0:0:0:0:
256,192,208449,1,8,0:0:0:0:
256,192,208547,1,0,0:0:0:0:
256,192,208642,1,8,0:0:0:0:
256,192,208739,1,8,0:0:0:0:
256,192,208836,1,0,0:0:0:0:
256,192,208934,1,8,0:0:0:0:
256,192,209031,1,0,0:0:0:0:
256,192,209079,1,0,0:0:0:0:
256,192,209127,1,0,0:0:0:0:
256,192,209223,1,8,0:0:0:0:
256,192,209321,1,0,0:0:0:0:
256,192,209418,1,8,0:0:0:0:
256,192,209466,1,8,0:0:0:0:
256,192,209514,1,8,0:0:0:0:
256,192,209610,1,0,0:0:0:0:
256,192,209708,1,8,0:0:0:0:
256,192,209803,1,0,0:0:0:0:
256,192,209997,1,8,0:0:0:0:
256,192,210191,1,0,0:0:0:0:
256,192,210255,1,0,0:0:0:0:
256,192,210320,1,0,0:0:0:0:
256,192,210385,1,8,0:0:0:0:
256,192,210449,1,0,0:0:0:0:
256,192,210513,1,0,0:0:0:0:
256,192,210578,1,8,0:0:0:0:
256,192,210642,1,8,0:0:0:0:
256,192,210707,1,0,0:0:0:0:
256,192,210772,1,8,0:0:0:0:
256,192,210836,1,0,0:0:0:0:
256,192,210901,1,0,0:0:0:0:
256,192,210965,1,8,0:0:0:0:
256,192,211352,1,8,0:0:0:0:
256,192,211546,1,0,0:0:0:0:
256,192,211740,1,8,0:0:0:0:
256,192,211836,1,8,0:0:0:0:
256,192,211933,1,8,0:0:0:0:
256,192,212031,1,0,0:0:0:0:
256,192,212127,1,8,0:0:0:0:
256,192,212224,1,8,0:0:0:0:
256,192,212320,1,0,0:0:0:0:
256,192,212417,1,8,0:0:0:0:
256,192,212514,1,0,0:0:0:0:
256,192,212579,1,8,0:0:0:0:
256,192,212643,1,8,0:0:0:0:
256,192,212707,1,8,0:0:0:0:
256,192,212771,1,8,0:0:0:0:
256,192,212837,1,8,0:0:0:0:
256,192,212901,1,0,0:0:0:0:
256,192,212998,1,8,0:0:0:0:
256,192,213094,1,0,0:0:0:0:
256,192,213191,1,8,0:0:0:0:
256,192,213289,1,8,0:0:0:0:
256,192,213384,1,0,0:0:0:0:
256,192,213481,1,8,0:0:0:0:
256,192,213579,1,0,0:0:0:0:
256,192,213675,1,8,0:0:0:0:
256,192,213869,1,0,0:0:0:0:
256,192,214062,1,8,0:0:0:0:
256,192,214159,1,8,0:0:0:0:
256,192,214255,1,0,0:0:0:0:
256,192,214352,1,0,0:0:0:0:
256,192,214450,1,8,0:0:0:0:
256,192,214643,1,0,0:0:0:0:
256,192,214837,1,8,0:0:0:0:
256,192,214933,1,8,0:0:0:0:
256,192,215030,1,8,0:0:0:0:
256,192,215126,1,0,0:0:0:0:
256,192,215224,1,8,0:0:0:0:
256,192,215321,1,8,0:0:0:0:
256,192,215417,1,0,0:0:0:0:
256,192,215514,1,8,0:0:0:0:
256,192,215611,1,0,0:0:0:0:
256,192,215708,1,0,0:0:0:0:
256,192,215804,1,8,0:0:0:0:
256,192,215869,1,8,0:0:0:0:
256,192,215934,1,8,0:0:0:0:
256,192,215998,1,8,0:0:0:0:
256,192,216095,1,8,0:0:0:0:
256,192,216191,1,0,0:0:0:0:
256,192,216288,1,8,0:0:0:0:
256,192,216384,1,8,0:0:0:0:
256,192,216481,1,0,0:0:0:0:
256,192,216578,1,8,0:0:0:0:
256,192,216676,1,0,0:0:0:0:
256,192,216772,1,8,0:0:0:0:
256,192,216966,1,0,0:0:0:0:
256,192,217160,1,8,0:0:0:0:
256,192,217224,1,8,0:0:0:0:
256,192,217289,1,8,0:0:0:0:
256,192,217353,1,0,0:0:0:0:
256,192,217450,1,0,0:0:0:0:
256,192,217547,1,8,0:0:0:0:
256,192,217740,1,0,0:0:0:0:
256,192,217934,1,8,0:0:0:0:
256,192,218031,1,8,0:0:0:0:
256,192,218127,1,0,0:0:0:0:
256,192,218223,1,8,0:0:0:0:
256,192,218321,1,8,0:0:0:0:
256,192,218417,1,8,0:0:0:0:
256,192,218514,1,0,0:0:0:0:
256,192,218610,1,8,0:0:0:0:
256,192,218708,1,0,0:0:0:0:
256,192,218771,1,0,0:0:0:0:
256,192,218837,1,0,0:0:0:0:
256,192,218902,1,8,0:0:0:0:
256,192,218966,1,8,0:0:0:0:
256,192,219031,1,8,0:0:0:0:
256,192,219095,1,0,0:0:0:0:
256,192,219192,1,0,0:0:0:0:
256,192,219288,1,8,0:0:0:0:
256,192,219385,1,0,0:0:0:0:
256,192,219482,1,8,0:0:0:0:
256,192,219579,1,8,0:0:0:0:
256,192,219675,1,0,0:0:0:0:
256,192,219772,1,8,0:0:0:0:
256,192,219868,1,8,0:0:0:0:
256,192,220062,1,0,0:0:0:0:
256,192,220256,1,8,0:0:0:0:
256,192,220352,1,8,0:0:0:0:
256,192,220449,1,0,0:0:0:0:
256,192,220546,1,0,0:0:0:0:
256,192,220643,1,8,0:0:0:0:
256,192,220836,1,0,0:0:0:0:
256,192,221030,1,8,0:0:0:0:
256,192,221126,1,0,0:0:0:0:
256,192,221223,1,8,0:0:0:0:
256,192,221321,1,0,0:0:0:0:
256,192,221417,1,8,0:0:0:0:
256,192,221482,1,8,0:0:0:0:
256,192,221547,1,8,0:0:0:0:
256,192,221610,1,0,0:0:0:0:
256,192,221707,1,0,0:0:0:0:
256,192,221804,1,8,0:0:0:0:
256,192,221901,1,0,0:0:0:0:
256,192,221997,1,8,0:0:0:0:
256,192,222095,1,0,0:0:0:0:
256,192,222191,1,8,0:0:0:0:
256,192,222288,1,8,0:0:0:0:
256,192,222384,1,8,0:0:0:0:
256,192,222481,1,0,0:0:0:0:
256,192,222579,1,8,0:0:0:0:
256,192,222643,1,0,0:0:0:0:
256,192,222708,1,0,0:0:0:0:
256,192,222771,1,8,0:0:0:0:
256,192,222837,1,0,0:0:0:0:
256,192,222902,1,0,0:0:0:0:
256,192,222965,1,8,0:0:0:0:
256,192,223159,1,0,0:0:0:0:
256,192,223256,1,8,0:0:0:0:
256,192,223450,1,0,0:0:0:0:
256,192,223546,1,8,0:0:0:0:
256,192,223740,1,8,0:0:0:0:
256,192,223934,1,0,0:0:0:0:
256,192,224127,1,8,0:0:0:0:
256,192,224223,1,8,0:0:0:0:
256,192,224320,1,8,0:0:0:0:
256,192,224418,1,0,0:0:0:0:
256,192,224514,1,8,0:0:0:0:
256,192,224611,1,8,0:0:0:0:
256,192,224707,1,0,0:0:0:0:
256,192,224804,1,8,0:0:0:0:
256,192,224901,1,0,0:0:0:0:
256,192,224998,1,8,0:0:0:0:
256,192,225094,1,8,0:0:0:0:
256,192,225192,1,8,0:0:0:0:
256,192,225288,1,0,0:0:0:0:
256,192,225385,1,8,0:0:0:0:
256,192,225481,1,0,0:0:0:0:
256,192,225578,1,8,0:0:0:0:
256,192,225676,1,8,0:0:0:0:
256,192,225771,1,0,0:0:0:0:
256,192,225868,1,8,0:0:0:0:
256,192,225966,1,0,0:0:0:0:
256,192,226062,1,8,0:0:0:0:
256,192,226256,1,0,0:0:0:0:
256,192,226321,1,0,0:0:0:0:
256,192,226385,1,0,0:0:0:0:
256,192,226449,1,8,0:0:0:0:
256,192,226643,1,0,0:0:0:0:
256,192,226837,1,8,0:0:0:0:
256,192,227031,1,0,0:0:0:0:
256,192,227224,1,8,0:0:0:0:
256,192,227320,1,0,0:0:0:0:
256,192,227417,1,8,0:0:0:0:
256,192,227513,1,0,0:0:0:0:
256,192,227611,1,8,0:0:0:0:
256,192,227708,1,8,0:0:0:0:
256,192,227804,1,0,0:0:0:0:
256,192,227901,1,8,0:0:0:0:
256,192,227998,1,0,0:0:0:0:
256,192,228095,1,0,0:0:0:0:
256,192,228191,1,8,0:0:0:0:
256,192,228289,1,8,0:0:0:0:
256,192,228385,1,0,0:0:0:0:
256,192,228482,1,8,0:0:0:0:
256,192,228578,1,0,0:0:0:0:
256,192,228675,1,8,0:0:0:0:
256,192,228771,1,8,0:0:0:0:
256,192,228868,1,8,0:0:0:0:
256,192,228965,1,0,0:0:0:0:
256,192,229063,1,8,0:0:0:0:
256,192,229159,1,8,0:0:0:0:
256,192,229353,1,0,0:0:0:0:
256,192,229418,1,0,0:0:0:0:
256,192,229482,1,0,0:0:0:0:
256,192,229546,1,8,0:0:0:0:
256,192,229740,1,0,0:0:0:0:
256,192,229934,1,8,0:0:0:0:
256,192,230127,1,0,0:0:0:0:
256,192,230176,1,0,0:0:0:0:
256,192,230224,1,0,0:0:0:0:
256,192,230271,1,0,0:0:0:0:
256,192,230321,1,8,0:0:0:0:
256,192,230514,1,0,0:0:0:0:
256,192,230563,1,0,0:0:0:0:
256,192,230611,1,0,0:0:0:0:
256,192,230660,1,0,0:0:0:0:
256,192,230708,1,8,0:0:0:0:
256,192,230805,1,8,0:0:0:0:
256,192,230902,1,0,0:0:0:0:
256,192,230998,1,0,0:0:0:0:
256,192,231094,1,8,0:0:0:0:
256,192,231191,1,8,0:0:0:0:
256,192,231289,1,0,0:0:0:0:
256,192,231384,1,8,0:0:0:0:
256,192,231481,1,8,0:0:0:0:
256,192,231578,1,0,0:0:0:0:
256,192,231676,1,8,0:0:0:0:
256,192,231771,1,0,0:0:0:0:
256,192,231868,1,8,0:0:0:0:
256,192,231965,1,8,0:0:0:0:
256,192,232063,1,8,0:0:0:0:
256,192,232160,1,0,0:0:0:0:
256,192,232256,1,8,0:0:0:0:
256,192,232450,1,0,0:0:0:0:
256,192,232642,1,8,0:0:0:0:
256,192,232837,1,0,0:0:0:0:
256,192,233031,1,8,0:0:0:0:
256,192,233127,1,8,0:0:0:0:
256,192,233224,1,0,0:0:0:0:
256,192,233321,1,0,0:0:0:0:
256,192,233418,1,8,0:0:0:0:
256,192,233513,1,0,0:0:0:0:
256,192,233611,1,8,0:0:0:0:
256,192,233707,1,8,0:0:0:0:
256,192,233804,1,8,0:0:0:0:
256,192,233902,1,0,0:0:0:0:
256,192,233997,1,8,0:0:0:0:
256,192,234094,1,0,0:0:0:0:
256,192,234191,1,0,0:0:0:0:
256,192,234289,1,8,0:0:0:0:
256,192,234385,1,8,0:0:0:0:
256,192,234481,1,0,0:0:0:0:
256,192,234579,1,8,0:0:0:0:
256,192,234708,1,8,0:0:0:0:
256,192,234837,1,8,0:0:0:0:
256,192,234966,1,8,0:0:0:0:
256,192,235095,1,8,0:0:0:0:
256,192,235224,1,8,0:0:0:0:
256,192,235353,1,0,0:0:0:0:
256,192,235547,1,0,0:0:0:0:
256,192,235595,1,0,0:0:0:0:
256,192,235643,1,0,0:0:0:0:
256,192,235692,1,0,0:0:0:0:
256,192,235740,1,8,0:0:0:0:
256,192,236127,1,8,0:0:0:0:
256,192,237675,1,0,0:0:0:0:
256,192,239223,1,8,0:0:0:0:
256,192,242320,1,8,0:0:0:0:
256,192,243868,1,0,0:0:0:0:
256,192,245417,1,8,0:0:0:0:
256,192,248513,1,8,0:0:0:0:
256,192,250062,1,0,0:0:0:0:
256,192,251610,1,8,0:0:0:0:
256,192,254707,1,8,0:0:0:0:
256,192,256321,1,0,0:0:0:0:
256,192,257281,1,8,0:0:0:0:
256,192,258481,1,0,0:0:0:0:
256,192,258561,1,0,0:0:0:0:
256,192,258641,1,8,0:0:0:0:
256,192,258721,1,8,0:0:0:0:
256,192,258841,12,0,267961,0:0:0:0:
