osu file format v14

[General]
AudioFilename: Yooh - snow storm -euphoria-.mp3
AudioLeadIn: 0
PreviewTime: 47446
Countdown: 0
SampleSet: Soft
StackLeniency: 0.7
Mode: 3
LetterboxInBreaks: 0
SpecialStyle: 0
WidescreenStoryboard: 0

[Editor]
DistanceSpacing: 1.1
BeatDivisor: 4
GridSize: 4
TimelineZoom: 1

[Metadata]
Title:Snow Storm -euphoria-
TitleUnicode:Snow Storm -euphoria-
Artist:Yooh
ArtistUnicode:Yooh
Creator:SeonRae
Version:KSR
Source:
Tags:
BeatmapID:766783
BeatmapSetID:347488

[Difficulty]
HPDrainRate:9
CircleSize:7
OverallDifficulty:9
ApproachRate:5
SliderMultiplier:1.4
SliderTickRate:1

[Events]
//Background and Video events
0,0,"bg.jpg",0,0
//Break Periods
//Storyboard Layer 0 (Background)
//Storyboard Layer 1 (Fail)
//Storyboard Layer 2 (Pass)
//Storyboard Layer 3 (Foreground)
//Storyboard Sound Samples

[TimingPoints]
1447,333.333333333333,4,2,0,30,1,0
4113,-66.6666666666667,4,2,0,30,0,0
4155,-133.333333333333,4,2,0,30,0,0
4196,-66.6666666666667,4,2,0,30,0,0
4238,-133.333333333333,4,2,0,30,0,0
4280,-66.6666666666667,4,2,0,30,0,0
4321,-133.333333333333,4,2,0,30,0,0
4363,-66.6666666666667,4,2,0,30,0,0
4405,-133.333333333333,4,2,0,30,0,0
4446,-66.6666666666667,4,2,0,30,0,0
4488,-133.333333333333,4,2,0,30,0,0
4530,-66.6666666666667,4,2,0,30,0,0
4571,-133.333333333333,4,2,0,30,0,0
4613,-100,4,2,0,30,0,0
5446,-66.6666666666667,4,2,0,30,0,0
5488,-133.333333333333,4,2,0,30,0,0
5530,-66.6666666666667,4,2,0,30,0,0
5571,-133.333333333333,4,2,0,30,0,0
5613,-66.6666666666667,4,2,0,30,0,0
5655,-133.333333333333,4,2,0,30,0,0
5696,-66.6666666666667,4,2,0,30,0,0
5738,-133.333333333333,4,2,0,30,0,0
5780,-66.6666666666667,4,2,0,30,0,0
5821,-133.333333333333,4,2,0,30,0,0
5863,-66.6666666666667,4,2,0,30,0,0
5905,-133.333333333333,4,2,0,30,0,0
5946,-100,4,2,0,30,0,0
9446,-66.6666666666667,4,2,0,30,0,0
9488,-133.333333333333,4,2,0,30,0,0
9530,-66.6666666666667,4,2,0,30,0,0
9571,-133.333333333333,4,2,0,30,0,0
9613,-66.6666666666667,4,2,0,30,0,0
9655,-133.333333333333,4,2,0,30,0,0
9696,-66.6666666666667,4,2,0,30,0,0
9738,-133.333333333333,4,2,0,30,0,0
9780,-66.6666666666667,4,2,0,30,0,0
9821,-133.333333333333,4,2,0,30,0,0
9863,-66.6666666666667,4,2,0,30,0,0
9905,-133.333333333333,4,2,0,30,0,0
9946,-100,4,2,0,30,0,0
20113,-66.6666666666667,4,2,0,30,0,0
20155,-133.333333333333,4,2,0,30,0,0
20196,-66.6666666666667,4,2,0,30,0,0
20238,-133.333333333333,4,2,0,30,0,0
20280,-100,4,2,0,30,0,0
20446,-66.6666666666667,4,2,0,30,0,0
20488,-133.333333333333,4,2,0,30,0,0
20530,-66.6666666666667,4,2,0,30,0,0
20571,-133.333333333333,4,2,0,30,0,0
20613,-100,4,2,0,30,0,0
20780,-66.6666666666667,4,2,0,30,0,0
20821,-133.333333333333,4,2,0,30,0,0
20863,-66.6666666666667,4,2,0,30,0,0
20905,-133.333333333333,4,2,0,30,0,0
20946,-66.6666666666667,4,2,0,30,0,0
20988,-133.333333333333,4,2,0,30,0,0
21030,-66.6666666666667,4,2,0,30,0,0
21071,-133.333333333333,4,2,0,30,0,0
21113,-66.6666666666667,4,2,0,30,0,0
21155,-133.333333333333,4,2,0,30,0,0
21196,-66.6666666666667,4,2,0,30,0,0
21238,-133.333333333333,4,2,0,30,0,0
21280,-66.6666666666667,4,2,0,30,0,0
21321,-133.333333333333,4,2,0,30,0,0
21363,-66.6666666666667,4,2,0,30,0,0
21405,-133.333333333333,4,2,0,30,0,0
21446,-100,4,2,0,30,0,0
31446,-66.6666666666667,4,2,0,30,0,0
31530,-133.333333333333,4,2,0,30,0,0
31613,-66.6666666666667,4,2,0,30,0,0
31696,-133.333333333333,4,2,0,30,0,0
31780,-66.6666666666667,4,2,0,30,0,0
31821,-133.333333333333,4,2,0,30,0,0
31863,-66.6666666666667,4,2,0,30,0,0
31905,-133.333333333333,4,2,0,30,0,0
31946,-66.6666666666667,4,2,0,30,0,0
31988,-133.333333333333,4,2,0,30,0,0
32030,-66.6666666666667,4,2,0,30,0,0
32071,-133.333333333333,4,2,0,30,0,0
32113,-100,4,2,0,30,0,0
32780,-66.6666666666667,4,2,0,30,0,0
32863,-133.333333333333,4,2,0,30,0,0
32946,-66.6666666666667,4,2,0,30,0,0
33030,-133.333333333333,4,2,0,30,0,0
33113,-66.6666666666667,4,2,0,30,0,0
33155,-133.333333333333,4,2,0,30,0,0
33196,-66.6666666666667,4,2,0,30,0,0
33238,-133.333333333333,4,2,0,30,0,0
33280,-66.6666666666667,4,2,0,30,0,0
33321,-133.333333333333,4,2,0,30,0,0
33363,-66.6666666666667,4,2,0,30,0,0
33405,-133.333333333333,4,2,0,30,0,0
33446,-100,4,2,0,30,0,0
38780,-66.6666666666667,4,2,0,30,0,0
38863,-133.333333333333,4,2,0,30,0,0
38946,-66.6666666666667,4,2,0,30,0,0
39030,-133.333333333333,4,2,0,30,0,0
39113,-66.6666666666667,4,2,0,30,0,0
39196,-133.333333333333,4,2,0,30,0,0
39280,-66.6666666666667,4,2,0,30,0,0
39363,-133.333333333333,4,2,0,30,0,0
39446,-66.6666666666667,4,2,0,30,0,0
39488,-133.333333333333,4,2,0,30,0,0
39530,-66.6666666666667,4,2,0,30,0,0
39571,-133.333333333333,4,2,0,30,0,0
39613,-66.6666666666667,4,2,0,30,0,0
39655,-133.333333333333,4,2,0,30,0,0
39696,-66.6666666666667,4,2,0,30,0,0
39738,-133.333333333333,4,2,0,30,0,0
39780,-66.6666666666667,4,2,0,30,0,0
39821,-133.333333333333,4,2,0,30,0,0
39863,-66.6666666666667,4,2,0,30,0,0
39905,-133.333333333333,4,2,0,30,0,0
39946,-66.6666666666667,4,2,0,30,0,0
39988,-133.333333333333,4,2,0,30,0,0
40030,-66.6666666666667,4,2,0,30,0,0
40071,-133.333333333333,4,2,0,30,0,0
40113,-66.6666666666667,4,2,0,30,0,0
40196,-133.333333333333,4,2,0,30,0,0
40280,-66.6666666666667,4,2,0,30,0,0
40363,-133.333333333333,4,2,0,30,0,0
40446,-100,4,2,0,30,0,0
40780,-66.6666666666667,4,2,0,30,0,0
40863,-133.333333333333,4,2,0,30,0,0
40946,-66.6666666666667,4,2,0,30,0,0
41030,-133.333333333333,4,2,0,30,0,0
41113,-66.6666666666667,4,2,0,30,0,0
41196,-133.333333333333,4,2,0,30,0,0
41280,-66.6666666666667,4,2,0,30,0,0
41363,-133.333333333333,4,2,0,30,0,0
41446,-100,4,2,0,30,0,0
49113,-66.6666666666667,4,2,0,30,0,0
49155,-133.333333333333,4,2,0,30,0,0
49196,-66.6666666666667,4,2,0,30,0,0
49238,-133.333333333333,4,2,0,30,0,0
49280,-66.6666666666667,4,2,0,30,0,0
49321,-133.333333333333,4,2,0,30,0,0
49363,-66.6666666666667,4,2,0,30,0,0
49405,-133.333333333333,4,2,0,30,0,0
49446,-100,4,2,0,30,0,0
50446,-66.6666666666667,4,2,0,30,0,0
50488,-133.333333333333,4,2,0,30,0,0
50530,-66.6666666666667,4,2,0,30,0,0
50571,-133.333333333333,4,2,0,30,0,0
50613,-66.6666666666667,4,2,0,30,0,0
50655,-133.333333333333,4,2,0,30,0,0
50696,-66.6666666666667,4,2,0,30,0,0
50738,-133.333333333333,4,2,0,30,0,0
50780,-100,4,2,0,30,0,0
52113,-66.6666666666667,4,2,0,30,0,0
52155,-133.333333333333,4,2,0,30,0,0
52196,-66.6666666666667,4,2,0,30,0,0
52238,-133.333333333333,4,2,0,30,0,0
52280,-66.6666666666667,4,2,0,30,0,0
52321,-133.333333333333,4,2,0,30,0,0
52363,-66.6666666666667,4,2,0,30,0,0
52405,-133.333333333333,4,2,0,30,0,0
52446,-100,4,2,0,30,0,0
52780,-66.6666666666667,4,2,0,30,0,0
52821,-133.333333333333,4,2,0,30,0,0
52863,-66.6666666666667,4,2,0,30,0,0
52905,-133.333333333333,4,2,0,30,0,0
52946,-100,4,2,0,30,0,0
57113,-66.6666666666667,4,2,0,30,0,0
57238,-133.333333333333,4,2,0,30,0,0
57280,-100,4,2,0,30,0,0
65113,-66.6666666666667,4,2,0,30,0,0
65155,-133.333333333333,4,2,0,30,0,0
65196,-66.6666666666667,4,2,0,30,0,0
65238,-133.333333333333,4,2,0,30,0,0
65280,-66.6666666666667,4,2,0,30,0,0
65321,-133.333333333333,4,2,0,30,0,0
65363,-66.6666666666667,4,2,0,30,0,0
65405,-133.333333333333,4,2,0,30,0,0
65446,-100,4,2,0,30,0,0
65780,-66.6666666666667,4,2,0,30,0,0
65821,-133.333333333333,4,2,0,30,0,0
65863,-66.6666666666667,4,2,0,30,0,0
65905,-133.333333333333,4,2,0,30,0,0
65946,-66.6666666666667,4,2,0,30,0,0
65988,-133.333333333333,4,2,0,30,0,0
66030,-66.6666666666667,4,2,0,30,0,0
66071,-133.333333333333,4,2,0,30,0,0
66113,-100,4,2,0,30,0,0
66446,-66.6666666666667,4,2,0,30,0,0
66696,-133.333333333333,4,2,0,30,0,0
66780,-100,4,2,0,30,0,0
68780,-66.6666666666667,4,2,0,30,0,0
68863,-133.333333333333,4,2,0,30,0,0
68946,-66.6666666666667,4,2,0,30,0,0
69030,-133.333333333333,4,2,0,30,0,0
69113,-100,4,2,0,30,0,0
75780,-66.6666666666667,4,2,0,30,0,0
75821,-133.333333333333,4,2,0,30,0,0
75863,-66.6666666666667,4,2,0,30,0,0
75905,-133.333333333333,4,2,0,30,0,0
75946,-100,4,2,0,30,0,0
78780,-66.6666666666667,4,2,0,30,0,0
78821,-133.333333333333,4,2,0,30,0,0
78863,-66.6666666666667,4,2,0,30,0,0
78905,-133.333333333333,4,2,0,30,0,0
78946,-66.6666666666667,4,2,0,30,0,0
78988,-133.333333333333,4,2,0,30,0,0
79030,-66.6666666666667,4,2,0,30,0,0
79071,-133.333333333333,4,2,0,30,0,0
79113,-66.6666666666667,4,2,0,30,0,0
79155,-133.333333333333,4,2,0,30,0,0
79196,-66.6666666666667,4,2,0,30,0,0
79238,-133.333333333333,4,2,0,30,0,0
79280,-66.6666666666667,4,2,0,30,0,0
79321,-133.333333333333,4,2,0,30,0,0
79363,-66.6666666666667,4,2,0,30,0,0
79405,-133.333333333333,4,2,0,30,0,0
79446,-66.6666666666667,4,2,0,30,0,0
79488,-133.333333333333,4,2,0,30,0,0
79530,-66.6666666666667,4,2,0,30,0,0
79571,-133.333333333333,4,2,0,30,0,0
79613,-66.6666666666667,4,2,0,30,0,0
79655,-133.333333333333,4,2,0,30,0,0
79696,-66.6666666666667,4,2,0,30,0,0
79738,-133.333333333333,4,2,0,30,0,0
79780,-66.6666666666667,4,2,0,30,0,0
79821,-133.333333333333,4,2,0,30,0,0
79863,-66.6666666666667,4,2,0,30,0,0
79905,-133.333333333333,4,2,0,30,0,0
79946,-66.6666666666667,4,2,0,30,0,0
79988,-133.333333333333,4,2,0,30,0,0
80030,-66.6666666666667,4,2,0,30,0,0
80071,-133.333333333333,4,2,0,30,0,0
80113,-100,4,2,0,30,0,0
81446,-66.6666666666667,4,2,0,30,0,0
81488,-133.333333333333,4,2,0,30,0,0
81530,-66.6666666666667,4,2,0,30,0,0
81571,-133.333333333333,4,2,0,30,0,0
81613,-66.6666666666667,4,2,0,30,0,0
81655,-133.333333333333,4,2,0,30,0,0
81696,-66.6666666666667,4,2,0,30,0,0
81738,-133.333333333333,4,2,0,30,0,0
81780,-100,4,2,0,30,0,0
83446,333.333333333333,4,2,0,30,1,0
91779,-66.6666666666667,4,2,0,30,0,0
92029,-133.333333333333,4,2,0,30,0,0
92112,-100,4,2,0,30,0,0
92445,-66.6666666666667,4,2,0,30,0,0
92695,-133.333333333333,4,2,0,30,0,0
92779,-100,4,2,0,30,0,0
103445,-66.6666666666667,4,2,0,30,0,0
103487,-133.333333333333,4,2,0,30,0,0
103529,-66.6666666666667,4,2,0,30,0,0
103570,-133.333333333333,4,2,0,30,0,0
103612,-66.6666666666667,4,2,0,30,0,0
103654,-133.333333333333,4,2,0,30,0,0
103695,-66.6666666666667,4,2,0,30,0,0
103737,-133.333333333333,4,2,0,30,0,0
103779,-100,4,2,0,30,0,0
104112,-66.6666666666667,4,2,0,30,0,0
104154,-133.333333333333,4,2,0,30,0,0
104195,-66.6666666666667,4,2,0,30,0,0
104237,-133.333333333333,4,2,0,30,0,0
104279,-66.6666666666667,4,2,0,30,0,0
104320,-133.333333333333,4,2,0,30,0,0
104362,-66.6666666666667,4,2,0,30,0,0
104404,-133.333333333333,4,2,0,30,0,0
104445,-100,4,2,0,30,0,0
108779,461.538461538462,4,2,0,30,1,0
113394,582.52427184466,4,2,0,30,1,0
113976,674.157303370787,4,2,0,30,1,0

[HitObjects]
402,192,1447,128,0,2113:0:0:0:0:
475,192,1447,128,0,2113:0:0:0:0:
109,192,1447,1,0,0:0:0:0:
36,192,1447,1,0,0:0:0:0:
329,192,1447,1,0,0:0:0:0:
256,192,1530,1,0,0:0:0:0:
182,192,1613,1,0,0:0:0:0:
109,192,1696,1,0,0:0:0:0:
36,192,1780,1,0,0:0:0:0:
109,192,1863,1,0,0:0:0:0:
182,192,1946,1,0,0:0:0:0:
256,192,2030,1,0,0:0:0:0:
36,192,2113,128,0,2780:0:0:0:0:
109,192,2113,128,0,2780:0:0:0:0:
329,192,2113,1,0,0:0:0:0:
182,192,2113,1,0,0:0:0:0:
256,192,2196,1,0,0:0:0:0:
329,192,2280,1,0,0:0:0:0:
402,192,2363,1,0,0:0:0:0:
475,192,2446,1,0,0:0:0:0:
402,192,2530,1,0,0:0:0:0:
329,192,2613,1,0,0:0:0:0:
256,192,2696,1,0,0:0:0:0:
329,192,2780,128,0,3446:0:0:0:0:
475,192,2780,128,0,3446:0:0:0:0:
182,192,2780,1,0,0:0:0:0:
402,192,2780,1,0,0:0:0:0:
256,192,2863,1,0,0:0:0:0:
182,192,2946,1,0,0:0:0:0:
109,192,3030,1,0,0:0:0:0:
36,192,3113,1,0,0:0:0:0:
402,192,3113,1,0,0:0:0:0:
256,192,3196,1,0,0:0:0:0:
182,192,3280,1,0,0:0:0:0:
109,192,3363,1,0,0:0:0:0:
36,192,3446,128,0,4113:0:0:0:0:
182,192,3446,128,0,4113:0:0:0:0:
256,192,3446,1,0,0:0:0:0:
402,192,3446,1,0,0:0:0:0:
329,192,3530,1,0,0:0:0:0:
402,192,3613,1,0,0:0:0:0:
475,192,3696,1,0,0:0:0:0:
109,192,3780,1,0,0:0:0:0:
256,192,3863,1,0,0:0:0:0:
329,192,3946,1,0,0:0:0:0:
402,192,4030,1,0,0:0:0:0:
475,192,4113,128,0,4196:0:0:0:0:
402,192,4196,128,0,4280:0:0:0:0:
256,192,4196,128,0,4280:0:0:0:0:
329,192,4280,128,0,4363:0:0:0:0:
182,192,4363,128,0,4446:0:0:0:0:
402,192,4363,128,0,4446:0:0:0:0:
256,192,4446,128,0,4530:0:0:0:0:
329,192,4530,128,0,4613:0:0:0:0:
109,192,4530,128,0,4613:0:0:0:0:
182,192,4613,128,0,4780:0:0:0:0:
36,192,4696,128,0,4780:0:0:0:0:
109,192,4780,1,0,0:0:0:0:
329,192,4780,1,0,0:0:0:0:
475,192,4780,1,0,0:0:0:0:
182,192,4863,1,0,0:0:0:0:
256,192,4946,1,0,0:0:0:0:
402,192,4946,1,0,0:0:0:0:
329,192,5030,1,0,0:0:0:0:
402,192,5113,1,0,0:0:0:0:
182,192,5113,1,0,0:0:0:0:
36,192,5113,1,0,0:0:0:0:
329,192,5196,1,0,0:0:0:0:
256,192,5280,1,0,0:0:0:0:
109,192,5280,1,0,0:0:0:0:
182,192,5363,1,0,0:0:0:0:
256,192,5446,128,0,5530:0:0:0:0:
182,192,5530,128,0,5613:0:0:0:0:
36,192,5530,128,0,5613:0:0:0:0:
329,192,5613,128,0,5696:0:0:0:0:
109,192,5696,128,0,5780:0:0:0:0:
256,192,5696,128,0,5780:0:0:0:0:
402,192,5780,128,0,5863:0:0:0:0:
329,192,5863,128,0,5946:0:0:0:0:
182,192,5863,128,0,5946:0:0:0:0:
475,192,5946,128,0,6113:0:0:0:0:
256,192,6030,128,0,6113:0:0:0:0:
402,192,6113,1,0,0:0:0:0:
182,192,6113,1,0,0:0:0:0:
36,192,6113,1,0,0:0:0:0:
329,192,6196,1,0,0:0:0:0:
256,192,6280,1,0,0:0:0:0:
36,192,6280,128,0,6780:0:0:0:0:
109,192,6280,1,0,0:0:0:0:
182,192,6363,1,0,0:0:0:0:
109,192,6446,1,0,0:0:0:0:
329,192,6446,1,0,0:0:0:0:
475,192,6446,1,0,0:0:0:0:
182,192,6530,1,0,0:0:0:0:
256,192,6613,1,0,0:0:0:0:
402,192,6613,1,0,0:0:0:0:
329,192,6696,1,0,0:0:0:0:
475,192,6780,128,0,7446:0:0:0:0:
402,192,6780,128,0,7363:0:0:0:0:
256,192,6780,1,0,0:0:0:0:
109,192,6780,1,0,0:0:0:0:
182,192,6863,1,0,0:0:0:0:
109,192,6946,1,0,0:0:0:0:
36,192,7030,1,0,0:0:0:0:
329,192,7113,1,0,0:0:0:0:
182,192,7113,1,0,0:0:0:0:
256,192,7196,1,0,0:0:0:0:
182,192,7280,1,0,0:0:0:0:
109,192,7363,1,0,0:0:0:0:
402,192,7446,128,0,8113:0:0:0:0:
329,192,7446,128,0,8030:0:0:0:0:
36,192,7446,1,0,0:0:0:0:
256,192,7446,1,0,0:0:0:0:
109,192,7530,1,0,0:0:0:0:
182,192,7613,1,0,0:0:0:0:
256,192,7696,1,0,0:0:0:0:
36,192,7780,1,0,0:0:0:0:
182,192,7780,1,0,0:0:0:0:
109,192,7863,1,0,0:0:0:0:
182,192,7946,1,0,0:0:0:0:
109,192,8030,1,0,0:0:0:0:
329,192,8113,128,0,8780:0:0:0:0:
475,192,8113,128,0,8696:0:0:0:0:
256,192,8113,1,0,0:0:0:0:
36,192,8113,1,0,0:0:0:0:
182,192,8196,1,0,0:0:0:0:
109,192,8280,1,0,0:0:0:0:
182,192,8363,1,0,0:0:0:0:
256,192,8446,1,0,0:0:0:0:
109,192,8446,1,0,0:0:0:0:
36,192,8530,1,0,0:0:0:0:
109,192,8613,1,0,0:0:0:0:
182,192,8696,1,0,0:0:0:0:
475,192,8780,128,0,9446:0:0:0:0:
402,192,8780,128,0,9446:0:0:0:0:
36,192,8780,1,0,0:0:0:0:
256,192,8780,1,0,0:0:0:0:
109,192,8863,1,0,0:0:0:0:
182,192,8946,1,0,0:0:0:0:
256,192,9030,1,0,0:0:0:0:
329,192,9113,1,0,0:0:0:0:
36,192,9113,1,0,0:0:0:0:
256,192,9196,1,0,0:0:0:0:
182,192,9280,1,0,0:0:0:0:
109,192,9363,1,0,0:0:0:0:
182,192,9446,128,0,9530:0:0:0:0:
36,192,9446,128,0,9530:0:0:0:0:
256,192,9530,128,0,9613:0:0:0:0:
329,192,9613,128,0,9696:0:0:0:0:
109,192,9613,128,0,9696:0:0:0:0:
182,192,9696,128,0,9780:0:0:0:0:
256,192,9780,128,0,9863:0:0:0:0:
402,192,9780,128,0,9863:0:0:0:0:
329,192,9863,128,0,9946:0:0:0:0:
475,192,9946,128,0,10113:0:0:0:0:
256,192,10030,128,0,10113:0:0:0:0:
402,192,10113,1,0,0:0:0:0:
36,192,10113,1,0,0:0:0:0:
182,192,10113,1,0,0:0:0:0:
329,192,10196,1,0,0:0:0:0:
256,192,10280,1,0,0:0:0:0:
36,192,10280,1,0,0:0:0:0:
109,192,10280,1,0,0:0:0:0:
182,192,10363,1,0,0:0:0:0:
329,192,10446,1,0,0:0:0:0:
475,192,10446,1,0,0:0:0:0:
402,192,10446,1,0,0:0:0:0:
256,192,10530,1,0,0:0:0:0:
182,192,10613,1,0,0:0:0:0:
475,192,10613,1,0,0:0:0:0:
329,192,10613,1,0,0:0:0:0:
109,192,10696,1,0,0:0:0:0:
256,192,10780,1,0,0:0:0:0:
36,192,10780,1,0,0:0:0:0:
402,192,10780,1,0,0:0:0:0:
329,192,10863,1,0,0:0:0:0:
109,192,10863,1,0,0:0:0:0:
402,192,10946,1,0,0:0:0:0:
182,192,10946,1,0,0:0:0:0:
475,192,11030,1,0,0:0:0:0:
256,192,11030,1,0,0:0:0:0:
36,192,11113,1,0,0:0:0:0:
182,192,11113,1,0,0:0:0:0:
329,192,11113,1,0,0:0:0:0:
109,192,11196,1,0,0:0:0:0:
256,192,11196,1,0,0:0:0:0:
182,192,11280,1,0,0:0:0:0:
329,192,11280,1,0,0:0:0:0:
256,192,11363,1,0,0:0:0:0:
402,192,11363,1,0,0:0:0:0:
109,192,11363,1,0,0:0:0:0:
329,192,11446,1,0,0:0:0:0:
182,192,11446,1,0,0:0:0:0:
402,192,11530,1,0,0:0:0:0:
475,192,11613,1,0,0:0:0:0:
256,192,11613,1,0,0:0:0:0:
182,192,11655,1,0,0:0:0:0:
402,192,11696,1,0,0:0:0:0:
109,192,11696,1,0,0:0:0:0:
36,192,11738,1,0,0:0:0:0:
329,192,11780,1,0,0:0:0:0:
256,192,11863,1,0,0:0:0:0:
182,192,11946,1,0,0:0:0:0:
475,192,11946,1,0,0:0:0:0:
402,192,11988,1,0,0:0:0:0:
109,192,12030,1,0,0:0:0:0:
329,192,12030,1,0,0:0:0:0:
256,192,12071,1,0,0:0:0:0:
36,192,12113,128,0,12780:0:0:0:0:
182,192,12113,1,0,0:0:0:0:
475,192,12113,1,0,0:0:0:0:
402,192,12113,1,0,0:0:0:0:
256,192,12196,1,0,0:0:0:0:
329,192,12280,1,0,0:0:0:0:
475,192,12280,1,0,0:0:0:0:
402,192,12363,1,0,0:0:0:0:
256,192,12446,1,0,0:0:0:0:
109,192,12446,1,0,0:0:0:0:
329,192,12530,1,0,0:0:0:0:
402,192,12613,1,0,0:0:0:0:
256,192,12613,1,0,0:0:0:0:
475,192,12696,1,0,0:0:0:0:
109,192,12780,128,0,13446:0:0:0:0:
402,192,12780,1,0,0:0:0:0:
182,192,12780,1,0,0:0:0:0:
329,192,12863,1,0,0:0:0:0:
256,192,12946,1,0,0:0:0:0:
402,192,12946,1,0,0:0:0:0:
182,192,13030,1,0,0:0:0:0:
475,192,13113,1,0,0:0:0:0:
329,192,13113,1,0,0:0:0:0:
402,192,13196,1,0,0:0:0:0:
329,192,13280,1,0,0:0:0:0:
36,192,13280,1,0,0:0:0:0:
256,192,13363,1,0,0:0:0:0:
182,192,13446,128,0,14113:0:0:0:0:
475,192,13446,1,0,0:0:0:0:
36,192,13446,1,0,0:0:0:0:
402,192,13530,1,0,0:0:0:0:
329,192,13613,1,0,0:0:0:0:
109,192,13613,1,0,0:0:0:0:
402,192,13696,1,0,0:0:0:0:
329,192,13780,1,0,0:0:0:0:
475,192,13780,1,0,0:0:0:0:
256,192,13863,1,0,0:0:0:0:
109,192,13946,1,0,0:0:0:0:
402,192,13946,1,0,0:0:0:0:
36,192,14030,1,0,0:0:0:0:
256,192,14113,128,0,14530:0:0:0:0:
475,192,14113,1,0,0:0:0:0:
109,192,14113,1,0,0:0:0:0:
402,192,14196,1,0,0:0:0:0:
329,192,14280,1,0,0:0:0:0:
36,192,14280,1,0,0:0:0:0:
402,192,14363,1,0,0:0:0:0:
109,192,14446,1,0,0:0:0:0:
475,192,14446,1,0,0:0:0:0:
182,192,14530,1,0,0:0:0:0:
256,192,14613,1,0,0:0:0:0:
109,192,14613,1,0,0:0:0:0:
329,192,14655,1,0,0:0:0:0:
402,192,14696,1,0,0:0:0:0:
36,192,14696,1,0,0:0:0:0:
475,192,14738,1,0,0:0:0:0:
402,192,14780,1,0,0:0:0:0:
182,192,14780,1,0,0:0:0:0:
329,192,14863,1,0,0:0:0:0:
109,192,14946,128,0,15446:0:0:0:0:
256,192,14946,1,0,0:0:0:0:
402,192,14946,1,0,0:0:0:0:
182,192,15030,1,0,0:0:0:0:
36,192,15113,128,0,15446:0:0:0:0:
475,192,15113,1,0,0:0:0:0:
256,192,15113,1,0,0:0:0:0:
402,192,15196,1,0,0:0:0:0:
329,192,15280,1,0,0:0:0:0:
182,192,15280,1,0,0:0:0:0:
256,192,15363,1,0,0:0:0:0:
256,192,15446,1,0,0:0:0:0:
475,192,15446,1,0,0:0:0:0:
182,192,15530,1,0,0:0:0:0:
402,192,15613,128,0,16113:0:0:0:0:
109,192,15613,1,0,0:0:0:0:
256,192,15613,1,0,0:0:0:0:
36,192,15696,1,0,0:0:0:0:
475,192,15780,128,0,16113:0:0:0:0:
329,192,15780,1,0,0:0:0:0:
182,192,15780,1,0,0:0:0:0:
256,192,15863,1,0,0:0:0:0:
182,192,15946,1,0,0:0:0:0:
36,192,15946,1,0,0:0:0:0:
109,192,16030,1,0,0:0:0:0:
182,192,16113,1,0,0:0:0:0:
36,192,16113,1,0,0:0:0:0:
329,192,16113,1,0,0:0:0:0:
182,192,16196,1,0,0:0:0:0:
36,192,16196,1,0,0:0:0:0:
256,192,16280,128,0,16446:0:0:0:0:
109,192,16363,128,0,16446:0:0:0:0:
475,192,16446,1,0,0:0:0:0:
329,192,16446,1,0,0:0:0:0:
182,192,16446,1,0,0:0:0:0:
475,192,16530,1,0,0:0:0:0:
329,192,16530,1,0,0:0:0:0:
402,192,16613,1,0,0:0:0:0:
256,192,16613,1,0,0:0:0:0:
329,192,16696,1,0,0:0:0:0:
182,192,16696,1,0,0:0:0:0:
109,192,16780,1,0,0:0:0:0:
402,192,16780,1,0,0:0:0:0:
256,192,16780,1,0,0:0:0:0:
109,192,16863,1,0,0:0:0:0:
402,192,16863,1,0,0:0:0:0:
329,192,16946,1,0,0:0:0:0:
182,192,16946,1,0,0:0:0:0:
256,192,17030,1,0,0:0:0:0:
475,192,17113,1,0,0:0:0:0:
36,192,17113,1,0,0:0:0:0:
329,192,17113,1,0,0:0:0:0:
182,192,17113,1,0,0:0:0:0:
402,192,17196,1,0,0:0:0:0:
109,192,17196,1,0,0:0:0:0:
329,192,17280,1,0,0:0:0:0:
182,192,17280,1,0,0:0:0:0:
256,192,17363,1,0,0:0:0:0:
402,192,17446,128,0,18363:0:0:0:0:
329,192,17446,1,0,0:0:0:0:
182,192,17446,1,0,0:0:0:0:
36,192,17446,1,0,0:0:0:0:
475,192,17613,128,0,18196:0:0:0:0:
256,192,17613,1,0,0:0:0:0:
36,192,17613,1,0,0:0:0:0:
256,192,17780,1,0,0:0:0:0:
109,192,17780,1,0,0:0:0:0:
109,192,17946,1,0,0:0:0:0:
329,192,17946,1,0,0:0:0:0:
182,192,18030,1,0,0:0:0:0:
36,192,18113,1,0,0:0:0:0:
182,192,18113,1,0,0:0:0:0:
329,192,18113,1,0,0:0:0:0:
475,192,18280,128,0,18780:0:0:0:0:
36,192,18280,1,0,0:0:0:0:
256,192,18280,1,0,0:0:0:0:
402,192,18446,128,0,18780:0:0:0:0:
256,192,18446,1,0,0:0:0:0:
109,192,18446,1,0,0:0:0:0:
109,192,18613,1,0,0:0:0:0:
36,192,18613,1,0,0:0:0:0:
256,192,18696,1,0,0:0:0:0:
109,192,18780,128,0,19613:0:0:0:0:
256,192,18780,1,0,0:0:0:0:
329,192,18780,1,0,0:0:0:0:
182,192,18780,1,0,0:0:0:0:
36,192,18946,128,0,19530:0:0:0:0:
182,192,18946,1,0,0:0:0:0:
402,192,18946,1,0,0:0:0:0:
402,192,19113,1,0,0:0:0:0:
256,192,19113,1,0,0:0:0:0:
256,192,19280,1,0,0:0:0:0:
475,192,19280,1,0,0:0:0:0:
329,192,19363,1,0,0:0:0:0:
329,192,19446,1,0,0:0:0:0:
475,192,19446,1,0,0:0:0:0:
182,192,19446,1,0,0:0:0:0:
36,192,19613,128,0,19780:0:0:0:0:
182,192,19613,1,0,0:0:0:0:
402,192,19613,1,0,0:0:0:0:
109,192,19696,128,0,19780:0:0:0:0:
402,192,19780,1,0,0:0:0:0:
256,192,19780,1,0,0:0:0:0:
256,192,19946,1,0,0:0:0:0:
475,192,19946,1,0,0:0:0:0:
402,192,20030,1,0,0:0:0:0:
182,192,20030,1,0,0:0:0:0:
109,192,20113,1,0,0:0:0:0:
36,192,20113,1,0,0:0:0:0:
402,192,20196,1,0,0:0:0:0:
329,192,20196,1,0,0:0:0:0:
109,192,20280,1,0,0:0:0:0:
36,192,20280,1,0,0:0:0:0:
402,192,20446,1,0,0:0:0:0:
475,192,20446,1,0,0:0:0:0:
182,192,20530,1,0,0:0:0:0:
109,192,20530,1,0,0:0:0:0:
402,192,20613,1,0,0:0:0:0:
475,192,20613,1,0,0:0:0:0:
329,192,20780,1,0,0:0:0:0:
402,192,20780,1,0,0:0:0:0:
182,192,20863,1,0,0:0:0:0:
109,192,20863,1,0,0:0:0:0:
329,192,20946,1,0,0:0:0:0:
402,192,20946,1,0,0:0:0:0:
182,192,21030,1,0,0:0:0:0:
109,192,21030,1,0,0:0:0:0:
475,192,21113,1,0,0:0:0:0:
329,192,21113,128,0,21363:0:0:0:0:
402,192,21113,1,0,0:0:0:0:
36,192,21196,1,0,0:0:0:0:
182,192,21196,128,0,21446:0:0:0:0:
109,192,21196,1,0,0:0:0:0:
402,192,21280,1,0,0:0:0:0:
475,192,21280,1,0,0:0:0:0:
109,192,21363,1,0,0:0:0:0:
36,192,21363,1,0,0:0:0:0:
402,192,21446,128,0,21780:0:0:0:0:
475,192,21446,128,0,21780:0:0:0:0:
329,192,21446,1,0,0:0:0:0:
256,192,21446,1,0,0:0:0:0:
182,192,21558,1,0,0:0:0:0:
36,192,21669,1,0,0:0:0:0:
109,192,21669,1,0,0:0:0:0:
182,192,21780,1,0,0:0:0:0:
109,192,21780,128,0,22113:0:0:0:0:
36,192,21780,128,0,22113:0:0:0:0:
256,192,21780,1,0,0:0:0:0:
329,192,21891,1,0,0:0:0:0:
475,192,22002,1,0,0:0:0:0:
402,192,22002,1,0,0:0:0:0:
329,192,22113,1,0,0:0:0:0:
256,192,22113,1,0,0:0:0:0:
182,192,22113,1,0,0:0:0:0:
182,192,22224,1,0,0:0:0:0:
36,192,22224,1,0,0:0:0:0:
329,192,22224,1,0,0:0:0:0:
475,192,22224,1,0,0:0:0:0:
475,192,22335,1,0,0:0:0:0:
402,192,22335,1,0,0:0:0:0:
109,192,22335,1,0,0:0:0:0:
36,192,22335,1,0,0:0:0:0:
329,192,22446,128,0,25363:0:0:0:0:
475,192,22446,128,0,25363:0:0:0:0:
182,192,22446,128,0,25363:0:0:0:0:
36,192,22446,128,0,25363:0:0:0:0:
402,192,24780,128,0,25446:0:0:0:0:
109,192,24780,128,0,25446:0:0:0:0:
256,192,25446,128,0,27613:0:0:0:0:
329,192,25446,1,0,0:0:0:0:
182,192,25446,1,0,0:0:0:0:
475,192,25446,128,0,26113:0:0:0:0:
36,192,25446,128,0,26780:0:0:0:0:
402,192,26113,128,0,27946:0:0:0:0:
182,192,26113,128,0,27446:0:0:0:0:
109,192,26780,128,0,27280:0:0:0:0:
475,192,26780,128,0,29446:0:0:0:0:
329,192,27113,1,0,0:0:0:0:
329,192,27446,128,0,27780:0:0:0:0:
36,192,27446,128,0,29446:0:0:0:0:
109,192,27446,128,0,28613:0:0:0:0:
182,192,27613,128,0,28446:0:0:0:0:
256,192,27780,128,0,28280:0:0:0:0:
329,192,27946,128,0,28113:0:0:0:0:
402,192,28113,1,0,0:0:0:0:
329,192,28280,1,0,0:0:0:0:
256,192,28446,1,0,0:0:0:0:
182,192,28613,1,0,0:0:0:0:
109,192,28780,1,0,0:0:0:0:
182,192,28863,1,0,0:0:0:0:
256,192,28946,1,0,0:0:0:0:
329,192,29030,1,0,0:0:0:0:
402,192,29113,1,0,0:0:0:0:
329,192,29196,1,0,0:0:0:0:
256,192,29280,1,0,0:0:0:0:
182,192,29363,1,0,0:0:0:0:
109,192,29446,128,0,30113:0:0:0:0:
402,192,29446,128,0,30113:0:0:0:0:
256,192,29446,1,0,0:0:0:0:
329,192,29446,1,0,0:0:0:0:
475,192,29946,1,0,0:0:0:0:
256,192,30030,1,0,0:0:0:0:
182,192,30113,128,0,30780:0:0:0:0:
329,192,30113,128,0,30780:0:0:0:0:
36,192,30113,1,0,0:0:0:0:
109,192,30446,1,0,0:0:0:0:
402,192,30446,1,0,0:0:0:0:
475,192,30780,128,0,31363:0:0:0:0:
36,192,30780,1,0,0:0:0:0:
109,192,30835,1,0,0:0:0:0:
182,192,30891,1,0,0:0:0:0:
256,192,30946,1,0,0:0:0:0:
329,192,31002,1,0,0:0:0:0:
402,192,31058,1,0,0:0:0:0:
182,192,31113,1,0,0:0:0:0:
109,192,31169,1,0,0:0:0:0:
36,192,31224,1,0,0:0:0:0:
256,192,31280,1,0,0:0:0:0:
182,192,31335,1,0,0:0:0:0:
109,192,31391,1,0,0:0:0:0:
329,192,31446,1,0,0:0:0:0:
475,192,31446,1,0,0:0:0:0:
182,192,31446,1,0,0:0:0:0:
475,192,31613,1,0,0:0:0:0:
329,192,31613,1,0,0:0:0:0:
182,192,31613,1,0,0:0:0:0:
475,192,31780,1,0,0:0:0:0:
182,192,31780,1,0,0:0:0:0:
36,192,31863,1,0,0:0:0:0:
329,192,31863,1,0,0:0:0:0:
475,192,31946,1,0,0:0:0:0:
182,192,31946,1,0,0:0:0:0:
36,192,32030,1,0,0:0:0:0:
329,192,32030,1,0,0:0:0:0:
109,192,32113,128,0,32696:0:0:0:0:
182,192,32113,1,0,0:0:0:0:
256,192,32169,1,0,0:0:0:0:
329,192,32224,1,0,0:0:0:0:
402,192,32280,1,0,0:0:0:0:
475,192,32335,1,0,0:0:0:0:
182,192,32391,1,0,0:0:0:0:
256,192,32446,1,0,0:0:0:0:
329,192,32502,1,0,0:0:0:0:
475,192,32558,1,0,0:0:0:0:
402,192,32613,1,0,0:0:0:0:
329,192,32669,1,0,0:0:0:0:
256,192,32724,1,0,0:0:0:0:
36,192,32780,1,0,0:0:0:0:
182,192,32780,1,0,0:0:0:0:
402,192,32780,1,0,0:0:0:0:
475,192,32946,1,0,0:0:0:0:
329,192,32946,1,0,0:0:0:0:
109,192,32946,1,0,0:0:0:0:
402,192,33113,1,0,0:0:0:0:
109,192,33113,1,0,0:0:0:0:
36,192,33196,1,0,0:0:0:0:
329,192,33196,1,0,0:0:0:0:
475,192,33280,1,0,0:0:0:0:
182,192,33280,1,0,0:0:0:0:
402,192,33363,1,0,0:0:0:0:
109,192,33363,1,0,0:0:0:0:
36,192,33446,1,0,0:0:0:0:
109,192,33502,1,0,0:0:0:0:
182,192,33558,1,0,0:0:0:0:
256,192,33613,1,0,0:0:0:0:
329,192,33669,1,0,0:0:0:0:
402,192,33724,1,0,0:0:0:0:
475,192,33780,1,0,0:0:0:0:
36,192,33835,1,0,0:0:0:0:
109,192,33891,1,0,0:0:0:0:
182,192,33946,1,0,0:0:0:0:
256,192,34002,1,0,0:0:0:0:
329,192,34058,1,0,0:0:0:0:
475,192,34113,1,0,0:0:0:0:
402,192,34169,1,0,0:0:0:0:
329,192,34224,1,0,0:0:0:0:
256,192,34280,1,0,0:0:0:0:
182,192,34335,1,0,0:0:0:0:
109,192,34391,1,0,0:0:0:0:
36,192,34446,1,0,0:0:0:0:
475,192,34502,1,0,0:0:0:0:
402,192,34558,1,0,0:0:0:0:
329,192,34613,1,0,0:0:0:0:
256,192,34669,1,0,0:0:0:0:
182,192,34724,1,0,0:0:0:0:
402,192,34780,1,0,0:0:0:0:
256,192,34780,1,0,0:0:0:0:
36,192,34780,1,0,0:0:0:0:
109,192,35113,1,0,0:0:0:0:
256,192,35113,1,0,0:0:0:0:
475,192,35113,1,0,0:0:0:0:
402,192,35446,1,0,0:0:0:0:
256,192,35446,1,0,0:0:0:0:
109,192,35446,1,0,0:0:0:0:
36,192,35780,1,0,0:0:0:0:
329,192,35780,1,0,0:0:0:0:
475,192,35780,1,0,0:0:0:0:
182,192,35780,1,0,0:0:0:0:
402,192,35946,128,0,36113:0:0:0:0:
109,192,35946,128,0,36113:0:0:0:0:
329,192,36113,1,0,0:0:0:0:
256,192,36113,1,0,0:0:0:0:
182,192,36113,1,0,0:0:0:0:
36,192,36113,1,0,0:0:0:0:
475,192,36113,1,0,0:0:0:0:
402,192,36280,1,0,0:0:0:0:
109,192,36280,1,0,0:0:0:0:
329,192,36363,1,0,0:0:0:0:
182,192,36363,1,0,0:0:0:0:
402,192,36613,1,0,0:0:0:0:
109,192,36613,1,0,0:0:0:0:
329,192,36780,1,0,0:0:0:0:
182,192,36780,1,0,0:0:0:0:
182,192,36946,1,0,0:0:0:0:
329,192,36946,1,0,0:0:0:0:
36,192,37030,1,0,0:0:0:0:
475,192,37030,1,0,0:0:0:0:
109,192,37280,1,0,0:0:0:0:
402,192,37280,1,0,0:0:0:0:
475,192,37446,1,0,0:0:0:0:
36,192,37446,1,0,0:0:0:0:
475,192,37613,1,0,0:0:0:0:
36,192,37613,1,0,0:0:0:0:
402,192,37696,1,0,0:0:0:0:
109,192,37696,1,0,0:0:0:0:
475,192,37946,1,0,0:0:0:0:
36,192,37946,1,0,0:0:0:0:
402,192,38113,1,0,0:0:0:0:
109,192,38113,1,0,0:0:0:0:
182,192,38280,1,0,0:0:0:0:
329,192,38280,1,0,0:0:0:0:
109,192,38363,1,0,0:0:0:0:
402,192,38363,1,0,0:0:0:0:
402,192,38613,1,0,0:0:0:0:
109,192,38613,1,0,0:0:0:0:
329,192,38780,128,0,38946:0:0:0:0:
475,192,38780,128,0,39113:0:0:0:0:
182,192,38946,128,0,39113:0:0:0:0:
36,192,38946,128,0,39280:0:0:0:0:
402,192,39113,128,0,39446:0:0:0:0:
329,192,39113,128,0,39280:0:0:0:0:
182,192,39280,128,0,39446:0:0:0:0:
109,192,39280,128,0,39446:0:0:0:0:
36,192,39446,1,0,0:0:0:0:
329,192,39446,1,0,0:0:0:0:
182,192,39530,1,0,0:0:0:0:
475,192,39530,1,0,0:0:0:0:
36,192,39613,1,0,0:0:0:0:
402,192,39613,1,0,0:0:0:0:
109,192,39696,1,0,0:0:0:0:
475,192,39696,1,0,0:0:0:0:
182,192,39780,1,0,0:0:0:0:
329,192,39780,1,0,0:0:0:0:
36,192,39863,1,0,0:0:0:0:
475,192,39863,1,0,0:0:0:0:
329,192,39946,1,0,0:0:0:0:
109,192,39946,1,0,0:0:0:0:
402,192,40030,1,0,0:0:0:0:
36,192,40030,1,0,0:0:0:0:
182,192,40113,128,0,40196:0:0:0:0:
256,192,40113,128,0,40196:0:0:0:0:
329,192,40113,128,0,40196:0:0:0:0:
182,192,40280,128,0,40363:0:0:0:0:
256,192,40280,128,0,40363:0:0:0:0:
329,192,40280,128,0,40363:0:0:0:0:
36,192,40446,1,0,0:0:0:0:
329,192,40446,1,0,0:0:0:0:
109,192,40530,1,0,0:0:0:0:
402,192,40530,1,0,0:0:0:0:
182,192,40613,1,0,0:0:0:0:
475,192,40613,1,0,0:0:0:0:
109,192,40696,1,0,0:0:0:0:
402,192,40696,1,0,0:0:0:0:
329,192,40780,128,0,40863:0:0:0:0:
475,192,40780,128,0,40863:0:0:0:0:
182,192,40780,128,0,40863:0:0:0:0:
329,192,40946,128,0,41030:0:0:0:0:
182,192,40946,128,0,41030:0:0:0:0:
36,192,40946,128,0,41030:0:0:0:0:
36,192,41113,128,0,41196:0:0:0:0:
256,192,41113,128,0,41196:0:0:0:0:
402,192,41113,128,0,41196:0:0:0:0:
402,192,41280,128,0,41363:0:0:0:0:
256,192,41280,128,0,41363:0:0:0:0:
109,192,41280,128,0,41363:0:0:0:0:
475,192,41446,1,0,0:0:0:0:
182,192,41446,1,0,0:0:0:0:
402,192,41530,1,0,0:0:0:0:
109,192,41530,1,0,0:0:0:0:
329,192,41613,1,0,0:0:0:0:
36,192,41613,1,0,0:0:0:0:
256,192,41696,1,0,0:0:0:0:
109,192,41696,1,0,0:0:0:0:
402,192,41780,1,0,0:0:0:0:
182,192,41780,1,0,0:0:0:0:
329,192,41863,1,0,0:0:0:0:
109,192,41863,1,0,0:0:0:0:
256,192,41946,1,0,0:0:0:0:
475,192,41946,1,0,0:0:0:0:
182,192,42030,1,0,0:0:0:0:
402,192,42030,1,0,0:0:0:0:
329,192,42113,1,0,0:0:0:0:
475,192,42113,1,0,0:0:0:0:
256,192,42196,1,0,0:0:0:0:
402,192,42196,1,0,0:0:0:0:
182,192,42280,1,0,0:0:0:0:
329,192,42280,1,0,0:0:0:0:
109,192,42363,1,0,0:0:0:0:
402,192,42363,1,0,0:0:0:0:
256,192,42446,1,0,0:0:0:0:
475,192,42446,1,0,0:0:0:0:
182,192,42530,1,0,0:0:0:0:
402,192,42530,1,0,0:0:0:0:
109,192,42613,1,0,0:0:0:0:
329,192,42613,1,0,0:0:0:0:
36,192,42696,1,0,0:0:0:0:
182,192,42696,1,0,0:0:0:0:
256,192,42780,1,0,0:0:0:0:
109,192,42780,1,0,0:0:0:0:
329,192,42863,1,0,0:0:0:0:
182,192,42863,1,0,0:0:0:0:
402,192,42946,1,0,0:0:0:0:
256,192,42946,1,0,0:0:0:0:
475,192,43030,1,0,0:0:0:0:
329,192,43030,1,0,0:0:0:0:
182,192,43113,1,0,0:0:0:0:
36,192,43113,1,0,0:0:0:0:
256,192,43196,1,0,0:0:0:0:
109,192,43196,1,0,0:0:0:0:
329,192,43280,1,0,0:0:0:0:
182,192,43280,1,0,0:0:0:0:
402,192,43363,1,0,0:0:0:0:
256,192,43363,1,0,0:0:0:0:
109,192,43446,1,0,0:0:0:0:
329,192,43446,1,0,0:0:0:0:
182,192,43530,1,0,0:0:0:0:
402,192,43530,1,0,0:0:0:0:
256,192,43613,1,0,0:0:0:0:
475,192,43613,1,0,0:0:0:0:
329,192,43696,1,0,0:0:0:0:
182,192,43696,1,0,0:0:0:0:
36,192,43780,1,0,0:0:0:0:
256,192,43780,1,0,0:0:0:0:
109,192,43863,1,0,0:0:0:0:
329,192,43863,1,0,0:0:0:0:
182,192,43946,1,0,0:0:0:0:
402,192,43946,1,0,0:0:0:0:
256,192,44030,1,0,0:0:0:0:
475,192,44030,1,0,0:0:0:0:
109,192,44113,1,0,0:0:0:0:
36,192,44196,128,0,44696:0:0:0:0:
182,192,44196,1,0,0:0:0:0:
109,192,44280,128,0,44780:0:0:0:0:
256,192,44280,1,0,0:0:0:0:
182,192,44363,128,0,44863:0:0:0:0:
329,192,44363,1,0,0:0:0:0:
256,192,44446,128,0,44946:0:0:0:0:
402,192,44446,1,0,0:0:0:0:
329,192,44530,128,0,45196:0:0:0:0:
475,192,44530,1,0,0:0:0:0:
402,192,44613,128,0,45113:0:0:0:0:
475,192,44696,128,0,45030:0:0:0:0:
36,192,44780,128,0,45363:0:0:0:0:
109,192,44863,128,0,45446:0:0:0:0:
182,192,44946,128,0,45530:0:0:0:0:
256,192,45030,128,0,45280:0:0:0:0:
475,192,45113,1,0,0:0:0:0:
402,192,45196,1,0,0:0:0:0:
329,192,45280,1,0,0:0:0:0:
256,192,45363,1,0,0:0:0:0:
36,192,45446,128,0,46669:0:0:0:0:
329,192,45446,1,0,0:0:0:0:
109,192,45530,1,0,0:0:0:0:
402,192,45530,1,0,0:0:0:0:
182,192,45613,1,0,0:0:0:0:
475,192,45613,1,0,0:0:0:0:
256,192,45696,1,0,0:0:0:0:
402,192,45696,1,0,0:0:0:0:
329,192,45780,1,0,0:0:0:0:
182,192,45780,1,0,0:0:0:0:
402,192,45863,1,0,0:0:0:0:
109,192,45863,1,0,0:0:0:0:
475,192,45946,128,0,46363:0:0:0:0:
329,192,45946,1,0,0:0:0:0:
402,192,46030,128,0,46446:0:0:0:0:
256,192,46030,1,0,0:0:0:0:
182,192,46113,1,0,0:0:0:0:
329,192,46113,128,0,46474:0:0:0:0:
256,192,46196,128,0,46558:0:0:0:0:
109,192,46196,1,0,0:0:0:0:
182,192,46280,128,0,46585:0:0:0:0:
109,192,46363,128,0,46669:0:0:0:0:
475,192,46446,128,0,46502:0:0:0:0:
329,192,46558,128,0,46613:0:0:0:0:
182,192,46669,128,0,46724:0:0:0:0:
36,192,46780,128,0,48113:0:0:0:0:
329,192,47280,128,0,48113:0:0:0:0:
475,192,47446,128,0,48113:0:0:0:0:
109,192,48113,1,0,0:0:0:0:
182,192,48113,1,0,0:0:0:0:
256,192,48113,1,0,0:0:0:0:
402,192,48113,1,0,0:0:0:0:
402,192,48280,1,0,0:0:0:0:
109,192,48280,1,0,0:0:0:0:
256,192,48280,1,0,0:0:0:0:
329,192,48363,1,0,0:0:0:0:
36,192,48363,1,0,0:0:0:0:
182,192,48446,1,0,0:0:0:0:
475,192,48446,1,0,0:0:0:0:
109,192,48613,1,0,0:0:0:0:
402,192,48613,1,0,0:0:0:0:
36,192,48613,1,0,0:0:0:0:
182,192,48780,1,0,0:0:0:0:
475,192,48780,1,0,0:0:0:0:
329,192,48780,1,0,0:0:0:0:
36,192,48780,1,0,0:0:0:0:
182,192,48946,1,0,0:0:0:0:
475,192,48946,1,0,0:0:0:0:
402,192,48946,1,0,0:0:0:0:
109,192,49113,1,0,0:0:0:0:
182,192,49113,1,0,0:0:0:0:
402,192,49196,1,0,0:0:0:0:
475,192,49196,1,0,0:0:0:0:
36,192,49280,1,0,0:0:0:0:
109,192,49280,1,0,0:0:0:0:
329,192,49363,1,0,0:0:0:0:
402,192,49363,1,0,0:0:0:0:
182,192,49446,1,0,0:0:0:0:
475,192,49446,1,0,0:0:0:0:
256,192,49446,1,0,0:0:0:0:
36,192,49446,1,0,0:0:0:0:
475,192,49613,1,0,0:0:0:0:
182,192,49613,1,0,0:0:0:0:
402,192,49613,1,0,0:0:0:0:
329,192,49696,1,0,0:0:0:0:
36,192,49696,1,0,0:0:0:0:
109,192,49780,1,0,0:0:0:0:
256,192,49780,1,0,0:0:0:0:
475,192,49946,1,0,0:0:0:0:
182,192,49946,1,0,0:0:0:0:
36,192,49946,1,0,0:0:0:0:
109,192,50113,1,0,0:0:0:0:
402,192,50113,1,0,0:0:0:0:
329,192,50113,1,0,0:0:0:0:
182,192,50113,1,0,0:0:0:0:
402,192,50280,1,0,0:0:0:0:
109,192,50280,1,0,0:0:0:0:
256,192,50280,1,0,0:0:0:0:
36,192,50446,128,0,50696:0:0:0:0:
475,192,50446,1,0,0:0:0:0:
182,192,50446,1,0,0:0:0:0:
109,192,50530,128,0,50780:0:0:0:0:
402,192,50530,1,0,0:0:0:0:
256,192,50530,1,0,0:0:0:0:
182,192,50613,128,0,50780:0:0:0:0:
329,192,50613,1,0,0:0:0:0:
256,192,50696,128,0,50780:0:0:0:0:
402,192,50696,1,0,0:0:0:0:
475,192,50780,128,0,51446:0:0:0:0:
329,192,50780,1,0,0:0:0:0:
36,192,50780,1,0,0:0:0:0:
256,192,50863,1,0,0:0:0:0:
182,192,50946,1,0,0:0:0:0:
329,192,50946,1,0,0:0:0:0:
109,192,51030,1,0,0:0:0:0:
402,192,51113,1,0,0:0:0:0:
182,192,51113,1,0,0:0:0:0:
36,192,51113,1,0,0:0:0:0:
329,192,51196,1,0,0:0:0:0:
256,192,51280,1,0,0:0:0:0:
36,192,51280,1,0,0:0:0:0:
182,192,51363,1,0,0:0:0:0:
36,192,51446,128,0,52113:0:0:0:0:
109,192,51446,1,0,0:0:0:0:
329,192,51446,1,0,0:0:0:0:
402,192,51446,1,0,0:0:0:0:
182,192,51530,1,0,0:0:0:0:
256,192,51613,1,0,0:0:0:0:
109,192,51613,1,0,0:0:0:0:
329,192,51696,1,0,0:0:0:0:
182,192,51780,1,0,0:0:0:0:
475,192,51780,1,0,0:0:0:0:
402,192,51780,1,0,0:0:0:0:
256,192,51863,1,0,0:0:0:0:
329,192,51946,1,0,0:0:0:0:
182,192,51946,1,0,0:0:0:0:
402,192,52030,1,0,0:0:0:0:
475,192,52113,128,0,52696:0:0:0:0:
329,192,52113,1,0,0:0:0:0:
256,192,52113,1,0,0:0:0:0:
182,192,52196,1,0,0:0:0:0:
36,192,52196,1,0,0:0:0:0:
329,192,52280,1,0,0:0:0:0:
256,192,52280,1,0,0:0:0:0:
182,192,52363,1,0,0:0:0:0:
36,192,52363,1,0,0:0:0:0:
256,192,52446,1,0,0:0:0:0:
329,192,52446,1,0,0:0:0:0:
109,192,52530,1,0,0:0:0:0:
182,192,52613,1,0,0:0:0:0:
256,192,52696,1,0,0:0:0:0:
36,192,52780,128,0,53446:0:0:0:0:
475,192,52780,1,0,0:0:0:0:
329,192,52780,1,0,0:0:0:0:
182,192,52863,1,0,0:0:0:0:
109,192,52863,1,0,0:0:0:0:
475,192,52946,1,0,0:0:0:0:
329,192,52946,1,0,0:0:0:0:
256,192,53030,1,0,0:0:0:0:
182,192,53113,1,0,0:0:0:0:
475,192,53113,1,0,0:0:0:0:
402,192,53113,1,0,0:0:0:0:
256,192,53196,1,0,0:0:0:0:
329,192,53280,1,0,0:0:0:0:
182,192,53280,1,0,0:0:0:0:
475,192,53280,1,0,0:0:0:0:
402,192,53363,1,0,0:0:0:0:
329,192,53446,1,0,0:0:0:0:
475,192,53446,1,0,0:0:0:0:
109,192,53446,1,0,0:0:0:0:
256,192,53530,1,0,0:0:0:0:
109,192,53613,128,0,54363:0:0:0:0:
182,192,53613,1,0,0:0:0:0:
329,192,53613,1,0,0:0:0:0:
256,192,53696,1,0,0:0:0:0:
36,192,53780,128,0,54363:0:0:0:0:
402,192,53780,1,0,0:0:0:0:
475,192,53780,1,0,0:0:0:0:
329,192,53863,1,0,0:0:0:0:
256,192,53946,1,0,0:0:0:0:
402,192,53946,1,0,0:0:0:0:
329,192,54030,1,0,0:0:0:0:
475,192,54113,1,0,0:0:0:0:
182,192,54113,1,0,0:0:0:0:
402,192,54196,1,0,0:0:0:0:
329,192,54280,1,0,0:0:0:0:
256,192,54280,1,0,0:0:0:0:
402,192,54363,1,0,0:0:0:0:
256,192,54446,1,0,0:0:0:0:
182,192,54446,1,0,0:0:0:0:
36,192,54446,1,0,0:0:0:0:
109,192,54446,1,0,0:0:0:0:
329,192,54530,1,0,0:0:0:0:
402,192,54613,1,0,0:0:0:0:
109,192,54613,1,0,0:0:0:0:
475,192,54696,1,0,0:0:0:0:
182,192,54780,1,0,0:0:0:0:
402,192,54780,1,0,0:0:0:0:
109,192,54863,1,0,0:0:0:0:
402,192,54946,128,0,55696:0:0:0:0:
36,192,54946,1,0,0:0:0:0:
256,192,54946,1,0,0:0:0:0:
109,192,55030,1,0,0:0:0:0:
475,192,55113,128,0,55696:0:0:0:0:
256,192,55113,1,0,0:0:0:0:
329,192,55113,1,0,0:0:0:0:
182,192,55196,1,0,0:0:0:0:
109,192,55280,1,0,0:0:0:0:
329,192,55280,1,0,0:0:0:0:
182,192,55363,1,0,0:0:0:0:
329,192,55446,1,0,0:0:0:0:
36,192,55446,1,0,0:0:0:0:
256,192,55530,1,0,0:0:0:0:
182,192,55613,1,0,0:0:0:0:
109,192,55613,1,0,0:0:0:0:
256,192,55696,1,0,0:0:0:0:
36,192,55780,1,0,0:0:0:0:
329,192,55780,1,0,0:0:0:0:
475,192,55780,1,0,0:0:0:0:
402,192,55780,1,0,0:0:0:0:
109,192,55863,1,0,0:0:0:0:
182,192,55946,1,0,0:0:0:0:
329,192,55946,1,0,0:0:0:0:
402,192,56030,1,0,0:0:0:0:
36,192,56113,1,0,0:0:0:0:
256,192,56113,1,0,0:0:0:0:
109,192,56196,1,0,0:0:0:0:
329,192,56196,1,0,0:0:0:0:
182,192,56280,1,0,0:0:0:0:
402,192,56280,1,0,0:0:0:0:
256,192,56363,1,0,0:0:0:0:
475,192,56363,1,0,0:0:0:0:
109,192,56446,1,0,0:0:0:0:
329,192,56446,1,0,0:0:0:0:
182,192,56530,1,0,0:0:0:0:
402,192,56530,1,0,0:0:0:0:
256,192,56613,1,0,0:0:0:0:
475,192,56613,1,0,0:0:0:0:
329,192,56696,1,0,0:0:0:0:
36,192,56696,1,0,0:0:0:0:
475,192,56780,1,0,0:0:0:0:
109,192,56780,1,0,0:0:0:0:
402,192,56863,1,0,0:0:0:0:
182,192,56863,1,0,0:0:0:0:
329,192,56946,1,0,0:0:0:0:
109,192,56946,1,0,0:0:0:0:
256,192,57030,1,0,0:0:0:0:
36,192,57030,1,0,0:0:0:0:
109,192,57113,128,0,57280:0:0:0:0:
329,192,57113,128,0,57280:0:0:0:0:
182,192,57280,1,0,0:0:0:0:
402,192,57280,1,0,0:0:0:0:
475,192,57363,1,0,0:0:0:0:
256,192,57363,1,0,0:0:0:0:
36,192,57446,1,0,0:0:0:0:
329,192,57446,1,0,0:0:0:0:
475,192,57530,1,0,0:0:0:0:
402,192,57613,1,0,0:0:0:0:
182,192,57613,128,0,57946:0:0:0:0:
109,192,57613,1,0,0:0:0:0:
329,192,57696,1,0,0:0:0:0:
109,192,57780,128,0,58030:0:0:0:0:
402,192,57780,1,0,0:0:0:0:
475,192,57780,1,0,0:0:0:0:
329,192,57863,1,0,0:0:0:0:
36,192,57946,128,0,58113:0:0:0:0:
256,192,57946,1,0,0:0:0:0:
475,192,57946,1,0,0:0:0:0:
182,192,58030,1,0,0:0:0:0:
329,192,58113,1,0,0:0:0:0:
402,192,58113,1,0,0:0:0:0:
256,192,58196,1,0,0:0:0:0:
182,192,58280,1,0,0:0:0:0:
475,192,58280,128,0,58613:0:0:0:0:
402,192,58280,1,0,0:0:0:0:
109,192,58363,1,0,0:0:0:0:
329,192,58446,1,0,0:0:0:0:
256,192,58446,1,0,0:0:0:0:
402,192,58446,128,0,58696:0:0:0:0:
36,192,58446,1,0,0:0:0:0:
182,192,58530,1,0,0:0:0:0:
109,192,58613,1,0,0:0:0:0:
329,192,58613,128,0,58780:0:0:0:0:
256,192,58613,1,0,0:0:0:0:
36,192,58696,1,0,0:0:0:0:
182,192,58780,1,0,0:0:0:0:
475,192,58780,1,0,0:0:0:0:
109,192,58780,1,0,0:0:0:0:
256,192,58780,1,0,0:0:0:0:
402,192,58946,1,0,0:0:0:0:
109,192,58946,1,0,0:0:0:0:
256,192,58946,1,0,0:0:0:0:
36,192,59030,1,0,0:0:0:0:
329,192,59030,1,0,0:0:0:0:
182,192,59113,1,0,0:0:0:0:
475,192,59113,1,0,0:0:0:0:
402,192,59280,1,0,0:0:0:0:
109,192,59280,1,0,0:0:0:0:
36,192,59280,1,0,0:0:0:0:
182,192,59446,1,0,0:0:0:0:
475,192,59446,1,0,0:0:0:0:
329,192,59446,128,0,59613:0:0:0:0:
256,192,59446,1,0,0:0:0:0:
475,192,59613,1,0,0:0:0:0:
182,192,59613,1,0,0:0:0:0:
109,192,59613,1,0,0:0:0:0:
329,192,59780,1,0,0:0:0:0:
36,192,59780,1,0,0:0:0:0:
182,192,59780,128,0,59946:0:0:0:0:
256,192,59780,1,0,0:0:0:0:
329,192,59946,1,0,0:0:0:0:
36,192,59946,1,0,0:0:0:0:
475,192,59946,1,0,0:0:0:0:
109,192,60113,1,0,0:0:0:0:
402,192,60113,1,0,0:0:0:0:
256,192,60113,1,0,0:0:0:0:
475,192,60113,1,0,0:0:0:0:
329,192,60280,1,0,0:0:0:0:
36,192,60280,1,0,0:0:0:0:
182,192,60280,1,0,0:0:0:0:
402,192,60363,1,0,0:0:0:0:
109,192,60363,1,0,0:0:0:0:
182,192,60446,1,0,0:0:0:0:
475,192,60446,1,0,0:0:0:0:
36,192,60613,1,0,0:0:0:0:
329,192,60613,1,0,0:0:0:0:
402,192,60613,1,0,0:0:0:0:
402,192,60780,1,0,0:0:0:0:
109,192,60780,1,0,0:0:0:0:
182,192,60780,128,0,60946:0:0:0:0:
256,192,60780,1,0,0:0:0:0:
402,192,60946,1,0,0:0:0:0:
109,192,60946,1,0,0:0:0:0:
475,192,60946,1,0,0:0:0:0:
402,192,61113,1,0,0:0:0:0:
109,192,61113,1,0,0:0:0:0:
329,192,61113,128,0,61280:0:0:0:0:
256,192,61113,1,0,0:0:0:0:
402,192,61280,1,0,0:0:0:0:
109,192,61280,1,0,0:0:0:0:
182,192,61280,1,0,0:0:0:0:
36,192,61446,1,0,0:0:0:0:
475,192,61446,1,0,0:0:0:0:
109,192,61530,1,0,0:0:0:0:
182,192,61613,1,0,0:0:0:0:
36,192,61613,128,0,61863:0:0:0:0:
256,192,61696,1,0,0:0:0:0:
109,192,61696,128,0,61946:0:0:0:0:
182,192,61780,128,0,62030:0:0:0:0:
475,192,61780,1,0,0:0:0:0:
256,192,61863,128,0,62113:0:0:0:0:
329,192,61946,1,0,0:0:0:0:
402,192,62030,1,0,0:0:0:0:
475,192,62113,1,0,0:0:0:0:
36,192,62113,1,0,0:0:0:0:
402,192,62196,1,0,0:0:0:0:
329,192,62280,1,0,0:0:0:0:
475,192,62280,128,0,62530:0:0:0:0:
256,192,62363,1,0,0:0:0:0:
402,192,62363,128,0,62613:0:0:0:0:
329,192,62446,128,0,62696:0:0:0:0:
182,192,62446,1,0,0:0:0:0:
36,192,62446,1,0,0:0:0:0:
256,192,62530,128,0,62780:0:0:0:0:
109,192,62530,1,0,0:0:0:0:
36,192,62613,1,0,0:0:0:0:
109,192,62696,1,0,0:0:0:0:
182,192,62780,128,0,62863:0:0:0:0:
256,192,62863,128,0,62946:0:0:0:0:
36,192,62946,128,0,63363:0:0:0:0:
329,192,62946,128,0,63030:0:0:0:0:
402,192,63030,128,0,63113:0:0:0:0:
182,192,63113,128,0,63696:0:0:0:0:
475,192,63113,128,0,63196:0:0:0:0:
402,192,63196,128,0,63280:0:0:0:0:
329,192,63280,128,0,63530:0:0:0:0:
256,192,63280,128,0,63363:0:0:0:0:
109,192,63363,128,0,63446:0:0:0:0:
402,192,63446,128,0,63946:0:0:0:0:
36,192,63446,128,0,63613:0:0:0:0:
109,192,63530,128,0,63696:0:0:0:0:
256,192,63613,128,0,64030:0:0:0:0:
329,192,63613,128,0,63780:0:0:0:0:
475,192,63696,128,0,63863:0:0:0:0:
109,192,63780,128,0,64030:0:0:0:0:
182,192,63780,128,0,63863:0:0:0:0:
36,192,63863,128,0,63946:0:0:0:0:
475,192,63946,128,0,64113:0:0:0:0:
329,192,63946,128,0,64030:0:0:0:0:
402,192,64030,128,0,64113:0:0:0:0:
256,192,64113,1,0,0:0:0:0:
109,192,64113,1,0,0:0:0:0:
329,192,64113,1,0,0:0:0:0:
182,192,64196,1,0,0:0:0:0:
36,192,64196,1,0,0:0:0:0:
109,192,64280,1,0,0:0:0:0:
256,192,64280,1,0,0:0:0:0:
402,192,64280,1,0,0:0:0:0:
36,192,64363,1,0,0:0:0:0:
329,192,64363,1,0,0:0:0:0:
109,192,64446,1,0,0:0:0:0:
402,192,64446,1,0,0:0:0:0:
475,192,64446,1,0,0:0:0:0:
182,192,64530,1,0,0:0:0:0:
329,192,64530,1,0,0:0:0:0:
256,192,64613,1,0,0:0:0:0:
402,192,64613,1,0,0:0:0:0:
36,192,64613,1,0,0:0:0:0:
329,192,64696,1,0,0:0:0:0:
475,192,64696,1,0,0:0:0:0:
182,192,64780,1,0,0:0:0:0:
36,192,64780,1,0,0:0:0:0:
402,192,64780,1,0,0:0:0:0:
256,192,64863,1,0,0:0:0:0:
109,192,64863,1,0,0:0:0:0:
329,192,64946,1,0,0:0:0:0:
182,192,64946,1,0,0:0:0:0:
36,192,64946,1,0,0:0:0:0:
402,192,65030,1,0,0:0:0:0:
256,192,65030,1,0,0:0:0:0:
475,192,65113,1,0,0:0:0:0:
329,192,65113,1,0,0:0:0:0:
182,192,65196,1,0,0:0:0:0:
36,192,65196,1,0,0:0:0:0:
402,192,65280,1,0,0:0:0:0:
256,192,65280,1,0,0:0:0:0:
182,192,65363,1,0,0:0:0:0:
36,192,65363,1,0,0:0:0:0:
475,192,65446,1,0,0:0:0:0:
329,192,65446,1,0,0:0:0:0:
109,192,65446,1,0,0:0:0:0:
402,192,65530,1,0,0:0:0:0:
256,192,65530,1,0,0:0:0:0:
329,192,65613,1,0,0:0:0:0:
182,192,65613,1,0,0:0:0:0:
475,192,65613,1,0,0:0:0:0:
256,192,65696,1,0,0:0:0:0:
109,192,65696,1,0,0:0:0:0:
36,192,65780,1,0,0:0:0:0:
182,192,65780,1,0,0:0:0:0:
36,192,65863,1,0,0:0:0:0:
182,192,65863,1,0,0:0:0:0:
475,192,65946,1,0,0:0:0:0:
329,192,65946,1,0,0:0:0:0:
475,192,66030,1,0,0:0:0:0:
329,192,66030,1,0,0:0:0:0:
36,192,66113,1,0,0:0:0:0:
256,192,66113,1,0,0:0:0:0:
182,192,66113,1,0,0:0:0:0:
109,192,66196,1,0,0:0:0:0:
329,192,66196,1,0,0:0:0:0:
182,192,66280,1,0,0:0:0:0:
402,192,66280,1,0,0:0:0:0:
36,192,66280,1,0,0:0:0:0:
256,192,66363,1,0,0:0:0:0:
475,192,66363,1,0,0:0:0:0:
329,192,66446,128,0,66696:0:0:0:0:
109,192,66446,128,0,66696:0:0:0:0:
256,192,66780,1,0,0:0:0:0:
36,192,66780,1,0,0:0:0:0:
329,192,66863,1,0,0:0:0:0:
109,192,66863,1,0,0:0:0:0:
402,192,66946,1,0,0:0:0:0:
182,192,66946,1,0,0:0:0:0:
475,192,67030,1,0,0:0:0:0:
256,192,67030,1,0,0:0:0:0:
36,192,67113,128,0,67363:0:0:0:0:
182,192,67113,1,0,0:0:0:0:
109,192,67196,128,0,67446:0:0:0:0:
256,192,67196,1,0,0:0:0:0:
182,192,67280,128,0,67530:0:0:0:0:
329,192,67280,1,0,0:0:0:0:
256,192,67363,128,0,67613:0:0:0:0:
402,192,67363,1,0,0:0:0:0:
475,192,67446,1,0,0:0:0:0:
402,192,67530,1,0,0:0:0:0:
329,192,67613,1,0,0:0:0:0:
475,192,67613,128,0,68530:0:0:0:0:
256,192,67696,1,0,0:0:0:0:
402,192,67696,128,0,68446:0:0:0:0:
329,192,67780,128,0,68363:0:0:0:0:
182,192,67780,1,0,0:0:0:0:
256,192,67863,128,0,68280:0:0:0:0:
109,192,67863,1,0,0:0:0:0:
36,192,67946,1,0,0:0:0:0:
182,192,67946,128,0,68196:0:0:0:0:
109,192,68030,128,0,68113:0:0:0:0:
36,192,68113,1,0,0:0:0:0:
109,192,68196,1,0,0:0:0:0:
182,192,68280,1,0,0:0:0:0:
36,192,68280,1,0,0:0:0:0:
256,192,68363,1,0,0:0:0:0:
109,192,68363,1,0,0:0:0:0:
329,192,68446,1,0,0:0:0:0:
36,192,68446,1,0,0:0:0:0:
402,192,68530,1,0,0:0:0:0:
475,192,68613,1,0,0:0:0:0:
182,192,68613,1,0,0:0:0:0:
402,192,68696,1,0,0:0:0:0:
36,192,68696,1,0,0:0:0:0:
109,192,68696,1,0,0:0:0:0:
182,192,68780,128,0,68863:0:0:0:0:
329,192,68780,128,0,68863:0:0:0:0:
475,192,68780,128,0,68863:0:0:0:0:
182,192,68946,128,0,69030:0:0:0:0:
329,192,68946,128,0,69030:0:0:0:0:
475,192,68946,128,0,69030:0:0:0:0:
475,192,69113,1,0,0:0:0:0:
402,192,69155,1,0,0:0:0:0:
329,192,69196,1,0,0:0:0:0:
256,192,69238,1,0,0:0:0:0:
36,192,69280,1,0,0:0:0:0:
109,192,69321,1,0,0:0:0:0:
182,192,69363,1,0,0:0:0:0:
256,192,69405,1,0,0:0:0:0:
475,192,69446,128,0,70113:0:0:0:0:
329,192,69446,128,0,70030:0:0:0:0:
36,192,69446,128,0,70113:0:0:0:0:
402,192,69446,1,0,0:0:0:0:
109,192,69446,1,0,0:0:0:0:
256,192,69613,1,0,0:0:0:0:
182,192,69696,1,0,0:0:0:0:
109,192,69780,1,0,0:0:0:0:
182,192,69946,1,0,0:0:0:0:
256,192,70030,1,0,0:0:0:0:
329,192,70113,128,0,70780:0:0:0:0:
402,192,70113,128,0,70780:0:0:0:0:
109,192,70113,128,0,70696:0:0:0:0:
182,192,70113,1,0,0:0:0:0:
475,192,70280,1,0,0:0:0:0:
256,192,70446,1,0,0:0:0:0:
182,192,70613,1,0,0:0:0:0:
109,192,70780,128,0,71446:0:0:0:0:
256,192,70780,128,0,71446:0:0:0:0:
475,192,70780,128,0,71363:0:0:0:0:
36,192,70780,1,0,0:0:0:0:
182,192,70946,1,0,0:0:0:0:
402,192,71113,1,0,0:0:0:0:
329,192,71169,1,0,0:0:0:0:
36,192,71224,1,0,0:0:0:0:
182,192,71280,1,0,0:0:0:0:
475,192,71446,128,0,72113:0:0:0:0:
182,192,71446,128,0,72113:0:0:0:0:
36,192,71446,128,0,72030:0:0:0:0:
402,192,71446,1,0,0:0:0:0:
329,192,71613,1,0,0:0:0:0:
256,192,71780,1,0,0:0:0:0:
109,192,71946,1,0,0:0:0:0:
36,192,72113,128,0,72780:0:0:0:0:
256,192,72113,128,0,72696:0:0:0:0:
402,192,72113,128,0,72780:0:0:0:0:
329,192,72113,1,0,0:0:0:0:
109,192,72280,1,0,0:0:0:0:
182,192,72363,1,0,0:0:0:0:
329,192,72446,1,0,0:0:0:0:
475,192,72613,1,0,0:0:0:0:
256,192,72780,128,0,73446:0:0:0:0:
109,192,72780,128,0,73446:0:0:0:0:
329,192,72780,128,0,73363:0:0:0:0:
182,192,72780,1,0,0:0:0:0:
402,192,72946,1,0,0:0:0:0:
182,192,73113,1,0,0:0:0:0:
36,192,73280,1,0,0:0:0:0:
329,192,73446,1,0,0:0:0:0:
475,192,73446,1,0,0:0:0:0:
182,192,73446,1,0,0:0:0:0:
402,192,73613,1,0,0:0:0:0:
256,192,73669,1,0,0:0:0:0:
109,192,73724,1,0,0:0:0:0:
329,192,73780,1,0,0:0:0:0:
182,192,73780,1,0,0:0:0:0:
36,192,73780,1,0,0:0:0:0:
256,192,73946,1,0,0:0:0:0:
475,192,74113,1,0,0:0:0:0:
329,192,74113,1,0,0:0:0:0:
182,192,74113,1,0,0:0:0:0:
475,192,74280,1,0,0:0:0:0:
109,192,74280,1,0,0:0:0:0:
329,192,74446,1,0,0:0:0:0:
182,192,74446,1,0,0:0:0:0:
36,192,74446,1,0,0:0:0:0:
36,192,74613,1,0,0:0:0:0:
402,192,74613,1,0,0:0:0:0:
329,192,74613,1,0,0:0:0:0:
475,192,74780,1,0,0:0:0:0:
182,192,74780,1,0,0:0:0:0:
109,192,74780,1,0,0:0:0:0:
36,192,74946,1,0,0:0:0:0:
329,192,74946,1,0,0:0:0:0:
109,192,75030,1,0,0:0:0:0:
402,192,75030,1,0,0:0:0:0:
182,192,75113,1,0,0:0:0:0:
475,192,75113,1,0,0:0:0:0:
256,192,75113,1,0,0:0:0:0:
475,192,75280,1,0,0:0:0:0:
182,192,75280,1,0,0:0:0:0:
402,192,75363,1,0,0:0:0:0:
109,192,75363,1,0,0:0:0:0:
329,192,75446,1,0,0:0:0:0:
36,192,75446,1,0,0:0:0:0:
182,192,75446,1,0,0:0:0:0:
256,192,75530,1,0,0:0:0:0:
475,192,75530,1,0,0:0:0:0:
182,192,75613,1,0,0:0:0:0:
402,192,75613,1,0,0:0:0:0:
109,192,75696,1,0,0:0:0:0:
329,192,75696,1,0,0:0:0:0:
36,192,75780,1,0,0:0:0:0:
256,192,75780,1,0,0:0:0:0:
182,192,75863,1,0,0:0:0:0:
475,192,75863,1,0,0:0:0:0:
109,192,75946,128,0,76113:0:0:0:0:
402,192,75946,128,0,76113:0:0:0:0:
329,192,75946,128,0,76113:0:0:0:0:
256,192,76113,1,0,0:0:0:0:
36,192,76113,1,0,0:0:0:0:
475,192,76113,1,0,0:0:0:0:
329,192,76280,1,0,0:0:0:0:
36,192,76280,1,0,0:0:0:0:
402,192,76280,1,0,0:0:0:0:
329,192,76446,1,0,0:0:0:0:
109,192,76446,1,0,0:0:0:0:
182,192,76446,1,0,0:0:0:0:
109,192,76613,1,0,0:0:0:0:
402,192,76613,1,0,0:0:0:0:
256,192,76613,1,0,0:0:0:0:
402,192,76780,1,0,0:0:0:0:
182,192,76780,1,0,0:0:0:0:
36,192,76780,1,0,0:0:0:0:
475,192,76946,1,0,0:0:0:0:
256,192,76946,1,0,0:0:0:0:
402,192,77030,1,0,0:0:0:0:
182,192,77030,1,0,0:0:0:0:
329,192,77113,1,0,0:0:0:0:
109,192,77113,1,0,0:0:0:0:
256,192,77196,1,0,0:0:0:0:
36,192,77196,1,0,0:0:0:0:
182,192,77280,1,0,0:0:0:0:
402,192,77280,1,0,0:0:0:0:
109,192,77363,1,0,0:0:0:0:
329,192,77363,1,0,0:0:0:0:
36,192,77446,1,0,0:0:0:0:
256,192,77446,1,0,0:0:0:0:
475,192,77446,1,0,0:0:0:0:
109,192,77530,1,0,0:0:0:0:
329,192,77530,1,0,0:0:0:0:
182,192,77613,1,0,0:0:0:0:
402,192,77613,1,0,0:0:0:0:
36,192,77613,1,0,0:0:0:0:
256,192,77696,1,0,0:0:0:0:
109,192,77696,1,0,0:0:0:0:
475,192,77780,1,0,0:0:0:0:
329,192,77780,1,0,0:0:0:0:
182,192,77780,1,0,0:0:0:0:
402,192,77863,1,0,0:0:0:0:
256,192,77863,1,0,0:0:0:0:
329,192,77946,1,0,0:0:0:0:
182,192,77946,1,0,0:0:0:0:
36,192,77946,1,0,0:0:0:0:
256,192,78030,1,0,0:0:0:0:
109,192,78030,1,0,0:0:0:0:
36,192,78113,1,0,0:0:0:0:
329,192,78113,1,0,0:0:0:0:
475,192,78113,1,0,0:0:0:0:
109,192,78196,1,0,0:0:0:0:
402,192,78196,1,0,0:0:0:0:
182,192,78280,1,0,0:0:0:0:
475,192,78280,1,0,0:0:0:0:
329,192,78280,1,0,0:0:0:0:
256,192,78363,1,0,0:0:0:0:
402,192,78363,1,0,0:0:0:0:
475,192,78446,1,0,0:0:0:0:
329,192,78446,1,0,0:0:0:0:
109,192,78446,1,0,0:0:0:0:
402,192,78530,1,0,0:0:0:0:
256,192,78530,1,0,0:0:0:0:
329,192,78613,1,0,0:0:0:0:
182,192,78613,1,0,0:0:0:0:
36,192,78613,1,0,0:0:0:0:
402,192,78696,1,0,0:0:0:0:
109,192,78696,1,0,0:0:0:0:
475,192,78780,128,0,78863:0:0:0:0:
329,192,78780,128,0,78863:0:0:0:0:
402,192,78863,128,0,78946:0:0:0:0:
329,192,78946,128,0,79030:0:0:0:0:
182,192,78946,128,0,79030:0:0:0:0:
256,192,79030,128,0,79113:0:0:0:0:
182,192,79113,128,0,79196:0:0:0:0:
36,192,79113,128,0,79196:0:0:0:0:
329,192,79196,128,0,79280:0:0:0:0:
256,192,79280,128,0,79363:0:0:0:0:
109,192,79280,128,0,79363:0:0:0:0:
182,192,79363,128,0,79446:0:0:0:0:
256,192,79446,128,0,79530:0:0:0:0:
402,192,79446,128,0,79530:0:0:0:0:
475,192,79530,128,0,79613:0:0:0:0:
329,192,79613,128,0,79696:0:0:0:0:
182,192,79613,128,0,79696:0:0:0:0:
109,192,79696,128,0,79780:0:0:0:0:
402,192,79780,128,0,79863:0:0:0:0:
475,192,79780,128,0,79863:0:0:0:0:
182,192,79863,128,0,79946:0:0:0:0:
36,192,79863,128,0,79946:0:0:0:0:
329,192,79946,128,0,80030:0:0:0:0:
475,192,79946,128,0,80030:0:0:0:0:
182,192,80030,128,0,80113:0:0:0:0:
109,192,80030,128,0,80113:0:0:0:0:
256,192,80113,1,0,0:0:0:0:
36,192,80113,1,0,0:0:0:0:
402,192,80113,1,0,0:0:0:0:
329,192,80196,1,0,0:0:0:0:
109,192,80196,1,0,0:0:0:0:
402,192,80280,1,0,0:0:0:0:
182,192,80280,1,0,0:0:0:0:
36,192,80280,1,0,0:0:0:0:
475,192,80363,1,0,0:0:0:0:
109,192,80363,1,0,0:0:0:0:
329,192,80363,1,0,0:0:0:0:
256,192,80446,1,0,0:0:0:0:
402,192,80446,1,0,0:0:0:0:
36,192,80446,1,0,0:0:0:0:
182,192,80530,1,0,0:0:0:0:
329,192,80530,1,0,0:0:0:0:
109,192,80613,1,0,0:0:0:0:
256,192,80613,1,0,0:0:0:0:
402,192,80613,1,0,0:0:0:0:
36,192,80696,1,0,0:0:0:0:
329,192,80696,1,0,0:0:0:0:
475,192,80696,1,0,0:0:0:0:
109,192,80780,1,0,0:0:0:0:
402,192,80780,1,0,0:0:0:0:
256,192,80780,1,0,0:0:0:0:
182,192,80863,1,0,0:0:0:0:
475,192,80863,1,0,0:0:0:0:
256,192,80946,1,0,0:0:0:0:
36,192,80946,1,0,0:0:0:0:
402,192,80946,1,0,0:0:0:0:
329,192,81030,1,0,0:0:0:0:
109,192,81030,1,0,0:0:0:0:
475,192,81030,1,0,0:0:0:0:
402,192,81113,1,0,0:0:0:0:
256,192,81113,1,0,0:0:0:0:
36,192,81113,1,0,0:0:0:0:
329,192,81196,1,0,0:0:0:0:
182,192,81196,1,0,0:0:0:0:
256,192,81280,1,0,0:0:0:0:
109,192,81280,1,0,0:0:0:0:
475,192,81280,1,0,0:0:0:0:
182,192,81363,1,0,0:0:0:0:
36,192,81363,1,0,0:0:0:0:
402,192,81363,1,0,0:0:0:0:
475,192,81446,1,0,0:0:0:0:
329,192,81446,1,0,0:0:0:0:
109,192,81446,1,0,0:0:0:0:
182,192,81530,1,0,0:0:0:0:
36,192,81530,1,0,0:0:0:0:
402,192,81530,1,0,0:0:0:0:
475,192,81613,1,0,0:0:0:0:
329,192,81613,1,0,0:0:0:0:
109,192,81613,1,0,0:0:0:0:
402,192,81696,1,0,0:0:0:0:
182,192,81696,1,0,0:0:0:0:
36,192,81696,1,0,0:0:0:0:
256,192,81780,1,0,0:0:0:0:
329,192,81863,1,0,0:0:0:0:
182,192,81863,1,0,0:0:0:0:
402,192,81946,1,0,0:0:0:0:
109,192,81946,1,0,0:0:0:0:
256,192,81946,1,0,0:0:0:0:
36,192,82030,1,0,0:0:0:0:
475,192,82030,1,0,0:0:0:0:
329,192,82030,1,0,0:0:0:0:
182,192,82030,1,0,0:0:0:0:
402,192,82113,1,0,0:0:0:0:
329,192,82155,1,0,0:0:0:0:
256,192,82196,1,0,0:0:0:0:
182,192,82238,1,0,0:0:0:0:
329,192,82280,1,0,0:0:0:0:
475,192,82280,128,0,82780:0:0:0:0:
256,192,82321,1,0,0:0:0:0:
182,192,82363,1,0,0:0:0:0:
109,192,82405,1,0,0:0:0:0:
36,192,82446,128,0,82696:0:0:0:0:
182,192,82446,1,0,0:0:0:0:
256,192,82530,1,0,0:0:0:0:
329,192,82613,1,0,0:0:0:0:
402,192,82696,1,0,0:0:0:0:
109,192,82780,128,0,83113:0:0:0:0:
182,192,82780,128,0,83030:0:0:0:0:
36,192,82780,128,0,83363:0:0:0:0:
256,192,82780,128,0,82946:0:0:0:0:
329,192,82780,128,0,82863:0:0:0:0:
402,192,82946,1,0,0:0:0:0:
475,192,83030,128,0,83363:0:0:0:0:
329,192,83030,1,0,0:0:0:0:
256,192,83113,1,0,0:0:0:0:
402,192,83113,128,0,83446:0:0:0:0:
182,192,83196,1,0,0:0:0:0:
329,192,83196,128,0,83446:0:0:0:0:
109,192,83280,1,0,0:0:0:0:
256,192,83280,128,0,83446:0:0:0:0:
182,192,83363,128,0,83446:0:0:0:0:
109,192,83446,1,0,0:0:0:0:
475,192,83446,1,0,0:0:0:0:
36,192,83446,1,0,0:0:0:0:
475,192,83612,1,0,0:0:0:0:
182,192,83612,1,0,0:0:0:0:
109,192,83612,1,0,0:0:0:0:
329,192,83696,1,0,0:0:0:0:
36,192,83696,1,0,0:0:0:0:
402,192,83779,1,0,0:0:0:0:
256,192,83779,1,0,0:0:0:0:
182,192,83946,1,0,0:0:0:0:
475,192,83946,1,0,0:0:0:0:
36,192,83946,1,0,0:0:0:0:
109,192,84112,128,0,84196:0:0:0:0:
402,192,84112,128,0,84196:0:0:0:0:
182,192,84112,1,0,0:0:0:0:
182,192,84279,128,0,84446:0:0:0:0:
36,192,84279,128,0,84362:0:0:0:0:
329,192,84279,128,0,84362:0:0:0:0:
475,192,84279,1,0,0:0:0:0:
329,192,84446,128,0,84612:0:0:0:0:
109,192,84446,128,0,84529:0:0:0:0:
402,192,84446,128,0,84529:0:0:0:0:
256,192,84446,1,0,0:0:0:0:
182,192,84612,128,0,84696:0:0:0:0:
109,192,84612,128,0,84779:0:0:0:0:
36,192,84612,1,0,0:0:0:0:
475,192,84612,128,0,84696:0:0:0:0:
402,192,84779,1,0,0:0:0:0:
256,192,84779,1,0,0:0:0:0:
36,192,84779,1,0,0:0:0:0:
402,192,84946,1,0,0:0:0:0:
109,192,84946,1,0,0:0:0:0:
256,192,84946,1,0,0:0:0:0:
475,192,85029,1,0,0:0:0:0:
36,192,85029,1,0,0:0:0:0:
182,192,85112,1,0,0:0:0:0:
329,192,85112,1,0,0:0:0:0:
109,192,85279,1,0,0:0:0:0:
402,192,85279,1,0,0:0:0:0:
329,192,85279,1,0,0:0:0:0:
475,192,85446,128,0,85529:0:0:0:0:
36,192,85446,128,0,85529:0:0:0:0:
256,192,85446,1,0,0:0:0:0:
402,192,85612,1,0,0:0:0:0:
475,192,85612,128,0,85779:0:0:0:0:
109,192,85612,128,0,85696:0:0:0:0:
36,192,85612,1,0,0:0:0:0:
182,192,85612,1,0,0:0:0:0:
36,192,85779,128,0,85946:0:0:0:0:
329,192,85779,128,0,85862:0:0:0:0:
182,192,85779,128,0,85862:0:0:0:0:
256,192,85779,1,0,0:0:0:0:
329,192,85946,128,0,86112:0:0:0:0:
109,192,85946,128,0,86029:0:0:0:0:
402,192,85946,128,0,86029:0:0:0:0:
475,192,85946,1,0,0:0:0:0:
475,192,86112,1,0,0:0:0:0:
182,192,86112,1,0,0:0:0:0:
256,192,86112,1,0,0:0:0:0:
36,192,86112,1,0,0:0:0:0:
475,192,86279,1,0,0:0:0:0:
182,192,86279,1,0,0:0:0:0:
329,192,86279,1,0,0:0:0:0:
402,192,86362,1,0,0:0:0:0:
109,192,86362,1,0,0:0:0:0:
182,192,86446,1,0,0:0:0:0:
256,192,86446,1,0,0:0:0:0:
36,192,86612,1,0,0:0:0:0:
329,192,86612,1,0,0:0:0:0:
475,192,86612,1,0,0:0:0:0:
402,192,86779,128,0,86862:0:0:0:0:
109,192,86779,128,0,86862:0:0:0:0:
182,192,86779,1,0,0:0:0:0:
182,192,86946,128,0,87029:0:0:0:0:
475,192,86946,128,0,87029:0:0:0:0:
329,192,86946,1,0,0:0:0:0:
329,192,87112,128,0,87196:0:0:0:0:
36,192,87112,128,0,87196:0:0:0:0:
109,192,87112,1,0,0:0:0:0:
109,192,87279,128,0,87362:0:0:0:0:
402,192,87279,128,0,87362:0:0:0:0:
256,192,87279,1,0,0:0:0:0:
329,192,87446,128,0,87529:0:0:0:0:
182,192,87446,1,0,0:0:0:0:
36,192,87446,1,0,0:0:0:0:
475,192,87446,128,0,87529:0:0:0:0:
402,192,87529,128,0,87612:0:0:0:0:
109,192,87612,1,0,0:0:0:0:
182,192,87779,128,0,87862:0:0:0:0:
36,192,87779,128,0,87862:0:0:0:0:
329,192,87779,1,0,0:0:0:0:
475,192,87779,1,0,0:0:0:0:
109,192,87862,128,0,87946:0:0:0:0:
402,192,87946,1,0,0:0:0:0:
475,192,88112,128,0,88696:0:0:0:0:
402,192,88112,128,0,88279:0:0:0:0:
256,192,88196,128,0,88362:0:0:0:0:
329,192,88279,128,0,88779:0:0:0:0:
182,192,88279,128,0,88446:0:0:0:0:
109,192,88362,128,0,88529:0:0:0:0:
36,192,88446,128,0,88779:0:0:0:0:
256,192,88446,128,0,88612:0:0:0:0:
402,192,88529,128,0,88696:0:0:0:0:
182,192,88612,128,0,88779:0:0:0:0:
109,192,88612,128,0,88779:0:0:0:0:
256,192,88696,128,0,88779:0:0:0:0:
402,192,88779,128,0,88946:0:0:0:0:
475,192,88779,1,0,0:0:0:0:
329,192,88862,128,0,89029:0:0:0:0:
256,192,88946,128,0,89112:0:0:0:0:
182,192,89029,128,0,89196:0:0:0:0:
329,192,89112,128,0,89279:0:0:0:0:
36,192,89112,1,0,0:0:0:0:
256,192,89196,128,0,89362:0:0:0:0:
182,192,89279,128,0,89446:0:0:0:0:
109,192,89362,128,0,89529:0:0:0:0:
256,192,89446,128,0,89612:0:0:0:0:
36,192,89446,128,0,89779:0:0:0:0:
475,192,89446,1,0,0:0:0:0:
329,192,89529,128,0,89696:0:0:0:0:
402,192,89612,128,0,89779:0:0:0:0:
182,192,89612,128,0,89779:0:0:0:0:
475,192,89696,128,0,89779:0:0:0:0:
329,192,89779,128,0,89946:0:0:0:0:
109,192,89779,1,0,0:0:0:0:
256,192,89862,128,0,90029:0:0:0:0:
182,192,89946,128,0,90112:0:0:0:0:
109,192,90029,128,0,90112:0:0:0:0:
256,192,90112,128,0,90279:0:0:0:0:
475,192,90112,1,0,0:0:0:0:
329,192,90196,128,0,90362:0:0:0:0:
402,192,90279,128,0,90446:0:0:0:0:
475,192,90362,128,0,90529:0:0:0:0:
182,192,90446,128,0,90612:0:0:0:0:
109,192,90446,1,0,0:0:0:0:
256,192,90529,128,0,90695:0:0:0:0:
329,192,90612,128,0,90779:0:0:0:0:
402,192,90695,128,0,90862:0:0:0:0:
256,192,90779,128,0,90945:0:0:0:0:
475,192,90779,128,0,91112:0:0:0:0:
36,192,90779,1,0,0:0:0:0:
182,192,90862,128,0,91029:0:0:0:0:
109,192,90945,128,0,91112:0:0:0:0:
329,192,90945,128,0,91112:0:0:0:0:
36,192,91029,128,0,91112:0:0:0:0:
402,192,91112,1,0,0:0:0:0:
182,192,91112,128,0,91279:0:0:0:0:
256,192,91195,128,0,91362:0:0:0:0:
329,192,91279,128,0,91445:0:0:0:0:
402,192,91362,128,0,91445:0:0:0:0:
475,192,91445,128,0,91612:0:0:0:0:
36,192,91445,1,0,0:0:0:0:
402,192,91529,128,0,91695:0:0:0:0:
329,192,91612,128,0,91779:0:0:0:0:
256,192,91695,128,0,92112:0:0:0:0:
182,192,91779,128,0,92112:0:0:0:0:
36,192,91779,128,0,92112:0:0:0:0:
475,192,91779,1,0,0:0:0:0:
109,192,91779,1,0,0:0:0:0:
109,192,92112,1,0,0:0:0:0:
329,192,92112,1,0,0:0:0:0:
475,192,92112,1,0,0:0:0:0:
182,192,92195,1,0,0:0:0:0:
402,192,92195,1,0,0:0:0:0:
256,192,92279,1,0,0:0:0:0:
475,192,92279,1,0,0:0:0:0:
402,192,92362,1,0,0:0:0:0:
182,192,92362,1,0,0:0:0:0:
329,192,92445,128,0,92779:0:0:0:0:
475,192,92445,128,0,92779:0:0:0:0:
109,192,92445,128,0,92779:0:0:0:0:
36,192,92445,1,0,0:0:0:0:
36,192,92779,1,0,0:0:0:0:
256,192,92779,1,0,0:0:0:0:
109,192,92862,1,0,0:0:0:0:
329,192,92862,1,0,0:0:0:0:
182,192,92945,1,0,0:0:0:0:
402,192,92945,1,0,0:0:0:0:
256,192,93029,1,0,0:0:0:0:
475,192,93029,1,0,0:0:0:0:
402,192,93112,1,0,0:0:0:0:
329,192,93154,1,0,0:0:0:0:
256,192,93195,1,0,0:0:0:0:
182,192,93237,1,0,0:0:0:0:
109,192,93279,1,0,0:0:0:0:
36,192,93362,1,0,0:0:0:0:
109,192,93445,1,0,0:0:0:0:
329,192,93445,1,0,0:0:0:0:
182,192,93529,1,0,0:0:0:0:
402,192,93529,1,0,0:0:0:0:
256,192,93612,1,0,0:0:0:0:
475,192,93612,1,0,0:0:0:0:
182,192,93695,1,0,0:0:0:0:
402,192,93695,1,0,0:0:0:0:
36,192,93779,1,0,0:0:0:0:
256,192,93779,1,0,0:0:0:0:
109,192,93862,1,0,0:0:0:0:
329,192,93862,1,0,0:0:0:0:
182,192,93945,1,0,0:0:0:0:
402,192,93945,1,0,0:0:0:0:
256,192,94029,1,0,0:0:0:0:
475,192,94029,1,0,0:0:0:0:
329,192,94112,1,0,0:0:0:0:
36,192,94112,1,0,0:0:0:0:
182,192,94112,1,0,0:0:0:0:
402,192,94112,1,0,0:0:0:0:
475,192,94279,1,0,0:0:0:0:
182,192,94279,1,0,0:0:0:0:
329,192,94279,1,0,0:0:0:0:
402,192,94362,1,0,0:0:0:0:
109,192,94362,1,0,0:0:0:0:
256,192,94445,1,0,0:0:0:0:
36,192,94445,1,0,0:0:0:0:
182,192,94612,1,0,0:0:0:0:
475,192,94612,1,0,0:0:0:0:
329,192,94612,1,0,0:0:0:0:
329,192,94779,1,0,0:0:0:0:
36,192,94779,1,0,0:0:0:0:
256,192,94779,1,0,0:0:0:0:
109,192,94779,1,0,0:0:0:0:
36,192,94945,1,0,0:0:0:0:
329,192,94945,1,0,0:0:0:0:
475,192,94945,1,0,0:0:0:0:
109,192,95029,1,0,0:0:0:0:
402,192,95029,1,0,0:0:0:0:
182,192,95112,1,0,0:0:0:0:
475,192,95112,1,0,0:0:0:0:
256,192,95112,1,0,0:0:0:0:
402,192,95195,1,0,0:0:0:0:
109,192,95195,1,0,0:0:0:0:
329,192,95279,1,0,0:0:0:0:
36,192,95279,1,0,0:0:0:0:
182,192,95279,1,0,0:0:0:0:
402,192,95362,1,0,0:0:0:0:
109,192,95362,1,0,0:0:0:0:
182,192,95445,1,0,0:0:0:0:
475,192,95445,1,0,0:0:0:0:
256,192,95445,1,0,0:0:0:0:
329,192,95445,1,0,0:0:0:0:
36,192,95612,1,0,0:0:0:0:
329,192,95612,1,0,0:0:0:0:
182,192,95612,1,0,0:0:0:0:
109,192,95695,1,0,0:0:0:0:
402,192,95695,1,0,0:0:0:0:
256,192,95779,1,0,0:0:0:0:
475,192,95779,1,0,0:0:0:0:
329,192,95945,1,0,0:0:0:0:
36,192,95945,1,0,0:0:0:0:
109,192,95945,1,0,0:0:0:0:
475,192,96112,1,0,0:0:0:0:
182,192,96112,1,0,0:0:0:0:
109,192,96112,1,0,0:0:0:0:
402,192,96112,1,0,0:0:0:0:
36,192,96279,1,0,0:0:0:0:
329,192,96279,1,0,0:0:0:0:
256,192,96279,1,0,0:0:0:0:
109,192,96362,1,0,0:0:0:0:
402,192,96362,1,0,0:0:0:0:
182,192,96445,1,0,0:0:0:0:
475,192,96445,1,0,0:0:0:0:
36,192,96445,1,0,0:0:0:0:
256,192,96529,1,0,0:0:0:0:
402,192,96529,1,0,0:0:0:0:
182,192,96612,1,0,0:0:0:0:
329,192,96612,1,0,0:0:0:0:
475,192,96612,1,0,0:0:0:0:
256,192,96695,1,0,0:0:0:0:
109,192,96695,1,0,0:0:0:0:
182,192,96779,1,0,0:0:0:0:
36,192,96779,128,0,97195:0:0:0:0:
402,192,96779,1,0,0:0:0:0:
475,192,96779,1,0,0:0:0:0:
256,192,96862,1,0,0:0:0:0:
109,192,96862,128,0,97112:0:0:0:0:
329,192,96945,1,0,0:0:0:0:
182,192,96945,128,0,97029:0:0:0:0:
402,192,97029,1,0,0:0:0:0:
256,192,97029,128,0,97279:0:0:0:0:
182,192,97112,1,0,0:0:0:0:
475,192,97112,128,0,97279:0:0:0:0:
109,192,97195,1,0,0:0:0:0:
402,192,97195,128,0,97445:0:0:0:0:
36,192,97279,1,0,0:0:0:0:
329,192,97279,128,0,97362:0:0:0:0:
475,192,97362,1,0,0:0:0:0:
256,192,97362,128,0,97529:0:0:0:0:
329,192,97445,1,0,0:0:0:0:
109,192,97445,128,0,97612:0:0:0:0:
36,192,97445,1,0,0:0:0:0:
402,192,97529,1,0,0:0:0:0:
182,192,97529,128,0,97695:0:0:0:0:
475,192,97612,1,0,0:0:0:0:
256,192,97612,128,0,97779:0:0:0:0:
109,192,97695,1,0,0:0:0:0:
329,192,97695,128,0,97862:0:0:0:0:
182,192,97779,1,0,0:0:0:0:
36,192,97779,128,0,98112:0:0:0:0:
256,192,97862,1,0,0:0:0:0:
109,192,97862,128,0,98112:0:0:0:0:
329,192,97945,1,0,0:0:0:0:
182,192,97945,128,0,98029:0:0:0:0:
402,192,98029,1,0,0:0:0:0:
256,192,98029,128,0,98112:0:0:0:0:
182,192,98112,1,0,0:0:0:0:
475,192,98112,128,0,98445:0:0:0:0:
329,192,98112,1,0,0:0:0:0:
109,192,98195,1,0,0:0:0:0:
402,192,98195,128,0,98445:0:0:0:0:
36,192,98279,1,0,0:0:0:0:
329,192,98279,128,0,98445:0:0:0:0:
109,192,98362,1,0,0:0:0:0:
256,192,98362,128,0,98445:0:0:0:0:
182,192,98445,128,0,98779:0:0:0:0:
36,192,98445,128,0,98779:0:0:0:0:
256,192,98779,1,0,0:0:0:0:
329,192,98779,1,0,0:0:0:0:
402,192,98779,1,0,0:0:0:0:
182,192,98890,1,0,0:0:0:0:
109,192,98890,1,0,0:0:0:0:
36,192,98890,1,0,0:0:0:0:
329,192,99001,1,0,0:0:0:0:
402,192,99001,1,0,0:0:0:0:
475,192,99001,1,0,0:0:0:0:
256,192,99112,1,0,0:0:0:0:
182,192,99112,1,0,0:0:0:0:
109,192,99112,1,0,0:0:0:0:
329,192,99223,1,0,0:0:0:0:
475,192,99223,1,0,0:0:0:0:
402,192,99223,1,0,0:0:0:0:
182,192,99334,1,0,0:0:0:0:
109,192,99334,1,0,0:0:0:0:
36,192,99334,1,0,0:0:0:0:
475,192,99445,128,0,99779:0:0:0:0:
256,192,99445,1,0,0:0:0:0:
182,192,99445,1,0,0:0:0:0:
36,192,99445,1,0,0:0:0:0:
402,192,99529,128,0,99779:0:0:0:0:
329,192,99612,128,0,99779:0:0:0:0:
109,192,99612,1,0,0:0:0:0:
256,192,99695,128,0,99779:0:0:0:0:
182,192,99779,128,0,100112:0:0:0:0:
36,192,99779,1,0,0:0:0:0:
109,192,99945,128,0,100112:0:0:0:0:
475,192,99945,1,0,0:0:0:0:
402,192,100029,1,0,0:0:0:0:
36,192,100112,128,0,100445:0:0:0:0:
256,192,100112,1,0,0:0:0:0:
329,192,100112,1,0,0:0:0:0:
475,192,100112,1,0,0:0:0:0:
109,192,100195,128,0,100445:0:0:0:0:
182,192,100279,128,0,100445:0:0:0:0:
402,192,100279,1,0,0:0:0:0:
256,192,100362,128,0,100445:0:0:0:0:
475,192,100445,128,0,100779:0:0:0:0:
329,192,100445,1,0,0:0:0:0:
329,192,100612,128,0,100779:0:0:0:0:
402,192,100612,1,0,0:0:0:0:
182,192,100612,1,0,0:0:0:0:
109,192,100695,1,0,0:0:0:0:
182,192,100779,128,0,101112:0:0:0:0:
36,192,100779,1,0,0:0:0:0:
402,192,100779,1,0,0:0:0:0:
256,192,100862,128,0,101112:0:0:0:0:
329,192,100945,128,0,101112:0:0:0:0:
36,192,100945,1,0,0:0:0:0:
402,192,101029,128,0,101112:0:0:0:0:
36,192,101112,128,0,101445:0:0:0:0:
475,192,101112,1,0,0:0:0:0:
182,192,101279,128,0,101445:0:0:0:0:
329,192,101279,1,0,0:0:0:0:
402,192,101362,1,0,0:0:0:0:
475,192,101445,128,0,101612:0:0:0:0:
329,192,101445,128,0,101529:0:0:0:0:
256,192,101445,1,0,0:0:0:0:
109,192,101445,1,0,0:0:0:0:
182,192,101612,128,0,101695:0:0:0:0:
329,192,101612,128,0,101779:0:0:0:0:
182,192,101779,128,0,101945:0:0:0:0:
36,192,101779,128,0,101862:0:0:0:0:
402,192,101779,1,0,0:0:0:0:
256,192,101779,1,0,0:0:0:0:
475,192,101779,1,0,0:0:0:0:
36,192,101945,128,0,102112:0:0:0:0:
329,192,101945,128,0,102112:0:0:0:0:
475,192,101945,1,0,0:0:0:0:
109,192,102112,128,0,102279:0:0:0:0:
402,192,102112,1,0,0:0:0:0:
182,192,102195,128,0,102362:0:0:0:0:
256,192,102279,128,0,102445:0:0:0:0:
402,192,102279,1,0,0:0:0:0:
329,192,102362,128,0,102529:0:0:0:0:
182,192,102445,128,0,102862:0:0:0:0:
109,192,102445,1,0,0:0:0:0:
256,192,102529,128,0,102945:0:0:0:0:
329,192,102612,128,0,103029:0:0:0:0:
109,192,102612,1,0,0:0:0:0:
402,192,102695,128,0,103112:0:0:0:0:
36,192,102779,128,0,103029:0:0:0:0:
475,192,102779,1,0,0:0:0:0:
109,192,102862,128,0,103112:0:0:0:0:
182,192,102945,128,0,103195:0:0:0:0:
475,192,102945,1,0,0:0:0:0:
256,192,103029,128,0,103279:0:0:0:0:
475,192,103112,128,0,103279:0:0:0:0:
36,192,103112,1,0,0:0:0:0:
402,192,103195,128,0,103362:0:0:0:0:
329,192,103279,128,0,103445:0:0:0:0:
36,192,103279,1,0,0:0:0:0:
256,192,103362,128,0,103445:0:0:0:0:
182,192,103445,128,0,103529:0:0:0:0:
36,192,103445,128,0,103529:0:0:0:0:
402,192,103529,128,0,103612:0:0:0:0:
475,192,103529,128,0,103612:0:0:0:0:
182,192,103612,128,0,103695:0:0:0:0:
109,192,103612,128,0,103695:0:0:0:0:
329,192,103695,128,0,103779:0:0:0:0:
475,192,103695,128,0,103779:0:0:0:0:
256,192,103779,1,0,0:0:0:0:
402,192,103779,128,0,103945:0:0:0:0:
182,192,103862,1,0,0:0:0:0:
329,192,103862,128,0,104029:0:0:0:0:
109,192,103945,1,0,0:0:0:0:
256,192,103945,128,0,104112:0:0:0:0:
36,192,104029,1,0,0:0:0:0:
182,192,104029,128,0,104112:0:0:0:0:
329,192,104112,1,0,0:0:0:0:
475,192,104112,1,0,0:0:0:0:
475,192,104195,1,0,0:0:0:0:
329,192,104195,1,0,0:0:0:0:
182,192,104279,1,0,0:0:0:0:
36,192,104279,1,0,0:0:0:0:
36,192,104362,1,0,0:0:0:0:
182,192,104362,1,0,0:0:0:0:
256,192,104445,1,0,0:0:0:0:
109,192,104445,128,0,104529:0:0:0:0:
329,192,104529,1,0,0:0:0:0:
182,192,104529,128,0,104612:0:0:0:0:
402,192,104612,1,0,0:0:0:0:
256,192,104612,128,0,104695:0:0:0:0:
475,192,104695,1,0,0:0:0:0:
329,192,104695,128,0,104779:0:0:0:0:
256,192,104779,1,0,0:0:0:0:
182,192,104862,1,0,0:0:0:0:
109,192,104945,1,0,0:0:0:0:
475,192,104945,1,0,0:0:0:0:
402,192,104987,1,0,0:0:0:0:
329,192,105029,1,0,0:0:0:0:
36,192,105029,1,0,0:0:0:0:
256,192,105070,1,0,0:0:0:0:
182,192,105112,1,0,0:0:0:0:
256,192,105195,1,0,0:0:0:0:
36,192,105279,1,0,0:0:0:0:
329,192,105279,1,0,0:0:0:0:
109,192,105320,1,0,0:0:0:0:
182,192,105362,1,0,0:0:0:0:
402,192,105362,1,0,0:0:0:0:
256,192,105404,1,0,0:0:0:0:
475,192,105445,1,0,0:0:0:0:
329,192,105445,1,0,0:0:0:0:
402,192,105529,1,0,0:0:0:0:
256,192,105529,1,0,0:0:0:0:
329,192,105612,1,0,0:0:0:0:
182,192,105612,1,0,0:0:0:0:
256,192,105695,1,0,0:0:0:0:
109,192,105695,1,0,0:0:0:0:
36,192,105779,1,0,0:0:0:0:
329,192,105779,1,0,0:0:0:0:
109,192,105820,1,0,0:0:0:0:
182,192,105862,1,0,0:0:0:0:
402,192,105862,1,0,0:0:0:0:
256,192,105904,1,0,0:0:0:0:
36,192,105945,1,0,0:0:0:0:
475,192,105945,1,0,0:0:0:0:
109,192,105987,1,0,0:0:0:0:
182,192,106029,1,0,0:0:0:0:
402,192,106029,1,0,0:0:0:0:
256,192,106070,1,0,0:0:0:0:
329,192,106112,128,0,108779:0:0:0:0:
475,192,106112,128,0,108779:0:0:0:0:
36,192,106112,128,0,108779:0:0:0:0:
182,192,107779,128,0,108779:0:0:0:0:
256,192,108779,1,0,0:0:0:0:
109,192,108779,1,0,0:0:0:0:
402,192,108779,1,0,0:0:0:0:
36,192,110471,1,0,0:0:0:0:
182,192,110548,1,0,0:0:0:0:
329,192,110625,1,0,0:0:0:0:
475,192,110625,1,0,0:0:0:0:
109,192,111086,1,0,0:0:0:0:
402,192,111548,1,0,0:0:0:0:
256,192,112009,1,0,0:0:0:0:
475,192,112240,1,0,0:0:0:0:
329,192,112317,1,0,0:0:0:0:
182,192,112394,1,0,0:0:0:0:
109,192,112471,1,0,0:0:0:0:
36,192,112471,1,0,0:0:0:0:
256,192,112702,1,0,0:0:0:0:
402,192,112932,1,0,0:0:0:0:
109,192,113163,1,0,0:0:0:0:
475,192,113394,1,0,0:0:0:0:
256,192,113394,1,0,0:0:0:0:
329,192,113685,1,0,0:0:0:0:
182,192,113976,1,0,0:0:0:0:
36,192,113976,1,0,0:0:0:0:
109,192,114313,1,0,0:0:0:0:
475,192,114425,1,0,0:0:0:0:
402,192,114481,1,0,0:0:0:0:
329,192,114537,1,0,0:0:0:0:
256,192,114593,1,0,0:0:0:0:
182,192,114650,1,0,0:0:0:0:
36,192,114650,1,0,0:0:0:0:
475,192,115998,1,0,0:0:0:0:
402,192,115998,1,0,0:0:0:0:
