osu file format v14

[General]
AudioFilename: audio.mp3
AudioLeadIn: 0
PreviewTime: 140141
Countdown: 0
SampleSet: None
StackLeniency: 0.7
Mode: 1
LetterboxInBreaks: 0
WidescreenStoryboard: 0

[Editor]
Bookmarks: 225474
DistanceSpacing: 2.5
BeatDivisor: 4
GridSize: 4
TimelineZoom: 3.199998

[Metadata]
Title:Shigure
TitleUnicode:Shigure
Artist:Yooh
ArtistUnicode:Yooh
Creator:Karee Pan
Version:Blue
Source:
Tags:Energy Of The Moon kanone
BeatmapID:1390464
BeatmapSetID:656246

[Difficulty]
HPDrainRate:4
CircleSize:2
OverallDifficulty:6
ApproachRate:5
SliderMultiplier:1.39999976287842
SliderTickRate:1

[Events]
//Background and Video events
0,0,"Shigure.png",0,0
//Break Periods
//Storyboard Layer 0 (Background)
//Storyboard Layer 1 (Fail)
//Storyboard Layer 2 (Pass)
//Storyboard Layer 3 (Foreground)
//Storyboard Sound Samples

[TimingPoints]
1475,333.333333333333,4,1,0,90,1,0
21808,-117.647058823529,4,1,0,80,0,0
33474,-111.111111111111,4,1,0,85,0,0
38808,-105.263157894737,4,1,0,90,0,0
41474,-99.9999999999999,4,1,0,90,0,0
44141,-100,4,1,0,100,0,1
65474,-100,4,1,0,90,0,0
66808,-95.2380952380952,4,1,0,90,0,0
68141,-90.9090909090909,4,1,0,90,0,0
69474,-86.9565217391304,4,1,0,90,0,0
70808,-83.3333333333333,4,1,0,90,0,0
73474,-83.3333333333333,4,1,0,90,0,0
74808,-83.3333333333333,4,1,0,72,0,0
76141,-100,4,1,0,100,0,0
84224,-125,4,1,0,85,0,0
87141,-100,4,1,0,100,0,0
94891,-125,4,1,0,85,0,0
97474,-100,4,1,0,85,0,1
118891,-125,4,1,0,80,0,0
130308,-119.047619047619,4,1,0,83,0,0
131641,-113.636363636364,4,1,0,86,0,0
134308,-108.695652173913,4,1,0,93,0,0
135641,-104.166666666667,4,1,0,93,0,0
136974,-100,4,1,0,100,0,0
140141,-100,4,1,0,100,0,1
161558,-100,4,1,0,100,0,0
177474,-97.0873786407767,4,1,0,100,0,0
178891,-94.3396226415094,4,1,0,100,0,0
180141,-91.743119266055,4,1,0,100,0,0
181562,-125,4,1,0,75,0,0
204141,-117.647058823529,4,1,0,80,0,0
214808,-111.111111111111,4,1,0,85,0,0
220141,-105.263157894737,4,1,0,90,0,0
222808,-100,4,1,0,95,0,0
225474,-100,4,1,0,100,0,1
268141,-100,4,1,0,100,0,0
268308,-125,4,1,0,80,0,0
273474,-100,4,1,0,90,0,0

[HitObjects]
248,184,1475,5,4,0:0:0:0:
248,184,1724,1,0,0:0:0:0:
248,184,1808,1,0,0:0:0:0:
248,184,1974,1,0,0:0:0:0:
248,184,2141,1,0,0:0:0:0:
248,184,2474,1,0,0:0:0:0:
248,184,2808,1,0,0:0:0:0:
248,184,3058,1,0,0:0:0:0:
248,184,3141,1,0,0:0:0:0:
248,184,3308,1,0,0:0:0:0:
248,184,3474,1,0,0:0:0:0:
248,184,3808,1,0,0:0:0:0:
248,184,4141,1,0,0:0:0:0:
248,184,4391,1,0,0:0:0:0:
248,184,4474,1,0,0:0:0:0:
248,184,4641,1,0,0:0:0:0:
248,184,4808,1,0,0:0:0:0:
248,184,5058,1,0,0:0:0:0:
248,184,5141,1,0,0:0:0:0:
248,184,5308,1,0,0:0:0:0:
248,184,5474,1,0,0:0:0:0:
248,184,5724,1,0,0:0:0:0:
248,184,5808,1,0,0:0:0:0:
248,184,5974,1,0,0:0:0:0:
248,184,6141,1,0,0:0:0:0:
248,184,6308,1,8,0:0:0:0:
248,184,6474,1,0,0:0:0:0:
248,184,6641,1,0,0:0:0:0:
248,184,6808,1,0,0:0:0:0:
248,184,7058,1,0,0:0:0:0:
248,184,7141,1,0,0:0:0:0:
248,184,7308,1,0,0:0:0:0:
248,184,7474,1,0,0:0:0:0:
248,184,7808,1,0,0:0:0:0:
248,184,8141,5,0,0:0:0:0:
248,184,8391,1,0,0:0:0:0:
248,184,8474,1,0,0:0:0:0:
248,184,8641,1,0,0:0:0:0:
248,184,8808,1,0,0:0:0:0:
248,184,9141,1,0,0:0:0:0:
216,176,9308,5,0,0:0:0:0:
256,192,9474,1,12,0:0:0:0:
256,192,9974,1,0,0:0:0:0:
256,192,10141,1,8,0:0:0:0:
256,192,10641,1,0,0:0:0:0:
256,192,10808,1,0,0:0:0:0:
244,180,11058,1,0,0:0:0:0:
256,192,11141,1,0,0:0:0:0:
256,192,11308,1,0,0:0:0:0:
256,192,11474,1,8,0:0:0:0:
256,192,11641,1,8,0:0:0:0:
256,192,11724,1,8,0:0:0:0:
288,192,11808,1,0,0:0:0:0:
256,192,11974,1,0,0:0:0:0:
256,192,12141,1,12,0:0:0:0:
256,192,12308,1,0,0:0:0:0:
288,192,12474,1,8,0:0:0:0:
256,192,12641,1,8,0:0:0:0:
288,192,12808,1,8,0:0:0:0:
256,192,12974,1,0,0:0:0:0:
256,192,13141,1,8,0:0:0:0:
256,192,13308,1,0,0:0:0:0:
256,192,13474,1,8,0:0:0:0:
256,192,13641,1,0,0:0:0:0:
256,192,13808,1,8,0:0:0:0:
256,192,13974,1,8,0:0:0:0:
256,192,14141,1,8,0:0:0:0:
256,192,14308,1,0,0:0:0:0:
256,192,14474,1,8,0:0:0:0:
256,192,14641,1,0,0:0:0:0:
256,192,14808,1,8,0:0:0:0:
256,192,14974,1,0,0:0:0:0:
256,192,15141,1,8,0:0:0:0:
256,192,15308,1,8,0:0:0:0:
256,192,15474,1,8,0:0:0:0:
256,192,15641,1,0,0:0:0:0:
256,192,15808,1,8,0:0:0:0:
256,192,15974,1,8,0:0:0:0:
224,192,16141,1,8,0:0:0:0:
256,192,16308,1,0,0:0:0:0:
256,192,16474,1,8,0:0:0:0:
256,192,16641,1,8,0:0:0:0:
256,192,16808,1,0,0:0:0:0:
256,192,16974,1,8,0:0:0:0:
256,192,17141,1,8,0:0:0:0:
232,156,17308,1,8,0:0:0:0:
256,192,17474,1,0,0:0:0:0:
256,192,17641,1,8,0:0:0:0:
256,192,17724,1,8,0:0:0:0:
256,192,17808,1,0,0:0:0:0:
256,192,17974,1,8,0:0:0:0:
256,192,18141,1,0,0:0:0:0:
256,192,18308,1,0,0:0:0:0:
256,192,18474,1,8,0:0:0:0:
256,192,18641,1,0,0:0:0:0:
256,192,18808,1,0,0:0:0:0:
256,192,18974,1,8,0:0:0:0:
256,192,19058,1,8,0:0:0:0:
256,192,19141,1,0,0:0:0:0:
256,192,19308,1,8,0:0:0:0:
256,192,19474,1,0,0:0:0:0:
256,192,19641,1,8,0:0:0:0:
256,192,19808,1,0,0:0:0:0:
256,192,19974,1,8,0:0:0:0:
256,192,20141,1,0,0:0:0:0:
256,192,20224,1,0,0:0:0:0:
256,192,20308,1,0,0:0:0:0:
256,192,20391,1,0,0:0:0:0:
256,192,20474,1,8,0:0:0:0:
256,192,20558,1,8,0:0:0:0:
256,192,20641,5,8,0:0:0:0:
256,192,20724,1,8,0:0:0:0:
256,192,20808,1,0,0:0:0:0:
256,192,20891,1,0,0:0:0:0:
256,192,20974,1,0,0:0:0:0:
256,192,21058,1,0,0:0:0:0:
256,192,21141,1,8,0:0:0:0:
256,192,21224,1,0,0:0:0:0:
256,192,21308,1,8,0:0:0:0:
256,192,21391,1,8,0:0:0:0:
256,192,21474,1,0,0:0:0:0:
256,192,21808,5,8,0:0:0:0:
256,192,22141,1,8,0:0:0:0:
256,192,22474,1,0,0:0:0:0:
256,192,22808,1,8,0:0:0:0:
224,192,22974,1,0,0:0:0:0:
256,192,23058,1,0,0:0:0:0:
256,192,23141,1,0,0:0:0:0:
256,192,23308,1,0,0:0:0:0:
256,192,23474,1,8,0:0:0:0:
256,192,23808,1,0,0:0:0:0:
256,192,24141,1,8,0:0:0:0:
256,192,24391,1,0,0:0:0:0:
256,192,24474,1,8,0:0:0:0:
256,192,24641,1,0,0:0:0:0:
256,192,24808,1,8,0:0:0:0:
204,152,24974,1,0,0:0:0:0:
256,192,25141,1,0,0:0:0:0:
256,192,25474,1,8,0:0:0:0:
288,192,25724,1,0,0:0:0:0:
256,192,25808,1,0,0:0:0:0:
256,192,25974,1,0,0:0:0:0:
256,192,26141,1,8,0:0:0:0:
228,196,26391,1,0,0:0:0:0:
256,192,26474,1,8,0:0:0:0:
256,192,26641,1,0,0:0:0:0:
256,192,26808,1,0,0:0:0:0:
224,192,27058,1,0,0:0:0:0:
256,192,27141,1,0,0:0:0:0:
256,192,27308,1,0,0:0:0:0:
256,192,27474,1,8,0:0:0:0:
228,196,27558,1,0,0:0:0:0:
288,192,27641,1,0,0:0:0:0:
256,192,27808,1,8,0:0:0:0:
224,192,27974,1,0,0:0:0:0:
256,192,28141,1,8,0:0:0:0:
256,160,28391,1,0,0:0:0:0:
256,160,28474,1,0,0:0:0:0:
256,160,28641,1,0,0:0:0:0:
256,192,28808,1,8,0:0:0:0:
256,192,29141,1,0,0:0:0:0:
256,192,29474,1,8,0:0:0:0:
256,192,29724,1,0,0:0:0:0:
256,192,29808,1,8,0:0:0:0:
256,192,29974,1,0,0:0:0:0:
256,192,30141,1,8,0:0:0:0:
232,180,30391,1,0,0:0:0:0:
256,192,30474,1,8,0:0:0:0:
256,192,30808,1,0,0:0:0:0:
288,192,31058,1,0,0:0:0:0:
288,192,31141,1,0,0:0:0:0:
288,192,31308,1,0,0:0:0:0:
288,192,31474,1,8,0:0:0:0:
288,192,31724,1,8,0:0:0:0:
288,192,31808,1,0,0:0:0:0:
288,192,31974,1,0,0:0:0:0:
288,192,32141,1,8,0:0:0:0:
256,192,32391,1,8,0:0:0:0:
288,192,32474,1,0,0:0:0:0:
248,176,32641,1,0,0:0:0:0:
256,192,32808,1,8,0:0:0:0:
256,192,32891,1,0,0:0:0:0:
256,192,32974,1,0,0:0:0:0:
256,192,33141,1,8,0:0:0:0:
224,192,33308,1,0,0:0:0:0:
256,192,33474,1,12,0:0:0:0:
256,192,33808,1,0,0:0:0:0:
256,192,33974,1,0,0:0:0:0:
256,192,34141,1,8,0:0:0:0:
256,192,34474,1,0,0:0:0:0:
256,192,34808,1,8,0:0:0:0:
256,192,35141,1,0,0:0:0:0:
256,192,35308,1,0,0:0:0:0:
256,192,35474,1,8,0:0:0:0:
256,192,35808,1,0,0:0:0:0:
256,192,36141,1,8,0:0:0:0:
256,192,36474,1,0,0:0:0:0:
256,192,36808,1,8,0:0:0:0:
256,192,37141,1,8,0:0:0:0:
220,144,37308,1,0,0:0:0:0:
256,192,37474,1,0,0:0:0:0:
256,192,37808,1,0,0:0:0:0:
256,192,37974,1,0,0:0:0:0:
256,192,38141,1,8,0:0:0:0:
256,192,38308,1,0,0:0:0:0:
256,192,38474,1,0,0:0:0:0:
260,172,38641,1,0,0:0:0:0:
256,224,38808,1,0,0:0:0:0:
256,192,38975,1,8,0:0:0:0:
256,192,39058,1,8,0:0:0:0:
256,192,39142,1,0,0:0:0:0:
256,192,39308,1,0,0:0:0:0:
256,192,39474,1,8,0:0:0:0:
256,224,39641,1,0,0:0:0:0:
256,224,39808,1,0,0:0:0:0:
256,192,39974,1,0,0:0:0:0:
256,224,40141,1,0,0:0:0:0:
256,192,40308,1,8,0:0:0:0:
256,192,40391,1,8,0:0:0:0:
256,224,40474,1,0,0:0:0:0:
256,192,40641,1,0,0:0:0:0:
256,224,40808,1,8,0:0:0:0:
256,192,40974,1,0,0:0:0:0:
256,224,41141,1,8,0:0:0:0:
256,192,41308,1,0,0:0:0:0:
256,192,41474,1,8,0:0:0:0:
256,192,41558,1,8,0:0:0:0:
256,192,41641,1,0,0:0:0:0:
256,192,41724,1,0,0:0:0:0:
256,192,41808,1,0,0:0:0:0:
256,192,41891,1,0,0:0:0:0:
256,192,41974,1,8,0:0:0:0:
256,192,42058,1,8,0:0:0:0:
256,192,42141,1,8,0:0:0:0:
224,160,42224,1,8,0:0:0:0:
256,192,42308,1,0,0:0:0:0:
256,192,42391,1,0,0:0:0:0:
256,192,42475,1,8,0:0:0:0:
256,192,42558,1,8,0:0:0:0:
256,192,42641,1,0,0:0:0:0:
256,192,42724,1,0,0:0:0:0:
256,224,42808,1,8,0:0:0:0:
224,256,43808,1,12,0:0:0:0:
256,224,44141,5,12,0:0:0:0:
192,192,44308,1,0,0:0:0:0:
256,224,44474,1,8,0:0:0:0:
256,224,44558,1,0,0:0:0:0:
256,224,44641,1,8,0:0:0:0:
140,224,44724,1,8,0:0:0:0:
256,224,44808,1,0,0:0:0:0:
256,224,44974,1,8,0:0:0:0:
152,244,45141,1,0,0:0:0:0:
256,224,45224,1,0,0:0:0:0:
256,224,45308,1,8,0:0:0:0:
220,160,45391,1,0,0:0:0:0:
256,224,45474,1,8,0:0:0:0:
192,192,45641,1,0,0:0:0:0:
256,224,45808,1,8,0:0:0:0:
256,224,45891,1,0,0:0:0:0:
288,224,45974,1,8,0:0:0:0:
248,196,46058,1,8,0:0:0:0:
288,224,46141,1,0,0:0:0:0:
288,224,46308,1,8,0:0:0:0:
288,224,46474,1,0,0:0:0:0:
288,224,46558,1,0,0:0:0:0:
288,224,46641,1,8,0:0:0:0:
192,160,46725,1,0,0:0:0:0:
288,224,46808,1,8,0:0:0:0:
304,200,46974,1,0,0:0:0:0:
288,224,47141,1,8,0:0:0:0:
256,192,47474,1,0,0:0:0:0:
256,160,47641,1,0,0:0:0:0:
320,224,47808,1,8,0:0:0:0:
288,224,47891,1,0,0:0:0:0:
224,192,47974,1,0,0:0:0:0:
288,224,48058,1,8,0:0:0:0:
256,192,48141,1,0,0:0:0:0:
288,224,48308,1,8,0:0:0:0:
256,160,48474,1,0,0:0:0:0:
256,192,48558,1,0,0:0:0:0:
256,192,48641,1,8,0:0:0:0:
256,192,48724,1,8,0:0:0:0:
256,192,48808,1,0,0:0:0:0:
256,192,49141,1,8,0:0:0:0:
256,224,49474,5,12,0:0:0:0:
192,192,49641,1,0,0:0:0:0:
256,224,49807,1,8,0:0:0:0:
256,224,49891,1,0,0:0:0:0:
256,224,49974,1,8,0:0:0:0:
140,224,50058,1,8,0:0:0:0:
256,224,50141,1,0,0:0:0:0:
256,224,50307,1,8,0:0:0:0:
256,224,50474,1,0,0:0:0:0:
256,224,50558,1,0,0:0:0:0:
256,224,50641,1,8,0:0:0:0:
220,160,50724,1,0,0:0:0:0:
256,224,50807,1,8,0:0:0:0:
192,192,50974,1,0,0:0:0:0:
256,224,51141,1,8,0:0:0:0:
256,224,51224,1,0,0:0:0:0:
288,224,51307,1,8,0:0:0:0:
248,196,51391,1,8,0:0:0:0:
288,224,51474,1,0,0:0:0:0:
288,224,51641,1,8,0:0:0:0:
288,224,51807,1,0,0:0:0:0:
288,224,51891,1,0,0:0:0:0:
288,224,51974,1,8,0:0:0:0:
192,160,52058,1,0,0:0:0:0:
288,224,52141,1,8,0:0:0:0:
288,192,52308,1,0,0:0:0:0:
288,192,52474,1,8,0:0:0:0:
288,192,52641,1,0,0:0:0:0:
288,192,52808,1,8,0:0:0:0:
192,160,52891,1,8,0:0:0:0:
196,184,52974,1,0,0:0:0:0:
288,192,53058,1,0,0:0:0:0:
288,192,53141,1,8,0:0:0:0:
288,192,53308,1,0,0:0:0:0:
256,192,53474,1,12,0:0:0:0:
256,192,53641,1,0,0:0:0:0:
256,192,53724,1,0,0:0:0:0:
256,192,53808,1,8,0:0:0:0:
256,192,53974,1,0,0:0:0:0:
256,192,54141,1,8,0:0:0:0:
256,192,54224,1,0,0:0:0:0:
256,192,54391,1,0,0:0:0:0:
256,192,54474,1,8,0:0:0:0:
256,192,54641,1,0,0:0:0:0:
224,192,54724,1,0,0:0:0:0:
256,224,54808,5,8,0:0:0:0:
192,192,54975,1,0,0:0:0:0:
256,224,55141,1,8,0:0:0:0:
256,224,55225,1,0,0:0:0:0:
256,224,55308,1,8,0:0:0:0:
140,224,55391,1,8,0:0:0:0:
256,224,55475,1,0,0:0:0:0:
256,224,55641,1,8,0:0:0:0:
256,224,55808,1,0,0:0:0:0:
256,224,55891,1,0,0:0:0:0:
256,224,55975,1,8,0:0:0:0:
220,160,56058,1,0,0:0:0:0:
256,224,56141,1,8,0:0:0:0:
192,192,56308,1,0,0:0:0:0:
256,224,56475,1,8,0:0:0:0:
256,224,56558,1,0,0:0:0:0:
288,224,56641,1,8,0:0:0:0:
248,196,56724,1,8,0:0:0:0:
288,224,56808,1,0,0:0:0:0:
288,224,56975,1,8,0:0:0:0:
288,224,57141,1,0,0:0:0:0:
288,224,57225,1,0,0:0:0:0:
288,224,57308,1,8,0:0:0:0:
192,160,57392,1,0,0:0:0:0:
288,224,57475,1,8,0:0:0:0:
264,208,57641,1,0,0:0:0:0:
288,224,57808,1,8,0:0:0:0:
288,224,58141,1,8,0:0:0:0:
224,160,58308,1,0,0:0:0:0:
288,224,58475,1,8,0:0:0:0:
256,192,58558,1,0,0:0:0:0:
256,192,58641,1,0,0:0:0:0:
256,192,58724,1,0,0:0:0:0:
288,224,58808,1,8,0:0:0:0:
288,224,58975,1,0,0:0:0:0:
256,160,59141,1,8,0:0:0:0:
256,192,59225,1,8,0:0:0:0:
256,192,59308,1,0,0:0:0:0:
256,192,59391,1,0,0:0:0:0:
256,192,59475,1,8,0:0:0:0:
256,192,59808,1,0,0:0:0:0:
256,192,60141,1,12,0:0:0:0:
256,192,60308,1,0,0:0:0:0:
256,192,60475,1,8,0:0:0:0:
288,192,60641,1,8,0:0:0:0:
320,224,60808,1,0,0:0:0:0:
288,224,60891,1,0,0:0:0:0:
288,224,60974,1,0,0:0:0:0:
288,224,61141,1,8,0:0:0:0:
288,192,61308,1,0,0:0:0:0:
288,192,61475,1,12,0:0:0:0:
288,192,61641,1,0,0:0:0:0:
256,160,61724,1,0,0:0:0:0:
288,192,61808,1,8,0:0:0:0:
288,192,61975,1,8,0:0:0:0:
288,192,62141,1,0,0:0:0:0:
288,192,62225,1,0,0:0:0:0:
288,192,62308,1,0,0:0:0:0:
320,200,62391,1,0,0:0:0:0:
288,192,62475,1,8,0:0:0:0:
288,192,62641,1,0,0:0:0:0:
288,192,62808,1,12,0:0:0:0:
288,192,62975,1,0,0:0:0:0:
288,192,63058,1,0,0:0:0:0:
280,188,63141,1,8,0:0:0:0:
288,192,63308,1,0,0:0:0:0:
288,192,63474,1,8,0:0:0:0:
304,196,63641,1,0,0:0:0:0:
288,192,63724,1,8,0:0:0:0:
288,192,63808,1,0,0:0:0:0:
256,192,63891,1,0,0:0:0:0:
256,192,63975,1,8,0:0:0:0:
288,192,64141,1,0,0:0:0:0:
256,192,64308,1,8,0:0:0:0:
256,192,64391,1,0,0:0:0:0:
256,192,64475,1,8,0:0:0:0:
256,192,64641,5,0,0:0:0:0:
256,192,64808,1,8,0:0:0:0:
256,192,64974,1,0,0:0:0:0:
252,184,65058,1,0,0:0:0:0:
256,192,65141,1,8,0:0:0:0:
256,168,65308,1,0,0:0:0:0:
256,192,65475,1,12,0:0:0:0:
256,192,65808,5,0,0:0:0:0:
256,192,66141,1,8,0:0:0:0:
256,192,66474,1,0,0:0:0:0:
256,192,67141,1,0,0:0:0:0:
256,192,67474,1,8,0:0:0:0:
256,192,67808,1,0,0:0:0:0:
256,192,68474,1,0,0:0:0:0:
256,192,68808,1,8,0:0:0:0:
256,192,69141,1,0,0:0:0:0:
256,192,69808,1,0,0:0:0:0:
256,192,70141,1,8,0:0:0:0:
256,192,70474,1,0,0:0:0:0:
256,192,70808,1,0,0:0:0:0:
256,192,70974,1,8,0:0:0:0:
256,192,71057,1,8,0:0:0:0:
256,192,71141,1,0,0:0:0:0:
256,192,71308,1,0,0:0:0:0:
256,192,71474,1,8,0:0:0:0:
256,192,71641,1,0,0:0:0:0:
256,192,71808,1,0,0:0:0:0:
256,192,71974,1,0,0:0:0:0:
256,192,72141,1,0,0:0:0:0:
256,192,72308,1,8,0:0:0:0:
256,192,72391,1,8,0:0:0:0:
256,192,72474,1,0,0:0:0:0:
256,192,72641,1,0,0:0:0:0:
256,192,72808,1,8,0:0:0:0:
256,192,72974,1,0,0:0:0:0:
256,192,73141,1,0,0:0:0:0:
256,192,73308,1,0,0:0:0:0:
256,192,73474,1,0,0:0:0:0:
256,192,73558,1,0,0:0:0:0:
256,192,73641,1,0,0:0:0:0:
256,192,73724,1,0,0:0:0:0:
256,192,73808,1,8,0:0:0:0:
256,192,73891,1,8,0:0:0:0:
256,192,73974,1,8,0:0:0:0:
256,192,74058,1,8,0:0:0:0:
256,192,74141,1,0,0:0:0:0:
256,192,74224,1,8,0:0:0:0:
256,192,74308,1,0,0:0:0:0:
256,192,74391,1,0,0:0:0:0:
256,192,74474,1,8,0:0:0:0:
256,192,74558,1,8,0:0:0:0:
256,192,74641,1,0,0:0:0:0:
244,192,74724,1,8,0:0:0:0:
256,184,74808,1,0,0:0:0:0:
232,184,75058,1,0,0:0:0:0:
256,192,75141,1,0,0:0:0:0:
256,192,75308,1,8,0:0:0:0:
248,188,75391,1,0,0:0:0:0:
240,184,75474,1,8,0:0:0:0:
256,160,75558,1,8,0:0:0:0:
256,192,75641,1,8,0:0:0:0:
256,192,75808,1,4,0:0:0:0:
256,192,76141,1,4,0:0:0:0:
256,192,76308,1,8,0:0:0:0:
256,192,76474,1,0,0:0:0:0:
256,192,76558,1,8,0:0:0:0:
256,192,76641,1,8,0:0:0:0:
256,192,76724,1,8,0:0:0:0:
256,192,76808,1,0,0:0:0:0:
256,192,76974,1,8,0:0:0:0:
256,192,77058,1,8,0:0:0:0:
256,192,77141,1,0,0:0:0:0:
256,192,77308,1,8,0:0:0:0:
256,192,77391,1,8,0:0:0:0:
256,192,77474,1,0,0:0:0:0:
256,192,77641,1,8,0:0:0:0:
256,192,77724,1,8,0:0:0:0:
256,192,77808,1,0,0:0:0:0:
256,192,77891,1,8,0:0:0:0:
256,192,77974,1,8,0:0:0:0:
256,192,78058,1,8,0:0:0:0:
256,192,78141,1,0,0:0:0:0:
256,192,78308,1,8,0:0:0:0:
256,192,78391,1,8,0:0:0:0:
256,192,78474,1,0,0:0:0:0:
256,192,78641,1,8,0:0:0:0:
256,192,78725,1,0,0:0:0:0:
256,192,78808,1,8,0:0:0:0:
256,192,78974,1,8,0:0:0:0:
256,192,79141,1,0,0:0:0:0:
256,192,79308,1,0,0:0:0:0:
256,192,79474,1,8,0:0:0:0:
256,192,79641,1,8,0:0:0:0:
256,192,79808,1,0,0:0:0:0:
256,192,79974,1,0,0:0:0:0:
256,192,80141,1,8,0:0:0:0:
256,224,80308,1,0,0:0:0:0:
256,224,80474,1,0,0:0:0:0:
256,224,80641,1,0,0:0:0:0:
256,224,80808,1,8,0:0:0:0:
256,224,80974,1,0,0:0:0:0:
256,224,81141,1,0,0:0:0:0:
256,224,81308,1,8,0:0:0:0:
260,208,81474,1,0,0:0:0:0:
256,256,81808,1,0,0:0:0:0:
256,224,81891,1,8,0:0:0:0:
256,256,81974,1,8,0:0:0:0:
256,256,82058,1,8,0:0:0:0:
256,256,82141,1,0,0:0:0:0:
256,256,82308,1,8,0:0:0:0:
256,256,82391,1,8,0:0:0:0:
256,256,82474,1,0,0:0:0:0:
256,256,82641,1,8,0:0:0:0:
256,256,82724,1,8,0:0:0:0:
256,256,82808,1,0,0:0:0:0:
256,256,82974,1,8,0:0:0:0:
256,256,83058,1,8,0:0:0:0:
256,256,83141,1,0,0:0:0:0:
256,256,83308,1,8,0:0:0:0:
256,256,83391,1,8,0:0:0:0:
256,256,83474,1,0,0:0:0:0:
256,256,83558,1,8,0:0:0:0:
256,256,83641,1,8,0:0:0:0:
256,256,83724,1,8,0:0:0:0:
256,256,83808,1,0,0:0:0:0:
256,256,83974,1,8,0:0:0:0:
256,256,84058,1,8,0:0:0:0:
256,256,84141,1,8,0:0:0:0:
256,256,84808,1,0,0:0:0:0:
256,256,85141,1,0,0:0:0:0:
256,256,85474,1,8,0:0:0:0:
256,256,85808,1,8,0:0:0:0:
256,256,86141,1,8,0:0:0:0:
256,256,86474,1,0,0:0:0:0:
256,256,87141,1,0,0:0:0:0:
256,256,87308,1,8,0:0:0:0:
256,256,87391,1,8,0:0:0:0:
256,256,87474,1,0,0:0:0:0:
256,256,87641,1,8,0:0:0:0:
256,256,87724,1,8,0:0:0:0:
256,256,87808,1,0,0:0:0:0:
256,256,87974,1,8,0:0:0:0:
256,256,88058,1,8,0:0:0:0:
256,256,88141,1,0,0:0:0:0:
256,256,88224,1,8,0:0:0:0:
256,256,88308,1,8,0:0:0:0:
256,256,88391,1,8,0:0:0:0:
256,256,88474,1,0,0:0:0:0:
256,256,88641,1,8,0:0:0:0:
256,256,88724,1,8,0:0:0:0:
256,256,88808,1,0,0:0:0:0:
224,256,88974,1,8,0:0:0:0:
224,256,89058,1,8,0:0:0:0:
256,256,89141,1,0,0:0:0:0:
224,256,89308,1,8,0:0:0:0:
224,256,89391,1,0,0:0:0:0:
224,256,89474,1,8,0:0:0:0:
224,256,89641,1,8,0:0:0:0:
248,248,89724,1,8,0:0:0:0:
224,256,89808,1,0,0:0:0:0:
224,256,89974,1,0,0:0:0:0:
224,256,90058,1,0,0:0:0:0:
224,256,90141,1,8,0:0:0:0:
192,200,90308,1,8,0:0:0:0:
192,200,90391,1,8,0:0:0:0:
256,256,90474,1,0,0:0:0:0:
256,256,90641,1,0,0:0:0:0:
256,256,90724,1,0,0:0:0:0:
256,256,90808,1,8,0:0:0:0:
256,256,90974,1,8,0:0:0:0:
256,256,91058,1,0,0:0:0:0:
256,256,91141,1,8,0:0:0:0:
256,256,91308,1,0,0:0:0:0:
256,256,91391,1,0,0:0:0:0:
256,256,91474,1,8,0:0:0:0:
256,256,91558,1,8,0:0:0:0:
256,256,91641,1,0,0:0:0:0:
256,256,91724,1,0,0:0:0:0:
256,256,91808,1,8,0:0:0:0:
188,192,91974,1,0,0:0:0:0:
256,256,92141,1,12,0:0:0:0:
256,224,92308,1,0,0:0:0:0:
259,229,92391,1,0,0:0:0:0:
256,224,92474,1,8,0:0:0:0:
256,224,92641,1,8,0:0:0:0:
256,224,92724,1,8,0:0:0:0:
276,204,92808,1,0,0:0:0:0:
276,204,92891,1,8,0:0:0:0:
256,224,92974,1,8,0:0:0:0:
256,224,93058,1,8,0:0:0:0:
256,224,93141,1,0,0:0:0:0:
256,224,93308,1,8,0:0:0:0:
256,224,93474,1,0,0:0:0:0:
256,224,93558,1,8,0:0:0:0:
256,224,93641,1,8,0:0:0:0:
256,224,93724,1,8,0:0:0:0:
256,224,93808,1,0,0:0:0:0:
256,224,93891,1,8,0:0:0:0:
256,224,93974,1,8,0:0:0:0:
256,224,94058,1,8,0:0:0:0:
256,224,94141,1,0,0:0:0:0:
224,184,94224,1,8,0:0:0:0:
256,224,94308,1,8,0:0:0:0:
256,224,94391,1,8,0:0:0:0:
256,224,94474,1,0,0:0:0:0:
256,224,94558,1,8,0:0:0:0:
256,224,94641,1,8,0:0:0:0:
256,224,94724,1,0,0:0:0:0:
256,224,94808,1,8,0:0:0:0:
256,224,95474,1,0,0:0:0:0:
256,224,95808,1,0,0:0:0:0:
256,224,96141,1,8,0:0:0:0:
264,216,96474,1,8,0:0:0:0:
268,208,96808,1,8,0:0:0:0:
268,208,97141,1,0,0:0:0:0:
256,224,97474,5,12,0:0:0:0:
192,192,97641,1,0,0:0:0:0:
244,184,97724,1,0,0:0:0:0:
256,224,97807,1,8,0:0:0:0:
256,224,97891,1,0,0:0:0:0:
256,224,97974,1,8,0:0:0:0:
140,224,98057,1,8,0:0:0:0:
256,224,98141,1,0,0:0:0:0:
256,224,98307,1,8,0:0:0:0:
256,224,98474,1,0,0:0:0:0:
256,224,98557,1,0,0:0:0:0:
256,224,98641,1,8,0:0:0:0:
220,160,98724,1,0,0:0:0:0:
256,224,98807,1,8,0:0:0:0:
192,192,98974,1,0,0:0:0:0:
256,224,99141,1,8,0:0:0:0:
256,224,99224,1,0,0:0:0:0:
288,224,99307,1,8,0:0:0:0:
248,196,99391,1,8,0:0:0:0:
288,224,99474,1,0,0:0:0:0:
288,224,99641,1,8,0:0:0:0:
288,224,99807,1,0,0:0:0:0:
288,224,99891,1,0,0:0:0:0:
288,224,99974,1,8,0:0:0:0:
192,160,100058,1,0,0:0:0:0:
288,224,100141,1,8,0:0:0:0:
192,160,100308,1,0,0:0:0:0:
288,224,100474,1,8,0:0:0:0:
212,192,100558,1,8,0:0:0:0:
212,192,100641,1,0,0:0:0:0:
240,148,100724,1,0,0:0:0:0:
256,192,100807,1,8,0:0:0:0:
256,160,100974,1,0,0:0:0:0:
320,224,101141,1,8,0:0:0:0:
252,168,101224,1,0,0:0:0:0:
288,224,101308,1,8,0:0:0:0:
256,192,101391,1,8,0:0:0:0:
224,192,101474,1,0,0:0:0:0:
256,160,101807,1,0,0:0:0:0:
256,192,101974,1,8,0:0:0:0:
256,192,102057,1,0,0:0:0:0:
256,192,102141,1,8,0:0:0:0:
248,184,102308,1,0,0:0:0:0:
256,192,102474,1,8,0:0:0:0:
256,192,102641,1,0,0:0:0:0:
252,176,102724,1,0,0:0:0:0:
256,224,102808,5,8,0:0:0:0:
192,192,102975,1,0,0:0:0:0:
256,192,103058,1,0,0:0:0:0:
256,224,103141,1,8,0:0:0:0:
256,224,103225,1,0,0:0:0:0:
256,224,103308,1,8,0:0:0:0:
140,224,103391,1,8,0:0:0:0:
256,224,103475,1,0,0:0:0:0:
256,224,103641,1,8,0:0:0:0:
256,224,103808,1,0,0:0:0:0:
256,224,103891,1,0,0:0:0:0:
256,224,103975,1,8,0:0:0:0:
220,160,104058,1,0,0:0:0:0:
256,224,104141,1,8,0:0:0:0:
192,192,104308,1,0,0:0:0:0:
256,224,104475,1,8,0:0:0:0:
256,224,104558,1,0,0:0:0:0:
288,224,104641,1,8,0:0:0:0:
248,196,104725,1,8,0:0:0:0:
288,224,104808,1,0,0:0:0:0:
288,224,104975,1,8,0:0:0:0:
288,224,105141,1,0,0:0:0:0:
288,224,105225,1,0,0:0:0:0:
288,224,105308,1,8,0:0:0:0:
288,224,105392,1,8,0:0:0:0:
192,160,105475,1,0,0:0:0:0:
240,168,105641,1,8,0:0:0:0:
284,184,105724,1,0,0:0:0:0:
288,192,105807,1,8,0:0:0:0:
68,136,105974,1,0,0:0:0:0:
288,192,106141,1,8,0:0:0:0:
288,192,106224,1,8,0:0:0:0:
236,144,106308,1,0,0:0:0:0:
68,136,106391,1,0,0:0:0:0:
288,192,106474,1,8,0:0:0:0:
288,192,106641,1,0,0:0:0:0:
256,192,106808,1,12,0:0:0:0:
256,192,106974,1,0,0:0:0:0:
200,172,107058,1,0,0:0:0:0:
256,192,107141,1,8,0:0:0:0:
256,192,107307,1,0,0:0:0:0:
256,192,107474,1,8,0:0:0:0:
256,192,107557,1,0,0:0:0:0:
256,192,107724,1,0,0:0:0:0:
256,192,107807,1,8,0:0:0:0:
256,192,107974,1,0,0:0:0:0:
224,192,108057,1,0,0:0:0:0:
256,224,108141,5,8,0:0:0:0:
192,192,108308,1,0,0:0:0:0:
256,192,108391,1,0,0:0:0:0:
256,224,108474,1,8,0:0:0:0:
256,224,108558,1,0,0:0:0:0:
256,224,108641,1,8,0:0:0:0:
140,224,108724,1,8,0:0:0:0:
256,224,108808,1,0,0:0:0:0:
256,224,108974,1,8,0:0:0:0:
256,224,109141,1,0,0:0:0:0:
256,224,109224,1,0,0:0:0:0:
256,224,109308,1,8,0:0:0:0:
220,160,109391,1,0,0:0:0:0:
256,224,109474,1,8,0:0:0:0:
192,192,109641,1,0,0:0:0:0:
256,224,109808,1,8,0:0:0:0:
256,224,109891,1,0,0:0:0:0:
288,224,109974,1,8,0:0:0:0:
248,196,110058,1,8,0:0:0:0:
288,224,110141,1,0,0:0:0:0:
288,224,110308,1,8,0:0:0:0:
288,224,110474,1,0,0:0:0:0:
288,224,110558,1,0,0:0:0:0:
288,224,110641,1,8,0:0:0:0:
192,160,110725,1,0,0:0:0:0:
288,224,110808,1,8,0:0:0:0:
256,160,110974,1,0,0:0:0:0:
288,224,111141,1,8,0:0:0:0:
272,160,111224,1,0,0:0:0:0:
224,160,111307,1,8,0:0:0:0:
280,200,111391,1,8,0:0:0:0:
288,224,111474,1,0,0:0:0:0:
224,160,111641,1,8,0:0:0:0:
288,224,111808,1,0,0:0:0:0:
272,204,111891,1,0,0:0:0:0:
256,192,111974,1,8,0:0:0:0:
288,224,112058,1,8,0:0:0:0:
288,224,112141,1,0,0:0:0:0:
256,160,112474,1,0,0:0:0:0:
256,192,112808,1,8,0:0:0:0:
288,192,112974,1,0,0:0:0:0:
288,192,113057,1,0,0:0:0:0:
256,192,113141,1,8,0:0:0:0:
256,160,113307,1,0,0:0:0:0:
256,192,113474,1,12,0:0:0:0:
256,192,113641,1,0,0:0:0:0:
256,192,113808,1,8,0:0:0:0:
288,192,113974,1,8,0:0:0:0:
320,224,114141,1,0,0:0:0:0:
288,224,114224,1,0,0:0:0:0:
288,224,114308,1,0,0:0:0:0:
288,224,114474,1,8,0:0:0:0:
288,192,114641,1,0,0:0:0:0:
288,192,114808,1,12,0:0:0:0:
288,192,114974,1,0,0:0:0:0:
256,160,115058,1,0,0:0:0:0:
288,192,115141,1,8,0:0:0:0:
288,192,115308,1,8,0:0:0:0:
288,192,115474,1,0,0:0:0:0:
288,192,115558,1,0,0:0:0:0:
288,192,115641,1,0,0:0:0:0:
288,160,115724,1,0,0:0:0:0:
288,192,115808,1,8,0:0:0:0:
288,192,115974,1,0,0:0:0:0:
288,192,116141,1,12,0:0:0:0:
288,192,116308,1,0,0:0:0:0:
288,192,116391,1,0,0:0:0:0:
280,188,116474,1,8,0:0:0:0:
240,176,116558,1,8,0:0:0:0:
288,192,116641,1,0,0:0:0:0:
288,192,116808,1,8,0:0:0:0:
304,196,116974,1,0,0:0:0:0:
288,192,117057,1,8,0:0:0:0:
288,192,117141,1,0,0:0:0:0:
256,192,117224,1,0,0:0:0:0:
256,192,117308,1,8,0:0:0:0:
288,192,117474,1,0,0:0:0:0:
240,184,117641,1,8,0:0:0:0:
256,192,117724,1,0,0:0:0:0:
256,192,117808,1,8,0:0:0:0:
256,192,117974,5,0,0:0:0:0:
256,192,118141,1,8,0:0:0:0:
228,192,118252,1,8,0:0:0:0:
256,192,118363,1,8,0:0:0:0:
256,192,118474,1,8,0:0:0:0:
240,200,118586,1,8,0:0:0:0:
228,192,118697,1,8,0:0:0:0:
256,192,118808,1,4,0:0:0:0:
256,192,119141,1,0,0:0:0:0:
256,192,119474,1,8,0:0:0:0:
256,192,119974,1,0,0:0:0:0:
256,192,120474,1,0,0:0:0:0:
256,192,120808,1,8,0:0:0:0:
256,192,120974,1,0,0:0:0:0:
256,192,121474,1,8,0:0:0:0:
256,192,121808,1,8,0:0:0:0:
256,192,122141,1,0,0:0:0:0:
256,192,122641,1,8,0:0:0:0:
256,192,123141,1,8,0:0:0:0:
256,192,123474,1,8,0:0:0:0:
256,192,123641,1,0,0:0:0:0:
256,192,124141,1,0,0:0:0:0:
256,192,124474,1,0,0:0:0:0:
256,192,124808,1,8,0:0:0:0:
256,192,125308,1,0,0:0:0:0:
256,192,125808,1,0,0:0:0:0:
256,192,126141,1,8,0:0:0:0:
256,192,126308,1,0,0:0:0:0:
272,184,126474,1,8,0:0:0:0:
256,192,126808,1,8,0:0:0:0:
288,192,126974,1,0,0:0:0:0:
256,192,127141,1,8,0:0:0:0:
256,192,127308,1,8,0:0:0:0:
288,192,127474,1,0,0:0:0:0:
288,192,127641,1,0,0:0:0:0:
288,192,127808,1,8,0:0:0:0:
288,192,127974,1,0,0:0:0:0:
288,192,128141,1,8,0:0:0:0:
256,192,128474,1,0,0:0:0:0:
256,192,128808,1,8,0:0:0:0:
256,192,129141,1,0,0:0:0:0:
256,192,129224,1,8,0:0:0:0:
256,192,129308,1,8,0:0:0:0:
256,192,129391,1,8,0:0:0:0:
256,192,129474,1,0,0:0:0:0:
256,192,129641,1,0,0:0:0:0:
256,192,129808,1,8,0:0:0:0:
256,192,129974,1,8,0:0:0:0:
256,192,130141,1,0,0:0:0:0:
256,192,130474,1,0,0:0:0:0:
256,192,130641,1,8,0:0:0:0:
256,192,130808,1,8,0:0:0:0:
256,192,130974,1,0,0:0:0:0:
256,192,131141,1,8,0:0:0:0:
256,192,131308,1,8,0:0:0:0:
256,192,131474,1,0,0:0:0:0:
256,192,131808,1,0,0:0:0:0:
256,192,131974,1,8,0:0:0:0:
256,192,132141,1,8,0:0:0:0:
256,192,132308,1,0,0:0:0:0:
256,192,132474,1,8,0:0:0:0:
256,192,132641,1,0,0:0:0:0:
256,204,132808,1,8,0:0:0:0:
256,192,132974,1,8,0:0:0:0:
256,192,133141,1,0,0:0:0:0:
256,192,133308,1,8,0:0:0:0:
256,192,133474,1,0,0:0:0:0:
256,192,133641,1,0,0:0:0:0:
256,192,133808,1,8,0:0:0:0:
256,192,133974,1,8,0:0:0:0:
256,192,134141,1,0,0:0:0:0:
256,192,134474,1,0,0:0:0:0:
256,192,134641,1,0,0:0:0:0:
256,192,134808,1,8,0:0:0:0:
256,128,134974,1,0,0:0:0:0:
256,128,135058,1,0,0:0:0:0:
256,192,135141,1,8,0:0:0:0:
256,160,135308,1,8,0:0:0:0:
256,160,135474,1,0,0:0:0:0:
256,160,135808,1,8,0:0:0:0:
256,160,135974,1,0,0:0:0:0:
256,160,136141,1,8,0:0:0:0:
256,160,136308,1,0,0:0:0:0:
256,128,136391,1,0,0:0:0:0:
256,160,136474,1,8,0:0:0:0:
256,160,136641,1,8,0:0:0:0:
256,160,136808,1,0,0:0:0:0:
256,160,137141,1,0,0:0:0:0:
224,160,137308,1,8,0:0:0:0:
256,160,137474,1,8,0:0:0:0:
264,164,137641,1,0,0:0:0:0:
256,160,137725,1,0,0:0:0:0:
240,164,137808,1,8,0:0:0:0:
256,160,137974,1,0,0:0:0:0:
256,160,138058,1,0,0:0:0:0:
256,160,138141,1,8,0:0:0:0:
256,160,138224,1,0,0:0:0:0:
264,156,138308,1,8,0:0:0:0:
232,156,138391,1,8,0:0:0:0:
256,192,138474,1,0,0:0:0:0:
244,176,138558,1,0,0:0:0:0:
264,160,138641,1,8,0:0:0:0:
244,176,138724,1,8,0:0:0:0:
256,160,138808,1,0,0:0:0:0:
256,160,139141,1,8,0:0:0:0:
256,160,139474,1,0,0:0:0:0:
256,160,139808,1,4,0:0:0:0:
256,224,140141,5,12,0:0:0:0:
192,256,140308,1,0,0:0:0:0:
192,224,140391,1,0,0:0:0:0:
256,224,140474,1,8,0:0:0:0:
256,224,140558,1,0,0:0:0:0:
256,224,140641,1,8,0:0:0:0:
192,192,140724,1,8,0:0:0:0:
256,224,140808,1,0,0:0:0:0:
256,224,140974,1,8,0:0:0:0:
256,224,141141,1,0,0:0:0:0:
256,224,141225,1,0,0:0:0:0:
256,224,141308,1,8,0:0:0:0:
256,224,141391,1,0,0:0:0:0:
256,224,141474,1,8,0:0:0:0:
256,224,141641,1,0,0:0:0:0:
288,224,141724,1,0,0:0:0:0:
256,224,141808,1,8,0:0:0:0:
256,224,141891,1,0,0:0:0:0:
288,224,141974,1,8,0:0:0:0:
192,192,142058,1,8,0:0:0:0:
256,192,142141,1,0,0:0:0:0:
288,224,142308,1,8,0:0:0:0:
288,224,142474,1,0,0:0:0:0:
288,224,142558,1,0,0:0:0:0:
288,224,142641,1,8,0:0:0:0:
288,224,142725,1,0,0:0:0:0:
288,224,142808,1,8,0:0:0:0:
256,224,142974,1,0,0:0:0:0:
288,212,143058,1,0,0:0:0:0:
288,224,143141,1,8,0:0:0:0:
236,152,143224,1,8,0:0:0:0:
236,152,143308,1,0,0:0:0:0:
288,224,143391,1,8,0:0:0:0:
288,224,143474,1,0,0:0:0:0:
320,224,143641,1,8,0:0:0:0:
288,192,143808,1,0,0:0:0:0:
260,168,143891,1,0,0:0:0:0:
256,224,143974,1,8,0:0:0:0:
288,224,144058,1,8,0:0:0:0:
256,192,144141,1,0,0:0:0:0:
288,224,144308,1,8,0:0:0:0:
256,160,144474,1,0,0:0:0:0:
256,192,144641,1,8,0:0:0:0:
256,192,144724,1,0,0:0:0:0:
192,192,144808,1,8,0:0:0:0:
256,192,144974,1,0,0:0:0:0:
224,192,145058,1,0,0:0:0:0:
256,192,145141,1,8,0:0:0:0:
256,192,145308,1,0,0:0:0:0:
256,192,145474,1,8,0:0:0:0:
256,192,145641,1,0,0:0:0:0:
256,192,145724,1,0,0:0:0:0:
256,192,145808,1,8,0:0:0:0:
256,160,145891,1,0,0:0:0:0:
320,224,145974,1,8,0:0:0:0:
224,192,146058,1,8,0:0:0:0:
320,224,146141,1,0,0:0:0:0:
256,160,146308,1,8,0:0:0:0:
256,160,146474,1,0,0:0:0:0:
288,192,146558,1,0,0:0:0:0:
288,224,146641,1,8,0:0:0:0:
224,192,146724,1,0,0:0:0:0:
288,192,146808,1,8,0:0:0:0:
288,192,146974,1,0,0:0:0:0:
288,160,147058,1,0,0:0:0:0:
288,192,147141,1,8,0:0:0:0:
256,160,147224,1,0,0:0:0:0:
288,192,147308,1,8,0:0:0:0:
256,160,147391,1,8,0:0:0:0:
256,160,147474,1,0,0:0:0:0:
288,192,147641,1,8,0:0:0:0:
288,192,147808,1,0,0:0:0:0:
288,192,147891,1,0,0:0:0:0:
268,184,147974,1,8,0:0:0:0:
256,224,148058,1,0,0:0:0:0:
288,192,148141,1,8,0:0:0:0:
288,192,148308,1,0,0:0:0:0:
264,168,148475,1,8,0:0:0:0:
264,168,148558,1,0,0:0:0:0:
288,192,148641,1,8,0:0:0:0:
256,188,148724,1,8,0:0:0:0:
248,188,148808,1,0,0:0:0:0:
288,192,148974,1,8,0:0:0:0:
252,176,149058,1,8,0:0:0:0:
252,176,149141,1,0,0:0:0:0:
236,180,149308,1,0,0:0:0:0:
256,192,149474,1,12,0:0:0:0:
256,192,149641,1,0,0:0:0:0:
256,192,149724,1,0,0:0:0:0:
256,192,149808,1,8,0:0:0:0:
256,192,149974,1,0,0:0:0:0:
256,192,150141,1,8,0:0:0:0:
256,192,150224,1,0,0:0:0:0:
256,192,150391,1,0,0:0:0:0:
256,192,150474,1,8,0:0:0:0:
256,192,150641,1,0,0:0:0:0:
224,192,150724,1,0,0:0:0:0:
256,224,150808,1,8,0:0:0:0:
192,256,150974,1,0,0:0:0:0:
256,224,151058,1,0,0:0:0:0:
256,192,151141,1,8,0:0:0:0:
256,224,151225,1,0,0:0:0:0:
256,224,151308,1,8,0:0:0:0:
256,160,151391,1,8,0:0:0:0:
256,224,151474,1,0,0:0:0:0:
256,224,151641,1,8,0:0:0:0:
256,224,151808,1,0,0:0:0:0:
224,192,151891,1,0,0:0:0:0:
256,224,151974,1,8,0:0:0:0:
224,192,152058,1,8,0:0:0:0:
256,224,152141,1,0,0:0:0:0:
256,224,152308,1,8,0:0:0:0:
224,192,152391,1,8,0:0:0:0:
224,192,152475,1,0,0:0:0:0:
288,224,152558,1,0,0:0:0:0:
256,160,152641,1,8,0:0:0:0:
256,224,152725,1,8,0:0:0:0:
288,224,152808,1,0,0:0:0:0:
288,224,152974,1,8,0:0:0:0:
288,224,153141,1,0,0:0:0:0:
288,224,153225,1,0,0:0:0:0:
288,224,153308,1,8,0:0:0:0:
224,192,153391,1,0,0:0:0:0:
288,224,153474,1,8,0:0:0:0:
256,224,153641,1,0,0:0:0:0:
208,204,153725,1,0,0:0:0:0:
288,224,153808,1,8,0:0:0:0:
288,224,153891,1,0,0:0:0:0:
256,224,153975,1,8,0:0:0:0:
288,184,154058,1,8,0:0:0:0:
288,224,154141,1,0,0:0:0:0:
256,224,154308,1,8,0:0:0:0:
288,224,154475,1,0,0:0:0:0:
280,208,154558,1,0,0:0:0:0:
280,208,154641,1,8,0:0:0:0:
288,224,154725,1,0,0:0:0:0:
288,224,154808,1,8,0:0:0:0:
288,224,154975,1,0,0:0:0:0:
256,160,155058,1,0,0:0:0:0:
224,192,155141,5,8,0:0:0:0:
256,192,155308,1,0,0:0:0:0:
288,192,155391,1,0,0:0:0:0:
256,192,155475,1,8,0:0:0:0:
256,192,155558,1,8,0:0:0:0:
256,192,155641,1,0,0:0:0:0:
288,192,155724,1,0,0:0:0:0:
256,192,155808,1,8,0:0:0:0:
256,160,155974,1,0,0:0:0:0:
256,192,156141,1,12,0:0:0:0:
256,192,156308,5,0,0:0:0:0:
256,192,156475,1,8,0:0:0:0:
256,160,156558,1,8,0:0:0:0:
288,192,156641,1,8,0:0:0:0:
320,224,156808,1,0,0:0:0:0:
288,224,156891,1,0,0:0:0:0:
288,224,156974,1,0,0:0:0:0:
288,224,157141,1,8,0:0:0:0:
344,192,157308,1,0,0:0:0:0:
288,192,157474,1,12,0:0:0:0:
288,192,157641,1,0,0:0:0:0:
256,160,157725,1,0,0:0:0:0:
288,192,157808,1,8,0:0:0:0:
288,192,157975,1,8,0:0:0:0:
288,192,158141,1,0,0:0:0:0:
288,192,158225,1,0,0:0:0:0:
288,192,158308,1,0,0:0:0:0:
288,160,158391,1,0,0:0:0:0:
288,192,158475,1,8,0:0:0:0:
288,192,158641,1,0,0:0:0:0:
288,192,158808,1,12,0:0:0:0:
288,192,158975,1,0,0:0:0:0:
288,192,159058,1,0,0:0:0:0:
280,188,159141,1,8,0:0:0:0:
288,192,159224,1,8,0:0:0:0:
288,192,159308,1,0,0:0:0:0:
288,192,159474,1,8,0:0:0:0:
304,196,159641,1,0,0:0:0:0:
288,192,159724,1,8,0:0:0:0:
288,192,159808,1,0,0:0:0:0:
256,192,159891,1,0,0:0:0:0:
256,192,159975,1,8,0:0:0:0:
288,192,160141,1,0,0:0:0:0:
256,192,160308,1,8,0:0:0:0:
256,192,160391,1,8,0:0:0:0:
256,192,160474,1,0,0:0:0:0:
256,192,160641,5,8,0:0:0:0:
256,192,160808,1,0,0:0:0:0:
256,192,160891,1,8,0:0:0:0:
256,192,160974,1,8,0:0:0:0:
256,192,161058,1,8,0:0:0:0:
256,192,161141,1,0,0:0:0:0:
256,192,161308,1,8,0:0:0:0:
264,172,161474,1,4,0:0:0:0:
256,192,161807,1,0,0:0:0:0:
256,192,161891,1,8,0:0:0:0:
256,192,161974,1,8,0:0:0:0:
256,192,162057,1,8,0:0:0:0:
256,192,162141,1,0,0:0:0:0:
256,192,162307,1,8,0:0:0:0:
256,192,162391,1,8,0:0:0:0:
256,192,162474,1,0,0:0:0:0:
256,192,162641,1,8,0:0:0:0:
256,192,162724,1,8,0:0:0:0:
256,192,162807,1,0,0:0:0:0:
256,192,162974,1,8,0:0:0:0:
256,192,163057,1,8,0:0:0:0:
256,192,163141,1,0,0:0:0:0:
256,192,163224,1,8,0:0:0:0:
256,192,163307,1,8,0:0:0:0:
256,192,163391,1,8,0:0:0:0:
256,192,163474,1,0,0:0:0:0:
256,192,163641,1,8,0:0:0:0:
256,192,163724,1,8,0:0:0:0:
256,192,163807,1,0,0:0:0:0:
256,192,163974,1,8,0:0:0:0:
256,192,164058,1,0,0:0:0:0:
256,192,164141,1,8,0:0:0:0:
256,192,164307,1,8,0:0:0:0:
256,192,164474,1,0,0:0:0:0:
256,192,164641,1,0,0:0:0:0:
256,192,164807,1,8,0:0:0:0:
256,192,164974,1,8,0:0:0:0:
256,192,165141,1,0,0:0:0:0:
256,192,165307,1,0,0:0:0:0:
256,192,165474,1,8,0:0:0:0:
256,224,165641,1,0,0:0:0:0:
256,224,165807,1,0,0:0:0:0:
256,224,165974,1,0,0:0:0:0:
256,224,166141,1,8,0:0:0:0:
256,224,166307,1,0,0:0:0:0:
256,224,166474,1,0,0:0:0:0:
256,224,166641,1,8,0:0:0:0:
256,256,167141,1,0,0:0:0:0:
256,224,167224,1,8,0:0:0:0:
256,256,167307,1,8,0:0:0:0:
256,256,167391,1,8,0:0:0:0:
256,256,167474,1,0,0:0:0:0:
256,256,167641,1,8,0:0:0:0:
256,256,167724,1,8,0:0:0:0:
256,256,167807,1,0,0:0:0:0:
256,256,167974,1,8,0:0:0:0:
256,256,168057,1,8,0:0:0:0:
256,256,168141,1,0,0:0:0:0:
256,256,168307,1,8,0:0:0:0:
256,256,168391,1,8,0:0:0:0:
256,256,168474,1,0,0:0:0:0:
256,256,168641,1,8,0:0:0:0:
256,256,168724,1,8,0:0:0:0:
256,256,168807,1,0,0:0:0:0:
256,256,168891,1,8,0:0:0:0:
256,256,168974,1,8,0:0:0:0:
256,256,169057,1,8,0:0:0:0:
256,256,169141,1,0,0:0:0:0:
256,256,169307,1,8,0:0:0:0:
256,256,169391,1,8,0:0:0:0:
256,256,169474,1,0,0:0:0:0:
224,160,169641,1,8,0:0:0:0:
224,160,169724,1,8,0:0:0:0:
224,160,169808,1,0,0:0:0:0:
224,160,169974,1,8,0:0:0:0:
256,256,170058,1,8,0:0:0:0:
224,160,170141,1,0,0:0:0:0:
224,160,170308,1,8,0:0:0:0:
224,160,170391,1,8,0:0:0:0:
256,256,170474,1,0,0:0:0:0:
224,160,170641,1,8,0:0:0:0:
224,160,170724,1,0,0:0:0:0:
256,256,170807,1,8,0:0:0:0:
256,160,170974,1,0,0:0:0:0:
224,188,171058,1,0,0:0:0:0:
256,256,171141,1,8,0:0:0:0:
256,160,171308,1,8,0:0:0:0:
256,160,171391,1,0,0:0:0:0:
256,256,171474,1,8,0:0:0:0:
256,160,171641,1,8,0:0:0:0:
224,188,171724,1,0,0:0:0:0:
192,192,171807,1,8,0:0:0:0:
256,256,171974,1,0,0:0:0:0:
288,160,172141,1,12,0:0:0:0:
288,160,172308,1,0,0:0:0:0:
288,160,172474,1,0,0:0:0:0:
256,256,172558,1,8,0:0:0:0:
256,256,172641,1,8,0:0:0:0:
256,256,172724,1,8,0:0:0:0:
256,256,172807,1,0,0:0:0:0:
256,256,172974,1,8,0:0:0:0:
256,256,173057,1,8,0:0:0:0:
256,256,173141,1,0,0:0:0:0:
256,256,173307,1,8,0:0:0:0:
256,256,173391,1,8,0:0:0:0:
256,256,173474,1,0,0:0:0:0:
256,256,173557,1,8,0:0:0:0:
256,256,173641,1,8,0:0:0:0:
256,256,173724,1,8,0:0:0:0:
256,256,173807,1,0,0:0:0:0:
256,256,173974,1,8,0:0:0:0:
256,256,174057,1,8,0:0:0:0:
256,256,174141,1,0,0:0:0:0:
224,256,174307,1,8,0:0:0:0:
224,256,174391,1,8,0:0:0:0:
256,256,174474,1,0,0:0:0:0:
224,256,174641,1,8,0:0:0:0:
224,256,174724,1,0,0:0:0:0:
224,256,174807,1,8,0:0:0:0:
224,256,174974,1,8,0:0:0:0:
224,240,175058,1,0,0:0:0:0:
224,256,175141,1,0,0:0:0:0:
224,256,175307,1,8,0:0:0:0:
224,256,175391,1,0,0:0:0:0:
224,256,175474,1,8,0:0:0:0:
256,256,175641,1,0,0:0:0:0:
244,236,175724,1,0,0:0:0:0:
256,256,175808,1,8,0:0:0:0:
256,256,175974,1,8,0:0:0:0:
256,256,176057,1,0,0:0:0:0:
256,256,176141,1,8,0:0:0:0:
256,256,176307,1,8,0:0:0:0:
256,256,176391,1,8,0:0:0:0:
256,256,176474,1,0,0:0:0:0:
256,256,176641,1,8,0:0:0:0:
256,224,176724,1,8,0:0:0:0:
256,224,176808,1,0,0:0:0:0:
256,256,176891,1,0,0:0:0:0:
256,256,176974,1,8,0:0:0:0:
256,256,177057,1,0,0:0:0:0:
256,256,177141,1,8,0:0:0:0:
256,256,177307,1,0,0:0:0:0:
224,224,177474,1,0,0:0:0:0:
256,224,177641,1,8,0:0:0:0:
256,224,177724,1,8,0:0:0:0:
256,224,177807,1,0,0:0:0:0:
256,224,177974,1,8,0:0:0:0:
256,224,178057,1,8,0:0:0:0:
256,224,178141,1,0,0:0:0:0:
256,224,178307,1,8,0:0:0:0:
256,224,178391,1,8,0:0:0:0:
256,224,178474,1,0,0:0:0:0:
256,192,178641,1,8,0:0:0:0:
256,192,178724,1,8,0:0:0:0:
256,192,178808,1,0,0:0:0:0:
256,192,178974,1,8,0:0:0:0:
256,192,179058,1,8,0:0:0:0:
256,192,179141,1,0,0:0:0:0:
256,192,179224,1,8,0:0:0:0:
256,192,179308,1,8,0:0:0:0:
256,192,179391,1,8,0:0:0:0:
256,192,179474,1,0,0:0:0:0:
256,192,179641,1,8,0:0:0:0:
256,192,179724,1,8,0:0:0:0:
256,192,179808,1,0,0:0:0:0:
256,192,179974,1,8,0:0:0:0:
260,212,180058,1,8,0:0:0:0:
248,196,180141,1,0,0:0:0:0:
256,224,180224,1,8,0:0:0:0:
256,224,180308,1,8,0:0:0:0:
256,224,180391,1,8,0:0:0:0:
256,224,180474,1,0,0:0:0:0:
256,224,180557,1,8,0:0:0:0:
256,224,180641,1,8,0:0:0:0:
256,224,180724,1,8,0:0:0:0:
256,224,180807,1,0,0:0:0:0:
212,156,180891,1,8,0:0:0:0:
212,156,180974,1,8,0:0:0:0:
256,224,181057,1,8,0:0:0:0:
256,224,181141,1,0,0:0:0:0:
256,224,181224,1,0,0:0:0:0:
256,224,181308,1,8,0:0:0:0:
232,196,181391,1,8,0:0:0:0:
256,224,181474,1,0,0:0:0:0:
256,128,181808,1,8,0:0:0:0:
256,128,182141,1,8,0:0:0:0:
256,128,182474,1,0,0:0:0:0:
256,128,182808,5,12,0:0:0:0:
256,160,183474,1,0,0:0:0:0:
288,192,183808,1,0,0:0:0:0:
288,192,184141,1,8,0:0:0:0:
192,160,184808,5,0,0:0:0:0:
192,192,185141,1,0,0:0:0:0:
192,192,185474,1,8,0:0:0:0:
192,192,185808,1,8,0:0:0:0:
192,192,186141,1,0,0:0:0:0:
96,192,186474,1,8,0:0:0:0:
96,192,186808,1,0,0:0:0:0:
160,128,187474,1,0,0:0:0:0:
160,128,187808,1,0,0:0:0:0:
256,192,188141,1,8,0:0:0:0:
192,128,188808,1,0,0:0:0:0:
192,128,189141,1,0,0:0:0:0:
192,128,189474,1,0,0:0:0:0:
192,128,189808,1,8,0:0:0:0:
192,128,190141,1,8,0:0:0:0:
192,160,190474,1,8,0:0:0:0:
192,160,190808,1,0,0:0:0:0:
256,128,192474,1,8,0:0:0:0:
256,128,192807,1,8,0:0:0:0:
256,128,193140,1,0,0:0:0:0:
256,128,193474,5,8,0:0:0:0:
224,128,193641,1,0,0:0:0:0:
224,128,193808,1,0,0:0:0:0:
224,128,193974,1,8,0:0:0:0:
288,192,194141,1,0,0:0:0:0:
288,192,194308,1,8,0:0:0:0:
260,156,194474,1,0,0:0:0:0:
288,192,194807,1,8,0:0:0:0:
256,160,194974,1,0,0:0:0:0:
256,160,195141,1,0,0:0:0:0:
160,160,195308,1,0,0:0:0:0:
192,192,195474,1,8,0:0:0:0:
164,196,195641,1,0,0:0:0:0:
192,192,195807,1,8,0:0:0:0:
192,192,196140,1,8,0:0:0:0:
288,192,196308,1,0,0:0:0:0:
288,192,196474,1,0,0:0:0:0:
192,192,196641,1,8,0:0:0:0:
192,192,196807,1,0,0:0:0:0:
288,192,196974,1,0,0:0:0:0:
96,192,197141,1,8,0:0:0:0:
96,192,197308,1,0,0:0:0:0:
288,192,197474,1,8,0:0:0:0:
216,176,197641,1,0,0:0:0:0:
216,160,197808,1,0,0:0:0:0:
160,128,198140,1,0,0:0:0:0:
216,164,198308,1,0,0:0:0:0:
160,128,198474,1,8,0:0:0:0:
148,168,198641,1,0,0:0:0:0:
256,192,198808,5,8,0:0:0:0:
224,192,198974,1,0,0:0:0:0:
224,192,199141,1,0,0:0:0:0:
224,192,199308,1,8,0:0:0:0:
192,160,199641,1,0,0:0:0:0:
192,128,199808,1,8,0:0:0:0:
192,128,200140,1,8,0:0:0:0:
224,192,200308,1,0,0:0:0:0:
192,128,200474,1,0,0:0:0:0:
224,192,200641,1,8,0:0:0:0:
192,128,200808,1,0,0:0:0:0:
192,160,200974,1,8,0:0:0:0:
208,164,201141,1,0,0:0:0:0:
192,160,201474,1,8,0:0:0:0:
224,192,201641,1,0,0:0:0:0:
224,192,201808,1,0,0:0:0:0:
224,192,201974,1,8,0:0:0:0:
224,192,202308,1,0,0:0:0:0:
256,160,202474,1,8,0:0:0:0:
256,160,202641,1,0,0:0:0:0:
256,160,202808,1,8,0:0:0:0:
160,224,203141,1,8,0:0:0:0:
64,224,203474,1,8,0:0:0:0:
64,224,203808,1,0,0:0:0:0:
256,192,204141,5,12,0:0:0:0:
256,192,204474,1,0,0:0:0:0:
256,192,204808,1,0,0:0:0:0:
256,192,204974,1,0,0:0:0:0:
256,192,205141,1,0,0:0:0:0:
256,192,205474,1,8,0:0:0:0:
256,192,205808,1,0,0:0:0:0:
256,192,206141,1,0,0:0:0:0:
256,192,206308,1,0,0:0:0:0:
256,192,206474,1,0,0:0:0:0:
256,192,206808,1,8,0:0:0:0:
256,192,207141,1,8,0:0:0:0:
256,192,207474,1,0,0:0:0:0:
256,192,207641,1,0,0:0:0:0:
256,192,207808,1,8,0:0:0:0:
256,192,208141,1,0,0:0:0:0:
256,192,208474,1,0,0:0:0:0:
256,192,208808,1,0,0:0:0:0:
224,160,208974,1,0,0:0:0:0:
256,192,209141,1,0,0:0:0:0:
256,192,209474,1,8,0:0:0:0:
256,192,209808,1,0,0:0:0:0:
256,192,210141,1,0,0:0:0:0:
224,160,210308,1,0,0:0:0:0:
256,192,210474,1,0,0:0:0:0:
256,192,210808,1,8,0:0:0:0:
256,192,211141,1,8,0:0:0:0:
256,192,211474,1,8,0:0:0:0:
256,160,211641,1,0,0:0:0:0:
256,192,211808,1,8,0:0:0:0:
256,192,212141,1,0,0:0:0:0:
256,192,212474,1,0,0:0:0:0:
256,192,212808,1,0,0:0:0:0:
256,192,212974,1,0,0:0:0:0:
256,192,213141,1,0,0:0:0:0:
256,192,213474,1,0,0:0:0:0:
256,192,213808,1,8,0:0:0:0:
256,192,214141,1,8,0:0:0:0:
224,160,214308,1,0,0:0:0:0:
256,192,214474,1,0,0:0:0:0:
256,192,214808,1,12,0:0:0:0:
192,160,214974,1,0,0:0:0:0:
192,160,215141,1,0,0:0:0:0:
192,160,215308,1,0,0:0:0:0:
192,160,215474,1,0,0:0:0:0:
224,160,215641,1,0,0:0:0:0:
192,160,215808,1,8,0:0:0:0:
192,160,216141,1,8,0:0:0:0:
224,160,216308,1,0,0:0:0:0:
224,160,216474,1,0,0:0:0:0:
224,160,216641,1,0,0:0:0:0:
224,160,216808,1,0,0:0:0:0:
224,192,216974,1,0,0:0:0:0:
224,160,217141,1,8,0:0:0:0:
224,160,217474,1,8,0:0:0:0:
224,160,217641,1,0,0:0:0:0:
224,160,217808,1,8,0:0:0:0:
224,160,217974,1,0,0:0:0:0:
224,160,218141,1,0,0:0:0:0:
224,160,218308,1,0,0:0:0:0:
224,160,218474,1,8,0:0:0:0:
224,160,218641,1,0,0:0:0:0:
192,160,218808,1,0,0:0:0:0:
224,160,219141,1,0,0:0:0:0:
224,160,219474,1,0,0:0:0:0:
288,160,219641,1,0,0:0:0:0:
224,160,219808,1,0,0:0:0:0:
224,160,220141,1,12,0:0:0:0:
224,160,220308,1,8,0:0:0:0:
224,160,220391,1,8,0:0:0:0:
224,160,220474,1,0,0:0:0:0:
224,160,220641,1,8,0:0:0:0:
224,160,220808,1,0,0:0:0:0:
224,160,220974,1,0,0:0:0:0:
224,160,221141,1,8,0:0:0:0:
224,160,221308,1,0,0:0:0:0:
224,160,221474,1,12,0:0:0:0:
224,160,221641,1,8,0:0:0:0:
224,160,221724,1,8,0:0:0:0:
224,160,221808,1,0,0:0:0:0:
224,160,221974,1,0,0:0:0:0:
224,160,222141,1,12,0:0:0:0:
224,160,222308,1,0,0:0:0:0:
224,160,222474,1,8,0:0:0:0:
224,160,222641,1,0,0:0:0:0:
232,152,222808,1,8,0:0:0:0:
196,168,222891,1,8,0:0:0:0:
224,160,222974,1,8,0:0:0:0:
224,160,223058,1,8,0:0:0:0:
224,160,223141,1,0,0:0:0:0:
224,160,223224,1,0,0:0:0:0:
224,160,223308,1,0,0:0:0:0:
224,160,223391,1,0,0:0:0:0:
224,160,223474,1,8,0:0:0:0:
224,160,223558,1,8,0:0:0:0:
224,160,223641,1,0,0:0:0:0:
224,160,223724,1,8,0:0:0:0:
224,160,223808,1,0,0:0:0:0:
224,160,223891,1,0,0:0:0:0:
224,160,223974,1,8,0:0:0:0:
224,160,224058,1,0,0:0:0:0:
224,160,224141,1,8,0:0:0:0:
224,160,224474,1,8,0:0:0:0:
224,160,224808,1,8,0:0:0:0:
224,160,225141,1,4,0:0:0:0:
256,224,225474,5,12,0:0:0:0:
192,256,225641,1,0,0:0:0:0:
192,224,225724,1,0,0:0:0:0:
256,224,225807,1,8,0:0:0:0:
256,224,225891,1,0,0:0:0:0:
256,224,225974,1,8,0:0:0:0:
192,192,226057,1,8,0:0:0:0:
256,224,226141,1,0,0:0:0:0:
256,224,226307,1,8,0:0:0:0:
256,224,226474,1,0,0:0:0:0:
256,224,226558,1,0,0:0:0:0:
256,224,226641,1,8,0:0:0:0:
256,224,226724,1,0,0:0:0:0:
256,224,226807,1,8,0:0:0:0:
256,224,226974,1,0,0:0:0:0:
288,224,227057,1,0,0:0:0:0:
256,224,227141,1,8,0:0:0:0:
256,224,227224,1,0,0:0:0:0:
288,224,227307,1,8,0:0:0:0:
192,192,227391,1,8,0:0:0:0:
256,192,227474,1,0,0:0:0:0:
288,224,227641,1,8,0:0:0:0:
288,224,227807,1,0,0:0:0:0:
288,224,227891,1,0,0:0:0:0:
288,224,227974,1,8,0:0:0:0:
288,224,228058,1,0,0:0:0:0:
288,224,228141,1,8,0:0:0:0:
256,224,228307,1,0,0:0:0:0:
288,224,228391,1,0,0:0:0:0:
288,224,228474,1,8,0:0:0:0:
256,224,228557,1,8,0:0:0:0:
256,160,228641,1,0,0:0:0:0:
288,224,228724,1,0,0:0:0:0:
288,224,228807,1,8,0:0:0:0:
320,224,228974,1,0,0:0:0:0:
288,192,229141,1,8,0:0:0:0:
288,224,229224,1,0,0:0:0:0:
256,224,229307,1,8,0:0:0:0:
288,224,229391,1,8,0:0:0:0:
256,192,229474,1,0,0:0:0:0:
288,224,229641,1,8,0:0:0:0:
192,192,229724,1,8,0:0:0:0:
256,160,229807,1,0,0:0:0:0:
256,192,229974,1,8,0:0:0:0:
244,192,230058,1,8,0:0:0:0:
256,192,230141,1,0,0:0:0:0:
224,192,230224,1,8,0:0:0:0:
256,192,230307,1,0,0:0:0:0:
256,192,230391,1,0,0:0:0:0:
256,192,230474,1,8,0:0:0:0:
256,192,230641,1,0,0:0:0:0:
256,192,230807,1,8,0:0:0:0:
256,192,230974,1,0,0:0:0:0:
256,192,231057,1,0,0:0:0:0:
256,192,231141,1,8,0:0:0:0:
256,160,231224,1,0,0:0:0:0:
320,224,231307,1,8,0:0:0:0:
224,192,231391,1,8,0:0:0:0:
320,224,231474,1,0,0:0:0:0:
256,160,231641,1,8,0:0:0:0:
256,160,231807,1,0,0:0:0:0:
288,192,231891,1,0,0:0:0:0:
288,224,231974,1,8,0:0:0:0:
224,192,232057,1,0,0:0:0:0:
288,192,232141,1,8,0:0:0:0:
288,192,232307,1,0,0:0:0:0:
288,160,232391,1,0,0:0:0:0:
288,192,232474,1,8,0:0:0:0:
256,160,232557,1,0,0:0:0:0:
288,192,232641,1,8,0:0:0:0:
256,160,232724,1,8,0:0:0:0:
256,160,232807,1,0,0:0:0:0:
288,192,232974,1,8,0:0:0:0:
288,192,233141,1,0,0:0:0:0:
268,184,233224,1,8,0:0:0:0:
288,192,233307,1,8,0:0:0:0:
256,224,233391,1,0,0:0:0:0:
288,192,233474,1,8,0:0:0:0:
288,192,233641,1,0,0:0:0:0:
264,168,233808,1,8,0:0:0:0:
228,176,233891,1,0,0:0:0:0:
288,192,233974,1,8,0:0:0:0:
288,192,234058,1,0,0:0:0:0:
248,188,234141,1,0,0:0:0:0:
288,192,234307,1,8,0:0:0:0:
288,192,234391,1,0,0:0:0:0:
288,192,234474,1,8,0:0:0:0:
236,180,234641,1,0,0:0:0:0:
256,192,234807,1,12,0:0:0:0:
256,192,234974,1,0,0:0:0:0:
256,192,235057,1,0,0:0:0:0:
256,192,235141,1,8,0:0:0:0:
256,192,235307,1,0,0:0:0:0:
256,192,235474,1,8,0:0:0:0:
256,192,235557,1,0,0:0:0:0:
256,192,235724,1,0,0:0:0:0:
256,192,235807,1,8,0:0:0:0:
256,192,235974,1,0,0:0:0:0:
224,192,236057,1,0,0:0:0:0:
256,224,236141,1,8,0:0:0:0:
192,256,236307,1,0,0:0:0:0:
256,224,236391,1,0,0:0:0:0:
256,192,236474,1,8,0:0:0:0:
256,224,236558,1,0,0:0:0:0:
256,224,236641,1,8,0:0:0:0:
256,160,236724,1,8,0:0:0:0:
256,224,236807,1,0,0:0:0:0:
256,224,236974,1,8,0:0:0:0:
256,224,237141,1,0,0:0:0:0:
224,192,237224,1,0,0:0:0:0:
256,224,237307,1,8,0:0:0:0:
224,192,237391,1,8,0:0:0:0:
256,224,237474,1,0,0:0:0:0:
256,224,237641,1,8,0:0:0:0:
224,192,237724,1,0,0:0:0:0:
256,160,237808,1,8,0:0:0:0:
224,192,237891,1,0,0:0:0:0:
288,224,237974,1,8,0:0:0:0:
256,224,238058,1,0,0:0:0:0:
288,224,238141,1,0,0:0:0:0:
288,224,238307,1,8,0:0:0:0:
288,224,238474,1,0,0:0:0:0:
288,224,238558,1,0,0:0:0:0:
288,224,238641,1,8,0:0:0:0:
224,192,238724,1,0,0:0:0:0:
288,224,238807,1,8,0:0:0:0:
256,224,238974,1,0,0:0:0:0:
208,204,239058,1,0,0:0:0:0:
288,224,239141,1,8,0:0:0:0:
288,224,239224,1,0,0:0:0:0:
256,224,239308,1,8,0:0:0:0:
288,184,239391,1,8,0:0:0:0:
288,224,239474,1,0,0:0:0:0:
256,224,239641,1,8,0:0:0:0:
288,224,239808,1,0,0:0:0:0:
280,208,239891,1,0,0:0:0:0:
280,208,239974,1,8,0:0:0:0:
288,224,240058,1,0,0:0:0:0:
288,224,240141,1,8,0:0:0:0:
256,184,240224,1,8,0:0:0:0:
288,224,240308,1,0,0:0:0:0:
256,160,240391,1,0,0:0:0:0:
224,192,240474,1,8,0:0:0:0:
256,192,240641,1,0,0:0:0:0:
256,192,240724,1,8,0:0:0:0:
288,192,240808,1,0,0:0:0:0:
256,192,240974,1,8,0:0:0:0:
288,192,241057,1,0,0:0:0:0:
256,192,241141,1,8,0:0:0:0:
160,192,241224,1,8,0:0:0:0:
256,160,241307,1,0,0:0:0:0:
256,192,241474,1,12,0:0:0:0:
256,192,241641,1,0,0:0:0:0:
256,192,241808,1,8,0:0:0:0:
256,160,241891,1,0,0:0:0:0:
288,192,241974,1,8,0:0:0:0:
320,224,242141,1,0,0:0:0:0:
288,224,242224,1,0,0:0:0:0:
288,224,242308,1,8,0:0:0:0:
288,192,242391,1,0,0:0:0:0:
288,224,242474,1,0,0:0:0:0:
288,192,242558,1,0,0:0:0:0:
232,200,242641,1,8,0:0:0:0:
288,192,242808,1,12,0:0:0:0:
288,192,242974,1,0,0:0:0:0:
256,160,243058,1,0,0:0:0:0:
288,192,243141,1,8,0:0:0:0:
288,192,243308,1,8,0:0:0:0:
288,192,243474,1,0,0:0:0:0:
288,192,243558,1,0,0:0:0:0:
288,192,243641,1,8,0:0:0:0:
288,160,243724,1,0,0:0:0:0:
288,192,243808,1,8,0:0:0:0:
288,192,243891,1,0,0:0:0:0:
276,176,243974,1,8,0:0:0:0:
288,192,244141,1,12,0:0:0:0:
288,192,244308,1,0,0:0:0:0:
288,192,244391,1,0,0:0:0:0:
280,188,244474,1,8,0:0:0:0:
288,192,244557,1,8,0:0:0:0:
288,192,244641,1,0,0:0:0:0:
288,192,244808,1,12,0:0:0:0:
304,196,244974,1,0,0:0:0:0:
288,192,245057,1,8,0:0:0:0:
288,192,245141,1,8,0:0:0:0:
288,192,245224,1,0,0:0:0:0:
256,192,245308,1,8,0:0:0:0:
288,192,245474,1,4,0:0:0:0:
256,192,245808,1,8,0:0:0:0:
256,192,246141,1,0,0:0:0:0:
256,192,246474,1,0,0:0:0:0:
248,176,246641,1,0,0:0:0:0:
256,224,246808,5,12,0:0:0:0:
192,256,246975,1,0,0:0:0:0:
192,224,247058,1,0,0:0:0:0:
256,224,247141,1,8,0:0:0:0:
256,224,247225,1,0,0:0:0:0:
256,224,247308,1,8,0:0:0:0:
192,192,247391,1,8,0:0:0:0:
256,224,247475,1,0,0:0:0:0:
256,224,247641,1,8,0:0:0:0:
256,224,247808,1,0,0:0:0:0:
256,224,247892,1,0,0:0:0:0:
256,224,247975,1,8,0:0:0:0:
256,224,248058,1,0,0:0:0:0:
256,224,248141,1,8,0:0:0:0:
256,224,248308,1,0,0:0:0:0:
288,224,248391,1,0,0:0:0:0:
256,224,248475,1,8,0:0:0:0:
256,224,248558,1,0,0:0:0:0:
288,224,248641,1,8,0:0:0:0:
192,192,248725,1,8,0:0:0:0:
256,192,248808,1,0,0:0:0:0:
288,224,248975,1,8,0:0:0:0:
288,224,249141,1,0,0:0:0:0:
288,224,249225,1,0,0:0:0:0:
288,224,249308,1,8,0:0:0:0:
288,224,249392,1,0,0:0:0:0:
288,224,249475,1,8,0:0:0:0:
256,224,249641,1,0,0:0:0:0:
288,224,249725,1,0,0:0:0:0:
288,224,249808,1,8,0:0:0:0:
256,224,249891,1,8,0:0:0:0:
256,160,249975,1,0,0:0:0:0:
288,224,250058,1,0,0:0:0:0:
288,224,250141,1,8,0:0:0:0:
320,224,250308,1,0,0:0:0:0:
288,192,250475,1,8,0:0:0:0:
288,224,250558,1,0,0:0:0:0:
256,224,250641,1,8,0:0:0:0:
288,224,250725,1,8,0:0:0:0:
256,192,250808,1,0,0:0:0:0:
288,224,250975,1,8,0:0:0:0:
192,192,251058,1,8,0:0:0:0:
256,160,251141,1,0,0:0:0:0:
256,192,251308,1,8,0:0:0:0:
268,208,251391,1,0,0:0:0:0:
256,192,251475,1,0,0:0:0:0:
224,192,251558,1,8,0:0:0:0:
256,192,251641,1,0,0:0:0:0:
256,192,251725,1,0,0:0:0:0:
256,192,251808,1,8,0:0:0:0:
232,200,251891,1,8,0:0:0:0:
256,192,251975,1,0,0:0:0:0:
256,192,252141,1,8,0:0:0:0:
256,192,252308,1,0,0:0:0:0:
256,192,252391,1,0,0:0:0:0:
256,192,252475,1,8,0:0:0:0:
256,160,252558,1,0,0:0:0:0:
320,224,252641,1,8,0:0:0:0:
224,192,252725,1,8,0:0:0:0:
320,224,252808,1,0,0:0:0:0:
256,160,252975,1,8,0:0:0:0:
256,160,253141,1,0,0:0:0:0:
288,192,253225,1,0,0:0:0:0:
288,224,253308,1,8,0:0:0:0:
224,192,253391,1,0,0:0:0:0:
288,192,253475,1,8,0:0:0:0:
288,192,253641,1,0,0:0:0:0:
288,160,253725,1,0,0:0:0:0:
288,192,253808,1,8,0:0:0:0:
256,160,253891,1,0,0:0:0:0:
288,192,253975,1,8,0:0:0:0:
256,160,254058,1,8,0:0:0:0:
256,160,254141,1,0,0:0:0:0:
288,192,254308,1,8,0:0:0:0:
288,192,254475,1,0,0:0:0:0:
268,184,254558,1,8,0:0:0:0:
288,192,254641,1,0,0:0:0:0:
256,224,254725,1,0,0:0:0:0:
288,192,254808,1,8,0:0:0:0:
288,192,254975,1,0,0:0:0:0:
264,168,255142,1,8,0:0:0:0:
228,176,255225,1,0,0:0:0:0:
288,192,255308,1,8,0:0:0:0:
240,168,255391,1,8,0:0:0:0:
240,168,255474,1,0,0:0:0:0:
288,192,255641,1,8,0:0:0:0:
288,192,255725,1,0,0:0:0:0:
288,192,255808,1,0,0:0:0:0:
288,192,255892,1,8,0:0:0:0:
236,180,255975,1,0,0:0:0:0:
256,192,256141,1,12,0:0:0:0:
256,192,256308,1,0,0:0:0:0:
256,192,256391,1,0,0:0:0:0:
256,192,256475,1,8,0:0:0:0:
256,192,256641,1,0,0:0:0:0:
256,192,256808,1,8,0:0:0:0:
256,192,256891,1,0,0:0:0:0:
256,192,257058,1,0,0:0:0:0:
256,192,257141,1,8,0:0:0:0:
256,192,257308,1,0,0:0:0:0:
224,192,257391,1,0,0:0:0:0:
256,224,257474,1,8,0:0:0:0:
192,256,257640,1,0,0:0:0:0:
256,224,257724,1,0,0:0:0:0:
256,192,257807,1,8,0:0:0:0:
256,224,257891,1,0,0:0:0:0:
256,224,257974,1,8,0:0:0:0:
256,160,258057,1,8,0:0:0:0:
256,224,258140,1,0,0:0:0:0:
256,224,258307,1,8,0:0:0:0:
256,224,258474,1,0,0:0:0:0:
224,192,258557,1,0,0:0:0:0:
256,224,258640,1,8,0:0:0:0:
224,192,258724,1,8,0:0:0:0:
256,224,258807,1,0,0:0:0:0:
256,224,258974,1,8,0:0:0:0:
224,192,259057,1,0,0:0:0:0:
256,160,259141,1,8,0:0:0:0:
224,192,259224,1,0,0:0:0:0:
288,224,259307,1,8,0:0:0:0:
256,224,259391,1,0,0:0:0:0:
288,224,259474,1,0,0:0:0:0:
288,224,259640,1,8,0:0:0:0:
288,224,259807,1,0,0:0:0:0:
288,224,259891,1,0,0:0:0:0:
288,224,259974,1,8,0:0:0:0:
224,192,260057,1,0,0:0:0:0:
288,224,260140,1,8,0:0:0:0:
256,224,260307,1,0,0:0:0:0:
208,204,260391,1,0,0:0:0:0:
288,224,260474,1,8,0:0:0:0:
288,224,260557,1,0,0:0:0:0:
256,224,260641,1,8,0:0:0:0:
288,184,260724,1,8,0:0:0:0:
288,224,260807,1,0,0:0:0:0:
256,224,260974,1,8,0:0:0:0:
288,224,261141,1,0,0:0:0:0:
280,208,261224,1,0,0:0:0:0:
280,208,261307,1,8,0:0:0:0:
288,224,261391,1,0,0:0:0:0:
288,224,261474,1,8,0:0:0:0:
256,184,261557,1,8,0:0:0:0:
288,224,261641,1,0,0:0:0:0:
256,160,261724,1,0,0:0:0:0:
224,192,261807,5,8,0:0:0:0:
256,192,261974,1,0,0:0:0:0:
256,192,262057,1,8,0:0:0:0:
288,192,262141,1,0,0:0:0:0:
256,192,262307,1,8,0:0:0:0:
288,192,262390,1,0,0:0:0:0:
256,192,262474,1,8,0:0:0:0:
160,192,262557,1,8,0:0:0:0:
256,160,262640,1,0,0:0:0:0:
256,192,262807,1,12,0:0:0:0:
256,192,262975,5,0,0:0:0:0:
256,192,263142,1,8,0:0:0:0:
256,160,263225,1,0,0:0:0:0:
288,192,263308,1,8,0:0:0:0:
320,224,263475,1,0,0:0:0:0:
288,224,263558,1,0,0:0:0:0:
288,224,263642,1,8,0:0:0:0:
288,192,263725,1,0,0:0:0:0:
288,224,263808,1,8,0:0:0:0:
272,184,263891,1,0,0:0:0:0:
288,192,263975,1,0,0:0:0:0:
288,192,264142,1,12,0:0:0:0:
288,192,264308,1,0,0:0:0:0:
256,160,264392,1,0,0:0:0:0:
288,192,264474,1,8,0:0:0:0:
288,192,264642,1,8,0:0:0:0:
288,192,264808,1,8,0:0:0:0:
288,192,264892,1,0,0:0:0:0:
288,192,264974,1,0,0:0:0:0:
288,192,265058,1,0,0:0:0:0:
288,160,265141,1,8,0:0:0:0:
288,192,265224,1,8,0:0:0:0:
272,188,265308,1,0,0:0:0:0:
288,192,265474,1,12,0:0:0:0:
288,192,265641,1,0,0:0:0:0:
288,192,265724,1,0,0:0:0:0:
280,188,265807,1,8,0:0:0:0:
284,184,265974,1,0,0:0:0:0:
288,192,266140,1,12,0:0:0:0:
304,196,266307,1,0,0:0:0:0:
288,192,266390,1,8,0:0:0:0:
288,192,266474,1,0,0:0:0:0:
256,192,266641,1,12,0:0:0:0:
268,184,266808,1,12,0:0:0:0:
256,192,266974,1,8,0:0:0:0:
256,192,267058,1,0,0:0:0:0:
256,192,267142,1,8,0:0:0:0:
256,192,267308,1,0,0:0:0:0:
256,192,267475,1,8,0:0:0:0:
256,192,267558,1,8,0:0:0:0:
256,192,267641,1,0,0:0:0:0:
256,192,267724,1,8,0:0:0:0:
256,192,267808,1,0,0:0:0:0:
256,192,267974,1,8,0:0:0:0:
256,192,268141,5,4,0:0:0:0:
256,192,269141,1,0,0:0:0:0:
256,192,269474,1,0,0:0:0:0:
256,192,269808,1,8,0:0:0:0:
256,192,270141,1,8,0:0:0:0:
256,192,270474,1,8,0:0:0:0:
256,192,270808,12,0,273141,0:0:0:0:
248,184,273474,5,4,0:0:0:0:
248,184,273723,1,0,0:0:0:0:
248,184,273807,1,0,0:0:0:0:
248,184,273973,1,0,0:0:0:0:
248,184,274140,1,0,0:0:0:0:
248,184,274473,1,0,0:0:0:0:
248,184,274807,1,0,0:0:0:0:
248,184,275057,1,0,0:0:0:0:
248,184,275140,1,0,0:0:0:0:
248,184,275307,1,0,0:0:0:0:
248,184,275473,1,0,0:0:0:0:
248,184,275807,1,0,0:0:0:0:
248,184,276140,1,0,0:0:0:0:
248,184,276390,1,0,0:0:0:0:
248,184,276473,1,0,0:0:0:0:
248,184,276640,1,0,0:0:0:0:
248,184,276807,1,0,0:0:0:0:
248,184,277057,1,0,0:0:0:0:
248,184,277140,1,0,0:0:0:0:
248,184,277307,1,0,0:0:0:0:
248,184,277473,1,0,0:0:0:0:
248,184,277723,1,0,0:0:0:0:
248,184,277807,1,0,0:0:0:0:
248,184,277973,1,0,0:0:0:0:
248,184,278140,1,0,0:0:0:0:
248,184,278307,1,8,0:0:0:0:
248,184,278473,1,0,0:0:0:0:
248,184,278640,1,0,0:0:0:0:
248,184,278807,1,0,0:0:0:0:
248,184,279057,1,0,0:0:0:0:
248,184,279140,1,0,0:0:0:0:
248,184,279307,1,0,0:0:0:0:
248,184,279473,1,0,0:0:0:0:
248,184,279807,1,0,0:0:0:0:
248,184,280140,5,0,0:0:0:0:
248,184,280390,1,0,0:0:0:0:
248,184,280473,1,0,0:0:0:0:
248,184,280640,1,0,0:0:0:0:
248,184,280807,5,0,0:0:0:0:
248,184,281140,1,0,0:0:0:0:
216,176,281307,5,0,0:0:0:0:
256,192,281473,1,12,0:0:0:0:
256,192,281974,5,0,0:0:0:0:
256,192,282141,1,8,0:0:0:0:
256,192,282641,1,0,0:0:0:0:
256,192,282808,1,0,0:0:0:0:
256,192,283058,1,0,0:0:0:0:
256,192,283141,1,0,0:0:0:0:
256,192,283308,1,0,0:0:0:0:
256,192,283474,1,8,0:0:0:0:
288,192,283641,1,0,0:0:0:0:
288,192,283724,1,0,0:0:0:0:
288,192,283808,1,8,0:0:0:0:
288,192,283974,1,0,0:0:0:0:
288,192,284141,1,8,0:0:0:0:
288,192,284308,1,0,0:0:0:0:
288,192,284474,1,8,0:0:0:0:
288,192,284641,1,0,0:0:0:0:
288,192,284808,1,8,0:0:0:0:
288,192,284974,1,0,0:0:0:0:
288,192,285141,1,8,0:0:0:0:
288,192,285308,1,8,0:0:0:0:
288,192,285474,1,8,0:0:0:0:
288,192,285641,1,0,0:0:0:0:
288,192,285807,1,8,0:0:0:0:
288,192,285974,1,0,0:0:0:0:
288,192,286141,1,8,0:0:0:0:
288,192,286307,1,8,0:0:0:0:
288,192,286474,1,8,0:0:0:0:
288,192,286641,1,0,0:0:0:0:
288,192,286808,1,8,0:0:0:0:
288,192,286974,1,0,0:0:0:0:
148,244,287141,1,8,0:0:0:0:
288,192,287308,1,0,0:0:0:0:
144,124,287474,1,8,0:0:0:0:
288,192,287641,1,0,0:0:0:0:
288,192,287808,1,8,0:0:0:0:
288,192,287973,1,8,0:0:0:0:
288,192,288141,1,8,0:0:0:0:
288,192,288308,1,0,0:0:0:0:
288,192,288475,1,8,0:0:0:0:
288,192,288642,1,0,0:0:0:0:
288,192,288808,1,8,0:0:0:0:
288,192,288974,1,8,0:0:0:0:
288,192,289142,1,8,0:0:0:0:
224,192,289308,1,0,0:0:0:0:
288,192,289475,1,12,0:0:0:0:
256,192,289641,1,8,0:0:0:0:
256,192,289724,1,8,0:0:0:0:
256,192,289808,1,0,0:0:0:0:
256,192,289974,1,0,0:0:0:0:
256,192,290141,1,8,0:0:0:0:
256,192,290308,1,0,0:0:0:0:
256,192,290474,1,0,0:0:0:0:
256,192,290641,1,0,0:0:0:0:
256,192,290808,1,12,0:0:0:0:
256,192,290974,1,8,0:0:0:0:
256,192,291058,1,8,0:0:0:0:
256,192,291141,1,0,0:0:0:0:
256,192,291308,1,0,0:0:0:0:
256,192,291474,1,12,0:0:0:0:
256,192,291641,1,0,0:0:0:0:
256,192,291808,1,8,0:0:0:0:
256,192,291974,1,0,0:0:0:0:
256,192,292141,1,12,0:0:0:0:
256,192,292308,1,0,0:0:0:0:
256,192,292391,1,0,0:0:0:0:
256,192,292474,1,0,0:0:0:0:
256,192,292558,1,0,0:0:0:0:
256,192,292641,1,8,0:0:0:0:
256,192,292724,1,8,0:0:0:0:
256,192,292808,1,8,0:0:0:0:
256,192,292891,1,8,0:0:0:0:
256,192,292974,1,0,0:0:0:0:
256,192,293058,1,8,0:0:0:0:
256,192,293141,1,0,0:0:0:0:
256,192,293224,1,0,0:0:0:0:
256,192,293308,1,8,0:0:0:0:
256,192,293391,1,8,0:0:0:0:
256,192,293474,1,0,0:0:0:0:
256,160,294808,1,0,0:0:0:0:
256,160,295058,1,8,0:0:0:0:
256,160,295141,1,0,0:0:0:0:
256,160,295308,1,8,0:0:0:0:
256,160,295474,1,0,0:0:0:0:
256,160,295808,1,0,0:0:0:0:
256,160,296141,1,0,0:0:0:0:
256,160,296391,1,8,0:0:0:0:
256,160,296474,1,0,0:0:0:0:
256,160,296641,1,8,0:0:0:0:
256,160,296808,1,0,0:0:0:0:
256,160,297141,1,0,0:0:0:0:
256,160,297474,1,0,0:0:0:0:
256,160,297724,1,8,0:0:0:0:
256,160,297808,1,0,0:0:0:0:
256,160,297974,1,8,0:0:0:0:
256,160,298141,1,0,0:0:0:0:
192,160,298391,1,8,0:0:0:0:
224,160,298474,1,0,0:0:0:0:
224,160,298641,1,0,0:0:0:0:
256,192,298808,1,0,0:0:0:0:
256,192,299058,1,8,0:0:0:0:
256,192,299141,1,0,0:0:0:0:
256,192,299308,1,0,0:0:0:0:
256,192,299474,1,0,0:0:0:0:
256,192,299641,1,8,0:0:0:0:
256,192,299808,1,0,0:0:0:0:
256,192,299974,1,8,0:0:0:0:
256,192,300141,1,0,0:0:0:0:
256,192,300391,1,8,0:0:0:0:
256,192,300474,1,0,0:0:0:0:
256,192,300641,1,8,0:0:0:0:
256,192,300808,1,0,0:0:0:0:
256,192,301141,1,0,0:0:0:0:
224,128,301474,1,0,0:0:0:0:
224,128,301724,1,8,0:0:0:0:
224,128,301808,1,0,0:0:0:0:
224,128,301974,1,8,0:0:0:0:
224,128,302141,1,0,0:0:0:0:
224,128,302474,1,0,0:0:0:0:
224,160,302641,1,0,0:0:0:0:
224,160,302808,1,12,0:0:0:0:
224,160,302974,1,0,0:0:0:0:
224,160,303058,1,0,0:0:0:0:
224,160,303141,1,8,0:0:0:0:
224,160,303308,1,0,0:0:0:0:
224,160,303474,1,8,0:0:0:0:
224,160,303641,1,8,0:0:0:0:
224,160,303808,1,0,0:0:0:0:
224,160,303974,1,8,0:0:0:0:
224,160,304141,1,0,0:0:0:0:
224,160,304391,1,8,0:0:0:0:
224,160,304474,1,0,0:0:0:0:
224,160,304641,1,0,0:0:0:0:
224,160,304808,1,8,0:0:0:0:
224,160,304974,1,0,0:0:0:0:
224,160,305058,1,0,0:0:0:0:
224,160,305141,1,0,0:0:0:0:
224,160,305308,1,8,0:0:0:0:
224,160,305474,1,4,0:0:0:0:
224,160,305724,1,8,0:0:0:0:
224,160,305808,1,0,0:0:0:0:
224,160,305974,1,8,0:0:0:0:
224,160,306141,1,0,0:0:0:0:
224,160,306474,1,0,0:0:0:0:
224,160,306808,1,0,0:0:0:0:
224,160,307058,1,8,0:0:0:0:
224,160,307141,1,0,0:0:0:0:
224,160,307308,1,8,0:0:0:0:
224,160,307474,1,0,0:0:0:0:
224,160,307808,1,0,0:0:0:0:
224,160,308141,1,0,0:0:0:0:
224,160,308391,1,8,0:0:0:0:
224,160,308474,1,0,0:0:0:0:
224,160,308641,1,8,0:0:0:0:
224,160,308808,1,0,0:0:0:0:
224,160,309058,1,8,0:0:0:0:
224,160,309141,1,0,0:0:0:0:
224,160,309308,1,0,0:0:0:0:
224,160,309474,1,0,0:0:0:0:
224,160,309724,1,8,0:0:0:0:
224,160,309808,1,0,0:0:0:0:
224,160,309974,1,8,0:0:0:0:
224,160,310141,1,0,0:0:0:0:
192,160,310308,1,8,0:0:0:0:
228,240,310474,1,0,0:0:0:0:
192,128,310641,1,8,0:0:0:0:
224,160,310808,1,4,0:0:0:0:
224,160,311058,1,8,0:0:0:0:
224,160,311141,1,0,0:0:0:0:
224,160,311308,1,8,0:0:0:0:
224,160,311474,1,0,0:0:0:0:
224,160,311808,1,0,0:0:0:0:
224,160,312141,1,0,0:0:0:0:
224,160,312391,1,8,0:0:0:0:
224,160,312474,1,0,0:0:0:0:
224,160,312641,1,8,0:0:0:0:
224,160,312808,1,0,0:0:0:0:
224,160,313141,1,0,0:0:0:0:
224,160,313474,1,0,0:0:0:0:
224,160,313724,1,8,0:0:0:0:
224,160,313808,1,0,0:0:0:0:
224,160,313974,1,8,0:0:0:0:
224,160,314141,1,0,0:0:0:0:
224,160,314391,1,8,0:0:0:0:
224,160,314474,1,0,0:0:0:0:
224,160,314641,1,0,0:0:0:0:
256,192,314808,12,0,316141,0:0:0:0:
