osu file format v14

[General]
AudioFilename: audio.mp3
AudioLeadIn: 0
PreviewTime: 46329
Countdown: 0
SampleSet: Soft
StackLeniency: 0.7
Mode: 3
LetterboxInBreaks: 0
SpecialStyle: 0
WidescreenStoryboard: 1

[Editor]
Bookmarks: 5478,15691,25904
DistanceSpacing: 1.4
BeatDivisor: 4
GridSize: 4
TimelineZoom: 1.999999

[Metadata]
Title:Shanghai Kouchakan ~ Chinese Tea Orchid Remix
TitleUnicode:上海紅茶館 ~ Chinese Tea Orchid Remix
Artist:Yooh
ArtistUnicode:Yooh
Creator:Noch Einen
Version:Treinen's ADVANCED
Source:SOUND VOLTEX II -infinite infection-
Tags:東方 東方紅魔郷REMIX 東方紅魔郷リミックス楽曲コンテスト 東方紅魔郷 ~ the Embodiment of Scarlet Devil eosd Touhou Project Koumakyou Gakkyoku Contest SDVX FLOOR konami ZUN Team Shanghai Alice ULTIMATE TRACKS 紅美鈴 Hong Meiling JooF12 blankface74 damaree tre Fawcro32 Mirsaaa instrumental video game electronic
BeatmapID:3991554
BeatmapSetID:1930737

[Difficulty]
HPDrainRate:8
CircleSize:6
OverallDifficulty:8
ApproachRate:9.3
SliderMultiplier:1.9
SliderTickRate:2

[Events]
//Background and Video events
0,0,"762623.jpg",0,0
//Break Periods
//Storyboard Layer 0 (Background)
//Storyboard Layer 1 (Fail)
//Storyboard Layer 2 (Pass)
//Storyboard Layer 3 (Foreground)
//Storyboard Layer 4 (Overlay)
//Storyboard Sound Samples
Sample,4760,0,"C_Short.wav",40
Sample,10266,0,"Clap.wav",40
Sample,15372,0,"Clap.wav",40
Sample,20478,0,"Clap.wav",40
Sample,21755,0,"Snare.wav",20
Sample,23031,0,"Snare.wav",20
Sample,23510,0,"Snare.wav",20
Sample,23829,0,"Snare.wav",20
Sample,24149,0,"Snare.wav",20
Sample,24468,0,"Snare.wav",20
Sample,36117,0,"soft-hitfinish.wav",20
Sample,37393,0,"Snare.wav",15
Sample,38031,0,"Snare.wav",15
Sample,38351,0,"Snare.wav",15
Sample,38670,0,"Snare.wav",15
Sample,39308,0,"Snare.wav",15
Sample,40904,0,"Snare.wav",15
Sample,41383,0,"Snare.wav",20
Sample,41702,0,"Snare.wav",20
Sample,41861,0,"Snare.wav",20
Sample,42021,0,"Snare.wav",20
Sample,42340,0,"Snare.wav",20
Sample,42659,0,"Snare.wav",20
Sample,42978,0,"Snare.wav",20
Sample,43297,0,"Snare.wav",20
Sample,43457,0,"Snare.wav",20
Sample,43537,0,"Snare.wav",20
Sample,43617,0,"Snare.wav",20
Sample,43696,0,"Snare.wav",20
Sample,48563,0,"Clap.wav",40
Sample,50478,0,"Clap.wav",40
Sample,56223,0,"Clap.wav",40
Sample,58776,0,"Clap.wav",40
Sample,60691,0,"Clap.wav",40
Sample,61968,0,"Snare.wav",20
Sample,62606,0,"Snare.wav",20
Sample,63244,0,"Snare.wav",20
Sample,82872,0,"Snare.wav",20
Sample,83031,0,"Snare.wav",20
Sample,83510,0,"Snare.wav",20
Sample,83670,0,"Snare.wav",20
Sample,84149,0,"Snare.wav",20
Sample,84308,0,"Snare.wav",20
Sample,84388,0,"Snare.wav",20
Sample,84468,0,"Snare.wav",20
Sample,90691,0,"Clap.wav",40
Sample,92606,0,"Clap.wav",40
Sample,100904,0,"Clap.wav",40
Sample,102819,0,"Clap.wav",40
Sample,104095,0,"Snare.wav",20
Sample,104654,0,"Snare.wav",20
Sample,105372,0,"Snare.wav",20
Sample,110957,0,"Kick.wav",40

[TimingPoints]
1649,319.148936170213,4,2,1,40,1,0
46329,-100,4,2,1,40,0,1
66755,-100,4,2,1,40,0,0
88457,-100,4,2,1,40,0,1
108883,-100,4,2,1,40,0,0

[HitObjects]
213,192,2287,5,0,0:0:0:0:
384,192,2367,1,0,0:0:0:0:
128,192,2526,1,0,0:0:0:0:
384,192,2606,1,0,0:0:0:0:
213,192,2686,1,0,0:0:0:0:
42,192,2766,1,0,0:0:0:0:
298,192,2925,128,2,3085:0:0:0:0:
384,192,2925,1,4,0:0:0:0:
469,192,2925,1,0,0:0:0:0:
128,192,3085,128,0,3244:0:0:0:0:
384,192,3404,128,0,3563:0:0:0:0:
42,192,3563,1,4,0:0:0:0:
213,192,3563,128,2,3723:0:0:0:0:
469,192,3563,1,0,0:0:0:0:
298,192,3803,128,0,3962:0:0:0:0:
128,192,4042,128,0,4202:0:0:0:0:
213,192,4202,128,2,4361:0:0:0:0:
384,192,4202,1,0,0:0:0:40:C_Short.wav
469,192,4202,1,0,0:0:0:0:
42,192,4521,1,2,0:0:0:0:
128,192,4521,1,0,0:0:0:40:C_Short.wav
298,192,4521,128,0,4680:0:0:0:0:
384,192,4760,128,2,4920:0:0:0:0:
213,192,5000,128,0,5159:0:0:0:30:Kick.wav
42,192,5159,1,2,0:0:0:0:
298,192,5159,1,0,0:0:0:50:Clap.wav
469,192,5159,128,0,5319:0:0:0:40:C_Short2.wav
42,192,5478,1,4,0:0:0:0:
213,192,5478,1,2,0:0:0:0:
469,192,5478,1,0,0:0:0:0:
298,192,5638,1,0,0:0:0:0:
128,192,5797,1,2,0:0:0:0:
384,192,5797,1,0,0:0:0:40:Clap.wav
213,192,5957,1,0,0:0:0:0:
42,192,6117,1,2,0:0:0:0:
469,192,6117,1,0,0:0:0:0:
298,192,6276,1,0,0:0:0:0:
128,192,6356,1,0,0:0:0:0:
384,192,6436,1,2,0:0:0:0:
469,192,6436,1,0,0:0:0:40:Clap.wav
213,192,6595,1,0,0:0:0:0:
42,192,6755,1,2,0:0:0:0:
298,192,6755,1,0,0:0:0:0:
128,192,6914,1,0,0:0:0:0:
384,192,7074,1,2,0:0:0:0:
469,192,7074,1,0,0:0:0:40:Clap.wav
213,192,7234,1,0,0:0:0:0:
42,192,7393,1,2,0:0:0:0:
469,192,7393,1,0,0:0:0:0:
298,192,7553,1,0,0:0:0:0:
42,192,7712,1,2,0:0:0:0:
128,192,7712,1,0,0:0:0:40:Clap.wav
384,192,7872,1,0,0:0:0:0:
213,192,8031,1,2,0:0:0:0:
298,192,8031,1,0,0:0:0:0:
128,192,8191,1,0,0:0:0:0:
42,192,8351,1,2,0:0:0:0:
469,192,8351,1,0,0:0:0:40:Clap.wav
384,192,8510,1,0,0:0:0:0:
128,192,8670,1,2,0:0:0:0:
298,192,8670,1,0,0:0:0:0:
469,192,8829,1,0,0:0:0:0:
213,192,8909,1,0,0:0:0:0:
42,192,8989,1,2,0:0:0:0:
384,192,8989,1,0,0:0:0:40:Clap.wav
128,192,9149,1,0,0:0:0:0:
469,192,9149,1,0,0:0:0:0:
42,192,9308,1,2,0:0:0:0:
298,192,9308,1,0,0:0:0:0:
128,192,9468,1,0,0:0:0:0:
384,192,9468,1,0,0:0:0:0:
213,192,9627,1,2,0:0:0:0:
469,192,9627,1,0,0:0:0:40:Clap.wav
42,192,9787,1,0,0:0:0:0:
298,192,9787,1,0,0:0:0:0:
128,192,9946,1,2,0:0:0:0:
384,192,9946,128,0,10585:0:0:0:0:
213,192,10106,1,0,0:0:0:0:
298,192,10266,1,2,0:0:0:0:
213,192,10425,1,2,0:0:0:0:
128,192,10505,1,2,0:0:0:0:
42,192,10585,1,2,0:0:0:0:
469,192,10585,1,0,0:0:0:0:
298,192,10744,1,0,0:0:0:0:
128,192,10904,1,2,0:0:0:0:
384,192,10904,1,0,0:0:0:40:Clap.wav
213,192,11063,1,0,0:0:0:0:
42,192,11223,1,2,0:0:0:0:
298,192,11223,1,0,0:0:0:0:
384,192,11383,1,0,0:0:0:0:
128,192,11462,1,0,0:0:0:0:
298,192,11542,1,2,0:0:0:0:
469,192,11542,1,0,0:0:0:40:Clap.wav
213,192,11702,1,0,0:0:0:0:
42,192,11861,1,2,0:0:0:0:
128,192,11861,1,0,0:0:0:0:
384,192,12021,1,0,0:0:0:0:
128,192,12180,1,2,0:0:0:0:
298,192,12180,1,0,0:0:0:40:Clap.wav
469,192,12340,1,0,0:0:0:0:
213,192,12500,1,2,0:0:0:0:
384,192,12500,1,0,0:0:0:0:
42,192,12659,1,0,0:0:0:0:
298,192,12819,1,2,0:0:0:0:
469,192,12819,1,0,0:0:0:40:Clap.wav
128,192,12978,1,0,0:0:0:0:
42,192,13138,1,2,0:0:0:0:
298,192,13138,1,0,0:0:0:0:
213,192,13297,1,0,0:0:0:0:
384,192,13377,1,0,0:0:0:0:
42,192,13457,1,2,0:0:0:0:
128,192,13457,1,0,0:0:0:40:Clap.wav
298,192,13617,1,0,0:0:0:0:
469,192,13617,1,0,0:0:0:0:
42,192,13776,1,2,0:0:0:0:
213,192,13776,1,0,0:0:0:0:
298,192,13936,1,0,0:0:0:0:
384,192,14095,1,2,0:0:0:0:
469,192,14095,1,0,0:0:0:40:Clap.wav
213,192,14255,1,0,0:0:0:0:
42,192,14414,1,2,0:0:0:0:
128,192,14414,1,0,0:0:0:0:
384,192,14574,1,0,0:0:0:0:
469,192,14574,1,0,0:0:0:0:
128,192,14734,1,2,0:0:0:0:
213,192,14734,1,0,0:0:0:40:Clap.wav
298,192,14893,1,0,0:0:0:0:
384,192,14893,1,0,0:0:0:0:
42,192,15053,128,2,15691:0:0:0:0:
469,192,15053,1,0,0:0:0:0:
298,192,15212,1,2,0:0:0:0:
469,192,15372,1,2,0:0:0:0:
298,192,15531,1,2,0:0:0:0:
384,192,15611,1,2,0:0:0:0:
128,192,15691,1,2,0:0:0:0:
213,192,15691,1,4,0:0:0:0:
469,192,15691,1,0,0:0:0:0:
298,192,15851,1,0,0:0:0:0:
128,192,16010,1,2,0:0:0:0:
384,192,16010,1,0,0:0:0:40:Clap.wav
213,192,16170,1,0,0:0:0:0:
42,192,16329,1,2,0:0:0:0:
469,192,16329,1,0,0:0:0:0:
298,192,16489,1,0,0:0:0:0:
128,192,16569,1,0,0:0:0:0:
384,192,16649,1,2,0:0:0:0:
469,192,16649,1,0,0:0:0:40:Clap.wav
213,192,16808,1,0,0:0:0:0:
298,192,16808,1,0,0:0:0:0:
42,192,16968,1,2,0:0:0:0:
384,192,16968,1,0,0:0:0:0:
128,192,17127,1,0,0:0:0:0:
298,192,17287,1,2,0:0:0:0:
469,192,17287,1,0,0:0:0:40:Clap.wav
213,192,17446,1,0,0:0:0:0:
42,192,17606,1,2,0:0:0:0:
469,192,17606,1,0,0:0:0:0:
298,192,17766,1,0,0:0:0:0:
42,192,17925,1,2,0:0:0:0:
128,192,17925,1,0,0:0:0:40:Clap.wav
384,192,18085,1,0,0:0:0:0:
213,192,18244,1,2,0:0:0:0:
298,192,18244,1,0,0:0:0:0:
128,192,18404,1,0,0:0:0:0:
42,192,18563,1,2,0:0:0:0:
469,192,18563,1,0,0:0:0:40:Clap.wav
384,192,18723,1,0,0:0:0:0:
128,192,18883,1,2,0:0:0:0:
298,192,18883,1,0,0:0:0:0:
469,192,19042,1,0,0:0:0:0:
213,192,19122,1,0,0:0:0:0:
42,192,19202,1,2,0:0:0:0:
384,192,19202,1,0,0:0:0:40:Clap.wav
128,192,19361,1,0,0:0:0:0:
469,192,19361,1,0,0:0:0:0:
42,192,19521,1,2,0:0:0:0:
298,192,19521,1,0,0:0:0:0:
128,192,19680,1,0,0:0:0:0:
384,192,19680,1,0,0:0:0:0:
213,192,19840,1,2,0:0:0:0:
469,192,19840,1,0,0:0:0:40:Clap.wav
42,192,20000,1,0,0:0:0:0:
298,192,20000,1,0,0:0:0:0:
128,192,20159,1,2,0:0:0:0:
384,192,20159,128,0,20797:0:0:0:0:
213,192,20319,1,0,0:0:0:0:
128,192,20478,1,2,0:0:0:0:
213,192,20638,1,2,0:0:0:0:
42,192,20797,1,2,0:0:0:0:
298,192,20797,1,0,0:0:0:40:C_Short.wav
469,192,20797,1,0,0:0:0:20:Snare.wav
128,192,20877,1,0,0:0:0:20:Snare.wav
213,192,20957,1,0,0:0:0:20:Snare.wav
298,192,21037,1,0,0:0:0:20:Snare.wav
469,192,21117,1,0,0:0:0:40:Clap.wav
384,192,21117,1,0,0:0:0:20:Snare.wav
128,192,21196,1,0,0:0:0:20:Snare.wav
213,192,21276,1,0,0:0:0:20:Snare.wav
384,192,21356,1,0,0:0:0:20:Snare.wav
469,192,21436,1,0,0:0:0:20:Snare.wav
42,192,21516,1,0,0:0:0:20:Snare.wav
128,192,21595,1,0,0:0:0:20:Snare.wav
298,192,21675,1,0,0:0:0:20:Snare.wav
384,192,21755,1,2,0:0:0:0:
469,192,21755,1,0,0:0:0:40:Clap.wav
213,192,21835,1,0,0:0:0:20:Snare.wav
298,192,21914,1,0,0:0:0:20:Snare.wav
384,192,21994,1,0,0:0:0:20:Snare.wav
42,192,22074,1,2,0:0:0:0:
128,192,22074,1,4,0:0:0:0:
469,192,22074,1,0,0:0:0:20:Snare.wav
213,192,22154,1,0,0:0:0:20:Snare.wav
298,192,22234,1,0,0:0:0:20:Snare.wav
469,192,22313,1,0,0:0:0:20:Snare.wav
42,192,22393,1,0,0:0:0:40:Clap.wav
213,192,22393,1,0,0:0:0:20:Snare.wav
384,192,22473,1,0,0:0:0:20:Snare.wav
298,192,22553,1,0,0:0:0:20:Snare.wav
128,192,22633,1,0,0:0:0:20:Snare.wav
42,192,22712,1,2,0:0:0:0:
384,192,22712,1,0,0:0:0:40:C_Short.wav
469,192,22712,1,0,0:0:0:20:Snare.wav
298,192,22792,1,0,0:0:0:20:Snare.wav
213,192,22872,1,0,0:0:0:20:Snare.wav
128,192,22952,1,0,0:0:0:20:Snare.wav
42,192,23031,1,2,0:0:0:0:
384,192,23031,1,0,0:0:0:40:Clap.wav
469,192,23031,1,0,0:0:0:40:C_Short.wav
298,192,23111,1,0,0:0:0:20:Snare.wav
128,192,23191,1,0,0:0:0:20:Snare.wav
42,192,23271,1,0,0:0:0:20:Snare.wav
384,192,23351,1,2,0:0:0:0:
213,192,23351,1,0,0:0:0:20:Snare.wav
469,192,23351,1,0,0:0:0:40:C_Short2.wav
298,192,23510,1,2,0:0:0:0:
42,192,23670,1,2,0:0:0:0:
128,192,23670,1,0,0:0:0:20:Snare.wav
384,192,23670,1,0,0:0:0:30:C_Short2.wav
213,192,23829,1,2,0:0:0:0:
42,192,23989,1,2,0:0:0:0:
298,192,23989,1,0,0:0:0:20:Snare.wav
469,192,23989,1,0,0:0:0:30:C_Short2.wav
213,192,24149,1,2,0:0:0:0:
128,192,24308,1,2,0:0:0:0:
384,192,24308,1,0,0:0:0:20:Snare.wav
469,192,24308,1,0,0:0:0:30:C_Short2.wav
298,192,24468,1,2,0:0:0:0:
42,192,24627,1,2,0:0:0:0:
213,192,24627,1,0,0:0:0:30:C_Short2.wav
469,192,24627,1,0,0:0:0:0:
384,192,24707,1,2,0:0:0:0:
128,192,24787,1,2,0:0:0:0:
298,192,24867,1,2,0:0:0:0:
42,192,24946,1,2,0:0:0:0:
213,192,25026,1,2,0:0:0:0:
469,192,25106,1,2,0:0:0:0:
298,192,25186,1,2,0:0:0:0:
128,192,25266,1,2,0:0:0:0:
384,192,25425,1,2,0:0:0:0:
128,192,25585,128,0,25664:0:0:0:40:Kick.wav
213,192,25664,128,0,25744:0:0:0:40:Kick.wav
298,192,25744,128,0,25824:0:0:0:40:Kick.wav
384,192,25824,128,0,25904:0:0:0:40:Kick.wav
42,192,25904,1,0,0:0:0:50:FX_IntroKick.wav
469,192,25904,128,0,26861:0:0:0:0:
128,192,26542,1,0,0:0:0:0:
213,192,26861,1,0,0:0:0:0:
384,192,26861,128,0,27180:0:0:0:0:
128,192,27180,128,0,27819:0:0:0:0:
298,192,27500,1,0,0:0:0:0:
42,192,27819,1,0,0:0:0:0:
384,192,27819,128,0,28457:0:0:0:0:
213,192,28457,128,0,29734:0:0:0:0:
384,192,28776,1,0,0:0:0:0:
469,192,29095,1,0,0:0:0:0:
42,192,29414,1,0,0:0:0:0:
298,192,29734,1,0,0:0:0:0:
384,192,30212,1,0,0:0:0:0:
213,192,30292,1,0,0:0:0:0:
42,192,30372,128,0,30691:0:0:0:0:
298,192,30691,128,0,31010:0:0:0:0:
128,192,31010,128,0,31649:0:0:0:0:
469,192,31010,1,0,0:0:0:0:
384,192,31329,1,0,0:0:0:0:
42,192,31649,1,0,0:0:0:0:
298,192,31649,128,0,31808:0:0:0:0:
213,192,31808,128,0,31968:0:0:0:0:
298,192,31968,128,0,32127:0:0:0:0:
213,192,32127,128,0,32766:0:0:0:0:
384,192,32287,1,0,0:0:0:0:
42,192,32606,1,0,0:0:0:0:
469,192,32766,128,0,33244:0:0:0:0:
128,192,33244,128,0,33563:0:0:0:0:
384,192,33563,128,0,35319:0:0:0:0:
469,192,33563,1,0,0:0:0:0:
213,192,33883,1,0,0:0:0:0:
42,192,34202,1,0,0:0:0:0:
298,192,34521,1,0,0:0:0:0:
128,192,34840,1,0,0:0:0:0:
213,192,35159,1,0,0:0:0:0:
298,192,35319,1,0,0:0:0:0:
128,192,35399,1,0,0:0:0:0:
469,192,35478,128,0,35797:0:0:0:0:
213,192,35797,128,0,36117:0:0:0:0:
298,192,36117,1,0,0:0:0:20:soft-hitwhistle.wav
384,192,36276,1,0,0:0:0:0:
128,192,36436,1,0,0:0:0:20:soft-hitwhistle.wav
469,192,36436,1,0,0:0:0:0:
298,192,36595,1,0,0:0:0:0:
42,192,36675,1,0,0:0:0:0:
384,192,36755,1,0,0:0:0:20:soft-hitwhistle.wav
128,192,36835,1,0,0:0:0:0:
213,192,36914,1,0,0:0:0:0:
298,192,36994,1,0,0:0:0:0:
42,192,37074,1,0,0:0:0:20:soft-hitwhistle.wav
469,192,37074,1,0,0:0:0:0:
298,192,37234,1,0,0:0:0:0:
213,192,37313,1,0,0:0:0:0:
128,192,37393,1,0,0:0:0:20:soft-hitwhistle.wav
298,192,37553,1,0,0:0:0:15:Snare.wav
42,192,37712,1,0,0:0:0:20:soft-hitwhistle.wav
469,192,37712,1,0,0:0:0:15:Snare.wav
213,192,37872,1,0,0:0:0:15:Snare.wav
384,192,38031,1,0,0:0:0:20:soft-hitwhistle.wav
42,192,38191,1,0,0:0:0:15:Snare.wav
213,192,38191,1,0,0:0:0:0:
298,192,38351,1,0,0:0:0:20:soft-hitwhistle.wav
469,192,38430,1,0,0:0:0:15:Snare.wav
213,192,38510,1,0,0:0:0:15:Snare.wav
128,192,38590,1,0,0:0:0:15:Snare.wav
42,192,38670,1,0,0:0:0:30:soft-hitwhistle.wav
213,192,38829,1,0,0:0:0:15:Snare.wav
384,192,38989,1,0,0:0:0:30:soft-hitwhistle.wav
469,192,38989,1,0,0:0:0:15:Snare.wav
128,192,39149,1,0,0:0:0:15:Snare.wav
298,192,39228,1,0,0:0:0:15:Snare.wav
42,192,39308,1,0,0:0:0:30:soft-hitwhistle.wav
213,192,39388,1,0,0:0:0:15:Snare.wav
469,192,39468,1,0,0:0:0:15:Snare.wav
384,192,39547,1,0,0:0:0:15:Snare.wav
42,192,39627,1,0,0:0:0:30:soft-hitwhistle.wav
298,192,39627,1,0,0:0:0:15:Snare.wav
128,192,39787,1,0,0:0:0:15:Snare.wav
213,192,39867,1,0,0:0:0:15:Snare.wav
298,192,39946,1,2,0:0:0:0:
469,192,39946,1,0,0:0:0:15:Snare.wav
213,192,40106,1,0,0:0:0:15:Snare.wav
298,192,40186,1,0,0:0:0:15:Snare.wav
42,192,40266,1,2,0:0:0:0:
384,192,40266,1,0,0:0:0:15:Snare.wav
213,192,40425,1,0,0:0:0:15:Snare.wav
128,192,40505,1,0,0:0:0:15:Snare.wav
42,192,40585,1,2,0:0:0:0:
469,192,40585,1,0,0:0:0:15:Snare.wav
213,192,40744,1,0,0:0:0:15:Snare.wav
298,192,40744,1,0,0:0:0:0:
128,192,40904,1,2,0:0:0:0:
384,192,40984,1,0,0:0:0:15:Snare.wav
298,192,41063,1,0,0:0:0:15:Snare.wav
213,192,41143,1,0,0:0:0:15:Snare.wav
42,192,41223,1,2,0:0:0:0:
128,192,41223,1,0,0:0:0:30:soft-hitfinish.wav
469,192,41223,1,0,0:0:0:20:Snare.wav
384,192,41383,1,2,0:0:0:0:
42,192,41542,1,2,0:0:0:0:
298,192,41542,1,0,0:0:0:20:Snare.wav
213,192,41702,1,2,0:0:0:0:
384,192,41861,1,2,0:0:0:0:
213,192,42021,1,2,0:0:0:0:
42,192,42180,1,2,0:0:0:0:
469,192,42180,1,0,0:0:0:20:Snare.wav
298,192,42340,1,2,0:0:0:0:
42,192,42500,1,2,0:0:0:0:
128,192,42500,1,4,0:0:0:0:
384,192,42500,1,0,0:0:0:20:Snare.wav
213,192,42659,1,2,0:0:0:0:
298,192,42819,1,2,0:0:0:0:
469,192,42819,1,0,0:0:0:20:Snare.wav
128,192,42978,1,2,0:0:0:0:
298,192,43138,1,2,0:0:0:0:
384,192,43138,1,4,0:0:0:0:
469,192,43138,1,0,0:0:0:20:Snare.wav
213,192,43297,1,2,0:0:0:0:
128,192,43457,1,2,0:0:0:0:
384,192,43537,1,2,0:0:0:0:
298,192,43617,1,2,0:0:0:0:
213,192,43696,1,2,0:0:0:0:
42,192,43776,1,2,0:0:0:0:
128,192,43776,1,4,0:0:0:0:
469,192,43776,1,0,0:0:0:20:Snare.wav
128,192,44095,1,0,0:0:0:20:Snare.wav
384,192,44095,1,0,0:0:0:0:
213,192,44255,1,0,0:0:0:20:Snare.wav
298,192,44414,1,2,0:0:0:0:
384,192,44414,1,4,0:0:0:0:
469,192,44414,1,0,0:0:0:20:Snare.wav
42,192,44574,1,0,0:0:0:20:Snare.wav
128,192,44734,1,0,0:0:0:20:Snare.wav
298,192,44734,1,0,0:0:0:0:
213,192,44893,1,0,0:0:0:20:Snare.wav
298,192,44973,1,0,0:0:0:20:Snare.wav
42,192,45053,1,2,0:0:0:0:
384,192,45053,1,0,0:0:0:40:C_Short.wav
469,192,45053,1,0,0:0:0:0:
42,192,45372,1,2,0:0:0:0:
384,192,45372,1,0,0:0:0:40:C_Short.wav
469,192,45372,1,0,0:0:0:0:
42,192,45691,1,2,0:0:0:0:
384,192,45691,1,0,0:0:0:40:C_Short.wav
469,192,45691,1,0,0:0:0:0:
213,192,45851,1,2,0:0:0:0:
298,192,45930,1,2,0:0:0:0:
42,192,46010,1,2,0:0:0:0:
384,192,46010,1,0,0:0:0:50:Clap.wav
469,192,46010,1,0,0:0:0:40:C_Short2.wav
42,192,46329,1,4,0:0:0:0:
128,192,46329,1,2,0:0:0:0:
298,192,46329,1,0,0:0:0:0:
384,192,46489,1,0,0:0:0:0:
213,192,46649,1,2,0:0:0:0:
469,192,46649,1,0,0:0:0:40:Clap.wav
298,192,46808,1,0,0:0:0:0:
384,192,46808,1,0,0:0:0:0:
42,192,46968,1,2,0:0:0:0:
128,192,46968,1,0,0:0:0:0:
384,192,47127,1,0,0:0:0:0:
213,192,47207,1,0,0:0:0:0:
42,192,47287,1,2,0:0:0:0:
469,192,47287,1,0,0:0:0:40:Clap.wav
128,192,47446,1,0,0:0:0:0:
298,192,47446,1,0,0:0:0:0:
42,192,47606,1,2,0:0:0:0:
469,192,47606,1,0,0:0:0:0:
128,192,47766,1,0,0:0:0:0:
384,192,47766,1,0,0:0:0:0:
213,192,47925,1,2,0:0:0:0:
298,192,47925,1,0,0:0:0:40:Clap.wav
384,192,48085,1,0,0:0:0:0:
42,192,48164,128,0,48883:0:0:0:0:
469,192,48244,1,2,0:0:0:0:
213,192,48404,1,0,0:0:0:0:
384,192,48563,1,2,0:0:0:0:
469,192,48723,1,0,0:0:0:0:
128,192,48883,1,2,0:0:0:0:
298,192,48883,1,0,0:0:0:0:
384,192,49042,1,0,0:0:0:0:
213,192,49202,1,2,0:0:0:0:
469,192,49202,1,0,0:0:0:40:Clap.wav
42,192,49361,1,0,0:0:0:0:
298,192,49361,1,0,0:0:0:0:
128,192,49521,1,2,0:0:0:0:
384,192,49521,1,0,0:0:0:0:
213,192,49680,1,0,0:0:0:0:
469,192,49760,1,0,0:0:0:0:
42,192,49840,1,2,0:0:0:0:
128,192,49840,1,0,0:0:0:40:Clap.wav
298,192,50000,1,0,0:0:0:0:
384,192,50000,1,0,0:0:0:0:
42,192,50159,1,2,0:0:0:0:
213,192,50159,128,0,51117:0:0:0:0:
298,192,50319,1,0,0:0:0:0:
469,192,50478,1,2,0:0:0:0:
42,192,50638,1,0,0:0:0:0:
128,192,50797,1,2,0:0:0:0:
298,192,50957,1,0,0:0:0:0:
384,192,51117,1,2,0:0:0:0:
469,192,51117,1,0,0:0:0:40:Clap.wav
128,192,51196,1,0,0:0:0:0:
213,192,51276,1,2,0:0:0:0:
298,192,51356,1,0,0:0:0:0:
42,192,51436,1,2,0:0:0:0:
384,192,51436,1,0,0:0:0:0:
213,192,51595,1,0,0:0:0:0:
128,192,51755,1,2,0:0:0:0:
469,192,51755,1,0,0:0:0:40:Clap.wav
42,192,51914,1,0,0:0:0:0:
384,192,51914,1,0,0:0:0:0:
213,192,52074,1,2,0:0:0:0:
298,192,52074,1,0,0:0:0:0:
384,192,52234,1,0,0:0:0:0:
213,192,52313,1,0,0:0:0:0:
42,192,52393,1,2,0:0:0:0:
469,192,52393,1,0,0:0:0:40:Clap.wav
213,192,52553,1,0,0:0:0:0:
298,192,52553,1,0,0:0:0:0:
128,192,52712,1,2,0:0:0:0:
384,192,52712,1,0,0:0:0:0:
298,192,52872,1,0,0:0:0:0:
42,192,53031,1,2,0:0:0:0:
213,192,53031,1,0,0:0:0:40:Clap.wav
384,192,53191,1,0,0:0:0:0:
128,192,53351,1,2,0:0:0:0:
298,192,53351,1,0,0:0:0:0:
42,192,53510,1,0,0:0:0:0:
213,192,53670,1,2,0:0:0:0:
384,192,53670,1,0,0:0:0:40:Clap.wav
469,192,53829,1,0,0:0:0:0:
42,192,53989,1,2,0:0:0:0:
213,192,53989,1,0,0:0:0:0:
384,192,54149,1,0,0:0:0:0:
469,192,54149,1,0,0:0:0:0:
42,192,54308,1,2,0:0:0:0:
128,192,54308,1,0,0:0:0:40:Clap.wav
298,192,54468,1,0,0:0:0:0:
213,192,54547,1,0,0:0:0:0:
128,192,54627,1,2,0:0:0:0:
384,192,54627,1,0,0:0:0:0:
213,192,54787,1,0,0:0:0:0:
298,192,54867,1,0,0:0:0:0:
42,192,54946,1,2,0:0:0:0:
469,192,54946,1,0,0:0:0:40:Clap.wav
128,192,55106,1,0,0:0:0:0:
213,192,55106,1,0,0:0:0:0:
384,192,55266,1,2,0:0:0:0:
469,192,55266,1,0,0:0:0:0:
42,192,55425,1,0,0:0:0:0:
128,192,55425,1,0,0:0:0:0:
384,192,55585,1,2,0:0:0:0:
469,192,55585,1,0,0:0:0:40:Clap.wav
213,192,55744,1,0,0:0:0:0:
42,192,55824,128,0,56542:0:0:0:0:
298,192,55904,1,2,0:0:0:0:
384,192,56063,1,2,0:0:0:0:
469,192,56223,1,2,0:0:0:0:
298,192,56383,1,2,0:0:0:0:
213,192,56462,1,2,0:0:0:0:
128,192,56542,1,2,0:0:0:0:
384,192,56542,1,4,0:0:0:0:
469,192,56542,1,0,0:0:0:0:
298,192,56702,1,0,0:0:0:0:
42,192,56861,1,2,0:0:0:0:
213,192,56861,1,0,0:0:0:40:Clap.wav
384,192,57021,1,0,0:0:0:0:
469,192,57021,1,0,0:0:0:0:
42,192,57180,1,2,0:0:0:0:
128,192,57180,1,0,0:0:0:0:
384,192,57340,1,0,0:0:0:0:
213,192,57420,1,0,0:0:0:0:
42,192,57500,1,2,0:0:0:0:
469,192,57500,1,0,0:0:0:40:Clap.wav
128,192,57659,1,0,0:0:0:0:
298,192,57659,1,0,0:0:0:0:
384,192,57819,1,2,0:0:0:0:
469,192,57819,1,0,0:0:0:0:
42,192,57978,1,0,0:0:0:0:
213,192,57978,1,0,0:0:0:0:
298,192,58138,1,2,0:0:0:0:
469,192,58138,1,0,0:0:0:40:Clap.wav
128,192,58297,1,0,0:0:0:0:
298,192,58377,128,0,59095:0:0:0:0:
469,192,58457,1,2,0:0:0:0:
42,192,58617,1,0,0:0:0:0:
384,192,58776,1,2,0:0:0:0:
213,192,58936,1,0,0:0:0:0:
42,192,59095,1,2,0:0:0:0:
128,192,59095,1,0,0:0:0:0:
469,192,59255,1,0,0:0:0:0:
42,192,59414,1,2,0:0:0:0:
384,192,59414,1,0,0:0:0:40:Clap.wav
128,192,59574,1,0,0:0:0:0:
298,192,59574,1,0,0:0:0:0:
384,192,59734,1,2,0:0:0:0:
469,192,59734,1,0,0:0:0:0:
128,192,59893,1,0,0:0:0:0:
298,192,59973,1,0,0:0:0:0:
42,192,60053,1,2,0:0:0:0:
469,192,60053,1,0,0:0:0:40:Clap.wav
213,192,60212,1,0,0:0:0:0:
384,192,60212,1,0,0:0:0:0:
42,192,60372,1,2,0:0:0:0:
128,192,60372,128,0,61329:0:0:0:0:
298,192,60531,1,0,0:0:0:0:
469,192,60691,1,2,0:0:0:0:
384,192,60851,1,0,0:0:0:0:
213,192,61010,1,2,0:0:0:0:
469,192,61170,1,0,0:0:0:0:
42,192,61329,1,2,0:0:0:0:
298,192,61329,1,0,0:0:0:40:Clap.wav
384,192,61409,1,0,0:0:0:0:
213,192,61489,1,2,0:0:0:0:
298,192,61569,1,2,0:0:0:0:
42,192,61649,1,2,0:0:0:0:
128,192,61649,1,0,0:0:0:40:C_Short.wav
384,192,61649,1,0,0:0:0:20:Snare.wav
213,192,61808,1,0,0:0:0:20:Snare.wav
298,192,61968,1,2,0:0:0:0:
469,192,61968,1,0,0:0:0:40:Clap.wav
42,192,62127,1,0,0:0:0:20:Snare.wav
128,192,62127,1,0,0:0:0:0:
213,192,62287,1,2,0:0:0:0:
384,192,62287,1,0,0:0:0:20:Snare.wav
469,192,62446,1,0,0:0:0:20:Snare.wav
298,192,62526,1,0,0:0:0:70:Snare.wav
42,192,62606,1,2,0:0:0:0:
128,192,62606,1,0,0:0:0:40:Clap.wav
384,192,62766,1,0,0:0:0:0:
298,192,62766,1,0,0:0:0:70:Snare.wav
42,192,62925,1,2,0:0:0:0:
213,192,62925,1,4,0:0:0:0:
469,192,62925,1,0,0:0:0:20:Snare.wav
298,192,63005,1,0,0:0:0:20:Snare.wav
384,192,63085,1,0,0:0:0:20:Snare.wav
128,192,63164,1,0,0:0:0:20:Snare.wav
213,192,63244,1,2,0:0:0:0:
469,192,63244,1,0,0:0:0:40:Clap.wav
298,192,63324,1,0,0:0:0:20:Snare.wav
42,192,63404,1,0,0:0:0:20:Snare.wav
128,192,63484,1,0,0:0:0:20:Snare.wav
213,192,63563,1,2,0:0:0:0:
384,192,63563,1,4,0:0:0:0:
469,192,63563,1,0,0:0:0:20:Snare.wav
128,192,63723,1,0,0:0:0:20:Snare.wav
298,192,63723,1,0,0:0:0:0:
384,192,63803,1,0,0:0:0:20:Snare.wav
42,192,63883,1,2,0:0:0:0:
469,192,63883,1,0,0:0:0:20:Snare.wav
213,192,64042,1,0,0:0:0:20:Snare.wav
298,192,64042,1,0,0:0:0:0:
128,192,64122,1,0,0:0:0:70:Snare.wav
42,192,64202,1,2,0:0:0:0:
384,192,64202,1,0,0:0:0:20:Snare.wav
469,192,64202,1,0,0:0:0:40:C_Short2.wav
128,192,64361,1,2,0:0:0:0:
213,192,64361,1,0,0:0:0:20:Snare.wav
42,192,64521,1,2,0:0:0:0:
298,192,64521,1,0,0:0:0:20:Snare.wav
469,192,64521,1,0,0:0:0:40:C_Short2.wav
213,192,64680,1,2,0:0:0:0:
384,192,64680,1,0,0:0:0:20:Snare.wav
42,192,64840,1,2,0:0:0:0:
128,192,64840,1,0,0:0:0:40:C_Short2.wav
298,192,64840,1,0,0:0:0:0:
213,192,64920,1,2,0:0:0:0:
298,192,65000,1,2,0:0:0:0:
213,192,65079,1,2,0:0:0:0:
42,192,65159,1,2,0:0:0:0:
384,192,65159,1,0,0:0:0:40:C_Short2.wav
469,192,65159,1,0,0:0:0:0:
298,192,65239,1,2,0:0:0:0:
213,192,65319,1,2,0:0:0:0:
128,192,65399,1,2,0:0:0:0:
42,192,65478,128,2,66675:0:0:0:0:
384,192,65638,1,2,0:0:0:0:
469,192,65638,1,0,0:0:0:40:C_Short.wav
213,192,65797,1,0,0:0:0:0:
384,192,65957,1,2,0:0:0:0:
469,192,65957,1,0,0:0:0:40:C_Short.wav
213,192,66117,1,0,0:0:0:0:
384,192,66276,1,2,0:0:0:0:
469,192,66276,1,0,0:0:0:40:C_Short.wav
298,192,66436,128,0,66516:0:0:0:40:Kick.wav
213,192,66516,128,0,66595:0:0:0:40:Kick.wav
128,192,66595,128,0,66675:0:0:0:40:Kick.wav
469,192,66675,128,0,66755:0:0:0:40:Kick.wav
42,192,66755,1,4,0:0:0:0:
384,192,66755,1,2,0:0:0:0:
213,192,66914,1,0,0:0:0:0:
298,192,66914,1,0,0:0:0:0:
128,192,67074,1,2,0:0:0:0:
469,192,67074,1,0,0:0:0:40:Clap.wav
213,192,67234,1,0,0:0:0:0:
384,192,67234,1,0,0:0:0:0:
42,192,67393,1,2,0:0:0:0:
298,192,67393,1,0,0:0:0:0:
384,192,67633,1,0,0:0:0:0:
469,192,67633,1,0,0:0:0:0:
128,192,67712,1,2,0:0:0:0:
213,192,67712,1,0,0:0:0:40:Clap.wav
298,192,67872,1,0,0:0:0:0:
384,192,67872,1,0,0:0:0:0:
42,192,68031,1,2,0:0:0:0:
469,192,68031,1,0,0:0:0:0:
213,192,68191,1,0,0:0:0:0:
298,192,68191,1,0,0:0:0:0:
128,192,68351,1,2,0:0:0:0:
384,192,68351,1,0,0:0:0:40:Clap.wav
213,192,68510,1,0,0:0:0:0:
298,192,68510,1,0,0:0:0:0:
128,192,68670,1,2,0:0:0:0:
469,192,68670,1,0,0:0:0:0:
213,192,68909,1,0,0:0:0:0:
384,192,68909,1,0,0:0:0:0:
42,192,68989,1,2,0:0:0:0:
128,192,68989,1,0,0:0:0:40:Clap.wav
213,192,69149,1,2,0:0:0:0:
469,192,69149,1,0,0:0:0:0:
298,192,69228,1,0,0:0:0:0:
384,192,69308,1,2,0:0:0:0:
469,192,69308,1,0,0:0:0:0:
42,192,69468,1,0,0:0:0:0:
128,192,69468,1,0,0:0:0:0:
384,192,69627,1,2,0:0:0:0:
469,192,69627,1,0,0:0:0:40:Clap.wav
213,192,69787,1,0,0:0:0:0:
298,192,69787,1,0,0:0:0:0:
128,192,69946,1,2,0:0:0:0:
384,192,69946,1,0,0:0:0:0:
42,192,70186,1,0,0:0:0:0:
298,192,70186,1,0,0:0:0:0:
213,192,70266,1,2,0:0:0:0:
469,192,70266,1,0,0:0:0:40:Clap.wav
128,192,70425,1,0,0:0:0:0:
384,192,70425,1,0,0:0:0:0:
213,192,70585,1,2,0:0:0:0:
469,192,70585,1,0,0:0:0:0:
128,192,70744,1,0,0:0:0:0:
384,192,70744,1,0,0:0:0:0:
42,192,70904,1,2,0:0:0:0:
298,192,70904,1,0,0:0:0:40:Clap.wav
213,192,71063,1,0,0:0:0:0:
469,192,71063,1,0,0:0:0:0:
42,192,71223,1,2,0:0:0:0:
384,192,71223,1,0,0:0:0:0:
128,192,71462,1,0,0:0:0:0:
298,192,71462,1,0,0:0:0:0:
213,192,71542,1,2,0:0:0:0:
384,192,71542,1,0,0:0:0:40:Clap.wav
42,192,71702,1,2,0:0:0:0:
469,192,71702,1,0,0:0:0:0:
128,192,71781,1,2,0:0:0:0:
384,192,71781,1,0,0:0:0:0:
213,192,71861,1,2,0:0:0:0:
298,192,71861,1,0,0:0:0:0:
42,192,72021,1,0,0:0:0:0:
298,192,72021,1,0,0:0:0:0:
213,192,72180,1,2,0:0:0:0:
469,192,72180,1,0,0:0:0:40:Clap.wav
42,192,72340,1,0,0:0:0:0:
213,192,72340,1,0,0:0:0:0:
128,192,72500,1,2,0:0:0:0:
384,192,72500,1,0,0:0:0:0:
42,192,72659,1,0,0:0:0:0:
298,192,72659,1,0,0:0:0:0:
298,192,72819,1,2,0:0:0:0:
469,192,72819,1,0,0:0:0:40:Clap.wav
128,192,72978,1,0,0:0:0:0:
384,192,72978,1,0,0:0:0:0:
42,192,73138,1,2,0:0:0:0:
213,192,73138,1,0,0:0:0:0:
213,192,73297,1,0,0:0:0:0:
469,192,73297,1,0,0:0:0:0:
128,192,73457,1,2,0:0:0:0:
384,192,73457,1,0,0:0:0:40:Clap.wav
42,192,73617,1,0,0:0:0:0:
298,192,73617,1,0,0:0:0:0:
298,192,73776,1,2,0:0:0:0:
469,192,73776,1,0,0:0:0:0:
42,192,73936,1,0,0:0:0:0:
213,192,73936,1,0,0:0:0:0:
469,192,74095,1,2,0:0:0:0:
298,192,74095,1,0,0:0:0:40:Clap.wav
213,192,74255,1,0,0:0:0:0:
42,192,74255,1,0,0:0:0:0:
298,192,74414,1,2,0:0:0:0:
384,192,74414,1,0,0:0:0:0:
298,192,74574,1,2,0:0:0:0:
384,192,74574,1,0,0:0:0:0:
213,192,74734,1,2,0:0:0:0:
42,192,74734,1,0,0:0:0:40:Clap.wav
384,192,74893,1,2,0:0:0:0:
469,192,74893,1,0,0:0:0:0:
384,192,75053,1,2,0:0:0:0:
469,192,75053,1,0,0:0:0:0:
42,192,75212,1,2,0:0:0:0:
213,192,75212,1,0,0:0:0:0:
42,192,75372,1,2,0:0:0:0:
213,192,75372,1,0,0:0:0:40:Clap.wav
128,192,75531,1,2,0:0:0:0:
298,192,75531,1,0,0:0:0:0:
213,192,75691,1,2,0:0:0:0:
384,192,75691,1,0,0:0:0:0:
128,192,75930,1,2,0:0:0:0:
469,192,75930,1,0,0:0:0:40:Clap.wav
128,192,76170,1,0,0:0:0:40:Kick.wav
298,192,76170,1,0,0:0:0:0:
42,192,76329,1,2,0:0:0:0:
469,192,76329,1,0,0:0:0:0:
128,192,76569,1,2,0:0:0:0:
384,192,76569,1,0,0:0:0:0:
213,192,76808,1,0,0:0:0:40:Kick.wav
298,192,76808,1,0,0:0:0:0:
213,192,76968,1,0,0:0:0:0:
298,192,76968,1,0,0:0:0:0:
42,192,77127,1,2,0:0:0:0:
469,192,77127,1,0,0:0:0:0:
213,192,77207,1,2,0:0:0:0:
298,192,77207,1,0,0:0:0:0:
42,192,77287,1,2,0:0:0:0:
469,192,77287,1,4,0:0:0:0:
384,192,77446,1,0,0:0:0:0:
128,192,77446,1,0,0:0:0:0:
42,192,77606,1,2,0:0:0:0:
298,192,77606,1,0,0:0:0:0:
213,192,77845,1,0,0:0:0:0:
469,192,77845,1,0,0:0:0:0:
128,192,77925,1,2,0:0:0:0:
384,192,77925,1,0,0:0:0:40:Clap.wav
298,192,78085,1,0,0:0:0:0:
42,192,78085,1,0,0:0:0:0:
128,192,78244,1,2,0:0:0:0:
213,192,78244,1,0,0:0:0:0:
384,192,78404,1,0,0:0:0:0:
469,192,78404,1,0,0:0:0:0:
128,192,78563,1,2,0:0:0:0:
213,192,78563,1,0,0:0:0:40:Clap.wav
298,192,78723,1,0,0:0:0:0:
384,192,78723,1,0,0:0:0:0:
42,192,78883,1,2,0:0:0:0:
469,192,78883,1,0,0:0:0:0:
213,192,79122,1,0,0:0:0:0:
384,192,79122,1,0,0:0:0:0:
42,192,79202,1,2,0:0:0:0:
469,192,79202,1,0,0:0:0:40:Clap.wav
128,192,79361,1,2,0:0:0:0:
298,192,79361,1,0,0:0:0:0:
42,192,79521,1,2,0:0:0:0:
384,192,79521,1,0,0:0:0:0:
42,192,79760,1,0,0:0:0:0:
384,192,79760,1,0,0:0:0:0:
128,192,79840,1,2,0:0:0:0:
469,192,79840,1,0,0:0:0:40:Clap.wav
213,192,80000,1,0,0:0:0:0:
298,192,80000,1,0,0:0:0:0:
128,192,80159,1,2,0:0:0:0:
384,192,80159,1,0,0:0:0:0:
128,192,80399,1,0,0:0:0:0:
384,192,80399,1,0,0:0:0:0:
42,192,80478,1,2,0:0:0:0:
469,192,80478,1,0,0:0:0:40:Clap.wav
213,192,80638,1,0,0:0:0:0:
298,192,80638,1,0,0:0:0:0:
42,192,80797,1,2,0:0:0:0:
128,192,80797,1,0,0:0:0:0:
298,192,80957,1,2,0:0:0:0:
384,192,80957,1,0,0:0:0:0:
128,192,81117,1,2,0:0:0:0:
213,192,81117,1,0,0:0:0:40:Clap.wav
384,192,81276,1,2,0:0:0:0:
469,192,81276,1,0,0:0:0:0:
42,192,81436,1,2,0:0:0:0:
128,192,81436,1,0,0:0:0:40:C_Short.wav
298,192,81436,1,0,0:0:0:0:
213,192,81675,1,2,0:0:0:0:
384,192,81675,1,0,0:0:0:40:Clap.wav
469,192,81675,1,0,0:0:0:40:C_Short.wav
128,192,81914,1,2,0:0:0:0:
469,192,81914,1,0,0:0:0:40:C_Short.wav
213,192,81994,1,2,0:0:0:0:
384,192,81994,1,0,0:0:0:0:
42,192,82074,1,6,0:0:0:0:
298,192,82074,1,0,0:0:0:20:Snare.wav
128,192,82234,1,2,0:0:0:0:
384,192,82234,1,0,0:0:0:20:Snare.wav
213,192,82393,1,2,0:0:0:0:
469,192,82393,1,0,0:0:0:20:Snare.wav
42,192,82553,1,2,0:0:0:0:
298,192,82553,1,0,0:0:0:20:Snare.wav
213,192,82712,1,2,0:0:0:0:
469,192,82712,1,0,0:0:0:20:Snare.wav
42,192,82872,1,2,0:0:0:0:
128,192,82952,1,0,0:0:0:20:Snare.wav
469,192,82952,1,0,0:0:0:0:
213,192,83031,1,2,0:0:0:0:
298,192,83191,1,2,0:0:0:0:
384,192,83191,1,0,0:0:0:20:Snare.wav
128,192,83271,1,2,0:0:0:0:
213,192,83271,1,0,0:0:0:20:Snare.wav
298,192,83351,1,6,0:0:0:0:
384,192,83351,1,0,0:0:0:20:Snare.wav
213,192,83510,1,2,0:0:0:0:
42,192,83590,1,0,0:0:0:20:Snare.wav
469,192,83590,1,0,0:0:0:0:
298,192,83670,1,2,0:0:0:0:
128,192,83829,1,2,0:0:0:0:
384,192,83829,1,0,0:0:0:20:Snare.wav
213,192,83909,1,2,0:0:0:0:
298,192,83909,1,0,0:0:0:20:Snare.wav
128,192,83989,1,6,0:0:0:0:
384,192,83989,1,0,0:0:0:20:Snare.wav
42,192,84149,1,2,0:0:0:0:
128,192,84228,1,0,0:0:0:20:Snare.wav
384,192,84228,1,0,0:0:0:0:
469,192,84308,1,2,0:0:0:0:
213,192,84388,1,2,0:0:0:0:
298,192,84468,1,2,0:0:0:0:
384,192,84547,1,0,0:0:0:20:Snare.wav
128,192,84627,1,2,0:0:0:0:
469,192,84627,1,0,0:0:0:40:C_Short2.wav
213,192,84707,1,2,0:0:0:0:
298,192,84787,1,2,0:0:0:0:
384,192,84867,1,2,0:0:0:0:
42,192,84946,1,2,0:0:0:0:
469,192,84946,1,0,0:0:0:40:C_Short2.wav
128,192,85026,1,2,0:0:0:0:
213,192,85106,1,2,0:0:0:0:
298,192,85186,1,2,0:0:0:0:
42,192,85266,1,2,0:0:0:0:
384,192,85266,1,0,0:0:0:40:C_Short.wav
128,192,85505,1,2,0:0:0:0:
213,192,85505,1,0,0:0:0:40:C_Short.wav
298,192,85744,1,2,0:0:0:0:
384,192,85744,1,0,0:0:0:40:C_Short.wav
213,192,86063,1,2,0:0:0:0:
469,192,86063,1,0,0:0:0:40:C_Short.wav
213,192,86303,1,2,0:0:0:0:
469,192,86303,1,0,0:0:0:40:C_Short.wav
213,192,86542,1,2,0:0:0:0:
469,192,86542,1,0,0:0:0:40:C_Short.wav
213,192,86781,1,2,0:0:0:0:
469,192,86781,1,0,0:0:0:40:C_Short.wav
213,192,87021,1,2,0:0:0:0:
469,192,87021,1,0,0:0:0:40:C_Short.wav
128,192,87101,1,2,0:0:0:0:
384,192,87101,1,0,0:0:0:0:
42,192,87340,1,2,0:0:0:0:
298,192,87340,1,0,0:0:0:40:C_Short.wav
42,192,87579,1,2,0:0:0:0:
298,192,87579,1,0,0:0:0:40:C_Short.wav
42,192,87819,1,2,0:0:0:0:
298,192,87819,1,0,0:0:0:40:C_Short.wav
42,192,88058,1,2,0:0:0:0:
298,192,88058,1,0,0:0:0:40:C_Short.wav
42,192,88297,1,2,0:0:0:0:
298,192,88297,1,0,0:0:0:40:C_Short.wav
384,192,88377,1,0,0:0:0:40:Kick.wav
128,192,88457,1,4,0:0:0:0:
213,192,88457,1,2,0:0:0:0:
469,192,88457,1,0,0:0:0:0:
298,192,88617,1,0,0:0:0:0:
42,192,88776,1,2,0:0:0:0:
469,192,88776,1,0,0:0:0:40:Clap.wav
298,192,88936,1,0,0:0:0:0:
384,192,88936,1,0,0:0:0:0:
42,192,89095,1,2,0:0:0:0:
128,192,89095,1,0,0:0:0:0:
213,192,89255,1,0,0:0:0:0:
128,192,89335,1,0,0:0:0:0:
384,192,89335,1,0,0:0:0:0:
42,192,89414,1,2,0:0:0:0:
469,192,89414,1,0,0:0:0:40:Clap.wav
213,192,89574,1,0,0:0:0:0:
298,192,89574,1,0,0:0:0:0:
42,192,89734,1,2,0:0:0:0:
469,192,89734,1,0,0:0:0:0:
128,192,89893,1,0,0:0:0:0:
384,192,89893,1,0,0:0:0:0:
213,192,90053,1,2,0:0:0:0:
298,192,90053,1,0,0:0:0:40:Clap.wav
384,192,90212,1,0,0:0:0:0:
42,192,90292,128,0,91010:0:0:0:0:
469,192,90372,1,2,0:0:0:0:
213,192,90531,1,0,0:0:0:0:
384,192,90691,1,2,0:0:0:0:
469,192,90851,1,0,0:0:0:0:
128,192,91010,1,2,0:0:0:0:
298,192,91010,1,0,0:0:0:0:
384,192,91170,1,0,0:0:0:0:
213,192,91329,1,2,0:0:0:0:
469,192,91329,1,0,0:0:0:40:Clap.wav
42,192,91489,1,0,0:0:0:0:
298,192,91489,1,0,0:0:0:0:
128,192,91649,1,2,0:0:0:0:
384,192,91649,1,0,0:0:0:0:
213,192,91808,1,0,0:0:0:0:
384,192,91888,1,0,0:0:0:0:
469,192,91888,1,0,0:0:0:0:
42,192,91968,1,2,0:0:0:0:
128,192,91968,1,0,0:0:0:40:Clap.wav
298,192,92127,1,0,0:0:0:0:
469,192,92127,1,0,0:0:0:0:
42,192,92287,1,2,0:0:0:0:
213,192,92287,128,0,93244:0:0:0:0:
298,192,92446,1,0,0:0:0:0:
469,192,92606,1,2,0:0:0:0:
42,192,92766,1,0,0:0:0:0:
128,192,92925,1,2,0:0:0:0:
298,192,93085,1,0,0:0:0:0:
384,192,93244,1,2,0:0:0:0:
469,192,93244,1,0,0:0:0:40:Clap.wav
298,192,93324,1,0,0:0:0:0:
213,192,93404,1,2,0:0:0:0:
128,192,93484,1,0,0:0:0:0:
42,192,93563,1,2,0:0:0:0:
384,192,93563,1,0,0:0:0:0:
213,192,93723,1,0,0:0:0:0:
128,192,93883,1,2,0:0:0:0:
469,192,93883,1,0,0:0:0:40:Clap.wav
42,192,94042,1,0,0:0:0:0:
384,192,94042,1,0,0:0:0:0:
213,192,94202,1,2,0:0:0:0:
298,192,94202,1,0,0:0:0:0:
384,192,94361,1,0,0:0:0:0:
42,192,94441,1,0,0:0:0:0:
213,192,94441,1,0,0:0:0:0:
298,192,94521,1,2,0:0:0:0:
469,192,94521,1,0,0:0:0:40:Clap.wav
42,192,94680,1,0,0:0:0:0:
128,192,94680,1,0,0:0:0:0:
384,192,94840,1,2,0:0:0:0:
469,192,94840,1,0,0:0:0:0:
298,192,95000,1,0,0:0:0:0:
42,192,95159,1,2,0:0:0:0:
213,192,95159,1,0,0:0:0:40:Clap.wav
384,192,95319,1,0,0:0:0:0:
128,192,95478,1,2,0:0:0:0:
298,192,95478,1,0,0:0:0:0:
42,192,95638,1,0,0:0:0:0:
213,192,95797,1,2,0:0:0:0:
384,192,95797,1,0,0:0:0:40:Clap.wav
469,192,95957,1,0,0:0:0:0:
42,192,96117,1,2,0:0:0:0:
213,192,96117,1,0,0:0:0:0:
384,192,96276,1,0,0:0:0:0:
469,192,96276,1,0,0:0:0:0:
42,192,96436,1,2,0:0:0:0:
128,192,96436,1,0,0:0:0:40:Clap.wav
298,192,96595,1,0,0:0:0:0:
469,192,96595,1,0,0:0:0:0:
128,192,96755,1,2,0:0:0:0:
213,192,96755,1,0,0:0:0:0:
384,192,96914,1,0,0:0:0:0:
213,192,96994,1,0,0:0:0:0:
298,192,96994,1,0,0:0:0:0:
42,192,97074,1,2,0:0:0:0:
469,192,97074,1,0,0:0:0:40:Clap.wav
128,192,97234,1,0,0:0:0:0:
298,192,97234,1,0,0:0:0:0:
384,192,97393,1,2,0:0:0:0:
469,192,97393,1,0,0:0:0:40:C_Short.wav
128,192,97553,1,2,0:0:0:0:
213,192,97553,1,0,0:0:0:40:C_Short.wav
384,192,97712,1,2,0:0:0:0:
469,192,97712,1,0,0:0:0:40:C_Short.wav
42,192,97792,1,2,0:0:0:0:
213,192,97792,1,0,0:0:0:40:C_Short.wav
128,192,97952,1,2,0:0:0:0:
298,192,97952,1,0,0:0:0:40:C_Short.wav
213,192,98191,1,2,0:0:0:0:
384,192,98191,1,0,0:0:0:40:C_Short.wav
128,192,98271,1,2,0:0:0:0:
469,192,98351,1,2,0:0:0:0:
298,192,98430,1,2,0:0:0:0:
42,192,98510,1,2,0:0:0:0:
128,192,98510,1,0,0:0:0:40:C_Short.wav
213,192,98590,1,2,0:0:0:0:
298,192,98670,1,2,0:0:0:0:
384,192,98670,1,4,0:0:0:0:
469,192,98670,1,0,0:0:0:0:
213,192,98829,1,0,0:0:0:0:
42,192,98989,1,2,0:0:0:0:
384,192,98989,1,0,0:0:0:40:Clap.wav
128,192,99149,1,0,0:0:0:0:
298,192,99149,1,0,0:0:0:0:
213,192,99308,1,2,0:0:0:0:
384,192,99308,1,0,0:0:0:0:
128,192,99468,1,0,0:0:0:0:
298,192,99547,1,0,0:0:0:0:
469,192,99547,1,0,0:0:0:0:
42,192,99627,1,2,0:0:0:0:
213,192,99627,1,0,0:0:0:40:Clap.wav
298,192,99787,1,0,0:0:0:0:
469,192,99787,1,0,0:0:0:0:
42,192,99946,1,2,0:0:0:0:
128,192,99946,1,0,0:0:0:0:
384,192,100106,1,0,0:0:0:0:
469,192,100106,1,0,0:0:0:0:
42,192,100266,1,2,0:0:0:0:
213,192,100266,1,0,0:0:0:40:Clap.wav
128,192,100425,1,0,0:0:0:0:
298,192,100505,128,0,101223:0:0:0:0:
469,192,100585,1,2,0:0:0:0:
42,192,100744,1,0,0:0:0:0:
384,192,100904,1,2,0:0:0:0:
213,192,101063,1,0,0:0:0:0:
128,192,101143,1,0,0:0:0:0:
42,192,101223,1,2,0:0:0:0:
469,192,101223,1,0,0:0:0:0:
384,192,101383,1,0,0:0:0:0:
42,192,101542,1,2,0:0:0:0:
298,192,101542,1,0,0:0:0:40:Clap.wav
213,192,101702,1,0,0:0:0:0:
469,192,101702,1,0,0:0:0:0:
128,192,101861,1,2,0:0:0:0:
384,192,101861,1,0,0:0:0:0:
42,192,102021,1,0,0:0:0:0:
128,192,102101,1,0,0:0:0:0:
298,192,102101,1,0,0:0:0:0:
384,192,102180,1,2,0:0:0:0:
469,192,102180,1,0,0:0:0:40:Clap.wav
213,192,102340,1,2,0:0:0:0:
298,192,102340,1,0,0:0:0:0:
42,192,102500,1,2,0:0:0:0:
128,192,102500,128,4,103138:0:0:0:0:
469,192,102500,1,0,0:0:0:0:
298,192,102659,1,2,0:0:0:0:
469,192,102819,1,2,0:0:0:0:
384,192,102978,1,2,0:0:0:0:
42,192,103138,1,2,0:0:0:0:
213,192,103138,1,0,0:0:0:40:C_Short.wav
298,192,103138,1,0,0:0:0:0:
469,192,103218,1,2,0:0:0:0:
384,192,103297,1,2,0:0:0:0:
298,192,103377,1,2,0:0:0:0:
42,192,103457,1,2,0:0:0:0:
128,192,103457,1,0,0:0:0:40:C_Short.wav
213,192,103457,1,0,0:0:0:0:
384,192,103537,1,2,0:0:0:0:
298,192,103617,1,2,0:0:0:0:
213,192,103696,1,2,0:0:0:0:
42,192,103776,1,2,0:0:0:0:
128,192,103776,1,4,0:0:0:0:
469,192,103776,1,0,0:0:0:20:Snare.wav
213,192,103936,1,0,0:0:0:20:Snare.wav
384,192,103936,1,0,0:0:0:0:
42,192,104095,1,2,0:0:0:0:
469,192,104095,1,0,0:0:0:40:Clap.wav
128,192,104255,1,0,0:0:0:20:Snare.wav
298,192,104255,1,0,0:0:0:0:
213,192,104414,1,2,0:0:0:0:
384,192,104414,1,0,0:0:0:20:Snare.wav
128,192,104654,1,2,0:0:0:0:
298,192,104654,1,0,0:0:0:40:Clap.wav
42,192,104893,1,2,0:0:0:0:
213,192,104893,1,0,0:0:0:20:Snare.wav
298,192,105053,1,2,0:0:0:0:
384,192,105053,1,0,0:0:0:40:C_Short.wav
469,192,105053,1,0,0:0:0:20:Snare.wav
128,192,105133,1,0,0:0:0:20:Snare.wav
213,192,105212,1,0,0:0:0:20:Snare.wav
298,192,105292,1,0,0:0:0:20:Snare.wav
42,192,105372,1,2,0:0:0:0:
384,192,105372,1,0,0:0:0:40:Clap.wav
469,192,105372,1,0,0:0:0:40:C_Short.wav
128,192,105452,1,0,0:0:0:20:Snare.wav
213,192,105531,1,0,0:0:0:20:Snare.wav
298,192,105611,1,0,0:0:0:20:Snare.wav
42,192,105691,1,6,0:0:0:0:
128,192,105691,1,0,0:0:0:40:C_Short.wav
384,192,105691,1,0,0:0:0:20:Snare.wav
213,192,105771,1,0,0:0:0:20:Snare.wav
298,192,105851,1,0,0:0:0:20:Snare.wav
384,192,105930,1,0,0:0:0:20:Snare.wav
42,192,106010,1,2,0:0:0:0:
128,192,106010,1,0,0:0:0:40:C_Short.wav
469,192,106010,1,0,0:0:0:20:Snare.wav
213,192,106090,1,0,0:0:0:20:Snare.wav
298,192,106170,1,0,0:0:0:20:Snare.wav
384,192,106250,1,0,0:0:0:20:Snare.wav
42,192,106329,1,2,0:0:0:0:
213,192,106329,1,0,0:0:0:20:Snare.wav
469,192,106329,1,0,0:0:0:30:C_Short2.wav
128,192,106489,1,2,0:0:0:0:
298,192,106489,1,0,0:0:0:20:Snare.wav
42,192,106649,1,2,0:0:0:0:
384,192,106649,1,0,0:0:0:20:Snare.wav
469,192,106649,1,0,0:0:0:30:C_Short2.wav
213,192,106808,1,2,0:0:0:0:
298,192,106808,1,0,0:0:0:20:Snare.wav
42,192,106968,1,2,0:0:0:0:
128,192,106968,1,0,0:0:0:30:C_Short2.wav
469,192,106968,1,0,0:0:0:0:
384,192,107047,1,2,0:0:0:0:
128,192,107127,1,2,0:0:0:0:
384,192,107207,1,2,0:0:0:0:
42,192,107287,1,2,0:0:0:0:
298,192,107287,1,0,0:0:0:40:Clap.wav
469,192,107287,1,0,0:0:0:30:C_Short2.wav
213,192,107367,1,2,0:0:0:0:
298,192,107446,1,2,0:0:0:0:
213,192,107526,1,2,0:0:0:0:
42,192,107606,128,2,108723:0:0:0:0:
384,192,107766,1,2,0:0:0:0:
469,192,107766,1,0,0:0:0:40:C_Short.wav
213,192,107925,1,0,0:0:0:0:
384,192,108085,1,2,0:0:0:0:
469,192,108085,1,0,0:0:0:40:C_Short.wav
213,192,108244,1,0,0:0:0:0:
384,192,108404,1,2,0:0:0:0:
469,192,108404,1,0,0:0:0:40:C_Short.wav
213,192,108563,128,0,108643:0:0:0:40:Kick.wav
128,192,108643,128,0,108723:0:0:0:40:Kick.wav
469,192,108723,128,0,108883:0:0:0:40:Kick.wav
384,192,108803,128,0,108883:0:0:0:40:Kick.wav
42,192,108883,1,4,0:0:0:0:
128,192,108883,1,2,0:0:0:0:
213,192,108883,128,0,109042:0:0:0:0:
384,192,109042,128,0,109202:0:0:0:0:
128,192,109361,128,0,109521:0:0:0:0:
298,192,109521,128,4,109680:0:0:0:0:
384,192,109521,1,2,0:0:0:0:
469,192,109521,1,0,0:0:0:0:
213,192,109760,128,0,109920:0:0:0:0:
128,192,110000,128,0,110159:0:0:0:0:
42,192,110159,1,2,0:0:0:0:
298,192,110159,1,0,0:0:0:40:C_Short.wav
469,192,110159,1,0,0:0:0:0:
128,192,110478,1,2,0:0:0:0:
384,192,110478,1,0,0:0:0:40:C_Short.wav
469,192,110478,1,0,0:0:0:0:
42,192,110718,1,2,0:0:0:0:
213,192,110718,1,0,0:0:0:40:C_Short.wav
298,192,110718,1,0,0:0:0:0:
128,192,110957,128,0,111037:0:0:0:40:C_Short.wav
213,192,111037,128,0,111117:0:0:0:40:Kick.wav
298,192,111117,128,4,111436:0:0:0:0:
384,192,111117,128,0,111436:0:0:0:50:Clap.wav
469,192,111117,128,0,111436:0:0:0:50:FX_IntroKick.wav
