osu file format v14

[General]
AudioFilename: audio.mp3
AudioLeadIn: 0
PreviewTime: 46329
Countdown: 0
SampleSet: Soft
StackLeniency: 0.7
Mode: 3
LetterboxInBreaks: 0
SpecialStyle: 0
WidescreenStoryboard: 1

[Editor]
DistanceSpacing: 1.4
BeatDivisor: 4
GridSize: 4
TimelineZoom: 1.699999

[Metadata]
Title:Shanghai Kouchakan ~ Chinese Tea Orchid Remix
TitleUnicode:上海紅茶館 ~ Chinese Tea Orchid Remix
Artist:Yooh
ArtistUnicode:Yooh
Creator:Noch Einen
Version:BlankFace74's BASIC
Source:SOUND VOLTEX II -infinite infection-
Tags:東方 東方紅魔郷REMIX 東方紅魔郷リミックス楽曲コンテスト 東方紅魔郷 ~ the Embodiment of Scarlet Devil eosd Touhou Project Koumakyou Gakkyoku Contest SDVX FLOOR konami ZUN Team Shanghai Alice ULTIMATE TRACKS 紅美鈴 Hong Meiling JooF12 blankface74 damaree tre Fawcro32 Mirsaaa instrumental video game electronic
BeatmapID:3988497
BeatmapSetID:1930737

[Difficulty]
HPDrainRate:7
CircleSize:6
OverallDifficulty:7
ApproachRate:9.3
SliderMultiplier:1.9
SliderTickRate:2

[Events]
//Background and Video events
0,0,"762623.jpg",0,0
//Break Periods
//Storyboard Layer 0 (Background)
//Storyboard Layer 1 (Fail)
//Storyboard Layer 2 (Pass)
//Storyboard Layer 3 (Foreground)
//Storyboard Layer 4 (Overlay)
//Storyboard Sound Samples
Sample,5159,0,"C_Short2.wav",40
Sample,15372,0,"Clap.wav",40
Sample,20478,0,"Clap.wav",40
Sample,20797,0,"Snare.wav",20
Sample,21117,0,"Snare.wav",20
Sample,21755,0,"Snare.wav",20
Sample,21755,0,"Clap.wav",40
Sample,22393,0,"Snare.wav",20
Sample,22712,0,"Snare.wav",20
Sample,23031,0,"Snare.wav",20
Sample,23031,0,"C_Short.wav",40
Sample,23351,0,"C_Short2.wav",40
Sample,23670,0,"C_Short2.wav",30
Sample,23989,0,"C_Short2.wav",30
Sample,24308,0,"C_Short2.wav",30
Sample,36117,0,"soft-hitfinish.wav",20
Sample,37393,0,"Snare.wav",15
Sample,38031,0,"Snare.wav",15
Sample,38670,0,"Snare.wav",15
Sample,39308,0,"Snare.wav",15
Sample,40585,0,"Snare.wav",15
Sample,40904,0,"Snare.wav",15
Sample,41223,0,"Snare.wav",20
Sample,41542,0,"Snare.wav",20
Sample,41861,0,"Snare.wav",20
Sample,42180,0,"Snare.wav",20
Sample,42819,0,"Snare.wav",20
Sample,43457,0,"Snare.wav",20
Sample,46010,0,"C_Short2.wav",40
Sample,56223,0,"Clap.wav",40
Sample,61329,0,"Clap.wav",40
Sample,61649,0,"Snare.wav",20
Sample,61968,0,"Clap.wav",40
Sample,61968,0,"Snare.wav",20
Sample,62287,0,"Snare.wav",20
Sample,62606,0,"Snare.wav",20
Sample,62606,0,"Clap.wav",40
Sample,63244,0,"Snare.wav",20
Sample,63244,0,"Clap.wav",40
Sample,63883,0,"Snare.wav",20
Sample,64202,0,"C_Short2.wav",40
Sample,64521,0,"C_Short2.wav",40
Sample,75930,0,"Clap.wav",40
Sample,81117,0,"Clap.wav",40
Sample,81675,0,"C_Short.wav",40
Sample,82074,0,"Snare.wav",20
Sample,82393,0,"Snare.wav",20
Sample,82712,0,"Snare.wav",20
Sample,83031,0,"Snare.wav",20
Sample,83670,0,"Snare.wav",20
Sample,84308,0,"Snare.wav",20
Sample,85266,0,"C_Short.wav",40
Sample,85505,0,"C_Short.wav",40
Sample,85744,0,"C_Short.wav",40
Sample,97393,0,"C_Short.wav",40
Sample,97553,0,"C_Short.wav",40
Sample,97712,0,"C_Short.wav",40
Sample,98191,0,"C_Short.wav",40
Sample,98510,0,"C_Short.wav",40
Sample,102819,0,"Clap.wav",40
Sample,103776,0,"Snare.wav",20
Sample,104095,0,"Snare.wav",20
Sample,104095,0,"Clap.wav",40
Sample,104414,0,"Snare.wav",20
Sample,104654,0,"Clap.wav",40
Sample,104654,0,"Snare.wav",20
Sample,104893,0,"Snare.wav",20
Sample,105053,0,"Snare.wav",20
Sample,105372,0,"C_Short.wav",40
Sample,105372,0,"Snare.wav",20
Sample,105691,0,"Snare.wav",20
Sample,106010,0,"Snare.wav",20
Sample,106329,0,"C_Short2.wav",30
Sample,106489,0,"Snare.wav",20
Sample,106649,0,"Snare.wav",20
Sample,106649,0,"C_Short2.wav",30
Sample,106808,0,"Snare.wav",20
Sample,107287,0,"C_Short2.wav",30
Sample,111117,0,"FX_IntroKick.wav",50

[TimingPoints]
1649,319.148936170213,4,2,1,40,1,0
46329,-100,4,2,1,40,0,1
66755,-100,4,2,1,40,0,0
88457,-100,4,2,1,40,0,1
108883,-100,4,2,1,40,0,0

[HitObjects]
128,192,2925,1,2,0:0:0:0:
384,192,2925,1,4,0:0:0:0:
298,192,3085,1,0,0:0:0:0:
213,192,3404,1,0,0:0:0:0:
42,192,3563,1,4,0:0:0:0:
469,192,3563,1,2,0:0:0:0:
384,192,3803,1,0,0:0:0:0:
298,192,4042,1,0,0:0:0:0:
128,192,4202,1,2,0:0:0:0:
213,192,4202,1,0,0:0:0:40:C_Short.wav
128,192,4521,1,2,0:0:0:0:
213,192,4521,1,0,0:0:0:40:C_Short.wav
298,192,4760,1,2,0:0:0:0:
384,192,4760,1,0,0:0:0:40:C_Short.wav
213,192,5000,1,0,0:0:0:30:Kick.wav
42,192,5159,1,2,0:0:0:0:
469,192,5159,1,0,0:0:0:50:Clap.wav
128,192,5478,1,4,0:0:0:0:
213,192,5478,1,2,0:0:0:0:
298,192,5797,1,2,0:0:0:0:
384,192,5797,1,0,0:0:0:40:Clap.wav
213,192,6117,1,2,0:0:0:0:
42,192,6436,1,2,0:0:0:0:
469,192,6436,1,0,0:0:0:40:Clap.wav
213,192,6595,1,0,0:0:0:0:
384,192,6755,1,2,0:0:0:0:
128,192,7074,1,2,0:0:0:0:
384,192,7074,1,0,0:0:0:40:Clap.wav
213,192,7393,1,2,0:0:0:0:
213,192,7712,1,2,0:0:0:0:
469,192,7712,1,0,0:0:0:40:Clap.wav
298,192,8031,1,2,0:0:0:0:
42,192,8351,1,2,0:0:0:0:
298,192,8351,1,0,0:0:0:40:Clap.wav
128,192,8670,1,2,0:0:0:0:
128,192,8989,1,2,0:0:0:0:
384,192,8989,1,0,0:0:0:40:Clap.wav
469,192,9308,128,2,9627:0:0:0:0:
42,192,9627,128,2,9946:0:0:0:0:
298,192,9627,1,0,0:0:0:40:Clap.wav
213,192,9946,128,2,10266:0:0:0:0:
298,192,10266,1,2,0:0:0:0:
469,192,10266,1,0,0:0:0:40:Clap.wav
128,192,10425,1,2,0:0:0:0:
384,192,10585,1,2,0:0:0:0:
213,192,10904,1,2,0:0:0:0:
298,192,10904,1,0,0:0:0:40:Clap.wav
42,192,11223,1,2,0:0:0:0:
213,192,11542,1,2,0:0:0:0:
469,192,11542,1,0,0:0:0:40:Clap.wav
298,192,11702,1,0,0:0:0:0:
128,192,11861,1,2,0:0:0:0:
128,192,12180,1,2,0:0:0:0:
384,192,12180,1,0,0:0:0:40:Clap.wav
298,192,12500,1,2,0:0:0:0:
42,192,12819,1,2,0:0:0:0:
298,192,12819,1,0,0:0:0:40:Clap.wav
469,192,13138,1,2,0:0:0:0:
42,192,13457,1,2,0:0:0:0:
213,192,13457,1,0,0:0:0:40:Clap.wav
384,192,13617,1,0,0:0:0:0:
298,192,13776,1,2,0:0:0:0:
128,192,14095,1,2,0:0:0:0:
298,192,14095,1,0,0:0:0:40:Clap.wav
213,192,14414,128,2,14734:0:0:0:0:
298,192,14734,128,2,15053:0:0:0:0:
469,192,14734,1,0,0:0:0:40:Clap.wav
42,192,15053,1,2,0:0:0:0:
213,192,15212,1,2,0:0:0:0:
469,192,15372,1,2,0:0:0:0:
298,192,15531,1,2,0:0:0:0:
128,192,15691,1,2,0:0:0:0:
213,192,15691,1,4,0:0:0:0:
42,192,16010,1,2,0:0:0:0:
469,192,16010,1,0,0:0:0:40:Clap.wav
213,192,16329,1,2,0:0:0:0:
298,192,16649,1,2,0:0:0:0:
384,192,16649,1,0,0:0:0:40:Clap.wav
128,192,16808,1,0,0:0:0:0:
213,192,16968,1,2,0:0:0:0:
213,192,17287,1,2,0:0:0:0:
384,192,17287,1,0,0:0:0:40:Clap.wav
298,192,17606,1,2,0:0:0:0:
128,192,17925,1,2,0:0:0:0:
298,192,17925,1,0,0:0:0:40:Clap.wav
469,192,18244,1,2,0:0:0:0:
213,192,18563,1,2,0:0:0:0:
469,192,18563,1,0,0:0:0:40:Clap.wav
42,192,18883,1,2,0:0:0:0:
42,192,19202,1,2,0:0:0:0:
384,192,19202,1,0,0:0:0:40:Clap.wav
298,192,19361,1,0,0:0:0:0:
213,192,19521,128,2,19840:0:0:0:0:
128,192,19840,1,2,0:0:0:0:
469,192,19840,128,0,20159:0:0:0:40:Clap.wav
42,192,20159,128,2,20478:0:0:0:0:
384,192,20478,1,2,0:0:0:0:
128,192,20638,1,2,0:0:0:0:
298,192,20797,1,2,0:0:0:0:
384,192,20797,128,0,21117:0:0:0:40:C_Short.wav
213,192,21117,128,0,21436:0:0:0:40:Clap.wav
298,192,21436,128,0,21755:0:0:0:20:Snare.wav
128,192,21755,128,2,22074:0:0:0:0:
213,192,22074,1,6,0:0:0:0:
384,192,22074,128,0,22393:0:0:0:20:Snare.wav
128,192,22393,128,0,22712:0:0:0:40:Clap.wav
298,192,22712,1,2,0:0:0:0:
469,192,22712,128,0,23031:0:0:0:40:C_Short.wav
42,192,23031,128,2,23351:0:0:0:0:
213,192,23031,1,0,0:0:0:40:Clap.wav
298,192,23351,1,2,0:0:0:0:
469,192,23351,1,0,0:0:0:20:Snare.wav
42,192,23670,1,2,0:0:0:0:
213,192,23670,1,0,0:0:0:20:Snare.wav
298,192,23989,1,2,0:0:0:0:
384,192,23989,1,0,0:0:0:20:Snare.wav
128,192,24308,1,2,0:0:0:0:
213,192,24308,1,0,0:0:0:20:Snare.wav
42,192,24627,1,2,0:0:0:0:
469,192,24627,128,0,24946:0:0:0:30:C_Short2.wav
128,192,24946,128,2,25266:0:0:0:0:
384,192,25266,1,2,0:0:0:0:
298,192,25425,1,2,0:0:0:0:
213,192,25585,128,0,25904:0:0:0:40:Kick.wav
42,192,25904,1,0,0:0:0:50:FX_IntroKick.wav
469,192,25904,1,0,0:0:0:0:
42,192,26542,1,0,0:0:0:0:
469,192,26861,1,0,0:0:0:0:
298,192,27180,1,0,0:0:0:0:
213,192,27819,1,0,0:0:0:0:
128,192,28457,1,0,0:0:0:0:
213,192,28776,1,0,0:0:0:0:
298,192,29095,1,0,0:0:0:0:
384,192,29414,1,0,0:0:0:0:
469,192,29734,1,0,0:0:0:0:
42,192,30372,1,0,0:0:0:0:
298,192,30691,1,0,0:0:0:0:
213,192,31010,1,0,0:0:0:0:
298,192,31649,1,0,0:0:0:0:
128,192,31808,1,0,0:0:0:0:
384,192,31968,1,0,0:0:0:0:
213,192,32127,1,0,0:0:0:0:
213,192,32766,1,0,0:0:0:0:
469,192,33244,1,0,0:0:0:0:
298,192,33563,1,0,0:0:0:0:
213,192,33883,1,0,0:0:0:0:
384,192,34202,1,0,0:0:0:0:
128,192,34521,1,0,0:0:0:0:
42,192,34840,1,0,0:0:0:0:
469,192,35159,1,0,0:0:0:0:
298,192,35478,1,0,0:0:0:0:
213,192,35797,1,0,0:0:0:0:
128,192,36117,1,0,0:0:0:20:soft-hitwhistle.wav
298,192,36436,1,0,0:0:0:20:soft-hitwhistle.wav
384,192,36436,1,0,0:0:0:0:
42,192,36755,1,0,0:0:0:20:soft-hitwhistle.wav
298,192,37074,1,0,0:0:0:20:soft-hitwhistle.wav
384,192,37074,1,0,0:0:0:0:
469,192,37393,1,0,0:0:0:20:soft-hitwhistle.wav
128,192,37712,1,0,0:0:0:20:soft-hitwhistle.wav
213,192,37712,1,0,0:0:0:15:Snare.wav
384,192,38031,1,0,0:0:0:20:soft-hitwhistle.wav
42,192,38191,1,0,0:0:0:15:Snare.wav
213,192,38191,1,0,0:0:0:0:
384,192,38430,1,0,0:0:0:15:Snare.wav
298,192,38670,1,0,0:0:0:30:soft-hitwhistle.wav
42,192,38989,1,0,0:0:0:30:soft-hitwhistle.wav
469,192,38989,1,0,0:0:0:15:Snare.wav
298,192,39308,1,0,0:0:0:30:soft-hitwhistle.wav
42,192,39627,1,0,0:0:0:30:soft-hitwhistle.wav
213,192,39627,1,0,0:0:0:15:Snare.wav
128,192,39946,1,2,0:0:0:0:
384,192,39946,1,0,0:0:0:15:Snare.wav
128,192,40266,1,2,0:0:0:0:
384,192,40266,1,0,0:0:0:15:Snare.wav
213,192,40585,1,2,0:0:0:0:
384,192,40744,1,0,0:0:0:15:Snare.wav
128,192,40904,1,2,0:0:0:0:
42,192,41223,1,2,0:0:0:0:
469,192,41223,128,0,41542:0:0:0:30:soft-hitfinish.wav
298,192,41542,128,2,41861:0:0:0:0:
42,192,41861,128,2,42180:0:0:0:0:
213,192,42180,128,2,42500:0:0:0:0:
298,192,42500,1,6,0:0:0:0:
384,192,42500,128,0,42819:0:0:0:20:Snare.wav
128,192,42819,128,2,43138:0:0:0:0:
298,192,43138,128,6,43457:0:0:0:0:
469,192,43138,1,0,0:0:0:20:Snare.wav
213,192,43457,128,2,43776:0:0:0:0:
42,192,43776,1,6,0:0:0:0:
469,192,43776,128,0,44414:0:0:0:20:Snare.wav
42,192,44414,128,6,45053:0:0:0:0:
298,192,44414,1,0,0:0:0:20:Snare.wav
298,192,45053,1,2,0:0:0:0:
384,192,45053,1,0,0:0:0:40:C_Short.wav
128,192,45372,1,2,0:0:0:0:
213,192,45372,1,0,0:0:0:40:C_Short.wav
128,192,45691,1,2,0:0:0:0:
384,192,45691,1,0,0:0:0:40:C_Short.wav
213,192,46010,128,2,46329:0:0:0:0:
298,192,46010,128,0,46329:0:0:0:50:Clap.wav
42,192,46329,1,4,0:0:0:0:
469,192,46329,1,2,0:0:0:0:
213,192,46649,1,2,0:0:0:0:
384,192,46649,1,0,0:0:0:40:Clap.wav
298,192,46968,1,2,0:0:0:0:
42,192,47287,1,2,0:0:0:0:
213,192,47287,1,0,0:0:0:40:Clap.wav
469,192,47606,1,2,0:0:0:0:
128,192,47925,1,2,0:0:0:0:
384,192,47925,1,0,0:0:0:40:Clap.wav
213,192,48244,128,2,48563:0:0:0:0:
298,192,48563,1,2,0:0:0:0:
469,192,48563,128,0,48883:0:0:0:40:Clap.wav
42,192,48883,1,2,0:0:0:0:
298,192,49202,1,2,0:0:0:0:
384,192,49202,1,0,0:0:0:40:Clap.wav
128,192,49521,1,2,0:0:0:0:
213,192,49840,1,2,0:0:0:0:
469,192,49840,1,0,0:0:0:40:Clap.wav
384,192,50159,128,2,50478:0:0:0:0:
128,192,50478,1,2,0:0:0:0:
213,192,50478,128,0,50797:0:0:0:40:Clap.wav
298,192,50797,128,2,51117:0:0:0:0:
42,192,51117,1,2,0:0:0:0:
469,192,51117,1,0,0:0:0:40:Clap.wav
213,192,51276,1,2,0:0:0:0:
384,192,51436,1,2,0:0:0:0:
128,192,51755,1,2,0:0:0:0:
298,192,51755,1,0,0:0:0:40:Clap.wav
213,192,52074,1,2,0:0:0:0:
298,192,52393,1,2,0:0:0:0:
384,192,52393,1,0,0:0:0:40:Clap.wav
128,192,52712,1,2,0:0:0:0:
128,192,53031,1,2,0:0:0:0:
469,192,53031,1,0,0:0:0:40:Clap.wav
384,192,53351,1,2,0:0:0:0:
42,192,53670,1,2,0:0:0:0:
384,192,53670,1,0,0:0:0:40:Clap.wav
213,192,53989,1,2,0:0:0:0:
128,192,54308,1,2,0:0:0:0:
298,192,54308,1,0,0:0:0:40:Clap.wav
469,192,54627,1,2,0:0:0:0:
213,192,54946,1,2,0:0:0:0:
384,192,54946,1,0,0:0:0:40:Clap.wav
298,192,55266,128,2,55585:0:0:0:0:
128,192,55585,1,2,0:0:0:0:
213,192,55585,128,0,55904:0:0:0:40:Clap.wav
469,192,55904,1,2,0:0:0:0:
298,192,56063,1,2,0:0:0:0:
42,192,56223,1,2,0:0:0:0:
213,192,56383,1,2,0:0:0:0:
298,192,56542,1,2,0:0:0:0:
384,192,56542,1,4,0:0:0:0:
128,192,56861,1,2,0:0:0:0:
213,192,56861,1,0,0:0:0:40:Clap.wav
469,192,57180,1,2,0:0:0:0:
213,192,57500,1,2,0:0:0:0:
384,192,57500,1,0,0:0:0:40:Clap.wav
42,192,57819,1,2,0:0:0:0:
128,192,58138,1,2,0:0:0:0:
298,192,58138,1,0,0:0:0:40:Clap.wav
469,192,58457,128,2,58776:0:0:0:0:
42,192,58776,128,2,59095:0:0:0:0:
213,192,58776,1,0,0:0:0:40:Clap.wav
298,192,59095,1,2,0:0:0:0:
128,192,59414,1,2,0:0:0:0:
384,192,59414,1,0,0:0:0:40:Clap.wav
213,192,59734,1,2,0:0:0:0:
42,192,60053,1,2,0:0:0:0:
469,192,60053,1,0,0:0:0:40:Clap.wav
384,192,60372,128,2,60691:0:0:0:0:
128,192,60691,128,2,61010:0:0:0:0:
213,192,60691,1,0,0:0:0:40:Clap.wav
384,192,61010,128,2,61329:0:0:0:0:
213,192,61329,1,2,0:0:0:0:
298,192,61489,1,2,0:0:0:0:
42,192,61649,128,2,61968:0:0:0:0:
469,192,61649,1,0,0:0:0:40:C_Short.wav
213,192,61968,128,2,62287:0:0:0:0:
469,192,62287,128,2,62606:0:0:0:0:
298,192,62606,128,2,62925:0:0:0:0:
128,192,62925,128,6,63244:0:0:0:0:
384,192,62925,1,0,0:0:0:20:Snare.wav
384,192,63244,128,2,63563:0:0:0:0:
128,192,63563,128,6,63883:0:0:0:0:
213,192,63563,1,0,0:0:0:20:Snare.wav
384,192,63883,128,2,64202:0:0:0:0:
42,192,64202,1,2,0:0:0:0:
128,192,64202,1,0,0:0:0:20:Snare.wav
384,192,64521,1,2,0:0:0:0:
469,192,64521,1,0,0:0:0:20:Snare.wav
128,192,64840,1,2,0:0:0:0:
213,192,64840,128,0,65159:0:0:0:40:C_Short2.wav
298,192,65159,128,2,65478:0:0:0:0:
384,192,65159,1,0,0:0:0:40:C_Short2.wav
42,192,65638,1,2,0:0:0:0:
213,192,65638,1,0,0:0:0:40:C_Short.wav
298,192,65957,1,2,0:0:0:0:
469,192,65957,1,0,0:0:0:40:C_Short.wav
128,192,66276,1,2,0:0:0:0:
213,192,66276,1,0,0:0:0:40:C_Short.wav
298,192,66436,128,0,66755:0:0:0:40:Kick.wav
384,192,66436,128,0,66755:0:0:0:0:
42,192,66755,1,6,0:0:0:0:
469,192,66914,1,0,0:0:0:0:
128,192,67074,1,2,0:0:0:0:
384,192,67074,1,0,0:0:0:40:Clap.wav
298,192,67393,1,2,0:0:0:0:
128,192,67712,1,2,0:0:0:0:
213,192,67712,1,0,0:0:0:40:Clap.wav
298,192,68031,1,2,0:0:0:0:
42,192,68191,1,0,0:0:0:0:
128,192,68351,1,2,0:0:0:0:
384,192,68351,1,0,0:0:0:40:Clap.wav
213,192,68670,1,2,0:0:0:0:
298,192,68989,1,2,0:0:0:0:
384,192,68989,1,0,0:0:0:40:Clap.wav
128,192,69149,1,2,0:0:0:0:
469,192,69308,1,2,0:0:0:0:
298,192,69468,1,0,0:0:0:0:
42,192,69627,1,2,0:0:0:0:
213,192,69627,1,0,0:0:0:40:Clap.wav
469,192,69946,1,2,0:0:0:0:
213,192,70266,1,2,0:0:0:0:
384,192,70266,1,0,0:0:0:40:Clap.wav
128,192,70585,1,2,0:0:0:0:
213,192,70744,1,0,0:0:0:0:
298,192,70904,1,2,0:0:0:0:
469,192,70904,1,0,0:0:0:40:Clap.wav
213,192,71223,1,2,0:0:0:0:
42,192,71542,1,2,0:0:0:0:
384,192,71542,1,0,0:0:0:40:Clap.wav
213,192,71702,1,2,0:0:0:0:
469,192,71861,1,2,0:0:0:0:
128,192,72180,1,2,0:0:0:0:
298,192,72180,1,0,0:0:0:40:Clap.wav
128,192,72500,1,2,0:0:0:0:
213,192,72819,1,2,0:0:0:0:
384,192,72819,1,0,0:0:0:40:Clap.wav
384,192,73138,1,2,0:0:0:0:
42,192,73457,1,2,0:0:0:0:
213,192,73457,1,0,0:0:0:40:Clap.wav
213,192,73776,1,2,0:0:0:0:
298,192,74095,1,2,0:0:0:0:
469,192,74095,1,0,0:0:0:40:Clap.wav
298,192,74414,128,2,74734:0:0:0:0:
42,192,74734,128,2,75053:0:0:0:0:
213,192,74734,1,0,0:0:0:40:Clap.wav
469,192,75053,128,2,75372:0:0:0:0:
128,192,75372,128,2,75691:0:0:0:0:
298,192,75372,1,0,0:0:0:40:Clap.wav
469,192,75691,1,2,0:0:0:0:
384,192,75930,1,2,0:0:0:0:
298,192,76170,1,0,0:0:0:40:Kick.wav
42,192,76329,1,2,0:0:0:0:
128,192,76569,1,2,0:0:0:0:
213,192,76808,1,0,0:0:0:40:Kick.wav
469,192,76968,1,0,0:0:0:0:
298,192,77127,1,2,0:0:0:0:
128,192,77287,1,2,0:0:0:0:
213,192,77287,1,4,0:0:0:0:
42,192,77606,1,2,0:0:0:0:
213,192,77925,1,2,0:0:0:0:
384,192,77925,1,0,0:0:0:40:Clap.wav
128,192,78244,1,2,0:0:0:0:
469,192,78404,1,0,0:0:0:0:
42,192,78563,1,2,0:0:0:0:
213,192,78563,1,0,0:0:0:40:Clap.wav
298,192,78883,1,2,0:0:0:0:
128,192,79202,1,2,0:0:0:0:
384,192,79202,1,0,0:0:0:40:Clap.wav
298,192,79361,1,2,0:0:0:0:
42,192,79521,1,2,0:0:0:0:
213,192,79840,1,2,0:0:0:0:
384,192,79840,1,0,0:0:0:40:Clap.wav
384,192,80159,1,2,0:0:0:0:
128,192,80478,1,2,0:0:0:0:
298,192,80478,1,0,0:0:0:40:Clap.wav
128,192,80797,1,2,0:0:0:0:
298,192,80957,1,2,0:0:0:0:
213,192,81117,1,2,0:0:0:0:
384,192,81276,1,2,0:0:0:0:
128,192,81436,1,2,0:0:0:0:
213,192,81436,1,0,0:0:0:40:C_Short.wav
298,192,81675,1,2,0:0:0:0:
384,192,81675,1,0,0:0:0:40:Clap.wav
42,192,81914,1,2,0:0:0:0:
469,192,81914,1,0,0:0:0:40:C_Short.wav
213,192,82074,128,6,82393:0:0:0:0:
298,192,82393,128,2,82712:0:0:0:0:
128,192,82712,128,2,83031:0:0:0:0:
384,192,83031,128,2,83351:0:0:0:0:
42,192,83351,128,6,83670:0:0:0:0:
298,192,83351,1,0,0:0:0:20:Snare.wav
213,192,83670,128,2,83989:0:0:0:0:
128,192,83989,1,6,0:0:0:0:
469,192,83989,128,0,84308:0:0:0:20:Snare.wav
298,192,84308,128,2,84627:0:0:0:0:
128,192,84627,128,2,84946:0:0:0:0:
213,192,84627,1,0,0:0:0:40:C_Short2.wav
298,192,84946,1,2,0:0:0:0:
384,192,84946,128,0,85266:0:0:0:40:C_Short2.wav
128,192,85266,1,2,0:0:0:0:
384,192,85505,1,2,0:0:0:0:
128,192,85744,1,2,0:0:0:0:
42,192,86063,1,2,0:0:0:0:
469,192,86063,1,0,0:0:0:40:C_Short.wav
128,192,86303,1,2,0:0:0:0:
384,192,86303,1,0,0:0:0:40:C_Short.wav
213,192,86542,1,2,0:0:0:0:
298,192,86542,1,0,0:0:0:40:C_Short.wav
128,192,86781,1,2,0:0:0:0:
384,192,86781,1,0,0:0:0:40:C_Short.wav
42,192,87021,1,2,0:0:0:0:
469,192,87021,1,0,0:0:0:40:C_Short.wav
128,192,87340,1,2,0:0:0:0:
213,192,87340,1,0,0:0:0:40:C_Short.wav
298,192,87579,1,2,0:0:0:0:
384,192,87579,1,0,0:0:0:40:C_Short.wav
42,192,87819,1,2,0:0:0:0:
128,192,87819,1,0,0:0:0:40:C_Short.wav
384,192,88058,1,2,0:0:0:0:
469,192,88058,1,0,0:0:0:40:C_Short.wav
213,192,88297,1,2,0:0:0:0:
298,192,88297,1,0,0:0:0:40:C_Short.wav
42,192,88457,1,4,0:0:0:0:
469,192,88457,1,2,0:0:0:0:
128,192,88776,1,2,0:0:0:0:
298,192,88776,1,0,0:0:0:40:Clap.wav
213,192,89095,1,2,0:0:0:0:
298,192,89414,1,2,0:0:0:0:
469,192,89414,1,0,0:0:0:40:Clap.wav
128,192,89734,1,2,0:0:0:0:
213,192,90053,1,2,0:0:0:0:
384,192,90053,1,0,0:0:0:40:Clap.wav
298,192,90372,128,2,90691:0:0:0:0:
128,192,90691,1,2,0:0:0:0:
213,192,90691,128,0,91010:0:0:0:40:Clap.wav
469,192,91010,1,2,0:0:0:0:
42,192,91329,1,2,0:0:0:0:
298,192,91329,1,0,0:0:0:40:Clap.wav
128,192,91649,1,2,0:0:0:0:
213,192,91968,1,2,0:0:0:0:
384,192,91968,1,0,0:0:0:40:Clap.wav
298,192,92287,128,2,92606:0:0:0:0:
42,192,92606,128,2,92925:0:0:0:0:
213,192,92606,1,0,0:0:0:40:Clap.wav
384,192,92925,128,2,93244:0:0:0:0:
128,192,93244,1,2,0:0:0:0:
298,192,93244,1,0,0:0:0:40:Clap.wav
213,192,93404,1,2,0:0:0:0:
469,192,93563,1,2,0:0:0:0:
213,192,93883,1,2,0:0:0:0:
384,192,93883,1,0,0:0:0:40:Clap.wav
298,192,94202,1,2,0:0:0:0:
42,192,94521,1,2,0:0:0:0:
213,192,94521,1,0,0:0:0:40:Clap.wav
469,192,94840,128,2,95159:0:0:0:0:
128,192,95159,128,2,95478:0:0:0:0:
298,192,95159,1,0,0:0:0:40:Clap.wav
384,192,95478,128,2,95797:0:0:0:0:
42,192,95797,128,2,96117:0:0:0:0:
213,192,95797,1,0,0:0:0:40:Clap.wav
298,192,96117,1,2,0:0:0:0:
128,192,96436,1,2,0:0:0:0:
384,192,96436,1,0,0:0:0:40:Clap.wav
213,192,96755,1,2,0:0:0:0:
298,192,97074,1,2,0:0:0:0:
384,192,97074,1,0,0:0:0:40:Clap.wav
42,192,97393,1,2,0:0:0:0:
469,192,97553,1,2,0:0:0:0:
128,192,97712,1,2,0:0:0:0:
298,192,97952,1,2,0:0:0:0:
384,192,97952,1,0,0:0:0:40:C_Short.wav
213,192,98191,1,2,0:0:0:0:
298,192,98351,1,2,0:0:0:0:
128,192,98510,1,2,0:0:0:0:
213,192,98670,1,2,0:0:0:0:
469,192,98670,1,4,0:0:0:0:
42,192,98989,1,2,0:0:0:0:
298,192,98989,1,0,0:0:0:40:Clap.wav
128,192,99308,1,2,0:0:0:0:
298,192,99627,1,2,0:0:0:0:
384,192,99627,1,0,0:0:0:40:Clap.wav
128,192,99946,1,2,0:0:0:0:
213,192,100266,1,2,0:0:0:0:
384,192,100266,1,0,0:0:0:40:Clap.wav
298,192,100585,128,2,100904:0:0:0:0:
42,192,100904,1,2,0:0:0:0:
213,192,100904,128,0,101223:0:0:0:40:Clap.wav
384,192,101223,1,2,0:0:0:0:
128,192,101542,1,2,0:0:0:0:
298,192,101542,1,0,0:0:0:40:Clap.wav
213,192,101861,1,2,0:0:0:0:
42,192,102180,1,2,0:0:0:0:
469,192,102180,1,0,0:0:0:40:Clap.wav
298,192,102500,1,2,0:0:0:0:
384,192,102500,128,4,102819:0:0:0:0:
128,192,102819,128,2,103138:0:0:0:0:
298,192,103138,1,2,0:0:0:0:
469,192,103138,128,0,103457:0:0:0:40:C_Short.wav
42,192,103457,128,2,103776:0:0:0:0:
213,192,103457,1,0,0:0:0:40:C_Short.wav
384,192,103776,1,6,0:0:0:0:
298,192,103936,1,0,0:0:0:20:Snare.wav
128,192,104095,1,2,0:0:0:0:
213,192,104255,1,0,0:0:0:20:Snare.wav
469,192,104414,1,2,0:0:0:0:
298,192,104654,1,2,0:0:0:0:
42,192,104893,1,2,0:0:0:0:
213,192,105053,1,2,0:0:0:0:
384,192,105053,1,0,0:0:0:40:C_Short.wav
128,192,105372,1,2,0:0:0:0:
298,192,105372,1,0,0:0:0:40:Clap.wav
213,192,105691,1,6,0:0:0:0:
469,192,105691,1,0,0:0:0:40:C_Short.wav
128,192,106010,1,2,0:0:0:0:
384,192,106010,1,0,0:0:0:40:C_Short.wav
42,192,106329,1,2,0:0:0:0:
469,192,106329,1,0,0:0:0:20:Snare.wav
298,192,106489,1,2,0:0:0:0:
128,192,106649,1,2,0:0:0:0:
384,192,106808,1,2,0:0:0:0:
42,192,106968,1,2,0:0:0:0:
213,192,106968,128,0,107287:0:0:0:30:C_Short2.wav
298,192,107287,128,2,107606:0:0:0:0:
469,192,107287,1,0,0:0:0:40:Clap.wav
128,192,107766,1,2,0:0:0:0:
213,192,107766,1,0,0:0:0:40:C_Short.wav
298,192,108085,1,2,0:0:0:0:
384,192,108085,1,0,0:0:0:40:C_Short.wav
42,192,108404,1,2,0:0:0:0:
469,192,108404,1,0,0:0:0:40:C_Short.wav
128,192,108563,128,0,108883:0:0:0:40:Kick.wav
384,192,108563,128,0,108883:0:0:0:0:
213,192,108883,1,4,0:0:0:0:
298,192,108883,1,2,0:0:0:0:
469,192,109042,1,0,0:0:0:0:
42,192,109361,1,0,0:0:0:0:
213,192,109521,1,4,0:0:0:0:
298,192,109521,1,2,0:0:0:0:
128,192,109760,1,0,0:0:0:0:
384,192,110000,1,0,0:0:0:0:
42,192,110159,1,2,0:0:0:0:
469,192,110159,1,0,0:0:0:40:C_Short.wav
213,192,110478,1,2,0:0:0:0:
298,192,110478,1,0,0:0:0:40:C_Short.wav
42,192,110718,128,2,111117:0:0:0:0:
469,192,110718,128,0,111117:0:0:0:40:C_Short.wav
213,192,111117,1,4,0:0:0:0:
298,192,111117,1,0,0:0:0:50:Clap.wav
