osu file format v14

[General]
AudioFilename: audio.mp3
AudioLeadIn: 0
PreviewTime: 105866
Countdown: 0
SampleSet: Soft
StackLeniency: 0.2
Mode: 0
LetterboxInBreaks: 0
WidescreenStoryboard: 1

[Editor]
Bookmarks: 786,1025,1345,1664,1903,2142,2302,2701,2940,3100,3419,3738,3818,3898,4935,5174,5414,5813,6052,6291,6371,6770,7089,7488,7728,7967,8366,9403,9483,9563,9722,9962,10281,10520,10839,11238,11557,12196,12754,13313,13951,14270,14908,15068,15228,15706,16345,17302,17462,17621,17861,18100,18419,19057,20494,24323,34536,44749,54962,60068,65174,75387,85600,95813,103472,106025,116238,126451,136664
DistanceSpacing: 1
BeatDivisor: 4
GridSize: 16
TimelineZoom: 2

[Metadata]
Title:Shanghai Kouchakan ~ Chinese Tea Orchid Remix (Extended ver.) (Cut Ver.)
TitleUnicode:上海紅茶館 ~ Chinese Tea Orchid Remix (Extended ver.) (Cut Ver.)
Artist:Yooh
ArtistUnicode:Yooh
Creator:Nytrocide_
Version:SLEEPY'S ADVANCED
Source:SOUND VOLTEX II -infinite infection-
Tags:electronic hardcore video rhythm game sdvx instrumental touhou project konami bemani 東方紅魔郷 ~ the Embodiment of Scarlet Devil 東方Project 華人小娘 Hong Meiling stage 3 上海アリス幻樂団 Team Shanghai Alice ULTIMATE TRACKS - 東方紅魔郷REMIX - Touhou Koumakyou eosd zun teahouse ratina0 sleepymateo -rik- spkz heyimjarvis
BeatmapID:2931853
BeatmapSetID:1420652

[Difficulty]
HPDrainRate:4.5
CircleSize:4
OverallDifficulty:7.5
ApproachRate:8.5
SliderMultiplier:1.4
SliderTickRate:1

[Events]
//Background and Video events
0,0,"chinese tea 4.jpg",0,0
//Break Periods
2,65374,74712
//Storyboard Layer 0 (Background)
//Storyboard Layer 1 (Fail)
//Storyboard Layer 2 (Pass)
//Storyboard Layer 3 (Foreground)
//Storyboard Layer 4 (Overlay)
//Storyboard Sound Samples

[TimingPoints]
20494,319.148936170213,4,2,1,70,1,0
21132,-117.647058823529,4,2,1,70,0,0
22249,-117.647058823529,4,2,1,70,0,0
22408,-117.647058823529,4,2,1,70,0,0
24482,-117.647058823529,4,2,1,70,0,0
24642,-117.647058823529,4,2,1,70,0,0
25121,-117.647058823529,4,2,1,70,0,0
25281,-117.647058823529,4,2,1,70,0,0
25440,-117.647058823529,4,2,1,70,0,0
25600,-117.647058823529,4,2,1,70,0,0
25759,-117.647058823529,4,2,1,70,0,0
25919,-117.647058823529,4,2,1,70,0,0
26397,-117.647058823529,4,2,1,70,0,0
26557,-117.647058823529,4,2,1,70,0,0
27035,-117.647058823529,4,2,1,70,0,0
27196,-117.647058823529,4,2,1,70,0,0
27674,-117.647058823529,4,2,1,70,0,0
27834,-117.647058823529,4,2,1,70,0,0
27993,-117.647058823529,4,2,1,70,0,0
28153,-117.647058823529,4,2,1,70,0,0
29589,-117.647058823529,4,2,1,70,0,0
29749,-117.647058823529,4,2,1,70,0,0
29908,-117.647058823529,4,2,1,70,0,0
30068,-117.647058823529,4,2,1,70,0,0
30546,-117.647058823529,4,2,1,70,0,0
30706,-117.647058823529,4,2,1,70,0,0
30865,-117.647058823529,4,2,1,70,0,0
31025,-117.647058823529,4,2,1,70,0,0
31184,-117.647058823529,4,2,1,70,0,0
31345,-117.647058823529,4,2,1,70,0,0
32142,-117.647058823529,4,2,1,70,0,0
32302,-117.647058823529,4,2,1,70,0,0
32461,-117.647058823529,4,2,1,70,0,0
32621,-117.647058823529,4,2,1,70,0,0
33099,-117.647058823529,4,2,1,70,0,0
33259,-117.647058823529,4,2,1,70,0,0
34536,-117.647058823529,4,2,2,70,0,0
35333,-117.647058823529,4,2,2,70,0,0
35494,-117.647058823529,4,2,2,70,0,0
36291,-117.647058823529,4,2,2,70,0,0
36371,-117.647058823529,4,2,2,70,0,0
36610,-117.647058823529,4,2,2,70,0,0
36770,-117.647058823529,4,2,2,70,0,0
37248,-117.647058823529,4,2,2,70,0,0
37329,-117.647058823529,4,2,2,70,0,0
37887,-117.647058823529,4,2,2,70,0,0
37967,-117.647058823529,4,2,2,70,0,0
38366,-117.647058823529,4,2,1,70,0,0
39642,-117.647058823529,4,2,2,70,0,0
39801,-117.647058823529,4,2,2,70,0,0
39882,-117.647058823529,4,2,2,70,0,0
40440,-117.647058823529,4,2,2,70,0,0
40520,-117.647058823529,4,2,2,70,0,0
40919,-100,4,2,2,70,0,0
41078,-100,4,2,2,70,0,0
41238,-100,4,2,2,70,0,0
41397,-100,4,2,2,70,0,0
41557,-100,4,2,2,70,0,0
41716,-100,4,2,2,70,0,0
41876,-100,4,2,2,70,0,0
42035,-100,4,2,2,70,0,0
42196,-100,4,2,2,70,0,0
44749,-100,4,2,2,80,0,1
44908,-100,4,2,2,80,0,1
45068,-100,4,2,2,80,0,1
45546,-100,4,2,2,80,0,1
45626,-100,4,2,2,80,0,1
46184,-100,4,2,2,80,0,1
46345,-100,4,2,2,80,0,1
46504,-100,4,2,2,80,0,1
46664,-100,4,2,2,80,0,1
46823,-100,4,2,2,80,0,1
46984,-100,4,2,2,80,0,1
47461,-100,4,2,2,80,0,1
47621,-100,4,2,2,80,0,1
48099,-100,4,2,2,80,0,1
48180,-100,4,2,2,80,0,1
50014,-100,4,2,2,80,0,1
50174,-100,4,2,2,80,0,1
50653,-100,4,2,2,80,0,1
50733,-100,4,2,2,80,0,1
51291,-100,4,2,2,80,0,1
51451,-100,4,2,2,80,0,1
51610,-100,4,2,2,80,0,1
51770,-100,4,2,2,80,0,1
51929,-100,4,2,2,80,0,1
52089,-100,4,2,2,80,0,1
52567,-100,4,2,2,80,0,1
52648,-100,4,2,2,80,0,1
53206,-100,4,2,2,80,0,1
53366,-100,4,2,2,80,0,1
53525,-100,4,2,2,80,0,1
53685,-100,4,2,2,80,0,1
55121,-100,4,2,2,80,0,1
55281,-100,4,2,2,80,0,1
55759,-100,4,2,2,80,0,1
55839,-100,4,2,2,80,0,1
56397,-100,4,2,2,80,0,1
56557,-100,4,2,2,80,0,1
56716,-100,4,2,2,80,0,1
56876,-100,4,2,2,80,0,1
57035,-100,4,2,2,80,0,1
57195,-100,4,2,2,80,0,1
57674,-100,4,2,2,80,0,1
57834,-100,4,2,2,80,0,1
58312,-100,4,2,2,80,0,1
58392,-100,4,2,2,80,0,1
60865,-100,4,2,2,80,0,1
60946,-100,4,2,2,80,0,1
62142,-100,4,2,2,80,0,1
62302,-100,4,2,2,80,0,1
62461,-100,4,2,2,80,0,1
62621,-100,4,2,2,80,0,1
65174,-100,4,2,1,50,0,0
75387,-166.666666666667,4,2,1,50,0,0
85600,-166.666666666667,4,2,2,60,0,0
95813,-117.647058823529,4,2,2,70,0,0
96929,-117.647058823529,4,2,2,70,0,0
97089,-117.647058823529,4,2,2,70,0,0
100440,-117.647058823529,4,2,2,70,0,0
100600,-117.647058823529,4,2,2,70,0,0
100759,-117.647058823529,4,2,2,70,0,0
100919,-100,4,2,2,70,0,0
106025,-86.9565217391304,4,2,2,80,0,1
106184,-86.9565217391304,4,2,2,80,0,1
106265,-86.9565217391304,4,2,2,80,0,1
107780,-86.9565217391304,4,2,2,80,0,1
107861,-86.9565217391304,4,2,2,80,0,1
108738,-86.9565217391304,4,2,2,80,0,1
108818,-86.9565217391304,4,2,2,80,0,1
109376,-86.9565217391304,4,2,2,80,0,1
109456,-86.9565217391304,4,2,2,80,0,1
109855,-86.9565217391304,4,2,1,80,0,1
111132,-86.9565217391304,4,2,2,80,0,1
111291,-86.9565217391304,4,2,2,80,0,1
111371,-86.9565217391304,4,2,2,80,0,1
111929,-86.9565217391304,4,2,2,80,0,1
112009,-86.9565217391304,4,2,2,80,0,1
112408,-74.0740740740741,4,2,2,80,0,1
112567,-74.0740740740741,4,2,2,80,0,1
112728,-74.0740740740741,4,2,2,80,0,1
112887,-74.0740740740741,4,2,2,80,0,1
113047,-74.0740740740741,4,2,2,80,0,1
113206,-74.0740740740741,4,2,2,80,0,1
113367,-74.0740740740741,4,2,2,80,0,1
113685,-86.9565217391304,4,2,2,80,0,1
114482,-86.9565217391304,4,2,2,80,0,1
114563,-86.9565217391304,4,2,2,80,0,1
116397,-86.9565217391304,4,2,2,80,0,1
116478,-86.9565217391304,4,2,2,80,0,1
117993,-86.9565217391304,4,2,2,80,0,1
118073,-86.9565217391304,4,2,2,80,0,1
118950,-86.9565217391304,4,2,2,80,0,1
119031,-86.9565217391304,4,2,2,80,0,1
119589,-86.9565217391304,4,2,2,80,0,1
119669,-86.9565217391304,4,2,2,80,0,1
120068,-86.9565217391304,4,2,1,80,0,1
121345,-86.9565217391304,4,2,2,80,0,1
121504,-86.9565217391304,4,2,2,80,0,1
121584,-86.9565217391304,4,2,2,80,0,1
122142,-86.9565217391304,4,2,2,80,0,1
122222,-86.9565217391304,4,2,2,80,0,1
122780,-86.9565217391304,4,2,2,80,0,1
122861,-86.9565217391304,4,2,2,80,0,1
125174,-74.0740740740741,4,2,2,80,0,1
126451,-86.9565217391304,4,2,2,80,0,1
126610,-86.9565217391304,4,2,2,80,0,1
126690,-86.9565217391304,4,2,2,80,0,1
128206,-86.9565217391304,4,2,2,80,0,1
128286,-86.9565217391304,4,2,2,80,0,1
129163,-86.9565217391304,4,2,2,80,0,1
129244,-86.9565217391304,4,2,2,80,0,1
129801,-86.9565217391304,4,2,2,80,0,1
129882,-86.9565217391304,4,2,2,80,0,1
130281,-86.9565217391304,4,2,1,80,0,1
131557,-86.9565217391304,4,2,2,80,0,1
131716,-86.9565217391304,4,2,2,80,0,1
131797,-86.9565217391304,4,2,2,80,0,1
132355,-86.9565217391304,4,2,2,80,0,1
132435,-86.9565217391304,4,2,2,80,0,1
132834,-74.0740740740741,4,2,2,80,0,1
132993,-74.0740740740741,4,2,2,80,0,1
133153,-74.0740740740741,4,2,2,80,0,1
133312,-74.0740740740741,4,2,2,80,0,1
133472,-74.0740740740741,4,2,2,80,0,1
133631,-74.0740740740741,4,2,2,80,0,1
133791,-74.0740740740741,4,2,2,80,0,1
134111,-86.9565217391304,4,2,2,80,0,1
134908,-86.9565217391304,4,2,2,80,0,1
134988,-86.9565217391304,4,2,2,80,0,1
136823,-86.9565217391304,4,2,2,80,0,1
136903,-86.9565217391304,4,2,2,80,0,1
137461,-86.9565217391304,4,2,2,80,0,1
137541,-86.9565217391304,4,2,2,80,0,1
138418,-86.9565217391304,4,2,2,80,0,1
138499,-86.9565217391304,4,2,2,80,0,1
139376,-86.9565217391304,4,2,2,80,0,1
139456,-86.9565217391304,4,2,2,80,0,1
140014,-86.9565217391304,4,2,2,80,0,1
140095,-86.9565217391304,4,2,2,80,0,1
140494,-86.9565217391304,4,2,1,80,0,1
141770,-86.9565217391304,4,2,2,90,0,1
141929,-86.9565217391304,4,2,2,90,0,1
142009,-86.9565217391304,4,2,2,90,0,1
142567,-86.9565217391304,4,2,2,90,0,1
142648,-86.9565217391304,4,2,2,90,0,1
143206,-86.9565217391304,4,2,2,90,0,1
143286,-86.9565217391304,4,2,2,90,0,1
145600,-74.0740740740741,4,2,2,90,0,1
146557,-86.9565217391304,4,2,2,90,0,0

[Colours]
Combo1 : 255,156,23
Combo2 : 204,98,47
Combo3 : 224,204,58
Combo4 : 225,58,17

[HitObjects]
394,292,21132,6,0,L|439:297,2,29.7500005674362
312,239,21451,2,0,L|267:244,2,29.7500005674362
396,167,21770,5,12,1:0:0:0:
396,167,21930,2,0,P|359:129|290:128,1,119.000002269745
180,161,22408,2,0,L|73:146,2,89.2500017023087,12|0|0,1:0|0:0|0:0,0:0:0:0:
245,252,23047,1,12,1:0:0:0:
245,252,23366,6,0,B|208:283|208:283|170:248,1,89.2500017023087,8|8,1:0|1:0,0:0:0:0:
55,295,23845,2,0,L|17:297,2,29.7500005674362,8|0|8,0:0|0:0|1:0,0:0:0:0:
190,360,24323,6,0,P|229:358|264:337,1,59.5000011348725,12|0,1:0|0:0,0:0:0:0:
277,272,24642,1,8,0:0:0:0:
356,246,24802,1,0,0:0:0:0:
420,298,24962,2,0,P|424:331|442:369,1,59.5000011348725,8|0,1:0|0:0,0:0:0:0:
508,294,25281,2,0,L|514:220,1,59.5000011348725,8|0,0:0|0:0,0:0:0:0:
507,151,25600,6,0,P|475:127|436:115,1,59.5000011348725,8|0,1:0|0:0,0:0:0:0:
375,102,25919,1,8,0:0:0:0:
301,140,26079,1,0,0:0:0:0:
229,182,26238,2,0,L|243:259,1,59.5000011348725,8|0,1:0|0:0,0:0:0:0:
148,174,26557,2,0,P|157:144|180:116,1,59.5000011348725,8|8,0:0|1:0,0:0:0:0:
211,53,26797,1,0,0:0:0:0:
229,72,26876,6,0,P|261:82|288:81,1,59.5000011348725,8|0,1:0|0:0,0:0:0:0:
354,32,27196,1,8,0:0:0:0:
434,53,27355,1,0,0:0:0:0:
482,121,27515,2,0,L|480:191,1,59.5000011348725,8|0,1:0|0:0,0:0:0:0:
446,256,27834,2,0,P|410:235|391:205,1,59.5000011348725,8|0,0:0|0:0,0:0:0:0:
321,156,28153,5,10,1:0:0:0:
255,241,28313,1,2,0:0:0:0:
177,167,28472,2,0,L|171:99,1,59.5000011348725,10|2,0:0|0:0,0:0:0:0:
47,254,28791,5,10,1:0:0:0:
134,192,28951,1,2,0:0:0:0:
236,262,29111,2,0,L|233:338,1,59.5000011348725,10|10,0:0|1:0,0:0:0:0:
162,377,29350,1,0,0:0:0:0:
144,359,29430,6,0,P|116:348|81:355,1,59.5000011348725,8|0,1:0|0:0,0:0:0:0:
4,346,29749,2,0,P|14:310|40:281,1,59.5000011348725,8|0,0:0|0:0,0:0:0:0:
80,228,30068,1,8,1:0:0:0:
149,274,30228,1,0,0:0:0:0:
229,252,30387,2,0,L|237:190,1,59.5000011348725,8|0,0:0|0:0,0:0:0:0:
260,112,30706,6,0,P|296:118|324:141,1,59.5000011348725,8|0,1:0|0:0,0:0:0:0:
401,136,31025,2,0,P|394:99|371:71,1,59.5000011348725,8|0,0:0|0:0,0:0:0:0:
334,12,31345,1,8,1:0:0:0:
254,35,31504,1,0,0:0:0:0:
171,19,31664,2,0,L|102:30,1,59.5000011348725,8|8,0:0|1:0,0:0:0:0:
34,27,31903,1,0,0:0:0:0:
24,44,31983,6,0,P|23:85|34:115,1,59.5000011348725,8|0,1:0|0:0,0:0:0:0:
64,176,32302,2,0,P|91:156|109:126,1,59.5000011348725,8|0,0:0|0:0,0:0:0:0:
172,76,32621,1,8,1:0:0:0:
230,143,32781,1,0,0:0:0:0:
308,100,32940,2,0,L|381:90,1,59.5000011348725,8|0,0:0|0:0,0:0:0:0:
464,48,33259,5,10,1:0:0:0:
504,147,33419,1,2,0:0:0:0:
419,213,33579,2,0,L|343:213,1,59.5000011348725,10|2,0:0|0:0,0:0:0:0:
291,129,33898,5,10,1:0:0:0:
227,214,34057,1,2,0:0:0:0:
294,297,34217,2,0,L|375:307,1,59.5000011348725,10|10,0:0|1:0,0:0:0:0:
430,304,34456,1,0,0:0:0:0:
447,332,34536,6,0,L|454:368,2,29.7500005674362,12|0|0,1:0|0:0|0:0,0:0:0:0:
509,260,34855,2,0,P|494:231|458:200,1,59.5000011348725,8|2,0:0|0:0,0:0:0:0:
347,201,35174,2,0,P|361:232|398:265,1,59.5000011348725,10|0,1:0|0:0,0:0:0:0:
430,145,35494,1,10,0:0:0:0:
430,145,35653,1,0,0:0:0:0:
355,85,35813,6,0,L|274:98,1,59.5000011348725,10|2,1:0|0:0,0:0:0:0:
262,127,36052,1,0,0:0:0:0:
262,127,36132,2,0,L|181:110,1,59.5000011348725,10|0,0:0|0:0,0:0:0:0:
172,85,36371,1,2,0:0:0:0:
172,85,36451,2,0,L|100:95,1,59.5000011348725,8|0,1:0|0:0,0:0:0:0:
37,43,36770,1,8,0:0:0:0:
37,43,36930,1,8,1:0:0:0:
4,143,37089,6,0,P|37:163|78:164,1,59.5000011348725,10|0,1:0|0:0,0:0:0:0:
85,211,37329,1,2,0:0:0:0:
85,211,37408,2,0,P|122:229|165:228,1,59.5000011348725,8|2,0:0|0:0,0:0:0:0:
203,158,37728,2,0,P|241:151|279:162,1,59.5000011348725,10|0,1:0|0:0,0:0:0:0:
285,201,37967,1,2,0:0:0:0:
285,201,38047,2,0,P|321:205|364:193,1,59.5000011348725,8|2,0:0|0:0,0:0:0:0:
416,99,38366,5,10,1:0:0:0:
490,175,38525,1,2,0:0:0:0:
406,90,38685,2,0,L|330:85,1,59.5000011348725,10|2,0:0|0:0,0:0:0:0:
237,41,39004,5,10,1:0:0:0:
160,126,39164,1,2,0:0:0:0:
240,31,39323,2,0,L|311:29,1,59.5000011348725,10|10,0:0|1:0,0:0:0:0:
376,13,39563,1,0,0:0:0:0:
390,34,39642,6,0,P|385:70|404:102,1,59.5000011348725,14|0,1:0|0:0,0:0:0:0:
441,113,39882,1,2,0:0:0:0:
441,113,39962,2,0,L|446:187,1,59.5000011348725,0|2,0:0|0:0,0:0:0:0:
380,265,40281,2,0,P|356:240|348:202,1,59.5000011348725,2|0,0:0|0:0,0:0:0:0:
313,192,40520,1,2,0:0:0:0:
313,192,40600,2,0,L|318:109,1,59.5000011348725,8|2,1:0|0:0,0:0:0:0:
245,45,40919,6,0,P|212:49|163:36,1,70,14|0,1:0|0:0,0:0:0:0:
86,81,41238,2,0,P|89:114|77:163,1,70,2|0,0:0|0:0,0:0:0:0:
191,243,41557,6,0,P|157:236|123:239,1,70,14|0,1:0|0:0,0:0:0:0:
283,207,41876,2,0,P|279:173|291:124,1,70,10|0,1:0|0:0,0:0:0:0:
368,296,42196,5,14,1:0:0:0:
368,296,42355,2,0,L|294:303,1,70,10|8,1:0|0:0,0:0:0:0:
208,379,42674,1,10,1:0:0:0:
208,379,42754,1,0,0:0:0:0:
208,379,42834,2,0,P|175:354|157:325,1,70,14|8,1:0|1:0,0:0:0:0:
162,289,43073,1,2,0:0:0:0:
162,289,43153,2,0,L|155:211,1,70,8|2,0:0|0:0,0:0:0:0:
62,150,43472,5,14,1:0:0:0:
55,162,43791,5,10,1:0:0:0:
50,175,44111,6,0,B|27:207|27:207|59:229,1,70,8|8,1:0|1:0,0:0:0:0:
57,266,44350,1,8,1:0:0:0:
57,266,44430,1,8,0:0:0:0:
255,361,44749,6,0,P|291:333|325:323,1,70,14|0,1:0|0:0,0:0:0:0:
385,269,45068,1,10,0:0:0:0:
434,345,45228,1,0,0:0:0:0:
500,283,45387,2,0,L|509:200,1,70,10|0,1:0|0:0,0:0:0:0:
476,187,45626,1,2,0:0:0:0:
476,187,45706,2,0,P|442:175|409:127,1,70,8|2,0:0|0:0,0:0:0:0:
362,78,46025,6,0,L|276:87,1,70,10|0,1:0|0:0,0:0:0:0:
197,42,46345,2,0,L|181:116,1,70,10|0,0:0|0:0,0:0:0:0:
302,176,46664,6,0,L|216:185,1,70,10|0,1:0|0:0,0:0:0:0:
137,140,46984,2,0,L|121:214,1,70,10|8,0:0|1:0,0:0:0:0:
92,241,47222,1,0,0:0:0:0:
92,241,47302,6,0,P|98:275|124:311,1,70,10|0,1:0|0:0,0:0:0:0:
206,284,47621,1,10,0:0:0:0:
244,366,47781,1,0,0:0:0:0:
311,305,47940,2,0,L|380:315,1,70,10|0,1:0|0:0,0:0:0:0:
414,354,48180,1,2,0:0:0:0:
414,354,48259,2,0,P|452:335|471:308,1,70,8|2,0:0|0:0,0:0:0:0:
490,224,48579,5,10,1:0:0:0:
445,136,48738,1,2,0:0:0:0:
384,258,48898,5,10,0:0:0:0:
498,243,49057,1,2,0:0:0:0:
434,132,49217,6,0,B|349:139|373:91|287:107,1,140,10|8,1:0|0:0,0:0:0:0:
222,172,49696,1,8,1:0:0:0:
222,172,49775,1,0,0:0:0:0:
222,172,49855,6,0,P|177:149|149:111,1,70,10|0,1:0|0:0,0:0:0:0:
182,46,50174,1,10,0:0:0:0:
94,19,50334,1,0,0:0:0:0:
13,61,50494,2,0,L|11:134,1,70,10|0,1:0|0:0,0:0:0:0:
37,174,50733,1,2,0:0:0:0:
37,174,50813,2,0,P|73:182|103:207,1,70,8|2,0:0|0:0,0:0:0:0:
168,261,51132,6,0,L|156:356,1,70,10|0,1:0|0:0,0:0:0:0:
249,345,51451,2,0,L|328:335,1,70,10|0,0:0|0:0,0:0:0:0:
208,175,51770,6,0,L|196:270,1,70,10|0,1:0|0:0,0:0:0:0:
289,259,52089,2,0,L|368:249,1,70,10|8,0:0|1:0,0:0:0:0:
396,223,52329,1,0,0:0:0:0:
396,223,52408,6,0,P|437:236|461:262,1,70,10|0,1:0|0:0,0:0:0:0:
504,248,52648,1,2,0:0:0:0:
504,248,52728,2,0,L|515:153,1,70,8|2,0:0|0:0,0:0:0:0:
502,87,53047,2,0,P|461:82|420:93,1,70,10|0,1:0|0:0,0:0:0:0:
356,137,53366,2,0,P|321:122|296:94,1,70,10|0,0:0|0:0,0:0:0:0:
242,19,53685,5,10,1:0:0:0:
206,110,53845,1,2,0:0:0:0:
101,55,54004,5,10,0:0:0:0:
173,121,54164,1,2,0:0:0:0:
91,203,54323,6,0,L|-5:200,1,70,10|8,1:0|1:0,0:0:0:0:
127,288,54642,2,0,P|158:266|179:228,1,70,8|8,0:0|1:0,0:0:0:0:
250,181,54882,1,0,0:0:0:0:
263,204,54962,6,0,P|298:223|335:227,1,70,14|0,1:0|0:0,0:0:0:0:
415,188,55281,1,10,0:0:0:0:
501,242,55440,1,0,0:0:0:0:
460,331,55600,2,0,L|380:341,1,70,10|0,1:0|0:0,0:0:0:0:
347,329,55839,1,2,0:0:0:0:
347,329,55919,2,0,P|304:324|264:338,1,70,8|2,0:0|0:0,0:0:0:0:
161,362,56238,6,0,L|137:276,1,70,10|0,1:0|0:0,0:0:0:0:
103,206,56557,2,0,L|177:214,1,70,10|0,0:0|0:0,0:0:0:0:
268,297,56876,6,0,L|244:211,1,70,10|0,1:0|0:0,0:0:0:0:
210,141,57195,2,0,L|284:149,1,70,10|8,0:0|1:0,0:0:0:0:
331,166,57435,1,0,0:0:0:0:
331,166,57515,6,0,P|357:139|375:103,1,70,10|0,1:0|0:0,0:0:0:0:
356,21,57834,1,10,0:0:0:0:
271,55,57994,1,0,0:0:0:0:
193,7,58153,2,0,L|106:22,1,70,10|0,1:0|0:0,0:0:0:0:
83,10,58392,1,2,0:0:0:0:
83,10,58472,2,0,P|57:41|49:88,1,70,8|2,0:0|0:0,0:0:0:0:
103,155,58791,5,10,1:0:0:0:
12,193,58951,1,2,0:0:0:0:
47,305,59111,5,10,0:0:0:0:
24,209,59270,1,2,0:0:0:0:
113,168,59430,6,0,B|156:193|156:193|256:171,1,140,10|8,1:0|0:0,0:0:0:0:
338,191,59908,1,8,1:0:0:0:
338,191,59988,1,0,0:0:0:0:
338,191,60068,6,0,L|347:228,3,35,14|0|0|0,1:0|0:0|0:0|0:0,0:0:0:0:
379,236,60387,2,0,L|373:291,3,35,2|0|0|0,0:0|0:0|0:0|0:0,0:0:0:0:
358,301,60706,2,0,L|277:311,1,70,2|0,0:0|0:0,0:0:0:0:
258,323,60946,1,2,0:0:0:0:
258,323,61025,2,0,P|220:302|198:260,1,70,8|2,1:0|0:0,0:0:0:0:
187,149,61345,5,14,1:0:0:0:
56,169,61504,1,2,0:0:0:0:
179,170,61664,5,2,0:0:0:0:
113,274,61823,1,2,0:0:0:0:
42,156,61983,6,0,P|46:117|70:75,1,70,14|0,1:0|0:0,0:0:0:0:
148,13,62302,2,0,P|166:51|171:99,1,70,14|0,1:0|0:0,0:0:0:0:
176,186,62621,6,0,L|247:187,1,70,14|8,1:0|1:0,0:0:0:0:
287,149,62861,1,2,0:0:0:0:
287,149,62940,1,8,0:0:0:0:
360,233,63100,1,10,1:0:0:0:
468,206,63259,6,0,L|475:126,1,70,14|8,1:0|1:0,0:0:0:0:
512,93,63499,1,2,0:0:0:0:
512,93,63579,1,8,0:0:0:0:
430,16,63738,1,10,1:0:0:0:
323,50,63898,6,0,L|318:86,3,35,14|8|8|8,1:0|1:0|1:0|1:0,0:0:0:0:
354,105,64217,2,0,L|360:143,3,35,10|8|10|8,1:0|1:0|1:0|1:0,0:0:0:0:
337,175,64536,2,0,L|257:188,1,70,10|8,1:0|1:0,0:0:0:0:
188,157,64855,2,0,L|185:136,8,17.5,8|8|8|8|8|8|8|8|14,1:0|1:0|1:0|1:0|1:0|1:0|1:0|1:0|1:0,0:0:0:0:
251,257,75387,6,0,B|156:230|189:296|82:265,1,167.999994873047,2|0,0:0|0:0,0:0:0:0:
16,206,76345,1,2,0:0:0:0:
91,140,76664,2,0,P|135:136|175:112,1,83.9999974365235,2|0,0:0|0:0,0:0:0:0:
290,119,77302,2,0,L|304:21,1,83.9999974365235,2|0,0:0|0:0,0:0:0:0:
177,0,77940,1,2,0:0:0:0:
447,164,79855,1,2,0:0:0:0:
332,168,80174,1,2,0:0:0:0:
378,68,80494,6,0,P|457:81|476:164,1,167.999994873047,2|0,0:0|0:0,0:0:0:0:
469,278,81451,1,2,0:0:0:0:
360,269,81770,2,0,P|316:259|267:263,1,83.9999974365235,2|0,0:0|0:0,0:0:0:0:
158,330,82408,2,0,L|89:349,2,62.9999980773926,2|2|2,0:0|0:0|0:0,0:0:0:0:
258,355,83047,1,2,0:0:0:0:
258,355,84164,2,0,L|261:324,2,20.9999993591309,2|2|2,0:0|0:0|0:0,0:0:0:0:
229,145,84962,1,2,0:0:0:0:
324,103,85281,1,2,0:0:0:0:
209,51,85600,6,0,B|149:19|149:19|202:215,1,251.999992309571,6|2,0:0|0:0,0:0:0:0:
246,313,86876,2,0,B|290:273|290:273|404:302,1,167.999994873047,2|2,0:0|0:0,0:0:0:0:
395,299,88153,1,2,0:0:0:0:
112,294,90068,2,0,L|14:287,1,83.9999974365235,2|2,0:0|0:0,0:0:0:0:
172,194,90706,2,0,B|242:174|228:225|305:201,1,125.999996154785,2|0,0:0|0:0,0:0:0:0:
373,158,91345,1,0,0:0:0:0:
461,181,91504,2,0,P|484:175|518:160,2,41.9999987182618,2|2|2,0:0|0:0|0:0,0:0:0:0:
491,343,92462,2,0,B|461:314|461:314|362:334,1,125.999996154785,2|2,0:0|0:0,0:0:0:0:
280,306,93259,1,2,0:0:0:0:
187,219,95174,2,0,L|182:313,1,83.9999974365235,2|2,0:0|0:0,0:0:0:0:
77,376,95813,6,0,P|12:339|2:298,1,119.000002269745,14|8,1:0|0:0,0:0:0:0:
11,211,96291,1,0,0:0:0:0:
89,253,96451,2,0,L|157:238,1,59.5000011348725,8|8,1:0|1:0,0:0:0:0:
203,309,96770,2,0,P|242:310|276:286,1,59.5000011348725,10|0,0:0|0:0,0:0:0:0:
334,252,97089,6,0,L|349:132,1,119.000002269745,10|8,1:0|0:0,0:0:0:0:
343,44,97568,1,0,0:0:0:0:
267,91,97728,2,0,P|233:96|187:90,1,59.5000011348725,10|8,1:0|1:0,0:0:0:0:
159,19,98047,2,0,L|93:13,1,59.5000011348725,8|8,0:0|1:0,0:0:0:0:
16,46,98366,6,0,L|30:174,1,119.000002269745,10|8,1:0|0:0,0:0:0:0:
56,249,98845,1,0,0:0:0:0:
134,289,99004,2,0,P|163:284|205:294,1,59.5000011348725,8|8,1:0|1:0,0:0:0:0:
257,350,99323,2,0,L|339:344,1,59.5000011348725,8|8,0:0|1:0,0:0:0:0:
402,369,99642,6,0,P|406:324|464:272,1,119.000002269745,8|8,1:0|0:0,0:0:0:0:
512,204,100121,1,0,0:0:0:0:
436,156,100281,2,0,L|442:86,1,59.5000011348725,10|0,1:0|0:0,0:0:0:0:
388,24,100600,2,0,P|350:32|320:30,1,59.5000011348725,10|0,0:0|0:0,0:0:0:0:
224,20,100919,6,0,P|186:23|151:45,1,70,14|8,1:0|1:0,0:0:0:0:
94,138,101238,1,8,0:0:0:0:
94,138,101398,1,8,1:0:0:0:
212,134,101557,2,0,P|249:136|284:158,1,70,8|8,1:0|1:0,0:0:0:0:
354,242,101876,1,10,0:0:0:0:
354,242,102036,1,8,1:0:0:0:
268,325,102196,6,0,L|180:312,1,70,14|8,1:0|1:0,0:0:0:0:
95,254,102515,1,8,0:0:0:0:
95,254,102674,1,8,1:0:0:0:
192,185,102834,2,0,L|184:109,1,70,10|8,1:0|1:0,0:0:0:0:
221,78,103073,1,2,0:0:0:0:
221,78,103153,2,0,L|215:37,3,35,8|0|10|0,0:0|0:0|1:0|0:0,0:0:0:0:
174,10,103472,5,6,0:0:0:0:
274,147,104111,1,12,1:0:0:0:
186,237,104589,2,0,L|192:284,2,35,2|2|14,0:0|0:0|1:0,0:0:0:0:
113,166,105068,5,8,1:0:0:0:
107,174,105387,6,0,L|98:255,1,70,12|8,1:0|1:0,0:0:0:0:
63,282,105626,1,8,1:0:0:0:
63,282,105706,1,8,0:0:0:0:
320,346,106025,6,0,P|294:313|248:296,1,80.5000015354157,14|0,1:0|0:0,0:0:0:0:
204,282,106265,1,2,0:0:0:0:
204,282,106345,2,0,P|193:239|204:197,1,80.5000015354157,8|2,0:0|0:0,0:0:0:0:
324,120,106664,2,0,L|459:111,2,120.750002303124,10|2|2,1:0|0:0|0:0,0:0:0:0:
190,175,107302,6,0,L|107:167,1,80.5000015354157,10|2,1:0|0:0,0:0:0:0:
106,35,107621,2,0,L|186:42,1,80.5000015354157,10|0,0:0|0:0,0:0:0:0:
267,30,107861,1,2,0:0:0:0:
267,30,107940,2,0,B|232:54|232:54|249:182,1,161.000003070831,10|8,1:0|0:0,0:0:0:0:
157,243,108419,1,8,1:0:0:0:
267,365,108579,6,0,P|284:327|275:277,1,80.5000015354157,10|0,1:0|0:0,0:0:0:0:
260,271,108818,1,2,0:0:0:0:
260,271,108898,1,8,0:0:0:0:
360,346,109057,1,2,0:0:0:0:
453,255,109217,2,0,P|408:235|360:242,1,80.5000015354157,10|0,1:0|0:0,0:0:0:0:
357,234,109456,1,2,0:0:0:0:
357,234,109536,2,0,L|366:139,1,80.5000015354157,8|2,0:0|0:0,0:0:0:0:
424,38,109855,5,10,1:0:0:0:
474,124,110015,1,2,0:0:0:0:
318,67,110174,2,0,L|204:83,1,80.5000015354157,10|2,0:0|0:0,0:0:0:0:
118,185,110494,5,10,1:0:0:0:
212,169,110653,1,2,0:0:0:0:
78,89,110813,2,0,L|89:-3,1,80.5000015354157,10|10,0:0|1:0,0:0:0:0:
118,185,111132,6,0,P|73:188|29:170,1,80.5000015354157,10|0,1:0|0:0,0:0:0:0:
5,198,111371,1,2,0:0:0:0:
5,198,111451,2,0,L|-1:282,1,80.5000015354157,8|2,0:0|0:0,0:0:0:0:
111,356,111770,2,0,P|156:353|200:371,1,80.5000015354157,10|0,1:0|0:0,0:0:0:0:
224,343,112009,1,2,0:0:0:0:
224,343,112089,2,0,L|230:259,1,80.5000015354157,8|2,0:0|0:0,0:0:0:0:
356,210,112408,6,0,P|332:170|277:151,1,94.5000003604889,10|0,1:0|0:0,0:0:0:0:
243,48,112728,2,0,P|200:66|177:106,1,94.5000003604889,10|0,0:0|0:0,0:0:0:0:
372,103,113047,6,0,P|325:103|281:141,1,94.5000003604889,10|0,1:0|0:0,0:0:0:0:
175,119,113367,2,0,P|169:165|191:205,1,94.5000003604889,10|8,0:0|1:0,0:0:0:0:
311,312,113685,5,10,1:0:0:0:
311,312,113845,2,0,L|322:217,1,80.5000015354157,2|8,0:0|0:0,0:0:0:0:
211,297,114164,1,2,0:0:0:0:
211,297,114244,1,2,0:0:0:0:
211,297,114323,2,0,P|160:293|115:311,1,80.5000015354157,10|0,1:0|0:0,0:0:0:0:
83,319,114563,1,2,0:0:0:0:
83,319,114642,2,0,P|43:287|28:253,1,80.5000015354157,8|2,0:0|0:0,0:0:0:0:
77,117,114962,5,10,1:0:0:0:
4,182,115121,1,2,0:0:0:0:
121,227,115281,2,0,L|227:231,1,80.5000015354157,10|2,0:0|0:0,0:0:0:0:
251,214,115520,1,2,0:0:0:0:
251,214,115600,2,0,P|266:171|296:140,1,80.5000015354157,8|8,1:0|1:0,0:0:0:0:
357,51,115919,2,0,P|328:35|269:41,1,80.5000015354157,8|8,0:0|1:0,0:0:0:0:
220,76,116158,1,0,0:0:0:0:
203,59,116238,6,0,L|116:40,1,80.5000015354157,14|0,1:0|0:0,0:0:0:0:
85,29,116478,1,2,0:0:0:0:
85,29,116557,2,0,P|51:60|40:106,1,80.5000015354157,8|2,0:0|0:0,0:0:0:0:
21,225,116876,2,0,L|39:352,2,120.750002303124,8|2|2,1:0|0:0|0:0,0:0:0:0:
104,118,117515,6,0,L|209:99,1,80.5000015354157,10|2,1:0|0:0,0:0:0:0:
270,188,117834,2,0,L|190:202,1,80.5000015354157,10|0,0:0|0:0,0:0:0:0:
138,254,118073,1,2,0:0:0:0:
138,254,118153,2,0,P|225:261|265:330,1,161.000003070831,8|8,1:0|0:0,0:0:0:0:
351,370,118632,1,8,1:0:0:0:
465,343,118791,6,0,L|456:241,1,80.5000015354157,10|0,1:0|0:0,0:0:0:0:
481,235,119031,1,2,0:0:0:0:
481,235,119111,1,8,0:0:0:0:
361,263,119270,1,2,0:0:0:0:
371,123,119430,2,0,L|362:21,1,80.5000015354157,10|0,1:0|0:0,0:0:0:0:
337,11,119669,1,2,0:0:0:0:
337,11,119749,2,0,P|315:39|268:54,1,80.5000015354157,8|2,0:0|0:0,0:0:0:0:
104,83,120068,5,10,1:0:0:0:
177,6,120228,1,2,0:0:0:0:
220,132,120387,2,0,L|208:224,1,80.5000015354157,10|2,0:0|0:0,0:0:0:0:
120,348,120706,5,10,1:0:0:0:
78,247,120866,1,2,0:0:0:0:
224,311,121025,2,0,P|263:306|309:314,1,80.5000015354157,10|10,0:0|1:0,0:0:0:0:
470,355,121345,6,0,P|490:321|454:314,1,80.5000015354157,14|0,1:0|0:0,0:0:0:0:
429,281,121584,1,2,0:0:0:0:
429,281,121664,2,0,L|419:192,1,80.5000015354157,8|2,0:0|0:0,0:0:0:0:
407,72,121983,6,0,P|371:92|343:71,1,80.5000015354157,10|0,1:0|0:0,0:0:0:0:
300,42,122222,1,2,0:0:0:0:
285,53,122302,2,0,P|238:58|178:42,1,80.5000015354157,8|2,0:0|0:0,0:0:0:0:
24,45,122621,6,0,P|-3:59|20:106,1,80.5000015354157,14|0,1:0|0:0,0:0:0:0:
40,158,122861,1,2,0:0:0:0:
67,148,122940,2,0,L|168:157,1,80.5000015354157,8|2,0:0|0:0,0:0:0:0:
283,198,123259,5,8,1:0:0:0:
283,198,123419,2,0,P|305:158|314:114,2,80.5000015354157,2|10|8,0:0|0:0|1:0,0:0:0:0:
220,346,123898,5,14,1:0:0:0:
317,290,124057,1,0,0:0:0:0:
196,232,124217,2,0,L|102:220,1,80.5000015354157,8|10,0:0|1:0,0:0:0:0:
4,249,124536,5,14,1:0:0:0:
31,136,124696,1,0,0:0:0:0:
31,136,124775,1,2,0:0:0:0:
31,136,124855,2,0,L|116:131,1,80.5000015354157,8|10,0:0|1:0,0:0:0:0:
217,43,125174,5,12,1:0:0:0:
217,43,125334,2,0,P|252:81|254:129,1,94.5000003604889,8|12,0:0|1:0,0:0:0:0:
189,210,125653,1,8,0:0:0:0:
325,265,125813,2,0,B|361:261|361:261|414:237|414:237|452:251|452:251|507:245,1,189.000000720978,12|8,1:0|0:0,0:0:0:0:
492,117,126291,1,8,1:0:0:0:
492,117,126371,1,8,1:0:0:0:
492,117,126451,6,0,P|435:127|404:153,1,80.5000015354157,14|0,1:0|0:0,0:0:0:0:
379,139,126690,1,2,0:0:0:0:
379,139,126770,2,0,L|286:146,1,80.5000015354157,8|2,0:0|0:0,0:0:0:0:
152,195,127089,2,0,P|155:254|214:314,2,120.750002303124,10|2|2,1:0|0:0|0:0,0:0:0:0:
214,100,127728,6,0,L|229:1,1,80.5000015354157,10|2,1:0|0:0,0:0:0:0:
103,17,128047,2,0,L|90:96,1,80.5000015354157,10|0,0:0|0:0,0:0:0:0:
37,159,128286,1,2,0:0:0:0:
37,159,128366,2,0,B|71:130|71:130|198:173,1,161.000003070831,10|8,1:0|0:0,0:0:0:0:
282,235,128845,1,8,1:0:0:0:
300,135,129004,6,0,L|382:119,1,80.5000015354157,10|0,1:0|0:0,0:0:0:0:
414,147,129244,1,2,0:0:0:0:
414,147,129323,1,8,0:0:0:0:
454,57,129483,1,2,0:0:0:0:
512,238,129642,2,0,L|420:223,1,80.5000015354157,10|0,1:0|0:0,0:0:0:0:
405,243,129882,1,2,0:0:0:0:
405,243,129962,2,0,L|395:334,1,80.5000015354157,8|2,0:0|0:0,0:0:0:0:
209,333,130281,5,10,1:0:0:0:
312,377,130440,1,2,0:0:0:0:
295,256,130600,2,0,P|261:218|222:200,1,80.5000015354157,10|2,0:0|0:0,0:0:0:0:
56,209,130919,5,10,1:0:0:0:
151,281,131078,1,2,0:0:0:0:
142,160,131238,2,0,P|176:122|214:104,1,80.5000015354157,10|10,0:0|1:0,0:0:0:0:
124,6,131557,6,0,L|22:-2,1,80.5000015354157,10|0,1:0|0:0,0:0:0:0:
4,26,131797,1,2,0:0:0:0:
4,26,131876,2,0,P|10:66|-3:125,1,80.5000015354157,8|2,0:0|0:0,0:0:0:0:
23,235,132196,2,0,L|116:227,1,80.5000015354157,10|0,1:0|0:0,0:0:0:0:
145,203,132435,1,2,0:0:0:0:
145,203,132515,2,0,P|153:164|139:102,1,80.5000015354157,8|2,0:0|0:0,0:0:0:0:
203,21,132834,6,0,P|239:26|276:76,1,94.5000003604889,10|0,1:0|0:0,0:0:0:0:
412,123,133153,2,0,P|378:109|321:134,1,94.5000003604889,10|0,0:0|0:0,0:0:0:0:
172,167,133472,6,0,P|205:153|262:178,1,94.5000003604889,10|0,1:0|0:0,0:0:0:0:
403,150,133791,2,0,P|367:155|330:205,1,94.5000003604889,10|8,0:0|1:0,0:0:0:0:
288,353,134111,5,10,1:0:0:0:
288,353,134270,2,0,L|367:372,1,80.5000015354157,2|8,0:0|0:0,0:0:0:0:
298,270,134589,1,2,0:0:0:0:
298,270,134669,1,2,0:0:0:0:
298,270,134749,2,0,P|252:274|212:317,1,80.5000015354157,10|0,1:0|0:0,0:0:0:0:
193,327,134988,1,2,0:0:0:0:
193,327,135068,2,0,L|106:318,1,80.5000015354157,8|2,0:0|0:0,0:0:0:0:
44,195,135387,5,10,1:0:0:0:
7,292,135547,1,2,0:0:0:0:
140,241,135706,2,0,L|236:234,1,80.5000015354157,10|2,0:0|0:0,0:0:0:0:
258,219,135946,1,2,0:0:0:0:
258,219,136025,2,0,P|253:173|269:134,1,80.5000015354157,8|8,1:0|1:0,0:0:0:0:
347,70,136345,2,0,P|317:60|267:64,1,80.5000015354157,8|8,0:0|1:0,0:0:0:0:
217,12,136584,1,0,0:0:0:0:
201,27,136664,6,0,L|98:21,1,80.5000015354157,14|0,1:0|0:0,0:0:0:0:
88,11,136903,1,2,0:0:0:0:
88,11,136983,2,0,P|66:44|65:89,1,80.5000015354157,8|2,0:0|0:0,0:0:0:0:
9,184,137302,2,0,L|89:178,1,80.5000015354157,8|0,1:0|0:0,0:0:0:0:
122,153,137541,1,2,0:0:0:0:
122,153,137621,1,8,0:0:0:0:
185,219,137781,1,2,0:0:0:0:
151,334,137940,6,0,P|106:328|60:346,1,80.5000015354157,10|2,1:0|0:0,0:0:0:0:
237,287,138259,2,0,P|282:293|328:275,1,80.5000015354157,10|0,0:0|0:0,0:0:0:0:
378,339,138499,1,2,0:0:0:0:
378,339,138579,2,0,P|358:287|443:218,1,161.000003070831,8|8,1:0|0:0,0:0:0:0:
512,261,139057,1,8,1:0:0:0:
474,143,139217,6,0,L|483:38,1,80.5000015354157,14|0,1:0|0:0,0:0:0:0:
512,31,139456,1,2,0:0:0:0:
512,31,139536,1,8,0:0:0:0:
423,1,139696,1,2,0:0:0:0:
327,138,139855,2,0,L|334:39,1,80.5000015354157,10|0,1:0|0:0,0:0:0:0:
311,31,140095,1,2,0:0:0:0:
311,31,140174,2,0,P|274:11|236:5,1,80.5000015354157,8|2,0:0|0:0,0:0:0:0:
119,104,140494,5,14,1:0:0:0:
138,18,140653,1,2,0:0:0:0:
194,165,140813,2,0,L|182:254,1,80.5000015354157,10|2,0:0|0:0,0:0:0:0:
63,350,141132,5,14,1:0:0:0:
15,264,141291,1,2,0:0:0:0:
163,344,141451,2,0,L|251:339,1,80.5000015354157,10|10,0:0|1:0,0:0:0:0:
346,183,141770,6,0,P|383:171|387:212,1,80.5000015354157,14|0,1:0|0:0,0:0:0:0:
434,229,142009,1,2,0:0:0:0:
434,229,142089,2,0,P|444:274|436:317,1,80.5000015354157,8|2,0:0|0:0,0:0:0:0:
289,275,142408,6,0,P|271:249|232:270,1,80.5000015354157,14|0,1:0|0:0,0:0:0:0:
191,295,142648,1,2,0:0:0:0:
182,287,142728,2,0,L|97:279,1,80.5000015354157,8|2,0:0|0:0,0:0:0:0:
17,99,143047,6,0,P|-3:138|33:171,1,80.5000015354157,14|0,1:0|0:0,0:0:0:0:
71,190,143286,1,2,0:0:0:0:
90,169,143366,2,0,L|190:157,1,80.5000015354157,8|2,0:0|0:0,0:0:0:0:
286,102,143685,5,12,1:0:0:0:
286,102,143845,2,0,P|280:58|288:17,2,80.5000015354157,2|10|8,0:0|0:0|1:0,0:0:0:0:
342,154,144244,1,0,0:0:0:0:
360,146,144323,5,14,1:0:0:0:
251,227,144483,1,0,0:0:0:0:
330,330,144642,2,0,L|418:339,1,80.5000015354157,12|10,0:0|1:0,0:0:0:0:
449,290,144882,1,0,0:0:0:0:
436,266,144962,2,0,L|444:206,3,40.2500007677078,14|8|8|10,1:0|1:0|1:0|1:0,0:0:0:0:
427,187,145281,2,0,L|420:134,3,40.2500007677078,12|8|10|8,0:0|1:0|1:0|1:0,0:0:0:0:
444,98,145600,5,12,1:0:0:0:
444,98,145759,2,0,P|431:57|383:69,1,94.5000003604889,12|8,0:0|1:0,0:0:0:0:
324,139,146079,1,12,0:0:0:0:
215,55,146238,2,0,B|243:20|243:20|228:184,1,189.000000720978,12|8,1:0|0:0,0:0:0:0:
229,163,146876,5,12,1:0:0:0:
